  0
SECTION
  2
HEADER
  9
$ACADVER
  1
AC1009
  9
$INSBASE
 10
0.0
 20
0.0
 30
0.0
  9
$EXTMIN
 10
-108.722307903477
 20
-17.067963763539971
 30
0.0
  9
$EXTMAX
 10
92.326195811972099
 20
54.253137833713062
 30
0.0
  9
$LIMMIN
 10
0.0
 20
0.0
  9
$LIMMAX
 10
12.0
 20
9.0
  9
$ORTHOMODE
 70
     1
  9
$REGENMODE
 70
     1
  9
$FILLMODE
 70
     1
  9
$QTEXTMODE
 70
     0
  9
$MIRRTEXT
 70
     1
  9
$DRAGMODE
 70
     2
  9
$LTSCALE
 40
1.0
  9
$OSMODE
 70
     1
  9
$ATTMODE
 70
     1
  9
$TEXTSIZE
 40
0.2
  9
$TRACEWID
 40
0.05
  9
$TEXTSTYLE
  7
STANDARD
  9
$CLAYER
  8
0
  9
$CELTYPE
  6
CONTINUOUS
  9
$CECOLOR
 62
   256
  9
$DIMSCALE
 40
96.0
  9
$DIMASZ
 40
1.8
  9
$DIMEXO
 40
0.625
  9
$DIMDLI
 40
3.7999999999999989
  9
$DIMRND
 40
0.0
  9
$DIMDLE
 40
0.0
  9
$DIMEXE
 40
1.8
  9
$DIMTP
 40
0.0
  9
$DIMTM
 40
0.0
  9
$DIMTXT
 40
3.0
  9
$DIMCEN
 40
0.9
  9
$DIMTSZ
 40
0.0
  9
$DIMTOL
 70
     0
  9
$DIMLIM
 70
     0
  9
$DIMTIH
 70
     0
  9
$DIMTOH
 70
     0
  9
$DIMSE1
 70
     0
  9
$DIMSE2
 70
     0
  9
$DIMTAD
 70
     1
  9
$DIMZIN
 70
    12
  9
$DIMBLK
  1
OBLIQUE
  9
$DIMASO
 70
     1
  9
$DIMSHO
 70
     1
  9
$DIMPOST
  1

  9
$DIMAPOST
  1

  9
$DIMALT
 70
     0
  9
$DIMALTD
 70
     2
  9
$DIMALTF
 40
25.399999999999999
  9
$DIMLFAC
 40
1.0
  9
$DIMTOFL
 70
     0
  9
$DIMTVP
 40
0.0
  9
$DIMTIX
 70
     0
  9
$DIMSOXD
 70
     0
  9
$DIMSAH
 70
     0
  9
$DIMBLK1
  1

  9
$DIMBLK2
  1

  9
$DIMSTYLE
  2
COTATION-JACOB-DELAFON
  9
$DIMCLRD
 70
     0
  9
$DIMCLRE
 70
     0
  9
$DIMCLRT
 70
     0
  9
$DIMTFAC
 40
1.0
  9
$DIMGAP
 40
0.9
  9
$LUNITS
 70
     2
  9
$LUPREC
 70
     4
  9
$SKETCHINC
 40
0.1
  9
$FILLETRAD
 40
0.0
  9
$AUNITS
 70
     0
  9
$AUPREC
 70
     2
  9
$MENU
  1
.
  9
$ELEVATION
 40
0.0
  9
$PELEVATION
 40
0.0
  9
$THICKNESS
 40
0.0
  9
$LIMCHECK
 70
     0
  9
$BLIPMODE
 70
     0
  9
$CHAMFERA
 40
0.0
  9
$CHAMFERB
 40
0.0
  9
$SKPOLY
 70
     0
  9
$TDCREATE
 40
2453040.4309214
  9
$TDUPDATE
 40
2453076.5710201962
  9
$TDINDWG
 40
0.0740139468
  9
$TDUSRTIMER
 40
0.0740139468
  9
$USRTIMER
 70
     1
  9
$ANGBASE
 50
0.0
  9
$ANGDIR
 70
     0
  9
$PDMODE
 70
     0
  9
$PDSIZE
 40
0.0
  9
$PLINEWID
 40
0.0
  9
$COORDS
 70
     1
  9
$SPLFRAME
 70
     0
  9
$SPLINETYPE
 70
     6
  9
$SPLINESEGS
 70
     8
  9
$ATTDIA
 70
     1
  9
$ATTREQ
 70
     1
  9
$HANDLING
 70
 22529
  9
$HANDSEED
  5
32C
  9
$SURFTAB1
 70
     6
  9
$SURFTAB2
 70
     6
  9
$SURFTYPE
 70
     6
  9
$SURFU
 70
     6
  9
$SURFV
 70
     6
  9
$UCSNAME
  2

  9
$UCSORG
 10
0.0
 20
0.0
 30
0.0
  9
$UCSXDIR
 10
1.0
 20
0.0
 30
0.0
  9
$UCSYDIR
 10
0.0
 20
1.0
 30
0.0
  9
$PUCSNAME
  2

  9
$PUCSORG
 10
0.0
 20
0.0
 30
0.0
  9
$PUCSXDIR
 10
1.0
 20
0.0
 30
0.0
  9
$PUCSYDIR
 10
0.0
 20
1.0
 30
0.0
  9
$USERI1
 70
     0
  9
$USERI2
 70
     0
  9
$USERI3
 70
     0
  9
$USERI4
 70
     0
  9
$USERI5
 70
     0
  9
$USERR1
 40
0.0
  9
$USERR2
 40
0.0
  9
$USERR3
 40
0.0
  9
$USERR4
 40
0.0
  9
$USERR5
 40
0.0
  9
$WORLDVIEW
 70
     1
  9
$SHADEDGE
 70
     3
  9
$SHADEDIF
 70
    70
  9
$TILEMODE
 70
     1
  9
$MAXACTVP
 70
    64
  9
$PLIMCHECK
 70
     0
  9
$PEXTMIN
 10
-1.0632977390648071
 20
-0.9686579706321367
 30
0.0
  9
$PEXTMAX
 10
1063.866055066585
 20
620.64611596859572
 30
0.0
  9
$PLIMMIN
 10
-0.1979161059762549
 20
-0.2679166643638311
  9
$PLIMMAX
 10
11.493750144177531
 20
7.9987497780266699
  9
$UNITMODE
 70
     0
  9
$VISRETAIN
 70
     1
  9
$PLINEGEN
 70
     0
  9
$PSLTSCALE
 70
     1
  0
ENDSEC
  0
SECTION
  2
TABLES
  0
TABLE
  2
VPORT
 70
     2
  0
VPORT
  2
*ACTIVE
 70
     0
 10
0.0
 20
0.0
 11
1.0
 21
1.0
 12
-2.6475442295598981
 22
18.591819423906149
 13
0.0
 23
0.0
 14
1.0
 24
1.0
 15
0.0
 25
0.0
 16
0.0
 26
0.0
 36
1.0
 17
0.0
 27
0.0
 37
0.0
 40
110.7034453478301
 41
1.928853754940711
 42
50.0
 43
0.0
 44
0.0
 50
0.0
 51
0.0
 71
     0
 72
   100
 73
     1
 74
     1
 75
     0
 76
     0
 77
     0
 78
     0
  0
ENDTAB
  0
TABLE
  2
LTYPE
 70
     1
  0
LTYPE
  2
CONTINUOUS
 70
     0
  3
Solid line
 72
    65
 73
     0
 40
0.0
  0
ENDTAB
  0
TABLE
  2
LAYER
 70
     3
  0
LAYER
  2
0
 70
     0
 62
     7
  6
CONTINUOUS
  0
LAYER
  2
DEFPOINTS
 70
     0
 62
     7
  6
CONTINUOUS
  0
LAYER
  2
COTATION-JACOBDELAFON
 70
     0
 62
     8
  6
CONTINUOUS
  0
ENDTAB
  0
TABLE
  2
STYLE
 70
     2
  0
STYLE
  2
STANDARD
 70
     0
 40
0.0
 41
1.0
 50
0.0
 71
     0
 42
0.2
  3
txt
  4

  0
STYLE
  2
JACOB-DELAFON
 70
     0
 40
0.0
 41
1.0
 50
0.0
 71
     0
 42
2.5
  3
txt
  4

  0
ENDTAB
  0
TABLE
  2
VIEW
 70
     0
  0
ENDTAB
  0
TABLE
  2
UCS
 70
     0
  0
ENDTAB
  0
TABLE
  2
APPID
 70
     5
  0
APPID
  2
ACAD
 70
     0
  0
APPID
  2
ADCADD_ZZ
 70
     0
  0
APPID
  2
SDSK_PMN
 70
     0
  0
APPID
  2
AEC_DWGVARSSETUP_DATA
 70
     0
  0
APPID
  2
AEC_DISPREPSET_DATA
 70
     0
  0
ENDTAB
  0
TABLE
  2
DIMSTYLE
 70
     2
  0
DIMSTYLE
  2
STANDARD
 70
     0
  3

  4

  5

  6

  7

 40
1.0
 41
0.18
 42
0.0625
 43
0.38
 44
0.18
 45
0.0
 46
0.0
 47
0.0
 48
0.0
140
0.18
141
0.09
142
0.0
143
25.399999999999999
144
1.0
145
0.0
146
1.0
147
0.09
 71
     0
 72
     0
 73
     1
 74
     1
 75
     0
 76
     0
 77
     0
 78
     0
170
     0
171
     2
172
     0
173
     0
174
     0
175
     0
176
     0
177
     0
178
     0
  0
DIMSTYLE
  2
COTATION-JACOB-DELAFON
 70
     0
  3

  4

  5
OBLIQUE
  6

  7

 40
1.0
 41
1.8
 42
0.625
 43
3.7999999999999989
 44
1.8
 45
0.0
 46
0.0
 47
0.0
 48
0.0
140
3.0
141
0.9
142
0.0
143
25.399999999999999
144
1.0
145
0.0
146
1.0
147
0.9
 71
     0
 72
     0
 73
     0
 74
     0
 75
     0
 76
     0
 77
     1
 78
    12
170
     0
171
     2
172
     0
173
     0
174
     0
175
     0
176
     0
177
     0
178
     0
  0
ENDTAB
  0
ENDSEC
  0
SECTION
  2
BLOCKS
  0
BLOCK
  8
0
  2
$MODEL_SPACE
 70
     0
 10
0.0
 20
0.0
 30
0.0
  3
$MODEL_SPACE
  1

  0
ENDBLK
  5
9
  8
0
  0
BLOCK
 67
     1
  8
0
  2
$PAPER_SPACE
 70
     0
 10
0.0
 20
0.0
 30
0.0
  3
$PAPER_SPACE
  1

  0
ENDBLK
  5
E
 67
     1
  8
0
  0
BLOCK
  8
0
  2
*D0
 70
     1
 10
0.0
 20
0.0
 30
0.0
  3
*D0
  1

  0
LINE
  5
127
  8
COTATION-JACOBDELAFON
 62
     0
 10
-98.788438129678283
 20
41.524305243184131
 30
0.0
 11
-98.788438129678283
 21
51.301841790056848
 31
0.0
  0
LINE
  5
128
  8
COTATION-JACOBDELAFON
 62
     0
 10
91.426195811972093
 20
41.524305243184131
 30
0.0
 11
91.426195811972093
 21
51.301841790056848
 31
0.0
  0
LINE
  5
129
  8
COTATION-JACOBDELAFON
 62
     0
 10
-98.788438129678283
 20
49.501841790056851
 30
0.0
 11
91.426195811972093
 21
49.501841790056851
 31
0.0
  0
INSERT
  5
12A
  8
COTATION-JACOBDELAFON
 62
     0
  2
_OBLIQUE
 10
-98.788438129678283
 20
49.501841790056851
 30
0.0
 41
1.8
 42
1.8
 43
1.8
 50
180.0
  0
INSERT
  5
12B
  8
COTATION-JACOBDELAFON
 62
     0
  2
_OBLIQUE
 10
91.426195811972093
 20
49.501841790056851
 30
0.0
 41
1.8
 42
1.8
 43
1.8
  0
TEXT
  5
12C
  8
0
  6
CONTINUOUS
 62
     0
 10
-9.0426491261109465
 20
50.459140562226033
 30
0.0
 40
3.0
  1
190.2
  7
JACOB-DELAFON
  0
POINT
  5
12D
  8
DEFPOINTS
 62
     0
 10
-98.788438129678283
 20
40.899305243184131
 30
0.0
  0
POINT
  5
12E
  8
DEFPOINTS
 62
     0
 10
91.426195811972093
 20
40.899305243184131
 30
0.0
  0
POINT
  5
12F
  8
DEFPOINTS
 62
     0
 10
91.426195811972093
 20
49.501841790056851
 30
0.0
  0
ENDBLK
  5
41
  8
0
  0
BLOCK
  8
0
  2
_OBLIQUE
 70
     0
 10
0.0
 20
0.0
 30
0.0
  3
_OBLIQUE
  1

  0
LINE
  5
43
  8
0
  6
BYBLOCK
 62
     0
 10
-0.5
 20
-0.5
 30
0.0
 11
0.5
 21
0.5
 31
0.0
  0
ENDBLK
  5
45
  8
0
  0
BLOCK
  8
0
  2
*D2
 70
     1
 10
0.0
 20
0.0
 30
0.0
  3
*D2
  1

  0
LINE
  5
11E
  8
COTATION-JACOBDELAFON
 62
     0
 10
-99.254078367536522
 20
41.932036236460007
 30
0.0
 11
-105.822171477829
 21
41.932036236460007
 31
0.0
  0
LINE
  5
11F
  8
COTATION-JACOBDELAFON
 62
     0
 10
-9.9295533688716091
 20
-0.0679637635399784
 30
0.0
 11
-105.822171477829
 21
-0.0679637635399512
 31
0.0
  0
LINE
  5
120
  8
COTATION-JACOBDELAFON
 62
     0
 10
-104.022171477829
 20
41.932036236460007
 30
0.0
 11
-104.022171477829
 21
-0.0679637635399518
 31
0.0
  0
INSERT
  5
121
  8
COTATION-JACOBDELAFON
 62
     0
  2
_OBLIQUE
 10
-104.022171477829
 20
41.932036236460007
 30
0.0
 41
1.8
 42
1.8
 43
1.8
 50
90.0
  0
INSERT
  5
122
  8
COTATION-JACOBDELAFON
 62
     0
  2
_OBLIQUE
 10
-104.022171477829
 20
-0.0679637635399518
 30
0.0
 41
1.8
 42
1.8
 43
1.8
 50
270.0
  0
TEXT
  5
123
  8
0
  6
CONTINUOUS
 62
     0
 10
-104.92831063199
 20
18.68510581354051
 30
0.0
 40
3.0
  1
42
 50
90.0
  7
JACOB-DELAFON
  0
POINT
  5
124
  8
DEFPOINTS
 62
     0
 10
-98.629078367536522
 20
41.932036236460007
 30
0.0
  0
POINT
  5
125
  8
DEFPOINTS
 62
     0
 10
-9.3045533688716091
 20
-0.0679637635399786
 30
0.0
  0
POINT
  5
126
  8
DEFPOINTS
 62
     0
 10
-104.022171477829
 20
-0.0679637635399518
 30
0.0
  0
ENDBLK
  5
EB
  8
0
  0
BLOCK
  8
0
  2
ADCADD_ZZ
 70
     0
 10
0.0
 20
0.0
 30
0.0
  3
ADCADD_ZZ
  1

  0
ENDBLK
  5
16F
  8
0
  0
ENDSEC
  0
SECTION
  2
ENTITIES
  0
POLYLINE
  5
24
  8
0
  6
CONTINUOUS
 66
     1
 10
0.0
 20
0.0
 30
0.0
  0
VERTEX
  5
2C5
  8
0
  6
CONTINUOUS
 10
-41.20917505872864
 20
38.845183209116271
 30
0.0
  0
VERTEX
  5
2C6
  8
0
  6
CONTINUOUS
 10
-40.060887623086501
 20
37.947203472788139
 30
0.0
  0
VERTEX
  5
2C7
  8
0
  6
CONTINUOUS
 10
-38.578651237740928
 20
37.279631451303771
 30
0.0
  0
VERTEX
  5
2C8
  8
0
  6
CONTINUOUS
 10
-35.800216484322959
 20
36.486174420053771
 30
0.0
  0
VERTEX
  5
2C9
  8
0
  6
CONTINUOUS
 10
-33.763108539834427
 20
36.322905377085021
 30
0.0
  0
VERTEX
  5
2CA
  8
0
  6
CONTINUOUS
 10
-30.625537920251411
 20
36.345793560678878
 30
0.0
  0
VERTEX
  5
2CB
  8
0
  6
CONTINUOUS
 10
-30.625537920251411
 20
36.345793560678878
 30
0.0
  0
VERTEX
  5
2CC
  8
0
  6
CONTINUOUS
 10
-26.98421864534907
 20
36.36944468372576
 30
0.0
  0
VERTEX
  5
2CD
  8
0
  6
CONTINUOUS
 10
-23.868844795480289
 20
36.419035748178771
 30
0.0
  0
VERTEX
  5
2CE
  8
0
  6
CONTINUOUS
 10
-18.887136268868971
 20
36.469389752085021
 30
0.0
  0
VERTEX
  5
2CF
  8
0
  6
CONTINUOUS
 10
-9.846852112069655
 20
36.462523297006889
 30
0.0
  0
VERTEX
  5
2D0
  8
0
  6
CONTINUOUS
 10
-8.2783439638762957
 20
36.466337994272521
 30
0.0
  0
VERTEX
  5
2D1
  8
0
  6
CONTINUOUS
 10
-4.8889019968657967
 20
36.466337994272521
 30
0.0
  0
VERTEX
  5
2D2
  8
0
  6
CONTINUOUS
 10
-1.0268190386443621
 20
36.469389752085021
 30
0.0
  0
VERTEX
  5
2D3
  8
0
  6
CONTINUOUS
 10
3.2402059552521218
 20
36.462523297006889
 30
0.0
  0
VERTEX
  5
2D4
  8
0
  6
CONTINUOUS
 10
10.19659252141423
 20
37.263609722788139
 30
0.0
  0
VERTEX
  5
2D5
  8
0
  6
CONTINUOUS
 10
14.076759528860521
 20
37.671782330210021
 30
0.0
  0
VERTEX
  5
2D6
  8
0
  6
CONTINUOUS
 10
21.442672404544162
 20
38.845183209116271
 30
0.0
  0
SEQEND
  5
2D7
  8
0
  6
CONTINUOUS
  0
LINE
  5
25
  8
0
  6
CONTINUOUS
 10
-64.125070858254844
 20
4.2212818419287714
 30
0.0
 11
64.266349982962197
 21
4.5752857481787714
 31
0.0
  0
POLYLINE
  5
26
  8
0
  6
CONTINUOUS
 66
     1
 10
0.0
 20
0.0
 30
0.0
  0
VERTEX
  5
2D8
  8
0
  6
CONTINUOUS
 10
-76.018566591291673
 20
38.845183209116271
 30
0.0
  0
VERTEX
  5
2D9
  8
0
  6
CONTINUOUS
 10
-64.125070858254944
 20
4.2212818419286569
 30
0.0
  0
VERTEX
  5
2DA
  8
0
  6
CONTINUOUS
 10
-62.225500631585639
 20
2.999815777475646
 30
0.0
  0
VERTEX
  5
2DB
  8
0
  6
CONTINUOUS
 10
-59.770921755090278
 20
2.069792584116271
 30
0.0
  0
VERTEX
  5
2DC
  8
0
  6
CONTINUOUS
 10
-57.409892368569892
 20
1.477751568491271
 30
0.0
  0
VERTEX
  5
2DD
  8
0
  6
CONTINUOUS
 10
-55.784962463632148
 20
1.268706158335021
 30
0.0
  0
VERTEX
  5
2DE
  8
0
  6
CONTINUOUS
 10
-54.249195146813911
 20
1.272520855600646
 30
0.0
  0
VERTEX
  5
2DF
  8
0
  6
CONTINUOUS
 10
-10.2047183993011
 20
1.267180279428771
 30
0.0
  0
VERTEX
  5
2E0
  8
0
  6
CONTINUOUS
 10
-7.8375318529754159
 20
1.267180279428771
 30
0.0
  0
VERTEX
  5
2E1
  8
0
  6
CONTINUOUS
 10
-3.6709764483123299
 20
1.267180279428771
 30
0.0
  0
SEQEND
  5
2E2
  8
0
  6
CONTINUOUS
  0
POLYLINE
  5
27
  8
0
  6
CONTINUOUS
 66
     1
 10
0.0
 20
0.0
 30
0.0
  0
VERTEX
  5
2E3
  8
0
  6
CONTINUOUS
 10
-43.897599235043337
 20
38.845183209116271
 30
0.0
  0
VERTEX
  5
2E4
  8
0
  6
CONTINUOUS
 10
-43.209491062417548
 20
4.2289112364600214
 30
0.0
  0
VERTEX
  5
2E5
  8
0
  6
CONTINUOUS
 10
-43.07620315577082
 20
3.007445172006896
 30
0.0
  0
VERTEX
  5
2E6
  8
0
  6
CONTINUOUS
 10
-42.91109232927851
 20
2.077421978647521
 30
0.0
  0
VERTEX
  5
2E7
  8
0
  6
CONTINUOUS
 10
-42.417106914773512
 20
1.2679432188817821
 30
0.0
  0
SEQEND
  5
2E8
  8
0
  6
CONTINUOUS
  0
POLYLINE
  5
28
  8
0
  6
CONTINUOUS
 66
     1
 10
0.0
 20
0.0
 30
0.0
  0
VERTEX
  5
2E9
  8
0
  6
CONTINUOUS
 10
-10.2047183993011
 20
1.267180279428771
 30
0.0
  0
VERTEX
  5
2EA
  8
0
  6
CONTINUOUS
 10
-9.9012234690337664
 20
1.071104839975646
 30
0.0
  0
VERTEX
  5
2EB
  8
0
  6
CONTINUOUS
 10
-9.2779138567595965
 20
0.1036976134131464
 30
0.0
  0
VERTEX
  5
2EC
  8
0
  6
CONTINUOUS
 10
-8.9807131769805437
 20
-0.0679637635399786
 30
0.0
  0
VERTEX
  5
2ED
  8
0
  6
CONTINUOUS
 10
-8.2470872881559671
 20
-0.0679637635399786
 30
0.0
  0
VERTEX
  5
2EE
  8
0
  6
CONTINUOUS
 10
-1.2296894076018809
 20
-0.2022411072899786
 30
0.0
  0
VERTEX
  5
2EF
  8
0
  6
CONTINUOUS
 10
1.2296894076018809
 20
-0.0666797911475214
 30
0.0
  0
VERTEX
  5
2F0
  8
0
  6
CONTINUOUS
 10
5.6764027592987532
 20
-0.0679637635399786
 30
0.0
  0
VERTEX
  5
2F1
  8
0
  6
CONTINUOUS
 10
9.2204234120697492
 20
-0.0656749451806036
 30
0.0
  0
VERTEX
  5
2F2
  8
0
  6
CONTINUOUS
 10
12.27611513112492
 20
-0.0679637635399786
 30
0.0
  0
VERTEX
  5
2F3
  8
0
  6
CONTINUOUS
 10
13.79102678273625
 20
-0.0679637635399786
 30
0.0
  0
VERTEX
  5
2F4
  8
0
  6
CONTINUOUS
 10
19.78955478642888
 20
-0.0679637635399786
 30
0.0
  0
VERTEX
  5
2F5
  8
0
  6
CONTINUOUS
 10
21.534766864523359
 20
-0.0679637635399786
 30
0.0
  0
VERTEX
  5
2F6
  8
0
  6
CONTINUOUS
 10
29.568197440847818
 20
-0.0679637635399786
 30
0.0
  0
VERTEX
  5
2F7
  8
0
  6
CONTINUOUS
 10
34.229232978567552
 20
-0.0679637635399786
 30
0.0
  0
VERTEX
  5
2F8
  8
0
  6
CONTINUOUS
 10
36.025788497671549
 20
-0.0679637635399786
 30
0.0
  0
VERTEX
  5
2F9
  8
0
  6
CONTINUOUS
 10
40.860345077261393
 20
-0.0679637635399786
 30
0.0
  0
VERTEX
  5
2FA
  8
0
  6
CONTINUOUS
 10
59.358682346090738
 20
-0.0679637635399786
 30
0.0
  0
VERTEX
  5
2FB
  8
0
  6
CONTINUOUS
 10
59.656157207235758
 20
-0.0115062440087286
 30
0.0
  0
VERTEX
  5
2FC
  8
0
  6
CONTINUOUS
 10
60.211243343100023
 20
0.1189564024756464
 30
0.0
  0
VERTEX
  5
2FD
  8
0
  6
CONTINUOUS
 10
60.770775985464518
 20
0.2578113829443964
 30
0.0
  0
VERTEX
  5
2FE
  8
0
  6
CONTINUOUS
 10
61.846210670217943
 20
0.7140491759131465
 30
0.0
  0
VERTEX
  5
2FF
  8
0
  6
CONTINUOUS
 10
62.869467448934977
 20
1.447996929819396
 30
0.0
  0
VERTEX
  5
300
  8
0
  6
CONTINUOUS
 10
63.720967483267252
 20
2.675566509897521
 30
0.0
  0
VERTEX
  5
301
  8
0
  6
CONTINUOUS
 10
64.266349982962197
 20
4.5752857481787714
 30
0.0
  0
VERTEX
  5
302
  8
0
  6
CONTINUOUS
 10
67.769629480557114
 20
38.845183209116271
 30
0.0
  0
SEQEND
  5
303
  8
0
  6
CONTINUOUS
  0
POLYLINE
  5
29
  8
0
  6
CONTINUOUS
 66
     1
 10
0.0
 20
0.0
 30
0.0
 70
     1
  0
VERTEX
  5
304
  8
0
  6
CONTINUOUS
 10
-98.788438129678283
 20
38.845183209116271
 30
0.0
  0
VERTEX
  5
305
  8
0
  6
CONTINUOUS
 10
-98.788438129678283
 20
41.056944683725639
 30
0.0
  0
VERTEX
  5
306
  8
0
  6
CONTINUOUS
 10
-98.632449794068862
 20
41.562010601694389
 30
0.0
  0
VERTEX
  5
307
  8
0
  6
CONTINUOUS
 10
-97.938425231233154
 20
41.932036236460007
 30
0.0
  0
VERTEX
  5
308
  8
0
  6
CONTINUOUS
 10
90.576233577475023
 20
41.932036236460007
 30
0.0
  0
VERTEX
  5
309
  8
0
  6
CONTINUOUS
 10
91.001214694723686
 20
41.675688580210007
 30
0.0
  0
VERTEX
  5
30A
  8
0
  6
CONTINUOUS
 10
91.270198535665941
 20
41.562010601694389
 30
0.0
  0
VERTEX
  5
30B
  8
0
  6
CONTINUOUS
 10
91.426195811972093
 20
41.056944683725639
 30
0.0
  0
VERTEX
  5
30C
  8
0
  6
CONTINUOUS
 10
91.426195811972093
 20
38.845183209116271
 30
0.0
  0
SEQEND
  5
30D
  8
0
  6
CONTINUOUS
  0
DIMENSION
  5
33
  8
COTATION-JACOBDELAFON
  2
*D0
 10
91.426195811972093
 20
49.501841790056851
 30
0.0
 11
-3.6811211588531019
 21
51.933560753221933
 31
0.0
 70
     0
  1
190.2
 13
-98.788438129678283
 23
40.899305243184131
 33
0.0
 14
91.426195811972093
 24
40.899305243184131
 34
0.0
  0
DIMENSION
  5
DE
  8
COTATION-JACOBDELAFON
  2
*D2
 10
-104.022171477829
 20
-0.0679637635399518
 30
0.0
 11
-106.42831063199
 21
20.932036236460021
 31
0.0
 70
     0
 13
-98.629078367536522
 23
41.932036236460007
 33
0.0
 14
-9.3045533688716091
 24
-0.0679637635399786
 34
0.0
 50
90.0
  0
LINE
  5
13E
  8
0
 10
-47.721920867739641
 20
-3.2619643764826658
 30
0.0
 11
-47.721920867739641
 21
-13.56796376353997
 31
0.0
  0
LINE
  5
13F
  8
0
 10
-45.721920867739641
 20
-3.2619643764826658
 30
0.0
 11
-45.721920867739641
 21
-13.56796376353997
 31
0.0
  0
POLYLINE
  5
140
  8
0
 66
     1
 10
0.0
 20
0.0
 30
0.0
 70
     1
  0
VERTEX
  5
30E
  8
0
 10
-48.221920867739641
 20
-3.261964376482668
 30
0.0
  0
VERTEX
  5
30F
  8
0
 10
-45.22192086773962
 20
-3.261964376482668
 30
0.0
  0
VERTEX
  5
310
  8
0
 10
-45.22192086773962
 20
1.73803562351733
 30
0.0
  0
VERTEX
  5
311
  8
0
 10
-48.221920867739641
 20
1.73803562351733
 30
0.0
  0
SEQEND
  5
312
  8
0
  0
POLYLINE
  5
141
  8
0
 66
     1
 10
0.0
 20
0.0
 30
0.0
 70
     1
  0
VERTEX
  5
313
  8
0
 10
-48.221920867739641
 20
-16.567963763539971
 30
0.0
  0
VERTEX
  5
314
  8
0
 10
-45.221920867739641
 20
-16.567963763539971
 30
0.0
  0
VERTEX
  5
315
  8
0
 10
-45.221920867739641
 20
-13.56796376353998
 30
0.0
  0
VERTEX
  5
316
  8
0
 10
-48.221920867739641
 20
-13.56796376353998
 30
0.0
  0
SEQEND
  5
317
  8
0
  0
POLYLINE
  5
142
  8
0
 66
     1
 10
0.0
 20
0.0
 30
0.0
 70
     1
  0
VERTEX
  5
318
  8
0
 10
-49.221920867739641
 20
-17.067963763539971
 30
0.0
  0
VERTEX
  5
319
  8
0
 10
-44.221920867739627
 20
-17.067963763539971
 30
0.0
  0
VERTEX
  5
31A
  8
0
 10
-44.221920867739627
 20
-16.567963763539971
 30
0.0
  0
VERTEX
  5
31B
  8
0
 10
-49.221920867739641
 20
-16.567963763539971
 30
0.0
  0
SEQEND
  5
31C
  8
0
  0
LINE
  5
14F
  8
0
 10
30.278079132260359
 20
-3.2619643764826658
 30
0.0
 11
30.278079132260359
 21
-13.56796376353997
 31
0.0
  0
LINE
  5
150
  8
0
 10
32.278079132260352
 20
-3.2619643764826658
 30
0.0
 11
32.278079132260352
 21
-13.56796376353997
 31
0.0
  0
POLYLINE
  5
151
  8
0
 66
     1
 10
0.0
 20
0.0
 30
0.0
 70
     1
  0
VERTEX
  5
31D
  8
0
 10
29.778079132260348
 20
-16.567963763539971
 30
0.0
  0
VERTEX
  5
31E
  8
0
 10
32.778079132260359
 20
-16.567963763539971
 30
0.0
  0
VERTEX
  5
31F
  8
0
 10
32.778079132260359
 20
-13.56796376353998
 30
0.0
  0
VERTEX
  5
320
  8
0
 10
29.778079132260348
 20
-13.56796376353998
 30
0.0
  0
SEQEND
  5
321
  8
0
  0
POLYLINE
  5
152
  8
0
 66
     1
 10
0.0
 20
0.0
 30
0.0
 70
     1
  0
VERTEX
  5
322
  8
0
 10
28.778079132260348
 20
-17.067963763539971
 30
0.0
  0
VERTEX
  5
323
  8
0
 10
33.778079132260352
 20
-17.067963763539971
 30
0.0
  0
VERTEX
  5
324
  8
0
 10
33.778079132260352
 20
-16.567963763539971
 30
0.0
  0
VERTEX
  5
325
  8
0
 10
28.778079132260348
 20
-16.567963763539971
 30
0.0
  0
SEQEND
  5
326
  8
0
  0
POLYLINE
  5
153
  8
0
 66
     1
 10
0.0
 20
0.0
 30
0.0
 70
     1
  0
VERTEX
  5
327
  8
0
 10
29.778079132260348
 20
-3.261964376482668
 30
0.0
  0
VERTEX
  5
328
  8
0
 10
32.778079132260373
 20
-3.261964376482668
 30
0.0
  0
VERTEX
  5
329
  8
0
 10
32.778079132260373
 20
1.73803562351733
 30
0.0
  0
VERTEX
  5
32A
  8
0
 10
29.778079132260348
 20
1.73803562351733
 30
0.0
  0
SEQEND
  5
32B
  8
0
  0
INSERT
  5
170
 67
     1
  8
0
  6
CONTINUOUS
  2
ADCADD_ZZ
 10
0.0
 20
0.0
 30
0.0
1001
ADCADD_ZZ
1070
   205
1070
    14
1070
   209
1070
     1
1070
   231
1070
     0
1070
   235
1070
     0
1070
   236
1070
     4
1070
   237
1070
     2
1070
   238
1070
     4
1070
   239
1070
     2
1070
   240
1070
     0
1070
   241
1070
  4096
1070
   242
1070
     2
1070
   244
1070
     0
1070
   245
1070
     1
1070
   303
1040
0.1
1070
   304
1040
4.0
1070
   305
1040
96.0
1070
   306
1040
0.125
1070
   337
1040
0.0
1070
   338
1040
0.3048
1070
   339
1040
0.0625
1070
   340
1040
96.0
1070
   341
1040
4.0
1070
   342
1040
96.0
1070
   530
1010
0.0
1020
0.0
1030
0.0
1070
   531
1010
0.0
1020
0.0
1030
0.0
1070
   107
1000

1070
   108
1000
AIA (256 Color)
1070
   135
1000
L120
1070
   136
1000
'
1070
   137
1000
m
1001
SDSK_PMN
1070
   100
1000
ACADARCH
1070
   300
1040
2453076.5710636568
  0
ENDSEC
  0
EOF
