  0
SECTION
  2
HEADER
  9
$ACADVER
  1
AC1009
  9
$INSBASE
 10
0.0
 20
0.0
 30
0.0
  9
$EXTMIN
 10
-90.897506493953458
 20
0.0
 30
0.0
  9
$EXTMAX
 10
90.902493506018743
 20
29.432212772524689
 30
0.0
  9
$LIMMIN
 10
0.0
 20
0.0
  9
$LIMMAX
 10
12.0
 20
9.0
  9
$ORTHOMODE
 70
     1
  9
$REGENMODE
 70
     1
  9
$FILLMODE
 70
     1
  9
$QTEXTMODE
 70
     0
  9
$MIRRTEXT
 70
     1
  9
$DRAGMODE
 70
     2
  9
$LTSCALE
 40
1.0
  9
$OSMODE
 70
    35
  9
$ATTMODE
 70
     1
  9
$TEXTSIZE
 40
0.2
  9
$TRACEWID
 40
0.05
  9
$TEXTSTYLE
  7
STANDARD
  9
$CLAYER
  8
0
  9
$CELTYPE
  6
CONTINUOUS
  9
$CECOLOR
 62
   256
  9
$DIMSCALE
 40
1.0
  9
$DIMASZ
 40
0.18
  9
$DIMEXO
 40
0.0625
  9
$DIMDLI
 40
0.38
  9
$DIMRND
 40
0.0
  9
$DIMDLE
 40
0.0
  9
$DIMEXE
 40
0.18
  9
$DIMTP
 40
0.0
  9
$DIMTM
 40
0.0
  9
$DIMTXT
 40
0.18
  9
$DIMCEN
 40
0.09
  9
$DIMTSZ
 40
0.0
  9
$DIMTOL
 70
     0
  9
$DIMLIM
 70
     0
  9
$DIMTIH
 70
     1
  9
$DIMTOH
 70
     1
  9
$DIMSE1
 70
     0
  9
$DIMSE2
 70
     0
  9
$DIMTAD
 70
     0
  9
$DIMZIN
 70
     0
  9
$DIMBLK
  1

  9
$DIMASO
 70
     1
  9
$DIMSHO
 70
     1
  9
$DIMPOST
  1

  9
$DIMAPOST
  1

  9
$DIMALT
 70
     0
  9
$DIMALTD
 70
     2
  9
$DIMALTF
 40
25.399999999999999
  9
$DIMLFAC
 40
1.0
  9
$DIMTOFL
 70
     0
  9
$DIMTVP
 40
0.0
  9
$DIMTIX
 70
     0
  9
$DIMSOXD
 70
     0
  9
$DIMSAH
 70
     0
  9
$DIMBLK1
  1

  9
$DIMBLK2
  1

  9
$DIMSTYLE
  2
STANDARD
  9
$DIMCLRD
 70
     0
  9
$DIMCLRE
 70
     0
  9
$DIMCLRT
 70
     0
  9
$DIMTFAC
 40
1.0
  9
$DIMGAP
 40
0.09
  9
$LUNITS
 70
     2
  9
$LUPREC
 70
     4
  9
$SKETCHINC
 40
0.1
  9
$FILLETRAD
 40
0.0
  9
$AUNITS
 70
     0
  9
$AUPREC
 70
     2
  9
$MENU
  1
.
  9
$ELEVATION
 40
0.0
  9
$PELEVATION
 40
0.0
  9
$THICKNESS
 40
0.0
  9
$LIMCHECK
 70
     0
  9
$BLIPMODE
 70
     0
  9
$CHAMFERA
 40
0.0
  9
$CHAMFERB
 40
0.0
  9
$SKPOLY
 70
     0
  9
$TDCREATE
 40
2453068.6242009718
  9
$TDUPDATE
 40
2453090.5925841308
  9
$TDINDWG
 40
0.0304199537
  9
$TDUSRTIMER
 40
0.0304199537
  9
$USRTIMER
 70
     1
  9
$ANGBASE
 50
0.0
  9
$ANGDIR
 70
     0
  9
$PDMODE
 70
     0
  9
$PDSIZE
 40
0.0
  9
$PLINEWID
 40
0.0
  9
$COORDS
 70
     0
  9
$SPLFRAME
 70
     0
  9
$SPLINETYPE
 70
     6
  9
$SPLINESEGS
 70
     8
  9
$ATTDIA
 70
     1
  9
$ATTREQ
 70
     1
  9
$HANDLING
 70
     1
  9
$HANDSEED
  5
AC
  9
$SURFTAB1
 70
     6
  9
$SURFTAB2
 70
     6
  9
$SURFTYPE
 70
     6
  9
$SURFU
 70
     6
  9
$SURFV
 70
     6
  9
$UCSNAME
  2

  9
$UCSORG
 10
0.0
 20
0.0
 30
0.0
  9
$UCSXDIR
 10
1.0
 20
0.0
 30
0.0
  9
$UCSYDIR
 10
0.0
 20
1.0
 30
0.0
  9
$PUCSNAME
  2

  9
$PUCSORG
 10
0.0
 20
0.0
 30
0.0
  9
$PUCSXDIR
 10
1.0
 20
0.0
 30
0.0
  9
$PUCSYDIR
 10
0.0
 20
1.0
 30
0.0
  9
$USERI1
 70
     0
  9
$USERI2
 70
     0
  9
$USERI3
 70
     0
  9
$USERI4
 70
     0
  9
$USERI5
 70
     0
  9
$USERR1
 40
0.0
  9
$USERR2
 40
0.0
  9
$USERR3
 40
0.0
  9
$USERR4
 40
0.0
  9
$USERR5
 40
0.0
  9
$WORLDVIEW
 70
     1
  9
$SHADEDGE
 70
     3
  9
$SHADEDIF
 70
    70
  9
$TILEMODE
 70
     1
  9
$MAXACTVP
 70
    64
  9
$PLIMCHECK
 70
     0
  9
$PEXTMIN
 10
0.1365046323501247
 20
0.0624198045697142
 30
0.0
  9
$PEXTMAX
 10
297.13650463235012
 20
341.56164829045628
 30
0.0
  9
$PLIMMIN
 10
-0.1979161059762549
 20
-0.2679166643638311
  9
$PLIMMAX
 10
11.493750144177531
 20
7.9987497780266699
  9
$UNITMODE
 70
     0
  9
$VISRETAIN
 70
     1
  9
$PLINEGEN
 70
     0
  9
$PSLTSCALE
 70
     1
  0
ENDSEC
  0
SECTION
  2
TABLES
  0
TABLE
  2
VPORT
 70
     2
  0
VPORT
  2
*ACTIVE
 70
     0
 10
0.0
 20
0.0
 11
1.0
 21
1.0
 12
82.900657916790237
 22
41.007749811499266
 13
0.0
 23
0.0
 14
1.0
 24
1.0
 15
0.0
 25
0.0
 16
0.0
 26
0.0
 36
1.0
 17
0.0
 27
0.0
 37
0.0
 40
203.21809566986971
 41
1.828516377649325
 42
50.0
 43
0.0
 44
0.0
 50
0.0
 51
0.0
 71
     0
 72
   100
 73
     1
 74
     1
 75
     0
 76
     0
 77
     0
 78
     0
  0
ENDTAB
  0
TABLE
  2
LTYPE
 70
     1
  0
LTYPE
  2
CONTINUOUS
 70
     0
  3
Solid line
 72
    65
 73
     0
 40
0.0
  0
ENDTAB
  0
TABLE
  2
LAYER
 70
     3
  0
LAYER
  2
0
 70
     0
 62
     7
  6
CONTINUOUS
  0
LAYER
  2
DEFPOINTS
 70
     0
 62
     7
  6
CONTINUOUS
  0
LAYER
  2
COTATION-JACOBDELAFON
 70
     0
 62
     8
  6
CONTINUOUS
  0
ENDTAB
  0
TABLE
  2
STYLE
 70
     2
  0
STYLE
  2
STANDARD
 70
     0
 40
0.0
 41
1.0
 50
0.0
 71
     0
 42
0.2
  3
txt
  4

  0
STYLE
  2
JACOB-DELAFON
 70
     0
 40
0.0
 41
1.0
 50
0.0
 71
     0
 42
2.5
  3
txt
  4

  0
ENDTAB
  0
TABLE
  2
VIEW
 70
     0
  0
ENDTAB
  0
TABLE
  2
UCS
 70
     0
  0
ENDTAB
  0
TABLE
  2
APPID
 70
     2
  0
APPID
  2
ACAD
 70
     0
  0
APPID
  2
ACAECLAYERSTANDARD
 70
     0
  0
ENDTAB
  0
TABLE
  2
DIMSTYLE
 70
     2
  0
DIMSTYLE
  2
STANDARD
 70
     0
  3

  4

  5

  6

  7

 40
1.0
 41
0.18
 42
0.0625
 43
0.38
 44
0.18
 45
0.0
 46
0.0
 47
0.0
 48
0.0
140
0.18
141
0.09
142
0.0
143
25.399999999999999
144
1.0
145
0.0
146
1.0
147
0.09
 71
     0
 72
     0
 73
     1
 74
     1
 75
     0
 76
     0
 77
     0
 78
     0
170
     0
171
     2
172
     0
173
     0
174
     0
175
     0
176
     0
177
     0
178
     0
  0
DIMSTYLE
  2
COTATION-JACOB-DELAFON
 70
     0
  3

  4

  5
OBLIQUE
  6

  7

 40
1.0
 41
1.8
 42
0.625
 43
3.7999999999999989
 44
1.8
 45
0.0
 46
0.0
 47
0.0
 48
0.0
140
3.0
141
0.9
142
0.0
143
25.399999999999999
144
1.0
145
0.0
146
1.0
147
0.9
 71
     0
 72
     0
 73
     0
 74
     0
 75
     0
 76
     0
 77
     1
 78
    12
170
     0
171
     2
172
     0
173
     0
174
     0
175
     0
176
     0
177
     0
178
     0
  0
ENDTAB
  0
ENDSEC
  0
SECTION
  2
BLOCKS
  0
BLOCK
  8
0
  2
$MODEL_SPACE
 70
     0
 10
0.0
 20
0.0
 30
0.0
  3
$MODEL_SPACE
  1

  0
ENDBLK
  5
9
  8
0
  0
BLOCK
 67
     1
  8
0
  2
$PAPER_SPACE
 70
     0
 10
0.0
 20
0.0
 30
0.0
  3
$PAPER_SPACE
  1

  0
ENDBLK
  5
E
 67
     1
  8
0
  0
BLOCK
  8
0
  2
_OBLIQUE
 70
     0
 10
0.0
 20
0.0
 30
0.0
  3
_OBLIQUE
  1

  0
LINE
  5
38
  8
0
  6
BYBLOCK
 62
     0
 10
-0.5
 20
-0.5
 30
0.0
 11
0.5
 21
0.5
 31
0.0
  0
ENDBLK
  5
3A
  8
0
  0
BLOCK
  8
0
  2
*D2
 70
     1
 10
0.0
 20
0.0
 30
0.0
  3
*D2
  1

  0
LINE
  5
98
  8
COTATION-JACOBDELAFON
 62
     0
 10
-89.997506493953466
 20
4.12069999999943
 30
0.0
 11
-89.997506493953466
 21
26.48091672886849
 31
0.0
  0
LINE
  5
99
  8
COTATION-JACOBDELAFON
 62
     0
 10
90.002493506018737
 20
4.120599999999456
 30
0.0
 11
90.002493506018737
 21
26.48091672886849
 31
0.0
  0
LINE
  5
9A
  8
COTATION-JACOBDELAFON
 62
     0
 10
-89.997506493953466
 20
24.680916728868489
 30
0.0
 11
90.002493506018737
 21
24.680916728868489
 31
0.0
  0
INSERT
  5
9B
  8
COTATION-JACOBDELAFON
 62
     0
  2
_OBLIQUE
 10
-89.997506493953466
 20
24.680916728868489
 30
0.0
 41
1.8
 42
1.8
 43
1.8
 50
180.0
  0
INSERT
  5
9C
  8
COTATION-JACOBDELAFON
 62
     0
  2
_OBLIQUE
 10
90.002493506018737
 20
24.680916728868489
 30
0.0
 41
1.8
 42
1.8
 43
1.8
  0
TEXT
  5
9D
  8
0
  6
CONTINUOUS
 62
     0
 10
-3.6216538336672279
 20
25.63821550103766
 30
0.0
 40
3.0
  1
180
  7
JACOB-DELAFON
  0
POINT
  5
9E
  8
DEFPOINTS
 62
     0
 10
-89.997506493953466
 20
3.49569999999943
 30
0.0
  0
POINT
  5
9F
  8
DEFPOINTS
 62
     0
 10
90.002493506018737
 20
3.495599999999456
 30
0.0
  0
POINT
  5
A0
  8
DEFPOINTS
 62
     0
 10
90.002493506018737
 20
24.680916728868489
 30
0.0
  0
ENDBLK
  5
61
  8
0
  0
ENDSEC
  0
SECTION
  2
ENTITIES
  0
LINE
  5
24
  8
0
  6
CONTINUOUS
 10
89.372193506018846
 20
1.5449999999997881
 30
0.0
 11
-89.367206493953574
 21
1.544999999999731
 31
0.0
  0
LINE
  5
25
  8
0
  6
CONTINUOUS
 10
-89.367206493953574
 20
0.4863999999999465
 30
0.0
 11
89.372193506018846
 21
0.4863999999999465
 31
0.0
  0
LINE
  5
26
  8
0
  6
CONTINUOUS
 10
89.369893506018855
 20
0.0
 30
0.0
 11
-89.369893506018855
 21
0.0
 31
0.0
  0
LINE
  5
27
  8
0
  6
CONTINUOUS
 10
-89.997506493953466
 20
3.49569999999943
 30
0.0
 11
-89.367206493953574
 21
3.49569999999943
 31
0.0
  0
LINE
  5
28
  8
0
  6
CONTINUOUS
 10
-89.370206493953546
 20
0.0001000000000317
 30
0.0
 11
-89.811206493953506
 21
0.1409999999999627
 31
0.0
  0
LINE
  5
29
  8
0
  6
CONTINUOUS
 10
-89.811206493953506
 20
0.1409999999999627
 30
0.0
 11
-89.993806493953457
 21
0.4863999999999465
 31
0.0
  0
LINE
  5
2A
  8
0
  6
CONTINUOUS
 10
-89.367206493953574
 20
3.49569999999943
 30
0.0
 11
-89.367206493953574
 21
0.4863999999999465
 31
0.0
  0
LINE
  5
2B
  8
0
  6
CONTINUOUS
 10
-89.997506493953466
 20
3.49569999999943
 30
0.0
 11
-89.997506493953466
 21
0.4863999999999465
 31
0.0
  0
LINE
  5
2C
  8
0
  6
CONTINUOUS
 10
90.002493506018737
 20
3.495599999999456
 30
0.0
 11
89.372193506018817
 21
3.495599999999456
 31
0.0
  0
LINE
  5
2D
  8
0
  6
CONTINUOUS
 10
90.002493506018737
 20
0.4863999999999465
 30
0.0
 11
89.816193506018777
 21
0.1408999999999878
 31
0.0
  0
LINE
  5
2E
  8
0
  6
CONTINUOUS
 10
89.816193506018777
 20
0.1408999999999878
 30
0.0
 11
89.369893506018855
 21
0.0
 31
0.0
  0
LINE
  5
2F
  8
0
  6
CONTINUOUS
 10
89.372193506018817
 20
3.495599999999456
 30
0.0
 11
89.372193506018846
 21
0.4863999999998896
 31
0.0
  0
LINE
  5
30
  8
0
  6
CONTINUOUS
 10
90.002493506018737
 20
3.495599999999456
 30
0.0
 11
90.002493506018737
 21
0.4863999999998896
 31
0.0
  0
DIMENSION
  5
55
  8
COTATION-JACOBDELAFON
  2
*D2
 10
90.002493506018737
 20
24.680916728868489
 30
0.0
 11
0.0024935060326358
 21
27.11263569203356
 31
0.0
 70
     0
 13
-89.997506493953466
 23
3.49569999999943
 33
0.0
 14
90.002493506018737
 24
3.495599999999456
 34
0.0
 50
180.0
1001
ACAD
1000
DSTYLE
1002
{
1070
   271
1070
     1
1002
}
  0
ENDSEC
  0
EOF
