  0
SECTION
  2
HEADER
  9
$ACADVER
  1
AC1021
  9
$ACADMAINTVER
 70
    50
  9
$DWGCODEPAGE
  3
ANSI_1252
  9
$LASTSAVEDBY
  1
François
  9
$INSBASE
 10
68.36326899999999
 20
105.044406
 30
0.0
  9
$EXTMIN
 10
44.76640054138162
 20
66.64833199999998
 30
0.0
  9
$EXTMAX
 10
229.390101
 20
173.6062286028835
 30
0.0
  9
$LIMMIN
 10
68.23821200000001
 20
67.423275
  9
$LIMMAX
 10
228.619637
 20
142.665538
  9
$ORTHOMODE
 70
     0
  9
$REGENMODE
 70
     1
  9
$FILLMODE
 70
     1
  9
$QTEXTMODE
 70
     0
  9
$MIRRTEXT
 70
     1
  9
$LTSCALE
 40
1.0
  9
$ATTMODE
 70
     1
  9
$TEXTSIZE
 40
0.0
  9
$TRACEWID
 40
0.05
  9
$TEXTSTYLE
  7
Standard
  9
$CLAYER
  8
Cotation-JacobDelafon
  9
$CELTYPE
  6
Continuous
  9
$CECOLOR
 62
   256
  9
$CELTSCALE
 40
1.0
  9
$DISPSILH
 70
     0
  9
$DIMSCALE
 40
1.0
  9
$DIMASZ
 40
1.8
  9
$DIMEXO
 40
0.625
  9
$DIMDLI
 40
3.799999999999999
  9
$DIMRND
 40
0.0
  9
$DIMDLE
 40
0.0
  9
$DIMEXE
 40
1.8
  9
$DIMTP
 40
0.0
  9
$DIMTM
 40
0.0
  9
$DIMTXT
 40
3.0
  9
$DIMCEN
 40
0.9
  9
$DIMTSZ
 40
0.0
  9
$DIMTOL
 70
     0
  9
$DIMLIM
 70
     0
  9
$DIMTIH
 70
     0
  9
$DIMTOH
 70
     0
  9
$DIMSE1
 70
     0
  9
$DIMSE2
 70
     0
  9
$DIMTAD
 70
     1
  9
$DIMZIN
 70
    12
  9
$DIMBLK
  1
Oblique
  9
$DIMASO
 70
     1
  9
$DIMSHO
 70
     1
  9
$DIMPOST
  1

  9
$DIMAPOST
  1

  9
$DIMALT
 70
     0
  9
$DIMALTD
 70
     2
  9
$DIMALTF
 40
25.4
  9
$DIMLFAC
 40
1.0
  9
$DIMTOFL
 70
     0
  9
$DIMTVP
 40
0.0
  9
$DIMTIX
 70
     0
  9
$DIMSOXD
 70
     0
  9
$DIMSAH
 70
     0
  9
$DIMBLK1
  1

  9
$DIMBLK2
  1

  9
$DIMSTYLE
  2
Cotation-Jacob-Delafon
  9
$DIMCLRD
 70
     0
  9
$DIMCLRE
 70
     0
  9
$DIMCLRT
 70
     0
  9
$DIMTFAC
 40
1.0
  9
$DIMGAP
 40
0.9
  9
$DIMJUST
 70
     0
  9
$DIMSD1
 70
     0
  9
$DIMSD2
 70
     0
  9
$DIMTOLJ
 70
     1
  9
$DIMTZIN
 70
     0
  9
$DIMALTZ
 70
     0
  9
$DIMALTTZ
 70
     0
  9
$DIMUPT
 70
     0
  9
$DIMDEC
 70
     2
  9
$DIMTDEC
 70
     2
  9
$DIMALTU
 70
     2
  9
$DIMALTTD
 70
     2
  9
$DIMTXSTY
  7
Jacob-Delafon
  9
$DIMAUNIT
 70
     0
  9
$DIMADEC
 70
     0
  9
$DIMALTRND
 40
0.0
  9
$DIMAZIN
 70
     3
  9
$DIMDSEP
 70
    46
  9
$DIMATFIT
 70
     3
  9
$DIMFRAC
 70
     0
  9
$DIMLDRBLK
  1
Oblique
  9
$DIMLUNIT
 70
     2
  9
$DIMLWD
 70
    -2
  9
$DIMLWE
 70
    -2
  9
$DIMTMOVE
 70
     2
  9
$DIMFXL
 40
1.0
  9
$DIMFXLON
 70
     0
  9
$DIMJOGANG
 40
0.7853981633974483
  9
$DIMTFILL
 70
     0
  9
$DIMTFILLCLR
 70
     0
  9
$DIMARCSYM
 70
     0
  9
$DIMLTYPE
  6

  9
$DIMLTEX1
  6

  9
$DIMLTEX2
  6

  9
$LUNITS
 70
     2
  9
$LUPREC
 70
     4
  9
$SKETCHINC
 40
0.1
  9
$FILLETRAD
 40
0.0
  9
$AUNITS
 70
     0
  9
$AUPREC
 70
     0
  9
$MENU
  1
acad
  9
$ELEVATION
 40
0.0
  9
$PELEVATION
 40
0.0
  9
$THICKNESS
 40
0.0
  9
$LIMCHECK
 70
     0
  9
$CHAMFERA
 40
0.0
  9
$CHAMFERB
 40
0.0
  9
$CHAMFERC
 40
0.0
  9
$CHAMFERD
 40
0.0
  9
$SKPOLY
 70
     0
  9
$TDCREATE
 40
2454952.711821829
  9
$TDUCREATE
 40
2454952.628488495
  9
$TDUPDATE
 40
2455006.444455833
  9
$TDUUPDATE
 40
2455006.361122500
  9
$TDINDWG
 40
0.0176600579
  9
$TDUSRTIMER
 40
0.0176598727
  9
$USRTIMER
 70
     1
  9
$ANGBASE
 50
0.0
  9
$ANGDIR
 70
     0
  9
$PDMODE
 70
     0
  9
$PDSIZE
 40
0.0
  9
$PLINEWID
 40
0.0
  9
$SPLFRAME
 70
     0
  9
$SPLINETYPE
 70
     6
  9
$SPLINESEGS
 70
     8
  9
$HANDSEED
  5
2E5
  9
$SURFTAB1
 70
     6
  9
$SURFTAB2
 70
     6
  9
$SURFTYPE
 70
     6
  9
$SURFU
 70
     6
  9
$SURFV
 70
     6
  9
$UCSBASE
  2

  9
$UCSNAME
  2

  9
$UCSORG
 10
0.0
 20
0.0
 30
0.0
  9
$UCSXDIR
 10
1.0
 20
0.0
 30
0.0
  9
$UCSYDIR
 10
0.0
 20
1.0
 30
0.0
  9
$UCSORTHOREF
  2

  9
$UCSORTHOVIEW
 70
     0
  9
$UCSORGTOP
 10
0.0
 20
0.0
 30
0.0
  9
$UCSORGBOTTOM
 10
0.0
 20
0.0
 30
0.0
  9
$UCSORGLEFT
 10
0.0
 20
0.0
 30
0.0
  9
$UCSORGRIGHT
 10
0.0
 20
0.0
 30
0.0
  9
$UCSORGFRONT
 10
0.0
 20
0.0
 30
0.0
  9
$UCSORGBACK
 10
0.0
 20
0.0
 30
0.0
  9
$PUCSBASE
  2

  9
$PUCSNAME
  2

  9
$PUCSORG
 10
0.0
 20
0.0
 30
0.0
  9
$PUCSXDIR
 10
1.0
 20
0.0
 30
0.0
  9
$PUCSYDIR
 10
0.0
 20
1.0
 30
0.0
  9
$PUCSORTHOREF
  2

  9
$PUCSORTHOVIEW
 70
     0
  9
$PUCSORGTOP
 10
0.0
 20
0.0
 30
0.0
  9
$PUCSORGBOTTOM
 10
0.0
 20
0.0
 30
0.0
  9
$PUCSORGLEFT
 10
0.0
 20
0.0
 30
0.0
  9
$PUCSORGRIGHT
 10
0.0
 20
0.0
 30
0.0
  9
$PUCSORGFRONT
 10
0.0
 20
0.0
 30
0.0
  9
$PUCSORGBACK
 10
0.0
 20
0.0
 30
0.0
  9
$USERI1
 70
     0
  9
$USERI2
 70
     0
  9
$USERI3
 70
     0
  9
$USERI4
 70
     0
  9
$USERI5
 70
     0
  9
$USERR1
 40
0.0
  9
$USERR2
 40
0.0
  9
$USERR3
 40
0.0
  9
$USERR4
 40
0.0
  9
$USERR5
 40
0.0
  9
$WORLDVIEW
 70
     1
  9
$SHADEDGE
 70
     3
  9
$SHADEDIF
 70
    70
  9
$TILEMODE
 70
     1
  9
$MAXACTVP
 70
    16
  9
$PINSBASE
 10
0.0
 20
0.0
 30
0.0
  9
$PLIMCHECK
 70
     0
  9
$PEXTMIN
 10
1.000000000000000E+20
 20
1.000000000000000E+20
 30
1.000000000000000E+20
  9
$PEXTMAX
 10
-1.000000000000000E+20
 20
-1.000000000000000E+20
 30
-1.000000000000000E+20
  9
$PLIMMIN
 10
0.0
 20
0.0
  9
$PLIMMAX
 10
12.0
 20
9.0
  9
$UNITMODE
 70
     0
  9
$VISRETAIN
 70
     0
  9
$PLINEGEN
 70
     1
  9
$PSLTSCALE
 70
     0
  9
$TREEDEPTH
 70
  3020
  9
$CMLSTYLE
  2
Standard
  9
$CMLJUST
 70
     0
  9
$CMLSCALE
 40
1.0
  9
$PROXYGRAPHICS
 70
     0
  9
$MEASUREMENT
 70
     1
  9
$CELWEIGHT
370
     0
  9
$ENDCAPS
280
     0
  9
$JOINSTYLE
280
     0
  9
$LWDISPLAY
290
     0
  9
$INSUNITS
 70
     0
  9
$HYPERLINKBASE
  1

  9
$STYLESHEET
  1

  9
$XEDIT
290
     1
  9
$CEPSNTYPE
380
     0
  9
$PSTYLEMODE
290
     1
  9
$FINGERPRINTGUID
  2

  9
$VERSIONGUID
  2
{96F027C9-C845-45F7-821E-FFA0870453C1}
  9
$EXTNAMES
290
     1
  9
$PSVPSCALE
 40
0.0
  9
$OLESTARTUP
290
     0
  9
$SORTENTS
280
   127
  9
$INDEXCTL
280
     0
  9
$HIDETEXT
280
     0
  9
$XCLIPFRAME
290
     0
  9
$HALOGAP
280
     0
  9
$OBSCOLOR
 70
   257
  9
$OBSLTYPE
280
     0
  9
$INTERSECTIONDISPLAY
280
     0
  9
$INTERSECTIONCOLOR
 70
   257
  9
$DIMASSOC
280
     1
  9
$PROJECTNAME
  1

  9
$CAMERADISPLAY
290
     0
  9
$LENSLENGTH
 40
50.0
  9
$CAMERAHEIGHT
 40
0.0
  9
$STEPSPERSEC
 40
2.0
  9
$STEPSIZE
 40
6.0
  9
$3DDWFPREC
 40
2.0
  9
$PSOLWIDTH
 40
0.25
  9
$PSOLHEIGHT
 40
4.0
  9
$LOFTANG1
 40
1.570796326794896
  9
$LOFTANG2
 40
1.570796326794896
  9
$LOFTMAG1
 40
0.0
  9
$LOFTMAG2
 40
0.0
  9
$LOFTPARAM
 70
     7
  9
$LOFTNORMALS
280
     1
  9
$LATITUDE
 40
37.795
  9
$LONGITUDE
 40
-122.394
  9
$NORTHDIRECTION
 40
0.0
  9
$TIMEZONE
 70
 -8000
  9
$LIGHTGLYPHDISPLAY
280
     1
  9
$TILEMODELIGHTSYNCH
280
     1
  9
$CMATERIAL
347
246
  9
$SOLIDHIST
280
     1
  9
$SHOWHIST
280
     1
  9
$DWFFRAME
280
     2
  9
$DGNFRAME
280
     0
  9
$REALWORLDSCALE
290
     1
  9
$INTERFERECOLOR
 62
     1
  9
$INTERFEREOBJVS
345
268
  9
$INTERFEREVPVS
346
265
  9
$CSHADOW
280
     0
  9
$SHADOWPLANELOCATION
 40
0.0
  0
ENDSEC
  0
SECTION
  2
CLASSES
  0
CLASS
  1
IMAGE
  2
AcDbRasterImage
  3
ISM
 90
     2175
 91
        0
280
     0
281
     1
  0
CLASS
  1
DICTIONARYVAR
  2
AcDbDictionaryVar
  3
ObjectDBX Classes
 90
        0
 91
        7
280
     0
281
     0
  0
CLASS
  1
RASTERVARIABLES
  2
AcDbRasterVariables
  3
ISM
 90
        0
 91
        0
280
     0
281
     0
  0
CLASS
  1
IMAGEDEF
  2
AcDbRasterImageDef
  3
ISM
 90
        0
 91
        0
280
     0
281
     0
  0
CLASS
  1
IMAGEDEF_REACTOR
  2
AcDbRasterImageDefReactor
  3
ISM
 90
        1
 91
        0
280
     0
281
     0
  0
CLASS
  1
IDBUFFER
  2
AcDbIdBuffer
  3
ObjectDBX Classes
 90
        0
 91
        0
280
     0
281
     0
  0
CLASS
  1
SPATIAL_FILTER
  2
AcDbSpatialFilter
  3
ObjectDBX Classes
 90
        0
 91
        0
280
     0
281
     0
  0
CLASS
  1
SORTENTSTABLE
  2
AcDbSortentsTable
  3
ObjectDBX Classes
 90
        0
 91
        0
280
     0
281
     0
  0
CLASS
  1
LAYER_INDEX
  2
AcDbLayerIndex
  3
ObjectDBX Classes
 90
        0
 91
        0
280
     0
281
     0
  0
CLASS
  1
SPATIAL_INDEX
  2
AcDbSpatialIndex
  3
ObjectDBX Classes
 90
        0
 91
        0
280
     0
281
     0
  0
CLASS
  1
OBJECT_PTR
  2
CAseDLPNTableRecord
  3
"ASE-LPNTableRecord"
 90
        1
 91
        0
280
     0
281
     0
  0
CLASS
  1
PLOTSETTINGS
  2
AcDbPlotSettings
  3
ObjectDBX Classes
 90
        0
 91
        0
280
     0
281
     0
  0
CLASS
  1
ACDBDICTIONARYWDFLT
  2
AcDbDictionaryWithDefault
  3
ObjectDBX Classes
 90
        0
 91
        1
280
     0
281
     0
  0
CLASS
  1
WIPEOUT
  2
AcDbWipeout
  3
"WipeOut|Product Desc: Object Enabler for WipeOut entity                        |Company: Autodesk, Inc.                        |WEB Address: www.autodesk.com"
 90
     2175
 91
        0
280
     0
281
     1
  0
CLASS
  1
WIPEOUTVARIABLES
  2
AcDbWipeoutVariables
  3
"WipeOut|Product Desc:     WipeOut Dbx Application|Company:          Autodesk, Inc.|WEB Address:      www.autodesk.com"
 90
        0
 91
        1
280
     0
281
     0
  0
CLASS
  1
RTEXT
  2
RText
  3
RText|AutoCAD Express Tool|expresstools@autodesk.com
 90
        0
 91
        0
280
     0
281
     1
  0
CLASS
  1
ARCALIGNEDTEXT
  2
AcDbArcAlignedText
  3
ATEXT|AutoCAD Express Tool|expresstools@autodesk.com
 90
        0
 91
        0
280
     0
281
     1
  0
CLASS
  1
MATERIAL
  2
AcDbMaterial
  3
ObjectDBX Classes
 90
     1153
 91
        3
280
     0
281
     0
  0
CLASS
  1
VISUALSTYLE
  2
AcDbVisualStyle
  3
ObjectDBX Classes
 90
     4095
 91
       16
280
     0
281
     0
  0
CLASS
  1
TABLESTYLE
  2
AcDbTableStyle
  3
ObjectDBX Classes
 90
     4095
 91
        1
280
     0
281
     0
  0
CLASS
  1
SCALE
  2
AcDbScale
  3
ObjectDBX Classes
 90
     1153
 91
       17
280
     0
281
     0
  0
CLASS
  1
MLEADERSTYLE
  2
AcDbMLeaderStyle
  3
ACDB_MLEADERSTYLE_CLASS
 90
     4095
 91
        1
280
     0
281
     0
  0
CLASS
  1
AEC_REFEDIT_STATUS_TRACKER
  2
AecDbRefEditStatusTracker
  3
AecArchBase50|Product Desc: Autodesk Architectural Desktop 2007 |Company: Autodesk,Inc. |WEB Address: www.autodesk.com
 90
      129
 91
        0
280
     0
281
     0
  0
CLASS
  1
NPOCOLLECTION
  2
AcDbImpNonPersistentObjectsCollection
  3
ObjectDBX Classes
 90
     1153
 91
        0
280
     0
281
     0
  0
CLASS
  1
CELLSTYLEMAP
  2
AcDbCellStyleMap
  3
ObjectDBX Classes
 90
     1152
 91
        2
280
     0
281
     0
  0
ENDSEC
  0
SECTION
  2
TABLES
  0
TABLE
  2
VPORT
  5
7
330
0
100
AcDbSymbolTable
 70
     1
  0
VPORT
  5
15
330
7
100
AcDbSymbolTableRecord
100
AcDbViewportTableRecord
  2
*ACTIVE
 70
     0
 10
0.0
 20
0.0
 11
1.0
 21
1.0
 12
153.3527079312766
 22
103.9784976566005
 13
0.0
 23
0.0
 14
1.0
 24
1.0
 15
0.0
 25
0.0
 16
0.0
 26
0.0
 36
1.0
 17
0.0
 27
0.0
 37
0.0
 40
216.1353625882826
 41
1.226824457593688
 42
50.0
 43
0.0
 44
0.0
 50
0.0
 51
0.0
 71
     0
 72
   100
 73
     1
 74
     1
 75
     0
 76
     0
 77
     0
 78
     0
281
     0
 65
     0
110
0.0
120
0.0
130
0.0
111
1.0
121
0.0
131
0.0
112
0.0
122
1.0
132
0.0
 79
     0
146
0.0
348
264
 60
     3
 61
     5
292
     1
282
     1
141
0.0
142
0.0
 63
   250
421
  3355443
  0
ENDTAB
  0
TABLE
  2
LTYPE
  5
4
330
0
100
AcDbSymbolTable
 70
     1
  0
LTYPE
  5
11
330
4
100
AcDbSymbolTableRecord
100
AcDbLinetypeTableRecord
  2
ByBlock
 70
     0
  3

 72
    65
 73
     0
 40
0.0
  0
LTYPE
  5
12
330
4
100
AcDbSymbolTableRecord
100
AcDbLinetypeTableRecord
  2
ByLayer
 70
     0
  3

 72
    65
 73
     0
 40
0.0
  0
LTYPE
  5
13
330
4
100
AcDbSymbolTableRecord
100
AcDbLinetypeTableRecord
  2
Continuous
 70
     0
  3
Solid line
 72
    65
 73
     0
 40
0.0
  0
ENDTAB
  0
TABLE
  2
LAYER
  5
2
330
0
100
AcDbSymbolTable
 70
     3
  0
LAYER
  5
14
102
{ACAD_XDICTIONARY
360
2CE
102
}
330
2
100
AcDbSymbolTableRecord
100
AcDbLayerTableRecord
  2
0
 70
     0
 62
     7
  6
Continuous
370
    -3
390
1D
347
256
  0
LAYER
  5
28E
330
2
100
AcDbSymbolTableRecord
100
AcDbLayerTableRecord
  2
Defpoints
 70
     0
 62
     7
  6
Continuous
290
     0
370
    -3
390
1D
347
256
  0
LAYER
  5
29C
102
{ACAD_XDICTIONARY
360
2D0
102
}
330
2
100
AcDbSymbolTableRecord
100
AcDbLayerTableRecord
  2
Cotation-JacobDelafon
 70
     0
 62
     8
  6
Continuous
370
    -3
390
1D
347
256
  0
ENDTAB
  0
TABLE
  2
STYLE
  5
3
330
0
100
AcDbSymbolTable
 70
     7
  0
STYLE
  5
17
330
3
100
AcDbSymbolTableRecord
100
AcDbTextStyleTableRecord
  2
Standard
 70
     0
 40
0.0
 41
1.0
 50
0.0
 71
     0
 42
0.0
  3
txt
  4

  0
STYLE
  5
24
330
3
100
AcDbSymbolTableRecord
100
AcDbTextStyleTableRecord
  2
STD
 70
     0
 40
0.0
 41
1.0
 50
0.0
 71
     0
 42
0.0
  3
txt
  4

  0
STYLE
  5
25
330
3
100
AcDbSymbolTableRecord
100
AcDbTextStyleTableRecord
  2
TATESTD
 70
     4
 40
0.0
 41
1.0
 50
0.0
 71
     0
 42
0.0
  3
txt
  4

  0
STYLE
  5
26
330
3
100
AcDbSymbolTableRecord
100
AcDbTextStyleTableRecord
  2
KANJISTD
 70
     0
 40
0.0
 41
1.0
 50
0.0
 71
     0
 42
0.0
  3
txt
  4
extfont
  0
STYLE
  5
27
330
3
100
AcDbSymbolTableRecord
100
AcDbTextStyleTableRecord
  2
KANJITATE
 70
     4
 40
0.0
 41
1.0
 50
0.0
 71
     0
 42
0.0
  3
txt
  4
extfont
  0
STYLE
  5
28F
330
3
100
AcDbSymbolTableRecord
100
AcDbTextStyleTableRecord
  2
Annotative
 70
     0
 40
0.0
 41
1.0
 50
0.0
 71
     0
 42
0.2
  3
txt
  4

1001
AcadAnnotative
1000
AnnotativeData
1002
{
1070
     1
1070
     1
1002
}
  0
STYLE
  5
290
330
3
100
AcDbSymbolTableRecord
100
AcDbTextStyleTableRecord
  2
Jacob-Delafon
 70
     0
 40
0.0
 41
1.0
 50
0.0
 71
     0
 42
2.5
  3
ARIAL.TTF
  4

1001
ACAD
1000
Arial
1071
       34
  0
ENDTAB
  0
TABLE
  2
VIEW
  5
5
330
0
100
AcDbSymbolTable
 70
     0
  0
ENDTAB
  0
TABLE
  2
UCS
  5
6
330
0
100
AcDbSymbolTable
 70
     0
  0
ENDTAB
  0
TABLE
  2
APPID
  5
8
330
0
100
AcDbSymbolTable
 70
     3
  0
APPID
  5
16
330
8
100
AcDbSymbolTableRecord
100
AcDbRegAppTableRecord
  2
ACAD
 70
     0
  0
APPID
  5
286
330
8
100
AcDbSymbolTableRecord
100
AcDbRegAppTableRecord
  2
ACAD_MLEADERVER
 70
     0
  0
APPID
  5
293
330
8
100
AcDbSymbolTableRecord
100
AcDbRegAppTableRecord
  2
AcadAnnotative
 70
     0
  0
ENDTAB
  0
TABLE
  2
DIMSTYLE
  5
9
330
0
100
AcDbSymbolTable
 70
     3
100
AcDbDimStyleTable
 71
     1
340
292
  0
DIMSTYLE
105
18
330
9
100
AcDbSymbolTableRecord
100
AcDbDimStyleTableRecord
  2
Standard
 70
     0
340
17
  0
DIMSTYLE
105
291
330
9
100
AcDbSymbolTableRecord
100
AcDbDimStyleTableRecord
  2
Annotative
 70
     0
340
17
1001
AcadAnnotative
1000
AnnotativeData
1002
{
1070
     1
1070
     1
1002
}
  0
DIMSTYLE
105
292
102
{ACAD_REACTORS
330
2A2
330
2AF
102
}
330
9
100
AcDbSymbolTableRecord
100
AcDbDimStyleTableRecord
  2
Cotation-Jacob-Delafon
 70
     0
 41
1.8
 42
0.625
 43
3.799999999999999
 44
1.8
 73
     0
 74
     0
 77
     1
 78
    12
 79
     3
140
3.0
141
0.9
147
0.9
271
     2
272
     2
279
     2
340
290
341
28A
342
28A
  0
ENDTAB
  0
TABLE
  2
BLOCK_RECORD
  5
1
330
0
100
AcDbSymbolTable
 70
     3
  0
BLOCK_RECORD
  5
A
330
1
100
AcDbSymbolTableRecord
100
AcDbBlockTableRecord
  2
*MODEL_SPACE
340
20
 70
     0
280
     1
281
     0
  0
BLOCK_RECORD
  5
B
330
1
100
AcDbSymbolTableRecord
100
AcDbBlockTableRecord
  2
*PAPER_SPACE
340
21
 70
     0
280
     1
281
     0
  0
BLOCK_RECORD
  5
28A
330
1
100
AcDbSymbolTableRecord
100
AcDbBlockTableRecord
  2
_Oblique
340
0
102
{BLKREFS
331
2BF
331
2C0
331
2C8
331
2C9
102
}
 70
     0
280
     1
281
     0
  0
BLOCK_RECORD
  5
2A3
330
1
100
AcDbSymbolTableRecord
100
AcDbBlockTableRecord
  2
*D1
340
0
 70
     0
280
     1
281
     0
  0
BLOCK_RECORD
  5
2B0
330
1
100
AcDbSymbolTableRecord
100
AcDbBlockTableRecord
  2
*D2
340
0
 70
     0
280
     1
281
     0
  0
ENDTAB
  0
ENDSEC
  0
SECTION
  2
BLOCKS
  0
BLOCK
  5
D
330
A
100
AcDbEntity
  8
0
100
AcDbBlockBegin
  2
*MODEL_SPACE
 70
     0
 10
0.0
 20
0.0
 30
0.0
  3
*MODEL_SPACE
  1

  0
ENDBLK
  5
E
330
A
100
AcDbEntity
  8
0
100
AcDbBlockEnd
  0
BLOCK
  5
F
330
B
100
AcDbEntity
 67
     1
  8
0
100
AcDbBlockBegin
  2
*PAPER_SPACE
 70
     0
 10
0.0
 20
0.0
 30
0.0
  3
*PAPER_SPACE
  1

  0
ENDBLK
  5
10
330
B
100
AcDbEntity
 67
     1
  8
0
100
AcDbBlockEnd
  0
BLOCK
  5
28B
330
28A
100
AcDbEntity
  8
0
100
AcDbBlockBegin
  2
_Oblique
 70
     0
 10
0.0
 20
0.0
 30
0.0
  3
_Oblique
  1

  0
LINE
  5
28C
330
28A
100
AcDbEntity
  8
0
  6
ByBlock
 62
     0
370
    -2
380
     1
100
AcDbLine
 10
-0.5
 20
-0.5
 30
0.0
 11
0.5
 21
0.5
 31
0.0
  0
ENDBLK
  5
28D
330
28A
100
AcDbEntity
  8
0
100
AcDbBlockEnd
  0
BLOCK
  5
2A4
330
2A3
100
AcDbEntity
  8
0
370
     0
100
AcDbBlockBegin
  2
*D1
 70
     1
 10
0.0
 20
0.0
 30
0.0
  3
*D1
  1

  0
LINE
  5
2C5
330
2A3
100
AcDbEntity
  8
Cotation-JacobDelafon
  6
Continuous
 62
     0
370
    -2
100
AcDbLine
 10
68.868148
 20
142.115416
 30
0.0
 11
68.868148
 21
170.6549325592273
 31
0.0
  0
LINE
  5
2C6
330
2A3
100
AcDbEntity
  8
Cotation-JacobDelafon
  6
Continuous
 62
     0
370
    -2
100
AcDbLine
 10
228.490101
 20
142.165025
 30
0.0
 11
228.490101
 21
170.6549325592273
 31
0.0
  0
LINE
  5
2C7
330
2A3
100
AcDbEntity
  8
Cotation-JacobDelafon
  6
Continuous
 62
     0
370
    -2
100
AcDbLine
 10
68.868148
 20
168.8549325592273
 30
0.0
 11
228.490101
 21
168.8549325592273
 31
0.0
  0
INSERT
  5
2C8
330
2A3
100
AcDbEntity
  8
Cotation-JacobDelafon
  6
Continuous
 62
     0
370
    -2
100
AcDbBlockReference
  2
_Oblique
 10
68.868148
 20
168.8549325592273
 30
0.0
 41
1.8
 42
1.8
 43
1.8
 50
180.0
  0
INSERT
  5
2C9
330
2A3
100
AcDbEntity
  8
Cotation-JacobDelafon
  6
Continuous
 62
     0
370
    -2
100
AcDbBlockReference
  2
_Oblique
 10
228.490101
 20
168.8549325592273
 30
0.0
 41
1.8
 42
1.8
 43
1.8
  0
MTEXT
  5
2CA
330
2A3
100
AcDbEntity
  8
Cotation-JacobDelafon
  6
Continuous
 62
     0
370
     0
100
AcDbMText
 10
148.6791245
 20
171.2866515223924
 30
0.0
 40
3.0
 41
0.0
 46
0.0
 71
     5
 72
     1
  1
\A1;160
  7
Jacob-Delafon
 73
     1
 44
1.0
  0
POINT
  5
2CB
330
2A3
100
AcDbEntity
  8
Defpoints
  6
Continuous
 62
     0
370
     0
100
AcDbPoint
 10
68.868148
 20
141.490416
 30
0.0
  0
POINT
  5
2CC
330
2A3
100
AcDbEntity
  8
Defpoints
  6
Continuous
 62
     0
370
     0
100
AcDbPoint
 10
228.490101
 20
141.540025
 30
0.0
  0
POINT
  5
2CD
330
2A3
100
AcDbEntity
  8
Defpoints
  6
Continuous
 62
     0
370
     0
100
AcDbPoint
 10
228.490101
 20
168.8549325592273
 30
0.0
  0
ENDBLK
  5
2A5
330
2A3
100
AcDbEntity
  8
0
370
     0
100
AcDbBlockEnd
  0
BLOCK
  5
2B1
330
2B0
100
AcDbEntity
  8
0
370
     0
100
AcDbBlockBegin
  2
*D2
 70
     1
 10
0.0
 20
0.0
 30
0.0
  3
*D2
  1

  0
LINE
  5
2BC
330
2B0
100
AcDbEntity
  8
Cotation-JacobDelafon
  6
Continuous
 62
     0
370
    -2
100
AcDbLine
 10
68.744065
 20
142.540481
 30
0.0
 11
47.71155743087686
 21
142.540481
 31
0.0
  0
LINE
  5
2BD
330
2B0
100
AcDbEntity
  8
Cotation-JacobDelafon
  6
Continuous
 62
     0
370
    -2
100
AcDbLine
 10
68.744065
 20
67.54833199999999
 30
0.0
 11
47.71155743087684
 21
67.54833199999999
 31
0.0
  0
LINE
  5
2BE
330
2B0
100
AcDbEntity
  8
Cotation-JacobDelafon
  6
Continuous
 62
     0
370
    -2
100
AcDbLine
 10
49.51155743087686
 20
142.540481
 30
0.0
 11
49.51155743087685
 21
67.54833199999999
 31
0.0
  0
INSERT
  5
2BF
330
2B0
100
AcDbEntity
  8
Cotation-JacobDelafon
  6
Continuous
 62
     0
370
    -2
100
AcDbBlockReference
  2
_Oblique
 10
49.51155743087686
 20
142.540481
 30
0.0
 41
1.8
 42
1.8
 43
1.8
 50
90.0
  0
INSERT
  5
2C0
330
2B0
100
AcDbEntity
  8
Cotation-JacobDelafon
  6
Continuous
 62
     0
370
    -2
100
AcDbBlockReference
  2
_Oblique
 10
49.51155743087685
 20
67.54833199999999
 30
0.0
 41
1.8
 42
1.8
 43
1.8
 50
270.0
  0
MTEXT
  5
2C1
330
2B0
100
AcDbEntity
  8
Cotation-JacobDelafon
  6
Continuous
 62
     0
370
     0
100
AcDbMText
 10
47.08597762187275
 20
105.0444065
 30
0.0
 40
3.0
 41
0.0
 46
0.0
 71
     5
 72
     1
  1
\A1;75
  7
Jacob-Delafon
 11
0.0000000000000001
 21
1.0
 31
0.0
 73
     1
 44
1.0
  0
POINT
  5
2C2
330
2B0
100
AcDbEntity
  8
Defpoints
  6
Continuous
 62
     0
370
     0
100
AcDbPoint
 10
69.369065
 20
142.540481
 30
0.0
  0
POINT
  5
2C3
330
2B0
100
AcDbEntity
  8
Defpoints
  6
Continuous
 62
     0
370
     0
100
AcDbPoint
 10
69.369065
 20
67.54833199999999
 30
0.0
  0
POINT
  5
2C4
330
2B0
100
AcDbEntity
  8
Defpoints
  6
Continuous
 62
     0
370
     0
100
AcDbPoint
 10
49.51155743087685
 20
67.54833199999999
 30
0.0
  0
ENDBLK
  5
2B2
330
2B0
100
AcDbEntity
  8
0
370
     0
100
AcDbBlockEnd
  0
ENDSEC
  0
SECTION
  2
ENTITIES
  0
LINE
  5
242
330
A
100
AcDbEntity
  8
0
 62
     7
100
AcDbLine
 10
87.8396
 20
124.366052
 30
0.0
 11
87.88507499999999
 21
127.673516
 31
0.0
  0
LINE
  5
241
330
A
100
AcDbEntity
  8
0
 62
     7
100
AcDbLine
 10
87.878874
 20
105.044406
 30
0.0
 11
87.8396
 21
124.366052
 31
0.0
  0
LINE
  5
240
330
A
100
AcDbEntity
  8
0
 62
     7
100
AcDbLine
 10
87.88507499999999
 20
127.673516
 30
0.0
 11
88.02994100000001
 21
128.422652
 31
0.0
  0
LINE
  5
23F
330
A
100
AcDbEntity
  8
0
 62
     7
100
AcDbLine
 10
88.02994100000001
 20
128.422652
 30
0.0
 11
88.25438899999999
 21
128.716691
 31
0.0
  0
LINE
  5
23E
330
A
100
AcDbEntity
  8
0
 62
     7
100
AcDbLine
 10
88.25438899999999
 20
128.716691
 30
0.0
 11
88.58908000000001
 21
129.033123
 31
0.0
  0
LINE
  5
23D
330
A
100
AcDbEntity
  8
0
 62
     7
100
AcDbLine
 10
88.58908000000001
 20
129.033123
 30
0.0
 11
88.960117
 21
129.30563
 31
0.0
  0
LINE
  5
23C
330
A
100
AcDbEntity
  8
0
 62
     7
100
AcDbLine
 10
88.960117
 20
129.30563
 30
0.0
 11
89.281544
 21
129.482536
 31
0.0
  0
LINE
  5
23B
330
A
100
AcDbEntity
  8
0
 62
     7
100
AcDbLine
 10
89.281544
 20
129.482536
 30
0.0
 11
89.94851500000001
 21
129.583305
 31
0.0
  0
LINE
  5
23A
330
A
100
AcDbEntity
  8
0
 62
     7
100
AcDbLine
 10
89.97814299999999
 20
129.569352
 30
0.0
 11
104.708165
 21
128.656402
 31
0.0
  0
LINE
  5
239
330
A
100
AcDbEntity
  8
0
 62
     7
100
AcDbLine
 10
104.708165
 20
128.656402
 30
0.0
 11
110.046513
 21
128.349272
 31
0.0
  0
LINE
  5
238
330
A
100
AcDbEntity
  8
0
 62
     7
100
AcDbLine
 10
110.046513
 20
128.349272
 30
0.0
 11
115.805507
 21
128.041625
 31
0.0
  0
LINE
  5
237
330
A
100
AcDbEntity
  8
0
 62
     7
100
AcDbLine
 10
115.805507
 20
128.041625
 30
0.0
 11
122.988531
 21
127.662836
 31
0.0
  0
LINE
  5
236
330
A
100
AcDbEntity
  8
0
 62
     7
100
AcDbLine
 10
122.988531
 20
127.662836
 30
0.0
 11
129.254815
 21
127.319705
 31
0.0
  0
LINE
  5
235
330
A
100
AcDbEntity
  8
0
 62
     7
100
AcDbLine
 10
129.254815
 20
127.319705
 30
0.0
 11
133.51502
 21
127.078893
 31
0.0
  0
LINE
  5
234
330
A
100
AcDbEntity
  8
0
 62
     7
100
AcDbLine
 10
133.51502
 20
127.078893
 30
0.0
 11
137.366292
 21
126.853928
 31
0.0
  0
LINE
  5
233
330
A
100
AcDbEntity
  8
0
 62
     7
100
AcDbLine
 10
137.366292
 20
126.853928
 30
0.0
 11
142.188737
 21
126.559028
 31
0.0
  0
LINE
  5
232
330
A
100
AcDbEntity
  8
0
 62
     7
100
AcDbLine
 10
147.971674
 20
126.224854
 30
0.0
 11
153.506909
 21
125.924613
 31
0.0
  0
LINE
  5
231
330
A
100
AcDbEntity
  8
0
 62
     7
100
AcDbLine
 10
142.118457
 20
126.559028
 30
0.0
 11
147.971674
 21
126.224854
 31
0.0
  0
LINE
  5
230
330
A
100
AcDbEntity
  8
0
 62
     7
100
AcDbLine
 10
158.352091
 20
125.77079
 30
0.0
 11
161.470936
 21
125.669849
 31
0.0
  0
LINE
  5
22F
330
A
100
AcDbEntity
  8
0
 62
     7
100
AcDbLine
 10
153.506909
 20
125.924613
 30
0.0
 11
158.352091
 21
125.77079
 31
0.0
  0
LINE
  5
22E
330
A
100
AcDbEntity
  8
0
 62
     7
100
AcDbLine
 10
165.067616
 20
125.657274
 30
0.0
 11
168.931291
 21
125.639015
 31
0.0
  0
LINE
  5
22D
330
A
100
AcDbEntity
  8
0
 62
     7
100
AcDbLine
 10
161.470936
 20
125.669849
 30
0.0
 11
165.067616
 21
125.657274
 31
0.0
  0
LINE
  5
22C
330
A
100
AcDbEntity
  8
0
 62
     7
100
AcDbLine
 10
168.931291
 20
125.639015
 30
0.0
 11
172.744667
 21
125.615933
 31
0.0
  0
LINE
  5
22B
330
A
100
AcDbEntity
  8
0
 62
     7
100
AcDbLine
 10
172.744667
 20
125.615933
 30
0.0
 11
176.206299
 21
125.591645
 31
0.0
  0
LINE
  5
22A
330
A
100
AcDbEntity
  8
0
 62
     7
100
AcDbLine
 10
176.206299
 20
125.591645
 30
0.0
 11
179.267955
 21
125.590611
 31
0.0
  0
LINE
  5
229
330
A
100
AcDbEntity
  8
0
 62
     7
100
AcDbLine
 10
184.728776
 20
125.605425
 30
0.0
 11
186.277691
 21
125.606287
 31
0.0
  0
LINE
  5
228
330
A
100
AcDbEntity
  8
0
 62
     7
100
AcDbLine
 10
182.018519
 20
125.594746
 30
0.0
 11
184.728776
 21
125.605425
 31
0.0
  0
LINE
  5
227
330
A
100
AcDbEntity
  8
0
 62
     7
100
AcDbLine
 10
179.267955
 20
125.590611
 30
0.0
 11
182.018519
 21
125.594746
 31
0.0
  0
LINE
  5
226
330
A
100
AcDbEntity
  8
0
 62
     7
100
AcDbLine
 10
186.277691
 20
125.606287
 30
0.0
 11
187.927547
 21
125.474512
 31
0.0
  0
LINE
  5
225
330
A
100
AcDbEntity
  8
0
 62
     7
100
AcDbLine
 10
187.927547
 20
125.474512
 30
0.0
 11
188.97589
 21
125.222331
 31
0.0
  0
LINE
  5
224
330
A
100
AcDbEntity
  8
0
 62
     7
100
AcDbLine
 10
188.97589
 20
125.222331
 30
0.0
 11
189.669387
 21
124.877132
 31
0.0
  0
LINE
  5
223
330
A
100
AcDbEntity
  8
0
 62
     7
100
AcDbLine
 10
189.669387
 20
124.877132
 30
0.0
 11
190.230249
 21
124.439777
 31
0.0
  0
LINE
  5
222
330
A
100
AcDbEntity
  8
0
 62
     7
100
AcDbLine
 10
190.230249
 20
124.439777
 30
0.0
 11
190.571658
 21
124.176227
 31
0.0
  0
LINE
  5
221
330
A
100
AcDbEntity
  8
0
 62
     7
100
AcDbLine
 10
190.571658
 20
124.176227
 30
0.0
 11
190.806613
 21
123.788654
 31
0.0
  0
LINE
  5
220
330
A
100
AcDbEntity
  8
0
 62
     7
100
AcDbLine
 10
190.806613
 20
123.788654
 30
0.0
 11
190.922024
 21
122.976817
 31
0.0
  0
LINE
  5
21F
330
A
100
AcDbEntity
  8
0
 62
     7
100
AcDbLine
 10
190.922024
 20
122.976817
 30
0.0
 11
190.899976
 21
120.890468
 31
0.0
  0
LINE
  5
21E
330
A
100
AcDbEntity
  8
0
 62
     7
100
AcDbLine
 10
228.490101
 20
141.540025
 30
0.0
 11
228.411553
 21
141.928805
 31
0.0
  0
LINE
  5
21D
330
A
100
AcDbEntity
  8
0
 62
     7
100
AcDbLine
 10
228.411553
 20
141.928805
 30
0.0
 11
228.490101
 21
141.540025
 31
0.0
  0
LINE
  5
21C
330
A
100
AcDbEntity
  8
0
 62
     7
100
AcDbLine
 10
228.411553
 20
141.928805
 30
0.0
 11
228.197268
 21
142.246787
 31
0.0
  0
LINE
  5
21B
330
A
100
AcDbEntity
  8
0
 62
     7
100
AcDbLine
 10
228.197268
 20
142.246787
 30
0.0
 11
228.411553
 21
141.928805
 31
0.0
  0
LINE
  5
21A
330
A
100
AcDbEntity
  8
0
 62
     7
100
AcDbLine
 10
228.197268
 20
142.246787
 30
0.0
 11
227.879286
 21
142.461589
 31
0.0
  0
LINE
  5
219
330
A
100
AcDbEntity
  8
0
 62
     7
100
AcDbLine
 10
227.879286
 20
142.461589
 30
0.0
 11
228.197268
 21
142.246787
 31
0.0
  0
LINE
  5
218
330
A
100
AcDbEntity
  8
0
 62
     7
100
AcDbLine
 10
227.879286
 20
142.461589
 30
0.0
 11
227.48999
 21
142.540481
 31
0.0
  0
LINE
  5
217
330
A
100
AcDbEntity
  8
0
 62
     7
100
AcDbLine
 10
227.48999
 20
142.540481
 30
0.0
 11
227.879286
 21
142.461589
 31
0.0
  0
LINE
  5
216
330
A
100
AcDbEntity
  8
0
 62
     7
100
AcDbLine
 10
227.48999
 20
142.540481
 30
0.0
 11
69.369065
 21
142.540481
 31
0.0
  0
LINE
  5
215
330
A
100
AcDbEntity
  8
0
 62
     7
100
AcDbLine
 10
69.369065
 20
142.540481
 30
0.0
 11
68.97908000000001
 21
142.461589
 31
0.0
  0
LINE
  5
214
330
A
100
AcDbEntity
  8
0
 62
     7
100
AcDbLine
 10
68.97908000000001
 20
142.461589
 30
0.0
 11
68.660753
 21
142.246787
 31
0.0
  0
LINE
  5
213
330
A
100
AcDbEntity
  8
0
 62
     7
100
AcDbLine
 10
68.660753
 20
142.246787
 30
0.0
 11
68.44629599999999
 21
141.928805
 31
0.0
  0
LINE
  5
212
330
A
100
AcDbEntity
  8
0
 62
     7
100
AcDbLine
 10
68.44629599999999
 20
141.928805
 30
0.0
 11
68.36774799999999
 21
141.540025
 31
0.0
  0
LINE
  5
211
330
A
100
AcDbEntity
  8
0
 62
     7
100
AcDbLine
 10
68.36774799999999
 20
141.540025
 30
0.0
 11
68.44629599999999
 21
141.928805
 31
0.0
  0
LINE
  5
210
330
A
100
AcDbEntity
  8
0
 62
     7
100
AcDbLine
 10
76.39327
 20
105.044406
 30
0.0
 11
76.26442299999999
 21
124.430303
 31
0.0
  0
LINE
  5
20F
330
A
100
AcDbEntity
  8
0
 62
     7
100
AcDbLine
 10
76.26442299999999
 20
124.430303
 30
0.0
 11
76.397921
 21
129.682696
 31
0.0
  0
LINE
  5
20E
330
A
100
AcDbEntity
  8
0
 62
     7
100
AcDbLine
 10
76.397921
 20
129.682696
 30
0.0
 11
76.69609399999998
 21
131.715474
 31
0.0
  0
LINE
  5
20D
330
A
100
AcDbEntity
  8
0
 62
     7
100
AcDbLine
 10
76.69609399999998
 20
131.715474
 30
0.0
 11
77.534458
 21
133.533624
 31
0.0
  0
LINE
  5
20C
330
A
100
AcDbEntity
  8
0
 62
     7
100
AcDbLine
 10
77.534458
 20
133.533624
 30
0.0
 11
78.83928799999999
 21
135.090634
 31
0.0
  0
LINE
  5
20B
330
A
100
AcDbEntity
  8
0
 62
     7
100
AcDbLine
 10
78.83928799999999
 20
135.090634
 30
0.0
 11
80.53599699999999
 21
136.303653
 31
0.0
  0
LINE
  5
20A
330
A
100
AcDbEntity
  8
0
 62
     7
100
AcDbLine
 10
80.53599699999999
 20
136.303653
 30
0.0
 11
82.55034499999998
 21
137.090168
 31
0.0
  0
LINE
  5
209
330
A
100
AcDbEntity
  8
0
 62
     7
100
AcDbLine
 10
82.55034499999998
 20
137.090168
 30
0.0
 11
84.84133299999999
 21
137.370943
 31
0.0
  0
LINE
  5
208
330
A
100
AcDbEntity
  8
0
 62
     7
100
AcDbLine
 10
200.143167
 20
137.36991
 30
0.0
 11
84.90627299999999
 21
137.370943
 31
0.0
  0
LINE
  5
207
330
A
100
AcDbEntity
  8
0
 62
     7
100
AcDbLine
 10
200.143167
 20
137.36991
 30
0.0
 11
204.231462
 21
137.344933
 31
0.0
  0
LINE
  5
206
330
A
100
AcDbEntity
  8
0
 62
     7
100
AcDbLine
 10
219.601411
 20
131.385779
 30
0.0
 11
220.196379
 21
125.186846
 31
0.0
  0
LINE
  5
205
330
A
100
AcDbEntity
  8
0
 62
     7
100
AcDbLine
 10
220.196379
 20
125.186846
 30
0.0
 11
220.545367
 21
119.006173
 31
0.0
  0
LINE
  5
204
330
A
100
AcDbEntity
  8
0
 62
     7
100
AcDbLine
 10
220.545367
 20
119.006173
 30
0.0
 11
220.918471
 21
112.642392
 31
0.0
  0
LINE
  5
203
330
A
100
AcDbEntity
  8
0
 62
     7
100
AcDbLine
 10
220.918471
 20
112.642392
 30
0.0
 11
221.206481
 21
105.044406
 31
0.0
  0
LINE
  5
202
330
A
100
AcDbEntity
  8
0
 62
     7
100
AcDbLine
 10
159.928223
 20
136.01926
 30
0.0
 11
159.948204
 21
136.01926
 31
0.0
  0
LINE
  5
201
330
A
100
AcDbEntity
  8
0
 62
     7
100
AcDbLine
 10
204.231462
 20
137.344933
 30
0.0
 11
207.104671
 21
137.255188
 31
0.0
  0
LINE
  5
200
330
A
100
AcDbEntity
  8
0
 62
     7
100
AcDbLine
 10
207.104671
 20
137.255188
 30
0.0
 11
210.019567
 21
137.044865
 31
0.0
  0
LINE
  5
1FF
330
A
100
AcDbEntity
  8
0
 62
     7
100
AcDbLine
 10
210.019567
 20
137.044865
 30
0.0
 11
213.699273
 21
136.363597
 31
0.0
  0
LINE
  5
1FE
330
A
100
AcDbEntity
  8
0
 62
     7
100
AcDbLine
 10
213.699273
 20
136.363597
 30
0.0
 11
215.791479
 21
135.707996
 31
0.0
  0
LINE
  5
1FD
330
A
100
AcDbEntity
  8
0
 62
     7
100
AcDbLine
 10
219.102905
 20
133.11625
 30
0.0
 11
219.601066
 21
131.390257
 31
0.0
  0
LINE
  5
1FC
330
A
100
AcDbEntity
  8
0
 62
     7
100
AcDbLine
 10
218.403895
 20
134.258472
 30
0.0
 11
219.102905
 21
133.11625
 31
0.0
  0
LINE
  5
1FB
330
A
100
AcDbEntity
  8
0
 62
     7
100
AcDbLine
 10
217.488878
 20
135.026728
 30
0.0
 11
218.403895
 21
134.258472
 31
0.0
  0
LINE
  5
1FA
330
A
100
AcDbEntity
  8
0
 62
     7
100
AcDbLine
 10
215.791479
 20
135.707996
 30
0.0
 11
217.488878
 21
135.026728
 31
0.0
  0
LINE
  5
1F9
330
A
100
AcDbEntity
  8
0
 62
     7
100
AcDbLine
 10
204.230773
 20
72.74353599999999
 30
0.0
 11
207.103638
 21
72.833453
 31
0.0
  0
LINE
  5
1F8
330
A
100
AcDbEntity
  8
0
 62
     7
100
AcDbLine
 10
207.103638
 20
72.833453
 30
0.0
 11
210.018533
 21
73.043604
 31
0.0
  0
LINE
  5
1F7
330
A
100
AcDbEntity
  8
0
 62
     7
100
AcDbLine
 10
210.018533
 20
73.043604
 30
0.0
 11
213.698239
 21
73.724699
 31
0.0
  0
LINE
  5
1F6
330
A
100
AcDbEntity
  8
0
 62
     7
100
AcDbLine
 10
213.698239
 20
73.724699
 30
0.0
 11
215.790446
 21
74.380301
 31
0.0
  0
LINE
  5
1F5
330
A
100
AcDbEntity
  8
0
 62
     7
100
AcDbLine
 10
219.101872
 20
76.97204599999999
 30
0.0
 11
219.600377
 21
78.69838299999999
 31
0.0
  0
LINE
  5
1F4
330
A
100
AcDbEntity
  8
0
 62
     7
100
AcDbLine
 10
218.402862
 20
75.82999699999999
 30
0.0
 11
219.101872
 21
76.97204599999999
 31
0.0
  0
LINE
  5
1F3
330
A
100
AcDbEntity
  8
0
 62
     7
100
AcDbLine
 10
217.487845
 20
75.06174
 30
0.0
 11
218.402862
 21
75.82999699999999
 31
0.0
  0
LINE
  5
1F2
330
A
100
AcDbEntity
  8
0
 62
     7
100
AcDbLine
 10
215.790446
 20
74.380301
 30
0.0
 11
217.487845
 21
75.06174
 31
0.0
  0
LINE
  5
1F1
330
A
100
AcDbEntity
  8
0
 62
     7
100
AcDbLine
 10
142.477608
 20
132.78311
 30
0.0
 11
142.735818
 21
132.75641
 31
0.0
  0
LINE
  5
1F0
330
A
100
AcDbEntity
  8
0
 62
     7
100
AcDbLine
 10
202.933005
 20
135.817205
 30
0.0
 11
205.667033
 21
135.757433
 31
0.0
  0
LINE
  5
1EF
330
A
100
AcDbEntity
  8
0
 62
     7
100
AcDbLine
 10
205.667033
 20
135.757433
 30
0.0
 11
209.65921
 21
135.610672
 31
0.0
  0
LINE
  5
1EE
330
A
100
AcDbEntity
  8
0
 62
     7
100
AcDbLine
 10
209.65921
 20
135.610672
 30
0.0
 11
212.36671
 21
135.362797
 31
0.0
  0
LINE
  5
1ED
330
A
100
AcDbEntity
  8
0
 62
     7
100
AcDbLine
 10
212.355341
 20
135.074443
 30
0.0
 11
209.860403
 21
134.881173
 31
0.0
  0
LINE
  5
1EC
330
A
100
AcDbEntity
  8
0
 62
     7
100
AcDbLine
 10
209.860403
 20
134.881173
 30
0.0
 11
205.898199
 21
134.386801
 31
0.0
  0
LINE
  5
1EB
330
A
100
AcDbEntity
  8
0
 62
     7
100
AcDbLine
 10
205.898199
 20
134.386801
 30
0.0
 11
203.155214
 21
133.914134
 31
0.0
  0
LINE
  5
1EA
330
A
100
AcDbEntity
  8
0
 62
     7
100
AcDbLine
 10
203.155214
 20
133.914134
 30
0.0
 11
198.612855
 21
133.194626
 31
0.0
  0
LINE
  5
1E9
330
A
100
AcDbEntity
  8
0
 62
     7
100
AcDbLine
 10
113.8395629999999
 20
135.8165159999999
 30
0.0
 11
121.323516
 21
135.817377
 31
0.0
  0
LINE
  5
1E8
330
A
100
AcDbEntity
  8
0
 62
     7
100
AcDbLine
 10
108.168247
 20
135.801702
 30
0.0
 11
113.8395629999999
 21
135.8165159999999
 31
0.0
  0
LINE
  5
1E7
330
A
100
AcDbEntity
  8
0
 62
     7
100
AcDbLine
 10
108.168247
 20
135.801702
 30
0.0
 11
102.077835
 21
135.950358
 31
0.0
  0
LINE
  5
1E6
330
A
100
AcDbEntity
  8
0
 62
     7
100
AcDbLine
 10
198.612855
 20
133.194626
 30
0.0
 11
194.057406
 21
132.56469
 31
0.0
  0
LINE
  5
1E5
330
A
100
AcDbEntity
  8
0
 62
     7
100
AcDbLine
 10
194.057406
 20
132.56469
 30
0.0
 11
189.028944
 21
131.98023
 31
0.0
  0
LINE
  5
1E4
330
A
100
AcDbEntity
  8
0
 62
     7
100
AcDbLine
 10
189.028944
 20
131.98023
 30
0.0
 11
183.357284
 21
131.518759
 31
0.0
  0
LINE
  5
1E3
330
A
100
AcDbEntity
  8
0
 62
     7
100
AcDbLine
 10
183.357284
 20
131.518759
 30
0.0
 11
177.108225
 21
131.126535
 31
0.0
  0
LINE
  5
1E2
330
A
100
AcDbEntity
  8
0
 62
     7
100
AcDbLine
 10
177.108225
 20
131.126535
 30
0.0
 11
170.786475
 21
130.870737
 31
0.0
  0
LINE
  5
1E1
330
A
100
AcDbEntity
  8
0
 62
     7
100
AcDbLine
 10
170.786475
 20
130.870737
 30
0.0
 11
164.897773
 21
130.818372
 31
0.0
  0
LINE
  5
1E0
330
A
100
AcDbEntity
  8
0
 62
     7
100
AcDbLine
 10
164.897773
 20
130.818372
 30
0.0
 11
159.948204
 21
131.036618
 31
0.0
  0
LINE
  5
1DF
330
A
100
AcDbEntity
  8
0
 62
     7
100
AcDbLine
 10
128.278647
 20
135.817377
 30
0.0
 11
121.323516
 21
135.817377
 31
0.0
  0
LINE
  5
1DE
330
A
100
AcDbEntity
  8
0
 62
     7
100
AcDbLine
 10
133.081972
 20
135.817205
 30
0.0
 11
128.278647
 21
135.817377
 31
0.0
  0
LINE
  5
1DD
330
A
100
AcDbEntity
  8
0
 62
     7
100
AcDbLine
 10
137.242786
 20
135.817377
 30
0.0
 11
133.081972
 21
135.817205
 31
0.0
  0
LINE
  5
1DC
330
A
100
AcDbEntity
  8
0
 62
     7
100
AcDbLine
 10
142.571143
 20
135.817205
 30
0.0
 11
137.242786
 21
135.817377
 31
0.0
  0
LINE
  5
1DB
330
A
100
AcDbEntity
  8
0
 62
     7
100
AcDbLine
 10
148.901161
 20
135.817377
 30
0.0
 11
145.814011
 21
135.817377
 31
0.0
  0
LINE
  5
1DA
330
A
100
AcDbEntity
  8
0
 62
     7
100
AcDbLine
 10
142.769063
 20
135.817205
 30
0.0
 11
142.55185
 21
135.817205
 31
0.0
  0
LINE
  5
1D9
330
A
100
AcDbEntity
  8
0
 62
     7
100
AcDbLine
 10
154.910441
 20
135.817205
 30
0.0
 11
148.901161
 21
135.817377
 31
0.0
  0
LINE
  5
1D8
330
A
100
AcDbEntity
  8
0
 62
     7
100
AcDbLine
 10
159.942348
 20
135.817377
 30
0.0
 11
154.910441
 21
135.817205
 31
0.0
  0
LINE
  5
1D7
330
A
100
AcDbEntity
  8
0
 62
     7
100
AcDbLine
 10
164.855054
 20
135.817377
 30
0.0
 11
159.942348
 21
135.817377
 31
0.0
  0
LINE
  5
1D6
330
A
100
AcDbEntity
  8
0
 62
     7
100
AcDbLine
 10
170.706548
 20
135.817377
 30
0.0
 11
164.855054
 21
135.817377
 31
0.0
  0
LINE
  5
1D5
330
A
100
AcDbEntity
  8
0
 62
     7
100
AcDbLine
 10
176.993848
 20
135.817377
 30
0.0
 11
170.706548
 21
135.817377
 31
0.0
  0
LINE
  5
1D4
330
A
100
AcDbEntity
  8
0
 62
     7
100
AcDbLine
 10
183.210867
 20
135.817377
 30
0.0
 11
176.993848
 21
135.817377
 31
0.0
  0
LINE
  5
1D3
330
A
100
AcDbEntity
  8
0
 62
     7
100
AcDbLine
 10
188.855656
 20
135.817377
 30
0.0
 11
183.210867
 21
135.817377
 31
0.0
  0
LINE
  5
1D2
330
A
100
AcDbEntity
  8
0
 62
     7
100
AcDbLine
 10
193.864825
 20
135.817205
 30
0.0
 11
188.855656
 21
135.817377
 31
0.0
  0
LINE
  5
1D1
330
A
100
AcDbEntity
  8
0
 62
     7
100
AcDbLine
 10
198.406494
 20
135.817205
 30
0.0
 11
193.864825
 21
135.817205
 31
0.0
  0
LINE
  5
1D0
330
A
100
AcDbEntity
  8
0
 62
     7
100
AcDbLine
 10
202.933005
 20
135.817205
 30
0.0
 11
198.406494
 21
135.817205
 31
0.0
  0
LINE
  5
1CF
330
A
100
AcDbEntity
  8
0
 62
     7
100
AcDbLine
 10
164.860221
 20
131.412306
 30
0.0
 11
159.943726
 21
131.630725
 31
0.0
  0
LINE
  5
1CE
330
A
100
AcDbEntity
  8
0
 62
     7
100
AcDbLine
 10
159.943726
 20
131.630725
 30
0.0
 11
154.90803
 21
132.105632
 31
0.0
  0
LINE
  5
1CD
330
A
100
AcDbEntity
  8
0
 62
     7
100
AcDbLine
 10
154.90803
 20
132.105632
 30
0.0
 11
148.89496
 21
132.719203
 31
0.0
  0
LINE
  5
1CC
330
A
100
AcDbEntity
  8
0
 62
     7
100
AcDbLine
 10
148.89496
 20
132.719203
 30
0.0
 11
145.947681
 21
133.03374
 31
0.0
  0
LINE
  5
1CB
330
A
100
AcDbEntity
  8
0
 62
     7
100
AcDbLine
 10
142.716698
 20
133.345521
 30
0.0
 11
137.229522
 21
133.999745
 31
0.0
  0
LINE
  5
1CA
330
A
100
AcDbEntity
  8
0
 62
     7
100
AcDbLine
 10
137.229522
 20
133.999745
 30
0.0
 11
133.064918
 21
134.471034
 31
0.0
  0
LINE
  5
1C9
330
A
100
AcDbEntity
  8
0
 62
     7
100
AcDbLine
 10
133.064918
 20
134.471034
 30
0.0
 11
128.257804
 21
134.809515
 31
0.0
  0
LINE
  5
1C8
330
A
100
AcDbEntity
  8
0
 62
     7
100
AcDbLine
 10
128.257804
 20
134.809515
 30
0.0
 11
121.297506
 21
135.053083
 31
0.0
  0
LINE
  5
1C7
330
A
100
AcDbEntity
  8
0
 62
     7
100
AcDbLine
 10
170.71585
 20
131.465016
 30
0.0
 11
164.860221
 21
131.412306
 31
0.0
  0
LINE
  5
1C6
330
A
100
AcDbEntity
  8
0
 62
     7
100
AcDbLine
 10
177.007973
 20
131.721503
 30
0.0
 11
170.71585
 21
131.465016
 31
0.0
  0
LINE
  5
1C5
330
A
100
AcDbEntity
  8
0
 62
     7
100
AcDbLine
 10
183.229815
 20
132.114589
 30
0.0
 11
177.007973
 21
131.721503
 31
0.0
  0
LINE
  5
1C4
330
A
100
AcDbEntity
  8
0
 62
     7
100
AcDbLine
 10
188.878738
 20
132.577093
 30
0.0
 11
183.229815
 21
132.114589
 31
0.0
  0
LINE
  5
1C3
330
A
100
AcDbEntity
  8
0
 62
     7
100
AcDbLine
 10
193.891697
 20
133.152252
 30
0.0
 11
188.878738
 21
132.577093
 31
0.0
  0
LINE
  5
1C2
330
A
100
AcDbEntity
  8
0
 62
     7
100
AcDbLine
 10
198.436122
 20
133.78701
 30
0.0
 11
193.891697
 21
133.152252
 31
0.0
  0
LINE
  5
1C1
330
A
100
AcDbEntity
  8
0
 62
     7
100
AcDbLine
 10
202.966078
 20
134.375605
 30
0.0
 11
198.436122
 21
133.78701
 31
0.0
  0
LINE
  5
1C0
330
A
100
AcDbEntity
  8
0
 62
     7
100
AcDbLine
 10
108.138619
 20
135.552105
 30
0.0
 11
102.073184
 21
135.928654
 31
0.0
  0
LINE
  5
1BF
330
A
100
AcDbEntity
  8
0
 62
     7
100
AcDbLine
 10
121.297506
 20
135.053083
 30
0.0
 11
113.807007
 21
135.285627
 31
0.0
  0
LINE
  5
1BE
330
A
100
AcDbEntity
  8
0
 62
     7
100
AcDbLine
 10
113.807007
 20
135.285627
 30
0.0
 11
108.138619
 21
135.552105
 31
0.0
  0
LINE
  5
1BD
330
A
100
AcDbEntity
  8
0
 62
     7
100
AcDbLine
 10
205.703206
 20
134.8183
 30
0.0
 11
202.966078
 21
134.375605
 31
0.0
  0
LINE
  5
1BC
330
A
100
AcDbEntity
  8
0
 62
     7
100
AcDbLine
 10
209.724322
 20
135.224304
 30
0.0
 11
205.703206
 21
134.8183
 31
0.0
  0
LINE
  5
1BB
330
A
100
AcDbEntity
  8
0
 62
     7
100
AcDbLine
 10
212.36671
 20
135.362797
 30
0.0
 11
209.724322
 21
135.224304
 31
0.0
  0
LINE
  5
1BA
330
A
100
AcDbEntity
  8
0
 62
     7
100
AcDbLine
 10
154.88667
 20
131.510664
 30
0.0
 11
159.948204
 21
131.036618
 31
0.0
  0
LINE
  5
1B9
330
A
100
AcDbEntity
  8
0
 62
     7
100
AcDbLine
 10
148.853963
 20
132.122685
 30
0.0
 11
154.88667
 21
131.510664
 31
0.0
  0
LINE
  5
1B8
330
A
100
AcDbEntity
  8
0
 62
     7
100
AcDbLine
 10
145.968007
 20
132.4203409999999
 30
0.0
 11
148.853963
 21
132.122685
 31
0.0
  0
LINE
  5
1B7
330
A
100
AcDbEntity
  8
0
 62
     7
100
AcDbLine
 10
137.153902
 20
133.400643
 30
0.0
 11
142.505858
 21
132.78311
 31
0.0
  0
LINE
  5
1B6
330
A
100
AcDbEntity
  8
0
 62
     7
100
AcDbLine
 10
132.977585
 20
133.870209
 30
0.0
 11
137.153902
 21
133.400643
 31
0.0
  0
LINE
  5
1B5
330
A
100
AcDbEntity
  8
0
 62
     7
100
AcDbLine
 10
128.161686
 20
134.20714
 30
0.0
 11
132.977585
 21
133.870209
 31
0.0
  0
LINE
  5
1B4
330
A
100
AcDbEntity
  8
0
 62
     7
100
AcDbLine
 10
121.183301
 20
134.449674
 30
0.0
 11
128.161686
 21
134.20714
 31
0.0
  0
LINE
  5
1B3
330
A
100
AcDbEntity
  8
0
 62
     7
100
AcDbLine
 10
113.672476
 20
134.858435
 30
0.0
 11
121.183301
 21
134.449674
 31
0.0
  0
LINE
  5
1B2
330
A
100
AcDbEntity
  8
0
 62
     7
100
AcDbLine
 10
107.994442
 20
135.294756
 30
0.0
 11
113.672476
 21
134.858435
 31
0.0
  0
LINE
  5
1B1
330
A
100
AcDbEntity
  8
0
 62
     7
100
AcDbLine
 10
102.061126
 20
135.876633
 30
0.0
 11
107.994442
 21
135.294756
 31
0.0
  0
LINE
  5
1B0
330
A
100
AcDbEntity
  8
0
 62
     7
100
AcDbLine
 10
87.8396
 20
85.722588
 30
0.0
 11
87.878874
 21
105.044406
 31
0.0
  0
LINE
  5
1AF
330
A
100
AcDbEntity
  8
0
 62
     7
100
AcDbLine
 10
87.88507499999999
 20
82.41529699999999
 30
0.0
 11
87.8396
 21
85.722588
 31
0.0
  0
LINE
  5
1AE
330
A
100
AcDbEntity
  8
0
 62
     7
100
AcDbLine
 10
88.02994100000001
 20
81.66633299999999
 30
0.0
 11
87.88507499999999
 21
82.41529699999999
 31
0.0
  0
LINE
  5
1AD
330
A
100
AcDbEntity
  8
0
 62
     7
100
AcDbLine
 10
88.25438899999999
 20
81.37212199999998
 30
0.0
 11
88.02994100000001
 21
81.66633299999999
 31
0.0
  0
LINE
  5
1AC
330
A
100
AcDbEntity
  8
0
 62
     7
100
AcDbLine
 10
88.58908000000001
 20
81.05586200000001
 30
0.0
 11
88.25438899999999
 21
81.37212199999998
 31
0.0
  0
LINE
  5
1AB
330
A
100
AcDbEntity
  8
0
 62
     7
100
AcDbLine
 10
88.960117
 20
80.78335499999999
 30
0.0
 11
88.58908000000001
 21
81.05586200000001
 31
0.0
  0
LINE
  5
1AA
330
A
100
AcDbEntity
  8
0
 62
     7
100
AcDbLine
 10
89.281544
 20
80.60627700000001
 30
0.0
 11
88.960117
 21
80.78335499999999
 31
0.0
  0
LINE
  5
1A9
330
A
100
AcDbEntity
  8
0
 62
     7
100
AcDbLine
 10
89.94851500000001
 20
80.50568
 30
0.0
 11
89.281544
 21
80.60627700000001
 31
0.0
  0
LINE
  5
1A8
330
A
100
AcDbEntity
  8
0
 62
     7
100
AcDbLine
 10
104.708165
 20
81.432411
 30
0.0
 11
89.60848399999999
 21
80.50568
 31
0.0
  0
LINE
  5
1A7
330
A
100
AcDbEntity
  8
0
 62
     7
100
AcDbLine
 10
110.046513
 20
81.739714
 30
0.0
 11
104.708165
 21
81.432411
 31
0.0
  0
LINE
  5
1A6
330
A
100
AcDbEntity
  8
0
 62
     7
100
AcDbLine
 10
115.805507
 20
82.04736099999999
 30
0.0
 11
110.046513
 21
81.739714
 31
0.0
  0
LINE
  5
1A5
330
A
100
AcDbEntity
  8
0
 62
     7
100
AcDbLine
 10
122.988531
 20
82.42597700000001
 30
0.0
 11
115.805507
 21
82.04736099999999
 31
0.0
  0
LINE
  5
1A4
330
A
100
AcDbEntity
  8
0
 62
     7
100
AcDbLine
 10
129.254815
 20
82.76910800000001
 30
0.0
 11
122.988531
 21
82.42597700000001
 31
0.0
  0
LINE
  5
1A3
330
A
100
AcDbEntity
  8
0
 62
     7
100
AcDbLine
 10
133.51502
 20
83.00991999999999
 30
0.0
 11
129.254815
 21
82.76910800000001
 31
0.0
  0
LINE
  5
1A2
330
A
100
AcDbEntity
  8
0
 62
     7
100
AcDbLine
 10
137.366292
 20
83.23488499999999
 30
0.0
 11
133.51502
 21
83.00991999999999
 31
0.0
  0
LINE
  5
1A1
330
A
100
AcDbEntity
  8
0
 62
     7
100
AcDbLine
 10
142.188737
 20
83.529785
 30
0.0
 11
137.366292
 21
83.23488499999999
 31
0.0
  0
LINE
  5
1A0
330
A
100
AcDbEntity
  8
0
 62
     7
100
AcDbLine
 10
147.971674
 20
83.863959
 30
0.0
 11
142.118457
 21
83.529785
 31
0.0
  0
LINE
  5
19F
330
A
100
AcDbEntity
  8
0
 62
     7
100
AcDbLine
 10
153.506909
 20
84.164027
 30
0.0
 11
147.971674
 21
83.863959
 31
0.0
  0
LINE
  5
19E
330
A
100
AcDbEntity
  8
0
 62
     7
100
AcDbLine
 10
158.352091
 20
84.31802299999999
 30
0.0
 11
153.506909
 21
84.164027
 31
0.0
  0
LINE
  5
19D
330
A
100
AcDbEntity
  8
0
 62
     7
100
AcDbLine
 10
161.470936
 20
84.418964
 30
0.0
 11
158.352091
 21
84.31802299999999
 31
0.0
  0
LINE
  5
19C
330
A
100
AcDbEntity
  8
0
 62
     7
100
AcDbLine
 10
165.067616
 20
84.43136700000001
 30
0.0
 11
161.470936
 21
84.418964
 31
0.0
  0
LINE
  5
19B
330
A
100
AcDbEntity
  8
0
 62
     7
100
AcDbLine
 10
168.931291
 20
84.44996999999998
 30
0.0
 11
165.067616
 21
84.43136700000001
 31
0.0
  0
LINE
  5
19A
330
A
100
AcDbEntity
  8
0
 62
     7
100
AcDbLine
 10
172.744667
 20
84.473052
 30
0.0
 11
168.931291
 21
84.44996999999998
 31
0.0
  0
LINE
  5
199
330
A
100
AcDbEntity
  8
0
 62
     7
100
AcDbLine
 10
176.206299
 20
84.497168
 30
0.0
 11
172.744667
 21
84.473052
 31
0.0
  0
LINE
  5
198
330
A
100
AcDbEntity
  8
0
 62
     7
100
AcDbLine
 10
179.267955
 20
84.498201
 30
0.0
 11
176.206299
 21
84.497168
 31
0.0
  0
LINE
  5
197
330
A
100
AcDbEntity
  8
0
 62
     7
100
AcDbLine
 10
182.018519
 20
84.494067
 30
0.0
 11
179.267955
 21
84.498201
 31
0.0
  0
LINE
  5
196
330
A
100
AcDbEntity
  8
0
 62
     7
100
AcDbLine
 10
184.728776
 20
84.483388
 30
0.0
 11
182.018519
 21
84.494067
 31
0.0
  0
LINE
  5
195
330
A
100
AcDbEntity
  8
0
 62
     7
100
AcDbLine
 10
186.277691
 20
84.48235399999999
 30
0.0
 11
184.728776
 21
84.483388
 31
0.0
  0
LINE
  5
194
330
A
100
AcDbEntity
  8
0
 62
     7
100
AcDbLine
 10
187.927547
 20
84.61430099999999
 30
0.0
 11
186.277691
 21
84.48235399999999
 31
0.0
  0
LINE
  5
193
330
A
100
AcDbEntity
  8
0
 62
     7
100
AcDbLine
 10
188.97589
 20
84.86648199999999
 30
0.0
 11
187.927547
 21
84.61430099999999
 31
0.0
  0
LINE
  5
192
330
A
100
AcDbEntity
  8
0
 62
     7
100
AcDbLine
 10
189.669387
 20
85.211681
 30
0.0
 11
188.97589
 21
84.86648199999999
 31
0.0
  0
LINE
  5
191
330
A
100
AcDbEntity
  8
0
 62
     7
100
AcDbLine
 10
190.230249
 20
85.64886300000001
 30
0.0
 11
189.669387
 21
85.211681
 31
0.0
  0
LINE
  5
190
330
A
100
AcDbEntity
  8
0
 62
     7
100
AcDbLine
 10
190.571658
 20
85.912758
 30
0.0
 11
190.230249
 21
85.64886300000001
 31
0.0
  0
LINE
  5
18F
330
A
100
AcDbEntity
  8
0
 62
     7
100
AcDbLine
 10
190.806613
 20
86.300331
 30
0.0
 11
190.571658
 21
85.912758
 31
0.0
  0
LINE
  5
18E
330
A
100
AcDbEntity
  8
0
 62
     7
100
AcDbLine
 10
190.922024
 20
87.11199499999999
 30
0.0
 11
190.806613
 21
86.300331
 31
0.0
  0
LINE
  5
18D
330
A
100
AcDbEntity
  8
0
 62
     7
100
AcDbLine
 10
190.899976
 20
89.19834499999998
 30
0.0
 11
190.922024
 21
87.11199499999999
 31
0.0
  0
LINE
  5
18C
330
A
100
AcDbEntity
  8
0
 62
     7
100
AcDbLine
 10
190.939939
 20
111.624022
 30
0.0
 11
190.93925
 21
105.044406
 31
0.0
  0
LINE
  5
18B
330
A
100
AcDbEntity
  8
0
 62
     7
100
AcDbLine
 10
190.92168
 20
116.464209
 30
0.0
 11
190.939939
 21
111.624022
 31
0.0
  0
LINE
  5
18A
330
A
100
AcDbEntity
  8
0
 62
     7
100
AcDbLine
 10
190.899976
 20
120.890468
 30
0.0
 11
190.92168
 21
116.464209
 31
0.0
  0
LINE
  5
189
330
A
100
AcDbEntity
  8
0
 62
     7
100
AcDbLine
 10
190.92168
 20
93.62460400000001
 30
0.0
 11
190.899976
 21
89.19834499999998
 31
0.0
  0
LINE
  5
188
330
A
100
AcDbEntity
  8
0
 62
     7
100
AcDbLine
 10
190.939939
 20
98.464963
 30
0.0
 11
190.92168
 21
93.62460400000001
 31
0.0
  0
LINE
  5
187
330
A
100
AcDbEntity
  8
0
 62
     7
100
AcDbLine
 10
190.93925
 20
105.044406
 30
0.0
 11
190.939939
 21
98.464963
 31
0.0
  0
LINE
  5
186
330
A
100
AcDbEntity
  8
0
 62
     7
100
AcDbLine
 10
228.490101
 20
68.548787
 30
0.0
 11
228.411553
 21
68.160181
 31
0.0
  0
LINE
  5
185
330
A
100
AcDbEntity
  8
0
 62
     7
100
AcDbLine
 10
228.411553
 20
68.160181
 30
0.0
 11
228.197268
 21
67.841854
 31
0.0
  0
LINE
  5
184
330
A
100
AcDbEntity
  8
0
 62
     7
100
AcDbLine
 10
228.197268
 20
67.841854
 30
0.0
 11
227.879286
 21
67.627224
 31
0.0
  0
LINE
  5
183
330
A
100
AcDbEntity
  8
0
 62
     7
100
AcDbLine
 10
227.879286
 20
67.627224
 30
0.0
 11
227.48999
 21
67.54833199999999
 31
0.0
  0
LINE
  5
182
330
A
100
AcDbEntity
  8
0
 62
     7
100
AcDbLine
 10
69.369065
 20
67.54833199999999
 30
0.0
 11
227.48999
 21
67.54833199999999
 31
0.0
  0
LINE
  5
181
330
A
100
AcDbEntity
  8
0
 62
     7
100
AcDbLine
 10
68.97908000000001
 20
67.627224
 30
0.0
 11
69.369065
 21
67.54833199999999
 31
0.0
  0
LINE
  5
180
330
A
100
AcDbEntity
  8
0
 62
     7
100
AcDbLine
 10
68.660753
 20
67.84219799999999
 30
0.0
 11
68.97908000000001
 21
67.627224
 31
0.0
  0
LINE
  5
17F
330
A
100
AcDbEntity
  8
0
 62
     7
100
AcDbLine
 10
68.44629599999999
 20
68.160181
 30
0.0
 11
68.660753
 21
67.84219799999999
 31
0.0
  0
LINE
  5
17E
330
A
100
AcDbEntity
  8
0
 62
     7
100
AcDbLine
 10
68.44629599999999
 20
68.160181
 30
0.0
 11
68.36774799999999
 21
68.548787
 31
0.0
  0
LINE
  5
17D
330
A
100
AcDbEntity
  8
0
 62
     7
100
AcDbLine
 10
68.36774799999999
 20
124.433576
 30
0.0
 11
68.36326899999999
 21
105.044406
 31
0.0
  0
LINE
  5
17C
330
A
100
AcDbEntity
  8
0
 62
     7
100
AcDbLine
 10
68.36774799999999
 20
141.540025
 30
0.0
 11
68.36774799999999
 21
124.433576
 31
0.0
  0
LINE
  5
17B
330
A
100
AcDbEntity
  8
0
 62
     7
100
AcDbLine
 10
68.36774799999999
 20
85.65506500000001
 30
0.0
 11
68.36774799999999
 21
68.548787
 31
0.0
  0
LINE
  5
17A
330
A
100
AcDbEntity
  8
0
 62
     7
100
AcDbLine
 10
68.36326899999999
 20
105.044406
 30
0.0
 11
68.36774799999999
 21
85.65506500000001
 31
0.0
  0
LINE
  5
179
330
A
100
AcDbEntity
  8
0
 62
     7
100
AcDbLine
 10
228.490101
 20
85.65506500000001
 30
0.0
 11
228.490101
 21
68.548787
 31
0.0
  0
LINE
  5
178
330
A
100
AcDbEntity
  8
0
 62
     7
100
AcDbLine
 10
228.49458
 20
105.044406
 30
0.0
 11
228.490101
 21
85.65506500000001
 31
0.0
  0
LINE
  5
177
330
A
100
AcDbEntity
  8
0
 62
     7
100
AcDbLine
 10
228.490101
 20
124.433576
 30
0.0
 11
228.49458
 21
105.044406
 31
0.0
  0
LINE
  5
176
330
A
100
AcDbEntity
  8
0
 62
     7
100
AcDbLine
 10
228.490101
 20
141.540025
 30
0.0
 11
228.490101
 21
124.433576
 31
0.0
  0
LINE
  5
175
330
A
100
AcDbEntity
  8
0
 62
     7
100
AcDbLine
 10
228.490101
 20
124.433576
 30
0.0
 11
228.490101
 21
141.540025
 31
0.0
  0
LINE
  5
174
330
A
100
AcDbEntity
  8
0
 62
     7
100
AcDbLine
 10
228.49458
 20
105.044406
 30
0.0
 11
228.490101
 21
124.433576
 31
0.0
  0
LINE
  5
173
330
A
100
AcDbEntity
  8
0
 62
     7
100
AcDbLine
 10
228.490101
 20
85.65506500000001
 30
0.0
 11
228.49458
 21
105.044406
 31
0.0
  0
LINE
  5
172
330
A
100
AcDbEntity
  8
0
 62
     7
100
AcDbLine
 10
228.490101
 20
68.548787
 30
0.0
 11
228.490101
 21
85.65506500000001
 31
0.0
  0
LINE
  5
171
330
A
100
AcDbEntity
  8
0
 62
     7
100
AcDbLine
 10
76.26442299999999
 20
85.65851
 30
0.0
 11
76.39327
 21
105.044406
 31
0.0
  0
LINE
  5
170
330
A
100
AcDbEntity
  8
0
 62
     7
100
AcDbLine
 10
76.397921
 20
80.40611700000001
 30
0.0
 11
76.26442299999999
 21
85.65851
 31
0.0
  0
LINE
  5
16F
330
A
100
AcDbEntity
  8
0
 62
     7
100
AcDbLine
 10
76.69609399999998
 20
78.37351099999999
 30
0.0
 11
76.397921
 21
80.40611700000001
 31
0.0
  0
LINE
  5
16E
330
A
100
AcDbEntity
  8
0
 62
     7
100
AcDbLine
 10
77.534458
 20
76.555189
 30
0.0
 11
76.69609399999998
 21
78.37351099999999
 31
0.0
  0
LINE
  5
16D
330
A
100
AcDbEntity
  8
0
 62
     7
100
AcDbLine
 10
78.83928799999999
 20
74.998351
 30
0.0
 11
77.534458
 21
76.555189
 31
0.0
  0
LINE
  5
16C
330
A
100
AcDbEntity
  8
0
 62
     7
100
AcDbLine
 10
80.53599699999999
 20
73.78533299999999
 30
0.0
 11
78.83928799999999
 21
74.998351
 31
0.0
  0
LINE
  5
16B
330
A
100
AcDbEntity
  8
0
 62
     7
100
AcDbLine
 10
82.55034499999998
 20
72.998817
 30
0.0
 11
80.53599699999999
 21
73.78533299999999
 31
0.0
  0
LINE
  5
16A
330
A
100
AcDbEntity
  8
0
 62
     7
100
AcDbLine
 10
84.84133299999999
 20
72.71804200000001
 30
0.0
 11
82.55034499999998
 21
72.998817
 31
0.0
  0
LINE
  5
169
330
A
100
AcDbEntity
  8
0
 62
     7
100
AcDbLine
 10
84.77329199999999
 20
72.71804200000001
 30
0.0
 11
200.143167
 21
72.719076
 31
0.0
  0
LINE
  5
168
330
A
100
AcDbEntity
  8
0
 62
     7
100
AcDbLine
 10
204.231462
 20
72.74388
 30
0.0
 11
200.143167
 21
72.719076
 31
0.0
  0
LINE
  5
167
330
A
100
AcDbEntity
  8
0
 62
     7
100
AcDbLine
 10
220.196379
 20
84.901967
 30
0.0
 11
219.601411
 21
78.70286199999999
 31
0.0
  0
LINE
  5
166
330
A
100
AcDbEntity
  8
0
 62
     7
100
AcDbLine
 10
220.545367
 20
91.082812
 30
0.0
 11
220.196379
 21
84.901967
 31
0.0
  0
LINE
  5
165
330
A
100
AcDbEntity
  8
0
 62
     7
100
AcDbLine
 10
220.918471
 20
97.44659300000002
 30
0.0
 11
220.545367
 21
91.082812
 31
0.0
  0
LINE
  5
164
330
A
100
AcDbEntity
  8
0
 62
     7
100
AcDbLine
 10
221.206481
 20
105.044406
 30
0.0
 11
220.918471
 21
97.44659300000002
 31
0.0
  0
LINE
  5
163
330
A
100
AcDbEntity
  8
0
 62
     7
100
AcDbLine
 10
68.868148
 20
68.59839699999999
 30
0.0
 11
68.868148
 21
85.65506500000001
 31
0.0
  0
LINE
  5
162
330
A
100
AcDbEntity
  8
0
 62
     7
100
AcDbLine
 10
68.91724
 20
68.35551800000001
 30
0.0
 11
68.868148
 21
68.59839699999999
 31
0.0
  0
LINE
  5
161
330
A
100
AcDbEntity
  8
0
 62
     7
100
AcDbLine
 10
69.02197099999999
 20
68.20083299999999
 30
0.0
 11
68.91724
 21
68.35551800000001
 31
0.0
  0
LINE
  5
160
330
A
100
AcDbEntity
  8
0
 62
     7
100
AcDbLine
 10
69.17665600000001
 20
68.09679100000001
 30
0.0
 11
69.02197099999999
 21
68.20083299999999
 31
0.0
  0
LINE
  5
15F
330
A
100
AcDbEntity
  8
0
 62
     7
100
AcDbLine
 10
69.41919099999999
 20
68.047871
 30
0.0
 11
69.17665600000001
 21
68.09679100000001
 31
0.0
  0
LINE
  5
15E
330
A
100
AcDbEntity
  8
0
 62
     7
100
AcDbLine
 10
227.439692
 20
68.047871
 30
0.0
 11
69.41919099999999
 21
68.047871
 31
0.0
  0
LINE
  5
15D
330
A
100
AcDbEntity
  8
0
 62
     7
100
AcDbLine
 10
227.681882
 20
68.09679100000001
 30
0.0
 11
227.439692
 21
68.047871
 31
0.0
  0
LINE
  5
15C
330
A
100
AcDbEntity
  8
0
 62
     7
100
AcDbLine
 10
227.836567
 20
68.20083299999999
 30
0.0
 11
227.681882
 21
68.09679100000001
 31
0.0
  0
LINE
  5
15B
330
A
100
AcDbEntity
  8
0
 62
     7
100
AcDbLine
 10
227.940953
 20
68.35551800000001
 30
0.0
 11
227.836567
 21
68.20083299999999
 31
0.0
  0
LINE
  5
15A
330
A
100
AcDbEntity
  8
0
 62
     7
100
AcDbLine
 10
227.989874
 20
68.59839699999999
 30
0.0
 11
227.940953
 21
68.35551800000001
 31
0.0
  0
LINE
  5
159
330
A
100
AcDbEntity
  8
0
 62
     7
100
AcDbLine
 10
227.989874
 20
85.65506500000001
 30
0.0
 11
227.989874
 21
68.59839699999999
 31
0.0
  0
LINE
  5
158
330
A
100
AcDbEntity
  8
0
 62
     7
100
AcDbLine
 10
227.9946970000001
 20
105.044406
 30
0.0
 11
227.989874
 21
85.65506500000001
 31
0.0
  0
LINE
  5
157
330
A
100
AcDbEntity
  8
0
 62
     7
100
AcDbLine
 10
227.989874
 20
124.433576
 30
0.0
 11
227.9946970000001
 21
105.044406
 31
0.0
  0
LINE
  5
156
330
A
100
AcDbEntity
  8
0
 62
     7
100
AcDbLine
 10
227.989874
 20
141.490588
 30
0.0
 11
227.989874
 21
124.433576
 31
0.0
  0
LINE
  5
155
330
A
100
AcDbEntity
  8
0
 62
     7
100
AcDbLine
 10
227.940953
 20
141.733295
 30
0.0
 11
227.989874
 21
141.490588
 31
0.0
  0
LINE
  5
154
330
A
100
AcDbEntity
  8
0
 62
     7
100
AcDbLine
 10
227.836567
 20
141.888152
 30
0.0
 11
227.940953
 21
141.733295
 31
0.0
  0
LINE
  5
153
330
A
100
AcDbEntity
  8
0
 62
     7
100
AcDbLine
 10
227.681882
 20
141.992194
 30
0.0
 11
227.836567
 21
141.888152
 31
0.0
  0
LINE
  5
152
330
A
100
AcDbEntity
  8
0
 62
     7
100
AcDbLine
 10
227.439692
 20
142.041115
 30
0.0
 11
227.681882
 21
141.992194
 31
0.0
  0
LINE
  5
151
330
A
100
AcDbEntity
  8
0
 62
     7
100
AcDbLine
 10
69.41919099999999
 20
142.041115
 30
0.0
 11
227.439692
 21
142.041115
 31
0.0
  0
LINE
  5
150
330
A
100
AcDbEntity
  8
0
 62
     7
100
AcDbLine
 10
69.17665600000001
 20
141.992194
 30
0.0
 11
69.41919099999999
 21
142.041115
 31
0.0
  0
LINE
  5
14F
330
A
100
AcDbEntity
  8
0
 62
     7
100
AcDbLine
 10
69.02197099999999
 20
141.888152
 30
0.0
 11
69.17665600000001
 21
141.992194
 31
0.0
  0
LINE
  5
14E
330
A
100
AcDbEntity
  8
0
 62
     7
100
AcDbLine
 10
68.91724
 20
141.733295
 30
0.0
 11
69.02197099999999
 21
141.888152
 31
0.0
  0
LINE
  5
14D
330
A
100
AcDbEntity
  8
0
 62
     7
100
AcDbLine
 10
68.868148
 20
141.490416
 30
0.0
 11
68.91724
 21
141.733295
 31
0.0
  0
LINE
  5
14C
330
A
100
AcDbEntity
  8
0
 62
     7
100
AcDbLine
 10
68.867976
 20
124.433748
 30
0.0
 11
68.868148
 21
141.490416
 31
0.0
  0
LINE
  5
14B
330
A
100
AcDbEntity
  8
0
 62
     7
100
AcDbLine
 10
68.86366899999998
 20
105.044406
 30
0.0
 11
68.867976
 21
124.433748
 31
0.0
  0
LINE
  5
14A
330
A
100
AcDbEntity
  8
0
 62
     7
100
AcDbLine
 10
68.868148
 20
85.65506500000001
 30
0.0
 11
68.86366899999998
 21
105.044406
 31
0.0
  0
LINE
  5
149
330
A
100
AcDbEntity
  8
0
 62
     7
100
AcDbLine
 10
142.897393
 20
73.856302
 30
0.0
 11
142.838482
 21
73.91211199999999
 31
0.0
  0
LINE
  5
148
330
A
100
AcDbEntity
  8
0
 62
     7
100
AcDbLine
 10
145.748899
 20
73.871115
 30
0.0
 11
145.815389
 21
73.941051
 31
0.0
  0
LINE
  5
147
330
A
100
AcDbEntity
  8
0
 62
     7
100
AcDbLine
 10
146.480292
 20
82.35569699999999
 30
0.0
 11
146.630843
 21
82.20204499999999
 31
0.0
  0
LINE
  5
146
330
A
100
AcDbEntity
  8
0
 62
     7
100
AcDbLine
 10
142.289851
 20
82.227539
 30
0.0
 11
142.440746
 21
82.37671199999999
 31
0.0
  0
LINE
  5
145
330
A
100
AcDbEntity
  8
0
 62
     7
100
AcDbLine
 10
142.640389
 20
79.33538100000001
 30
0.0
 11
142.68173
 21
78.687359
 31
0.0
  0
LINE
  5
144
330
A
100
AcDbEntity
  8
0
 62
     7
100
AcDbLine
 10
142.594052
 20
79.94413
 30
0.0
 11
142.640389
 21
79.33538100000001
 31
0.0
  0
LINE
  5
143
330
A
100
AcDbEntity
  8
0
 62
     7
100
AcDbLine
 10
142.551161
 20
80.37235499999999
 30
0.0
 11
142.594052
 21
79.94413
 31
0.0
  0
LINE
  5
142
330
A
100
AcDbEntity
  8
0
 62
     7
100
AcDbLine
 10
142.518949
 20
80.551156
 30
0.0
 11
142.551161
 21
80.37235499999999
 31
0.0
  0
LINE
  5
141
330
A
100
AcDbEntity
  8
0
 62
     7
100
AcDbLine
 10
142.291056
 20
81.826185
 30
0.0
 11
142.518949
 21
80.551156
 31
0.0
  0
LINE
  5
140
330
A
100
AcDbEntity
  8
0
 62
     7
100
AcDbLine
 10
142.765618
 20
74.41681899999998
 30
0.0
 11
142.684142
 21
78.697694
 31
0.0
  0
LINE
  5
13F
330
A
100
AcDbEntity
  8
0
 62
     7
100
AcDbLine
 10
142.769408
 20
73.99341599999999
 30
0.0
 11
142.838482
 21
73.91211199999999
 31
0.0
  0
LINE
  5
13E
330
A
100
AcDbEntity
  8
0
 62
     7
100
AcDbLine
 10
146.024162
 20
78.670822
 30
0.0
 11
146.070326
 21
79.31918899999999
 31
0.0
  0
LINE
  5
13D
330
A
100
AcDbEntity
  8
0
 62
     7
100
AcDbLine
 10
146.070326
 20
79.31918899999999
 30
0.0
 11
146.124414
 21
79.927593
 31
0.0
  0
LINE
  5
13C
330
A
100
AcDbEntity
  8
0
 62
     7
100
AcDbLine
 10
146.124414
 20
79.927593
 30
0.0
 11
146.175746
 21
80.35512999999999
 31
0.0
  0
LINE
  5
13B
330
A
100
AcDbEntity
  8
0
 62
     7
100
AcDbLine
 10
146.175746
 20
80.35512999999999
 30
0.0
 11
146.215709
 21
80.53289699999998
 31
0.0
  0
LINE
  5
13A
330
A
100
AcDbEntity
  8
0
 62
     7
100
AcDbLine
 10
146.215709
 20
80.53289699999998
 30
0.0
 11
146.62981
 21
81.79345699999998
 31
0.0
  0
LINE
  5
139
330
A
100
AcDbEntity
  8
0
 62
     7
100
AcDbLine
 10
146.024162
 20
78.670822
 30
0.0
 11
145.809877
 21
74.365831
 31
0.0
  0
LINE
  5
138
330
A
100
AcDbEntity
  8
0
 62
     7
100
AcDbLine
 10
145.815389
 20
73.941051
 30
0.0
 11
145.809877
 21
74.365831
 31
0.0
  0
LINE
  5
137
330
A
100
AcDbEntity
  8
0
 62
     7
100
AcDbLine
 10
146.630843
 20
82.20204499999999
 30
0.0
 11
146.62981
 21
81.79345699999998
 31
0.0
  0
LINE
  5
136
330
A
100
AcDbEntity
  8
0
 62
     7
100
AcDbLine
 10
142.291056
 20
81.826185
 30
0.0
 11
142.289851
 21
82.227539
 31
0.0
  0
LINE
  5
135
330
A
100
AcDbEntity
  8
0
 62
     7
100
AcDbLine
 10
142.987655
 20
73.802214
 30
0.0
 11
142.981109
 21
73.80497
 31
0.0
  0
LINE
  5
134
330
A
100
AcDbEntity
  8
0
 62
     7
100
AcDbLine
 10
145.500163
 20
73.784988
 30
0.0
 11
142.987655
 21
73.802214
 31
0.0
  0
LINE
  5
133
330
A
100
AcDbEntity
  8
0
 62
     7
100
AcDbLine
 10
145.506019
 20
73.784988
 30
0.0
 11
145.500163
 21
73.784988
 31
0.0
  0
LINE
  5
132
330
A
100
AcDbEntity
  8
0
 62
     7
100
AcDbLine
 10
142.487944
 20
82.41047399999999
 30
0.0
 11
142.440746
 21
82.37671199999999
 31
0.0
  0
LINE
  5
131
330
A
100
AcDbEntity
  8
0
 62
     7
100
AcDbLine
 10
142.6543419999999
 20
82.43665599999999
 30
0.0
 11
142.487944
 21
82.41047399999999
 31
0.0
  0
LINE
  5
130
330
A
100
AcDbEntity
  8
0
 62
     7
100
AcDbLine
 10
142.91703
 20
82.453537
 30
0.0
 11
142.6543419999999
 21
82.43665599999999
 31
0.0
  0
LINE
  5
12F
330
A
100
AcDbEntity
  8
0
 62
     7
100
AcDbLine
 10
143.266363
 20
82.45904899999999
 30
0.0
 11
142.91703
 21
82.453537
 31
0.0
  0
LINE
  5
12E
330
A
100
AcDbEntity
  8
0
 62
     7
100
AcDbLine
 10
145.663805
 20
82.446303
 30
0.0
 11
143.266363
 21
82.45904899999999
 31
0.0
  0
LINE
  5
12D
330
A
100
AcDbEntity
  8
0
 62
     7
100
AcDbLine
 10
146.480292
 20
82.35569699999999
 30
0.0
 11
146.436884
 21
82.38980299999999
 31
0.0
  0
LINE
  5
12C
330
A
100
AcDbEntity
  8
0
 62
     7
100
AcDbLine
 10
146.012793
 20
82.43700099999999
 30
0.0
 11
145.663805
 21
82.446303
 31
0.0
  0
LINE
  5
12B
330
A
100
AcDbEntity
  8
0
 62
     7
100
AcDbLine
 10
146.273242
 20
82.417364
 30
0.0
 11
146.012793
 21
82.43700099999999
 31
0.0
  0
LINE
  5
12A
330
A
100
AcDbEntity
  8
0
 62
     7
100
AcDbLine
 10
146.436884
 20
82.38980299999999
 30
0.0
 11
146.273242
 21
82.417364
 31
0.0
  0
LINE
  5
129
330
A
100
AcDbEntity
  8
0
 62
     7
100
AcDbLine
 10
142.769408
 20
73.99341599999999
 30
0.0
 11
142.766307
 21
74.417508
 31
0.0
  0
LINE
  5
128
330
A
100
AcDbEntity
  8
0
 62
     7
100
AcDbLine
 10
142.925126
 20
136.028562
 30
0.0
 11
142.838482
 21
135.946224
 31
0.0
  0
LINE
  5
127
330
A
100
AcDbEntity
  8
0
 62
     7
100
AcDbLine
 10
145.815389
 20
135.917113
 30
0.0
 11
145.666561
 21
136.074037
 31
0.0
  0
LINE
  5
126
330
A
100
AcDbEntity
  8
0
 62
     7
100
AcDbLine
 10
146.630843
 20
127.656291
 30
0.0
 11
146.480292
 21
127.502639
 31
0.0
  0
LINE
  5
125
330
A
100
AcDbEntity
  8
0
 62
     7
100
AcDbLine
 10
142.440746
 20
127.481797
 30
0.0
 11
142.289851
 21
127.630969
 31
0.0
  0
LINE
  5
124
330
A
100
AcDbEntity
  8
0
 62
     7
100
AcDbLine
 10
142.68173
 20
131.170977
 30
0.0
 11
142.596981
 21
129.920235
 31
0.0
  0
LINE
  5
123
330
A
100
AcDbEntity
  8
0
 62
     7
100
AcDbLine
 10
142.594052
 20
129.914206
 30
0.0
 11
142.551161
 21
129.486153
 31
0.0
  0
LINE
  5
122
330
A
100
AcDbEntity
  8
0
 62
     7
100
AcDbLine
 10
142.551161
 20
129.486153
 30
0.0
 11
142.518949
 21
129.307008
 31
0.0
  0
LINE
  5
121
330
A
100
AcDbEntity
  8
0
 62
     7
100
AcDbLine
 10
142.518949
 20
129.307008
 30
0.0
 11
142.291056
 21
128.031978
 31
0.0
  0
LINE
  5
120
330
A
100
AcDbEntity
  8
0
 62
     7
100
AcDbLine
 10
142.68173
 20
131.170977
 30
0.0
 11
142.766307
 21
135.441001
 31
0.0
  0
LINE
  5
11F
330
A
100
AcDbEntity
  8
0
 62
     7
100
AcDbLine
 10
142.838482
 20
135.946224
 30
0.0
 11
142.769408
 21
135.864747
 31
0.0
  0
LINE
  5
11E
330
A
100
AcDbEntity
  8
0
 62
     7
100
AcDbLine
 10
146.070326
 20
130.5391469999999
 30
0.0
 11
146.024162
 21
131.187514
 31
0.0
  0
LINE
  5
11D
330
A
100
AcDbEntity
  8
0
 62
     7
100
AcDbLine
 10
146.124414
 20
129.930915
 30
0.0
 11
146.070326
 21
130.5391469999999
 31
0.0
  0
LINE
  5
11C
330
A
100
AcDbEntity
  8
0
 62
     7
100
AcDbLine
 10
146.175746
 20
129.503379
 30
0.0
 11
146.124414
 21
129.930915
 31
0.0
  0
LINE
  5
11B
330
A
100
AcDbEntity
  8
0
 62
     7
100
AcDbLine
 10
146.215709
 20
129.325439
 30
0.0
 11
146.175746
 21
129.503379
 31
0.0
  0
LINE
  5
11A
330
A
100
AcDbEntity
  8
0
 62
     7
100
AcDbLine
 10
146.62981
 20
128.064879
 30
0.0
 11
146.215709
 21
129.325439
 31
0.0
  0
LINE
  5
119
330
A
100
AcDbEntity
  8
0
 62
     7
100
AcDbLine
 10
145.810566
 20
135.499912
 30
0.0
 11
146.024162
 21
131.187514
 31
0.0
  0
LINE
  5
118
330
A
100
AcDbEntity
  8
0
 62
     7
100
AcDbLine
 10
145.809877
 20
135.492505
 30
0.0
 11
145.815389
 21
135.917113
 31
0.0
  0
LINE
  5
117
330
A
100
AcDbEntity
  8
0
 62
     7
100
AcDbLine
 10
146.62981
 20
128.064879
 30
0.0
 11
146.630843
 21
127.656291
 31
0.0
  0
LINE
  5
116
330
A
100
AcDbEntity
  8
0
 62
     7
100
AcDbLine
 10
142.289851
 20
127.630969
 30
0.0
 11
142.291056
 21
128.031978
 31
0.0
  0
LINE
  5
115
330
A
100
AcDbEntity
  8
0
 62
     7
100
AcDbLine
 10
145.500163
 20
136.073348
 30
0.0
 11
145.666561
 21
136.074037
 31
0.0
  0
LINE
  5
114
330
A
100
AcDbEntity
  8
0
 62
     7
100
AcDbLine
 10
142.987655
 20
136.056123
 30
0.0
 11
145.500163
 21
136.073348
 31
0.0
  0
LINE
  5
113
330
A
100
AcDbEntity
  8
0
 62
     7
100
AcDbLine
 10
142.925126
 20
136.028562
 30
0.0
 11
142.987655
 21
136.056123
 31
0.0
  0
LINE
  5
112
330
A
100
AcDbEntity
  8
0
 62
     7
100
AcDbLine
 10
142.6543419999999
 20
127.42168
 30
0.0
 11
142.91703
 21
127.404799
 31
0.0
  0
LINE
  5
111
330
A
100
AcDbEntity
  8
0
 62
     7
100
AcDbLine
 10
142.487944
 20
127.44769
 30
0.0
 11
142.6543419999999
 21
127.42168
 31
0.0
  0
LINE
  5
110
330
A
100
AcDbEntity
  8
0
 62
     7
100
AcDbLine
 10
142.440746
 20
127.481797
 30
0.0
 11
142.487944
 21
127.44769
 31
0.0
  0
LINE
  5
10F
330
A
100
AcDbEntity
  8
0
 62
     7
100
AcDbLine
 10
146.273242
 20
127.440972
 30
0.0
 11
146.436884
 21
127.468361
 31
0.0
  0
LINE
  5
10E
330
A
100
AcDbEntity
  8
0
 62
     7
100
AcDbLine
 10
146.012793
 20
127.421335
 30
0.0
 11
146.273242
 21
127.440972
 31
0.0
  0
LINE
  5
10D
330
A
100
AcDbEntity
  8
0
 62
     7
100
AcDbLine
 10
145.663805
 20
127.412033
 30
0.0
 11
146.012793
 21
127.421335
 31
0.0
  0
LINE
  5
10C
330
A
100
AcDbEntity
  8
0
 62
     7
100
AcDbLine
 10
146.436884
 20
127.468361
 30
0.0
 11
146.480292
 21
127.502639
 31
0.0
  0
LINE
  5
10B
330
A
100
AcDbEntity
  8
0
 62
     7
100
AcDbLine
 10
143.266363
 20
127.399114
 30
0.0
 11
145.663805
 21
127.412033
 31
0.0
  0
LINE
  5
10A
330
A
100
AcDbEntity
  8
0
 62
     7
100
AcDbLine
 10
142.91703
 20
127.404799
 30
0.0
 11
143.266363
 21
127.399114
 31
0.0
  0
LINE
  5
109
330
A
100
AcDbEntity
  8
0
 62
     7
100
AcDbLine
 10
142.766307
 20
135.441001
 30
0.0
 11
142.769408
 21
135.864747
 31
0.0
  0
LINE
  5
108
330
A
100
AcDbEntity
  8
0
 62
     7
100
AcDbLine
 10
220.802715
 20
105.037689
 30
0.0
 11
220.589119
 21
108.623516
 31
0.0
  0
LINE
  5
107
330
A
100
AcDbEntity
  8
0
 62
     7
100
AcDbLine
 10
220.589119
 20
108.623516
 30
0.0
 11
220.001731
 21
112.026409
 31
0.0
  0
LINE
  5
106
330
A
100
AcDbEntity
  8
0
 62
     7
100
AcDbLine
 10
220.001731
 20
112.026409
 30
0.0
 11
219.172496
 21
115.071185
 31
0.0
  0
LINE
  5
105
330
A
100
AcDbEntity
  8
0
 62
     7
100
AcDbLine
 10
219.172496
 20
115.071185
 30
0.0
 11
218.247144
 21
117.599712
 31
0.0
  0
LINE
  5
104
330
A
100
AcDbEntity
  8
0
 62
     7
100
AcDbLine
 10
218.247144
 20
117.599712
 30
0.0
 11
217.330748
 21
119.478668
 31
0.0
  0
LINE
  5
103
330
A
100
AcDbEntity
  8
0
 62
     7
100
AcDbLine
 10
217.330748
 20
119.478668
 30
0.0
 11
216.476709
 21
120.615894
 31
0.0
  0
LINE
  5
102
330
A
100
AcDbEntity
  8
0
 62
     7
100
AcDbLine
 10
216.476709
 20
120.615894
 30
0.0
 11
215.705697
 21
120.990203
 31
0.0
  0
LINE
  5
101
330
A
100
AcDbEntity
  8
0
 62
     7
100
AcDbLine
 10
215.464195
 20
120.91889
 30
0.0
 11
215.705697
 21
120.990203
 31
0.0
  0
LINE
  5
100
330
A
100
AcDbEntity
  8
0
 62
     7
100
AcDbLine
 10
215.705697
 20
89.085002
 30
0.0
 11
216.476709
 21
89.459484
 31
0.0
  0
LINE
  5
FF
330
A
100
AcDbEntity
  8
0
 62
     7
100
AcDbLine
 10
215.464195
 20
89.15631500000001
 30
0.0
 11
215.705697
 21
89.085002
 31
0.0
  0
LINE
  5
FE
330
A
100
AcDbEntity
  8
0
 62
     7
100
AcDbLine
 10
216.476709
 20
89.459484
 30
0.0
 11
217.330748
 21
90.59670999999999
 31
0.0
  0
LINE
  5
FD
330
A
100
AcDbEntity
  8
0
 62
     7
100
AcDbLine
 10
217.330748
 20
90.59670999999999
 30
0.0
 11
218.247144
 21
92.47566500000001
 31
0.0
  0
LINE
  5
FC
330
A
100
AcDbEntity
  8
0
 62
     7
100
AcDbLine
 10
218.247144
 20
92.47566500000001
 30
0.0
 11
219.172496
 21
95.00401999999999
 31
0.0
  0
LINE
  5
FB
330
A
100
AcDbEntity
  8
0
 62
     7
100
AcDbLine
 10
219.172496
 20
95.00401999999999
 30
0.0
 11
220.001731
 21
98.04879599999999
 31
0.0
  0
LINE
  5
FA
330
A
100
AcDbEntity
  8
0
 62
     7
100
AcDbLine
 10
220.001731
 20
98.04879599999999
 30
0.0
 11
220.589119
 21
101.451516
 31
0.0
  0
LINE
  5
F9
330
A
100
AcDbEntity
  8
0
 62
     7
100
AcDbLine
 10
220.589119
 20
101.451516
 30
0.0
 11
220.802715
 21
105.037689
 31
0.0
  0
LINE
  5
F8
330
A
100
AcDbEntity
  8
0
 62
     7
100
AcDbLine
 10
220.615302
 20
105.037689
 30
0.0
 11
220.40274
 21
108.596644
 31
0.0
  0
LINE
  5
F7
330
A
100
AcDbEntity
  8
0
 62
     7
100
AcDbLine
 10
220.40274
 20
108.596644
 30
0.0
 11
219.817074
 21
111.974216
 31
0.0
  0
LINE
  5
F6
330
A
100
AcDbEntity
  8
0
 62
     7
100
AcDbLine
 10
219.817074
 20
111.974216
 30
0.0
 11
218.988184
 21
114.997804
 31
0.0
  0
LINE
  5
F5
330
A
100
AcDbEntity
  8
0
 62
     7
100
AcDbLine
 10
218.988184
 20
114.997804
 30
0.0
 11
218.058352
 21
117.51169
 31
0.0
  0
LINE
  5
F4
330
A
100
AcDbEntity
  8
0
 62
     7
100
AcDbLine
 10
218.058352
 20
117.51169
 30
0.0
 11
217.130933
 21
119.3872
 31
0.0
  0
LINE
  5
F3
330
A
100
AcDbEntity
  8
0
 62
     7
100
AcDbLine
 10
217.130933
 20
119.3872
 30
0.0
 11
216.25829
 21
120.535106
 31
0.0
  0
LINE
  5
F2
330
A
100
AcDbEntity
  8
0
 62
     7
100
AcDbLine
 10
216.25829
 20
120.535106
 30
0.0
 11
215.464195
 21
120.91889
 31
0.0
  0
LINE
  5
F1
330
A
100
AcDbEntity
  8
0
 62
     7
100
AcDbLine
 10
215.464195
 20
120.91889
 30
0.0
 11
214.761051
 21
120.535106
 31
0.0
  0
LINE
  5
F0
330
A
100
AcDbEntity
  8
0
 62
     7
100
AcDbLine
 10
214.481999
 20
120.093962
 30
0.0
 11
214.761051
 21
120.535106
 31
0.0
  0
LINE
  5
EF
330
A
100
AcDbEntity
  8
0
 62
     7
100
AcDbLine
 10
214.761051
 20
89.540099
 30
0.0
 11
215.464195
 21
89.15631500000001
 31
0.0
  0
LINE
  5
EE
330
A
100
AcDbEntity
  8
0
 62
     7
100
AcDbLine
 10
214.481999
 20
89.981415
 30
0.0
 11
214.761051
 21
89.540099
 31
0.0
  0
LINE
  5
ED
330
A
100
AcDbEntity
  8
0
 62
     7
100
AcDbLine
 10
215.464195
 20
89.15631500000001
 30
0.0
 11
216.25829
 21
89.540099
 31
0.0
  0
LINE
  5
EC
330
A
100
AcDbEntity
  8
0
 62
     7
100
AcDbLine
 10
216.25829
 20
89.540099
 30
0.0
 11
217.130933
 21
90.688005
 31
0.0
  0
LINE
  5
EB
330
A
100
AcDbEntity
  8
0
 62
     7
100
AcDbLine
 10
217.130933
 20
90.688005
 30
0.0
 11
218.058352
 21
92.56351499999999
 31
0.0
  0
LINE
  5
EA
330
A
100
AcDbEntity
  8
0
 62
     7
100
AcDbLine
 10
218.058352
 20
92.56351499999999
 30
0.0
 11
218.988184
 21
95.07740099999999
 31
0.0
  0
LINE
  5
E9
330
A
100
AcDbEntity
  8
0
 62
     7
100
AcDbLine
 10
218.988184
 20
95.07740099999999
 30
0.0
 11
219.817074
 21
98.10116100000001
 31
0.0
  0
LINE
  5
E8
330
A
100
AcDbEntity
  8
0
 62
     7
100
AcDbLine
 10
219.817074
 20
98.10116100000001
 30
0.0
 11
220.40274
 21
101.478733
 31
0.0
  0
LINE
  5
E7
330
A
100
AcDbEntity
  8
0
 62
     7
100
AcDbLine
 10
220.40274
 20
101.478733
 30
0.0
 11
220.615302
 21
105.037689
 31
0.0
  0
LINE
  5
E6
330
A
100
AcDbEntity
  8
0
 62
     7
100
AcDbLine
 10
220.049273
 20
105.037689
 30
0.0
 11
219.851869
 21
108.474171
 31
0.0
  0
LINE
  5
E5
330
A
100
AcDbEntity
  8
0
 62
     7
100
AcDbLine
 10
219.851869
 20
108.474171
 30
0.0
 11
219.30651
 21
111.738227
 31
0.0
  0
LINE
  5
E4
330
A
100
AcDbEntity
  8
0
 62
     7
100
AcDbLine
 10
219.30651
 20
111.738227
 30
0.0
 11
218.53033
 21
114.666558
 31
0.0
  0
LINE
  5
E3
330
A
100
AcDbEntity
  8
0
 62
     7
100
AcDbLine
 10
218.53033
 20
114.666558
 30
0.0
 11
217.654587
 21
117.111887
 31
0.0
  0
LINE
  5
E2
330
A
100
AcDbEntity
  8
0
 62
     7
100
AcDbLine
 10
217.654587
 20
117.111887
 30
0.0
 11
216.777121
 21
118.95174
 31
0.0
  0
LINE
  5
E1
330
A
100
AcDbEntity
  8
0
 62
     7
100
AcDbLine
 10
216.777121
 20
118.95174
 30
0.0
 11
215.946853
 21
120.093962
 31
0.0
  0
LINE
  5
E0
330
A
100
AcDbEntity
  8
0
 62
     7
100
AcDbLine
 10
215.946853
 20
120.093962
 30
0.0
 11
215.179286
 21
120.48119
 31
0.0
  0
LINE
  5
DF
330
A
100
AcDbEntity
  8
0
 62
     7
100
AcDbLine
 10
215.179286
 20
120.48119
 30
0.0
 11
214.481999
 21
120.093962
 31
0.0
  0
LINE
  5
DE
330
A
100
AcDbEntity
  8
0
 62
     7
100
AcDbLine
 10
214.481999
 20
120.093962
 30
0.0
 11
213.868083
 21
118.95174
 31
0.0
  0
LINE
  5
DD
330
A
100
AcDbEntity
  8
0
 62
     7
100
AcDbLine
 10
213.868083
 20
118.95174
 30
0.0
 11
213.355452
 21
117.111887
 31
0.0
  0
LINE
  5
DC
330
A
100
AcDbEntity
  8
0
 62
     7
100
AcDbLine
 10
213.355452
 20
117.111887
 30
0.0
 11
212.956855
 21
114.666558
 31
0.0
  0
LINE
  5
DB
330
A
100
AcDbEntity
  8
0
 62
     7
100
AcDbLine
 10
212.956855
 20
114.666558
 30
0.0
 11
212.677458
 21
111.738227
 31
0.0
  0
LINE
  5
DA
330
A
100
AcDbEntity
  8
0
 62
     7
100
AcDbLine
 10
212.677458
 20
111.738227
 30
0.0
 11
212.513471
 21
108.474171
 31
0.0
  0
LINE
  5
D9
330
A
100
AcDbEntity
  8
0
 62
     7
100
AcDbLine
 10
212.513471
 20
108.474171
 30
0.0
 11
212.459383
 21
105.037689
 31
0.0
  0
LINE
  5
D8
330
A
100
AcDbEntity
  8
0
 62
     7
100
AcDbLine
 10
212.459383
 20
105.037689
 30
0.0
 11
212.513471
 21
101.601034
 31
0.0
  0
LINE
  5
D7
330
A
100
AcDbEntity
  8
0
 62
     7
100
AcDbLine
 10
212.513471
 20
101.601034
 30
0.0
 11
212.677458
 21
98.336806
 31
0.0
  0
LINE
  5
D6
330
A
100
AcDbEntity
  8
0
 62
     7
100
AcDbLine
 10
212.677458
 20
98.336806
 30
0.0
 11
212.956855
 21
95.408819
 31
0.0
  0
LINE
  5
D5
330
A
100
AcDbEntity
  8
0
 62
     7
100
AcDbLine
 10
212.956855
 20
95.408819
 30
0.0
 11
213.355452
 21
92.96349000000001
 31
0.0
  0
LINE
  5
D4
330
A
100
AcDbEntity
  8
0
 62
     7
100
AcDbLine
 10
213.355452
 20
92.96349000000001
 30
0.0
 11
213.868083
 21
91.12346499999999
 31
0.0
  0
LINE
  5
D3
330
A
100
AcDbEntity
  8
0
 62
     7
100
AcDbLine
 10
213.868083
 20
91.12346499999999
 30
0.0
 11
214.481999
 21
89.981415
 31
0.0
  0
LINE
  5
D2
330
A
100
AcDbEntity
  8
0
 62
     7
100
AcDbLine
 10
214.481999
 20
89.981415
 30
0.0
 11
215.179286
 21
89.594187
 31
0.0
  0
LINE
  5
D1
330
A
100
AcDbEntity
  8
0
 62
     7
100
AcDbLine
 10
215.179286
 20
89.594187
 30
0.0
 11
215.946853
 21
89.981415
 31
0.0
  0
LINE
  5
D0
330
A
100
AcDbEntity
  8
0
 62
     7
100
AcDbLine
 10
215.946853
 20
89.981415
 30
0.0
 11
216.777121
 21
91.12346499999999
 31
0.0
  0
LINE
  5
CF
330
A
100
AcDbEntity
  8
0
 62
     7
100
AcDbLine
 10
216.777121
 20
91.12346499999999
 30
0.0
 11
217.654587
 21
92.96349000000001
 31
0.0
  0
LINE
  5
CE
330
A
100
AcDbEntity
  8
0
 62
     7
100
AcDbLine
 10
217.654587
 20
92.96349000000001
 30
0.0
 11
218.53033
 21
95.408819
 31
0.0
  0
LINE
  5
CD
330
A
100
AcDbEntity
  8
0
 62
     7
100
AcDbLine
 10
218.53033
 20
95.408819
 30
0.0
 11
219.30651
 21
98.33714999999999
 31
0.0
  0
LINE
  5
CC
330
A
100
AcDbEntity
  8
0
 62
     7
100
AcDbLine
 10
219.30651
 20
98.33714999999999
 30
0.0
 11
219.851869
 21
101.601034
 31
0.0
  0
LINE
  5
CB
330
A
100
AcDbEntity
  8
0
 62
     7
100
AcDbLine
 10
219.851869
 20
101.601034
 30
0.0
 11
220.049273
 21
105.037689
 31
0.0
  0
LINE
  5
CA
330
A
100
AcDbEntity
  8
0
 62
     7
100
AcDbLine
 10
82.177068
 20
109.116509
 30
0.0
 11
80.219737
 21
109.116509
 31
0.0
  0
LINE
  5
C9
330
A
100
AcDbEntity
  8
0
 62
     7
100
AcDbLine
 10
82.177068
 20
100.436936
 30
0.0
 11
80.21990999999999
 21
100.436936
 31
0.0
  0
LINE
  5
C8
330
A
100
AcDbEntity
  8
0
 62
     7
100
AcDbLine
 10
82.44940300000001
 20
108.786297
 30
0.0
 11
82.177068
 21
109.116509
 31
0.0
  0
LINE
  5
C7
330
A
100
AcDbEntity
  8
0
 62
     7
100
AcDbLine
 10
82.57704399999999
 20
108.615765
 30
0.0
 11
82.44940300000001
 21
108.786297
 31
0.0
  0
LINE
  5
C6
330
A
100
AcDbEntity
  8
0
 62
     7
100
AcDbLine
 10
82.177068
 20
109.116509
 30
0.0
 11
81.904734
 21
108.786125
 31
0.0
  0
LINE
  5
C5
330
A
100
AcDbEntity
  8
0
 62
     7
100
AcDbLine
 10
82.31624999999999
 20
108.932197
 30
0.0
 11
82.177068
 21
109.116509
 31
0.0
  0
LINE
  5
C4
330
A
100
AcDbEntity
  8
0
 62
     7
100
AcDbLine
 10
81.904734
 20
108.786125
 30
0.0
 11
81.673912
 21
107.845441
 31
0.0
  0
LINE
  5
C3
330
A
100
AcDbEntity
  8
0
 62
     7
100
AcDbLine
 10
81.673912
 20
107.845441
 30
0.0
 11
81.519572
 21
106.437603
 31
0.0
  0
LINE
  5
C2
330
A
100
AcDbEntity
  8
0
 62
     7
100
AcDbLine
 10
81.519572
 20
106.437603
 30
0.0
 11
81.465484
 21
104.776895
 31
0.0
  0
LINE
  5
C1
330
A
100
AcDbEntity
  8
0
 62
     7
100
AcDbLine
 10
81.465484
 20
104.776895
 30
0.0
 11
81.519572
 21
103.116187
 31
0.0
  0
LINE
  5
C0
330
A
100
AcDbEntity
  8
0
 62
     7
100
AcDbLine
 10
81.519572
 20
103.116187
 30
0.0
 11
81.673912
 21
101.708176
 31
0.0
  0
LINE
  5
BF
330
A
100
AcDbEntity
  8
0
 62
     7
100
AcDbLine
 10
81.673912
 20
101.708176
 30
0.0
 11
81.904734
 21
100.76732
 31
0.0
  0
LINE
  5
BE
330
A
100
AcDbEntity
  8
0
 62
     7
100
AcDbLine
 10
81.904734
 20
100.76732
 30
0.0
 11
82.177068
 21
100.436936
 31
0.0
  0
LINE
  5
BD
330
A
100
AcDbEntity
  8
0
 62
     7
100
AcDbLine
 10
82.177068
 20
100.436936
 30
0.0
 11
82.44940300000001
 21
100.76732
 31
0.0
  0
LINE
  5
BC
330
A
100
AcDbEntity
  8
0
 62
     7
100
AcDbLine
 10
82.31624999999999
 20
100.621593
 30
0.0
 11
82.177068
 21
100.436936
 31
0.0
  0
LINE
  5
BB
330
A
100
AcDbEntity
  8
0
 62
     7
100
AcDbLine
 10
82.57704399999999
 20
100.937853
 30
0.0
 11
82.44940300000001
 21
100.76732
 31
0.0
  0
LINE
  5
BA
330
A
100
AcDbEntity
  8
0
 62
     7
100
AcDbLine
 10
82.79804699999999
 20
107.715044
 30
0.0
 11
82.57704399999999
 21
108.615765
 31
0.0
  0
LINE
  5
B9
330
A
100
AcDbEntity
  8
0
 62
     7
100
AcDbLine
 10
83.01853299999999
 20
106.518907
 30
0.0
 11
82.79804699999999
 21
107.715044
 31
0.0
  0
LINE
  5
B8
330
A
100
AcDbEntity
  8
0
 62
     7
100
AcDbLine
 10
82.57704399999999
 20
108.615765
 30
0.0
 11
82.31624999999999
 21
108.932197
 31
0.0
  0
LINE
  5
B7
330
A
100
AcDbEntity
  8
0
 62
     7
100
AcDbLine
 10
82.31624999999999
 20
108.932197
 30
0.0
 11
82.055457
 21
108.615765
 31
0.0
  0
LINE
  5
B6
330
A
100
AcDbEntity
  8
0
 62
     7
100
AcDbLine
 10
82.055457
 20
108.615765
 30
0.0
 11
81.83445400000001
 21
107.715044
 31
0.0
  0
LINE
  5
B5
330
A
100
AcDbEntity
  8
0
 62
     7
100
AcDbLine
 10
81.83445400000001
 20
107.715044
 30
0.0
 11
81.686831
 21
106.366979
 31
0.0
  0
LINE
  5
B4
330
A
100
AcDbEntity
  8
0
 62
     7
100
AcDbLine
 10
81.686831
 20
106.366979
 30
0.0
 11
81.63498299999998
 21
104.776895
 31
0.0
  0
LINE
  5
B3
330
A
100
AcDbEntity
  8
0
 62
     7
100
AcDbLine
 10
81.63498299999998
 20
104.776895
 30
0.0
 11
81.686831
 21
103.186811
 31
0.0
  0
LINE
  5
B2
330
A
100
AcDbEntity
  8
0
 62
     7
100
AcDbLine
 10
81.686831
 20
103.186811
 30
0.0
 11
81.83445400000001
 21
101.838745
 31
0.0
  0
LINE
  5
B1
330
A
100
AcDbEntity
  8
0
 62
     7
100
AcDbLine
 10
81.83445400000001
 20
101.838745
 30
0.0
 11
82.055457
 21
100.937853
 31
0.0
  0
LINE
  5
B0
330
A
100
AcDbEntity
  8
0
 62
     7
100
AcDbLine
 10
82.055457
 20
100.937853
 30
0.0
 11
82.31624999999999
 21
100.621593
 31
0.0
  0
LINE
  5
AF
330
A
100
AcDbEntity
  8
0
 62
     7
100
AcDbLine
 10
82.31624999999999
 20
100.621593
 30
0.0
 11
82.57704399999999
 21
100.937853
 31
0.0
  0
LINE
  5
AE
330
A
100
AcDbEntity
  8
0
 62
     7
100
AcDbLine
 10
82.57704399999999
 20
100.937853
 30
0.0
 11
82.79804699999999
 21
101.838745
 31
0.0
  0
LINE
  5
AD
330
A
100
AcDbEntity
  8
0
 62
     7
100
AcDbLine
 10
83.01853299999999
 20
103.034882
 30
0.0
 11
82.79804699999999
 21
101.838745
 31
0.0
  0
LINE
  5
AC
330
A
100
AcDbEntity
  8
0
 62
     7
100
AcDbLine
 10
79.947575
 20
108.786125
 30
0.0
 11
80.219737
 21
109.116509
 31
0.0
  0
LINE
  5
AB
330
A
100
AcDbEntity
  8
0
 62
     7
100
AcDbLine
 10
79.716753
 20
107.845441
 30
0.0
 11
79.947575
 21
108.786125
 31
0.0
  0
LINE
  5
AA
330
A
100
AcDbEntity
  8
0
 62
     7
100
AcDbLine
 10
79.56241300000001
 20
106.437603
 30
0.0
 11
79.716753
 21
107.845441
 31
0.0
  0
LINE
  5
A9
330
A
100
AcDbEntity
  8
0
 62
     7
100
AcDbLine
 10
79.508325
 20
104.776895
 30
0.0
 11
79.56241300000001
 21
106.437603
 31
0.0
  0
LINE
  5
A8
330
A
100
AcDbEntity
  8
0
 62
     7
100
AcDbLine
 10
79.56241300000001
 20
103.116187
 30
0.0
 11
79.508325
 21
104.776895
 31
0.0
  0
LINE
  5
A7
330
A
100
AcDbEntity
  8
0
 62
     7
100
AcDbLine
 10
79.716753
 20
101.708176
 30
0.0
 11
79.56241300000001
 21
103.116187
 31
0.0
  0
LINE
  5
A6
330
A
100
AcDbEntity
  8
0
 62
     7
100
AcDbLine
 10
79.947575
 20
100.76732
 30
0.0
 11
79.716753
 21
101.708176
 31
0.0
  0
LINE
  5
A5
330
A
100
AcDbEntity
  8
0
 62
     7
100
AcDbLine
 10
80.21990999999999
 20
100.436936
 30
0.0
 11
79.947575
 21
100.76732
 31
0.0
  0
LINE
  5
A4
330
A
100
AcDbEntity
  8
0
 62
     7
100
AcDbLine
 10
82.57825
 20
102.500892
 30
0.0
 11
82.73293499999999
 21
102.313135
 31
0.0
  0
LINE
  5
A3
330
A
100
AcDbEntity
  8
0
 62
     7
100
AcDbLine
 10
82.44716399999999
 20
103.034882
 30
0.0
 11
82.57825
 21
102.500892
 31
0.0
  0
LINE
  5
A2
330
A
100
AcDbEntity
  8
0
 62
     7
100
AcDbLine
 10
82.359658
 20
103.834144
 30
0.0
 11
82.44716399999999
 21
103.034882
 31
0.0
  0
LINE
  5
A1
330
A
100
AcDbEntity
  8
0
 62
     7
100
AcDbLine
 10
82.328997
 20
104.776895
 30
0.0
 11
82.359658
 21
103.834144
 31
0.0
  0
LINE
  5
A0
330
A
100
AcDbEntity
  8
0
 62
     7
100
AcDbLine
 10
82.359658
 20
105.719645
 30
0.0
 11
82.328997
 21
104.776895
 31
0.0
  0
LINE
  5
9F
330
A
100
AcDbEntity
  8
0
 62
     7
100
AcDbLine
 10
82.44716399999999
 20
106.518907
 30
0.0
 11
82.359658
 21
105.719645
 31
0.0
  0
LINE
  5
9E
330
A
100
AcDbEntity
  8
0
 62
     7
100
AcDbLine
 10
82.57825
 20
107.052897
 30
0.0
 11
82.44716399999999
 21
106.518907
 31
0.0
  0
LINE
  5
9D
330
A
100
AcDbEntity
  8
0
 62
     7
100
AcDbLine
 10
82.73293499999999
 20
107.24031
 30
0.0
 11
82.57825
 21
107.052897
 31
0.0
  0
LINE
  5
9C
330
A
100
AcDbEntity
  8
0
 62
     7
100
AcDbLine
 10
82.887447
 20
107.052897
 30
0.0
 11
82.73293499999999
 21
107.24031
 31
0.0
  0
LINE
  5
9B
330
A
100
AcDbEntity
  8
0
 62
     7
100
AcDbLine
 10
83.01853299999999
 20
106.518907
 30
0.0
 11
82.887447
 21
107.052897
 31
0.0
  0
LINE
  5
9A
330
A
100
AcDbEntity
  8
0
 62
     7
100
AcDbLine
 10
83.106038
 20
105.719645
 30
0.0
 11
83.01853299999999
 21
106.518907
 31
0.0
  0
LINE
  5
99
330
A
100
AcDbEntity
  8
0
 62
     7
100
AcDbLine
 10
83.136872
 20
104.776895
 30
0.0
 11
83.106038
 21
105.719645
 31
0.0
  0
LINE
  5
98
330
A
100
AcDbEntity
  8
0
 62
     7
100
AcDbLine
 10
83.106038
 20
103.834144
 30
0.0
 11
83.136872
 21
104.776895
 31
0.0
  0
LINE
  5
97
330
A
100
AcDbEntity
  8
0
 62
     7
100
AcDbLine
 10
83.01853299999999
 20
103.034882
 30
0.0
 11
83.106038
 21
103.834144
 31
0.0
  0
LINE
  5
96
330
A
100
AcDbEntity
  8
0
 62
     7
100
AcDbLine
 10
82.887447
 20
102.500892
 30
0.0
 11
83.01853299999999
 21
103.034882
 31
0.0
  0
LINE
  5
95
330
A
100
AcDbEntity
  8
0
 62
     7
100
AcDbLine
 10
82.73293499999999
 20
102.313135
 30
0.0
 11
82.887447
 21
102.500892
 31
0.0
  0
LINE
  5
94
330
A
100
AcDbEntity
  8
0
 62
     7
100
AcDbLine
 10
97.15496600000001
 20
109.116509
 30
0.0
 11
97.190106
 21
109.116509
 31
0.0
  0
LINE
  5
93
330
A
100
AcDbEntity
  8
0
 62
     7
100
AcDbLine
 10
97.15496600000001
 20
100.436936
 30
0.0
 11
97.190106
 21
100.436936
 31
0.0
  0
LINE
  5
92
330
A
100
AcDbEntity
  8
0
 62
     7
100
AcDbLine
 10
98.813779
 20
100.76732
 30
0.0
 11
98.850814
 21
100.76732
 31
0.0
  0
LINE
  5
91
330
A
100
AcDbEntity
  8
0
 62
     7
100
AcDbLine
 10
97.15496600000001
 20
109.116509
 30
0.0
 11
95.496324
 21
108.786125
 31
0.0
  0
LINE
  5
90
330
A
100
AcDbEntity
  8
0
 62
     7
100
AcDbLine
 10
95.496324
 20
108.786125
 30
0.0
 11
94.090036
 21
107.845441
 31
0.0
  0
LINE
  5
8F
330
A
100
AcDbEntity
  8
0
 62
     7
100
AcDbLine
 10
94.090036
 20
107.845441
 30
0.0
 11
93.150387
 21
106.437603
 31
0.0
  0
LINE
  5
8E
330
A
100
AcDbEntity
  8
0
 62
     7
100
AcDbLine
 10
93.150387
 20
106.437603
 30
0.0
 11
92.82051899999999
 21
104.776895
 31
0.0
  0
LINE
  5
8D
330
A
100
AcDbEntity
  8
0
 62
     7
100
AcDbLine
 10
92.82051899999999
 20
104.776895
 30
0.0
 11
93.150387
 21
103.116187
 31
0.0
  0
LINE
  5
8C
330
A
100
AcDbEntity
  8
0
 62
     7
100
AcDbLine
 10
93.150387
 20
103.116187
 30
0.0
 11
94.090036
 21
101.708176
 31
0.0
  0
LINE
  5
8B
330
A
100
AcDbEntity
  8
0
 62
     7
100
AcDbLine
 10
94.090036
 20
101.708176
 30
0.0
 11
95.496324
 21
100.76732
 31
0.0
  0
LINE
  5
8A
330
A
100
AcDbEntity
  8
0
 62
     7
100
AcDbLine
 10
95.496324
 20
100.76732
 30
0.0
 11
97.15496600000001
 21
100.436936
 31
0.0
  0
LINE
  5
89
330
A
100
AcDbEntity
  8
0
 62
     7
100
AcDbLine
 10
97.15496600000001
 20
100.436936
 30
0.0
 11
98.813779
 21
100.76732
 31
0.0
  0
LINE
  5
88
330
A
100
AcDbEntity
  8
0
 62
     7
100
AcDbLine
 10
101.199163
 20
103.116187
 30
0.0
 11
100.931996
 21
102.715866
 31
0.0
  0
LINE
  5
87
330
A
100
AcDbEntity
  8
0
 62
     7
100
AcDbLine
 10
101.529203
 20
104.776895
 30
0.0
 11
101.199163
 21
103.116187
 31
0.0
  0
LINE
  5
86
330
A
100
AcDbEntity
  8
0
 62
     7
100
AcDbLine
 10
101.199163
 20
106.437603
 30
0.0
 11
101.529203
 21
104.776895
 31
0.0
  0
LINE
  5
85
330
A
100
AcDbEntity
  8
0
 62
     7
100
AcDbLine
 10
100.931996
 20
106.837923
 30
0.0
 11
101.199163
 21
106.437603
 31
0.0
  0
LINE
  5
84
330
A
100
AcDbEntity
  8
0
 62
     7
100
AcDbLine
 10
96.185688
 20
102.500892
 30
0.0
 11
97.12740500000002
 21
102.313135
 31
0.0
  0
LINE
  5
83
330
A
100
AcDbEntity
  8
0
 62
     7
100
AcDbLine
 10
95.387459
 20
103.034882
 30
0.0
 11
96.185688
 21
102.500892
 31
0.0
  0
LINE
  5
82
330
A
100
AcDbEntity
  8
0
 62
     7
100
AcDbLine
 10
94.85398599999999
 20
103.834144
 30
0.0
 11
95.387459
 21
103.034882
 31
0.0
  0
LINE
  5
81
330
A
100
AcDbEntity
  8
0
 62
     7
100
AcDbLine
 10
94.66674499999999
 20
104.776895
 30
0.0
 11
94.85398599999999
 21
103.834144
 31
0.0
  0
LINE
  5
80
330
A
100
AcDbEntity
  8
0
 62
     7
100
AcDbLine
 10
94.85398599999999
 20
105.719645
 30
0.0
 11
94.66674499999999
 21
104.776895
 31
0.0
  0
LINE
  5
7F
330
A
100
AcDbEntity
  8
0
 62
     7
100
AcDbLine
 10
95.387459
 20
106.518907
 30
0.0
 11
94.85398599999999
 21
105.719645
 31
0.0
  0
LINE
  5
7E
330
A
100
AcDbEntity
  8
0
 62
     7
100
AcDbLine
 10
96.185688
 20
107.052897
 30
0.0
 11
95.387459
 21
106.518907
 31
0.0
  0
LINE
  5
7D
330
A
100
AcDbEntity
  8
0
 62
     7
100
AcDbLine
 10
97.12740500000002
 20
107.240483
 30
0.0
 11
96.185688
 21
107.052897
 31
0.0
  0
LINE
  5
7C
330
A
100
AcDbEntity
  8
0
 62
     7
100
AcDbLine
 10
98.06894900000001
 20
107.052897
 30
0.0
 11
97.12740500000002
 21
107.240483
 31
0.0
  0
LINE
  5
7B
330
A
100
AcDbEntity
  8
0
 62
     7
100
AcDbLine
 10
98.86717800000001
 20
106.518907
 30
0.0
 11
98.06894900000001
 21
107.052897
 31
0.0
  0
LINE
  5
7A
330
A
100
AcDbEntity
  8
0
 62
     7
100
AcDbLine
 10
99.40065099999999
 20
105.719645
 30
0.0
 11
98.86717800000001
 21
106.518907
 31
0.0
  0
LINE
  5
79
330
A
100
AcDbEntity
  8
0
 62
     7
100
AcDbLine
 10
99.58789200000001
 20
104.776895
 30
0.0
 11
99.40065099999999
 21
105.719645
 31
0.0
  0
LINE
  5
78
330
A
100
AcDbEntity
  8
0
 62
     7
100
AcDbLine
 10
99.40065099999999
 20
103.834144
 30
0.0
 11
99.58789200000001
 21
104.776895
 31
0.0
  0
LINE
  5
77
330
A
100
AcDbEntity
  8
0
 62
     7
100
AcDbLine
 10
98.86717800000001
 20
103.034882
 30
0.0
 11
99.40065099999999
 21
103.834144
 31
0.0
  0
LINE
  5
76
330
A
100
AcDbEntity
  8
0
 62
     7
100
AcDbLine
 10
98.06894900000001
 20
102.500892
 30
0.0
 11
98.86717800000001
 21
103.034882
 31
0.0
  0
LINE
  5
75
330
A
100
AcDbEntity
  8
0
 62
     7
100
AcDbLine
 10
97.12740500000002
 20
102.313135
 30
0.0
 11
98.06894900000001
 21
102.500892
 31
0.0
  0
LINE
  5
74
330
A
100
AcDbEntity
  8
0
 62
     7
100
AcDbLine
 10
97.190106
 20
109.116509
 30
0.0
 11
98.850814
 21
108.786125
 31
0.0
  0
LINE
  5
73
330
A
100
AcDbEntity
  8
0
 62
     7
100
AcDbLine
 10
100.931996
 20
106.837923
 30
0.0
 11
100.258824
 21
107.845441
 31
0.0
  0
LINE
  5
72
330
A
100
AcDbEntity
  8
0
 62
     7
100
AcDbLine
 10
98.850814
 20
108.786125
 30
0.0
 11
100.258824
 21
107.845441
 31
0.0
  0
LINE
  5
71
330
A
100
AcDbEntity
  8
0
 62
     7
100
AcDbLine
 10
98.850814
 20
100.76732
 30
0.0
 11
100.258824
 21
101.708176
 31
0.0
  0
LINE
  5
70
330
A
100
AcDbEntity
  8
0
 62
     7
100
AcDbLine
 10
100.258824
 20
101.708176
 30
0.0
 11
100.931996
 21
102.715866
 31
0.0
  0
LINE
  5
6F
330
A
100
AcDbEntity
  8
0
 62
     7
100
AcDbLine
 10
145.748899
 20
73.871115
 30
0.0
 11
145.7320179999999
 21
73.86457
 31
0.0
  0
LINE
  5
6E
330
A
100
AcDbEntity
  8
0
 62
     7
100
AcDbLine
 10
145.7320179999999
 20
73.86457
 30
0.0
 11
145.631421
 21
73.82667399999999
 31
0.0
  0
LINE
  5
6D
330
A
100
AcDbEntity
  8
0
 62
     7
100
AcDbLine
 10
142.897393
 20
73.856302
 30
0.0
 11
142.915135
 21
73.84527699999999
 31
0.0
  0
LINE
  5
6C
330
A
100
AcDbEntity
  8
0
 62
     7
100
AcDbLine
 10
145.631421
 20
73.82667399999999
 30
0.0
 11
145.560796
 21
73.802214
 31
0.0
  0
LINE
  5
6B
330
A
100
AcDbEntity
  8
0
 62
     7
100
AcDbLine
 10
142.915135
 20
73.84527699999999
 30
0.0
 11
142.958027
 21
73.81874999999999
 31
0.0
  0
LINE
  5
6A
330
A
100
AcDbEntity
  8
0
 62
     7
100
AcDbLine
 10
145.560796
 20
73.802214
 30
0.0
 11
145.506019
 21
73.784988
 31
0.0
  0
LINE
  5
69
330
A
100
AcDbEntity
  8
0
 62
     7
100
AcDbLine
 10
142.958027
 20
73.81874999999999
 30
0.0
 11
142.981109
 21
73.80497
 31
0.0
  0
LINE
  5
68
330
A
100
AcDbEntity
  8
0
 62
     7
100
AcDbLine
 10
202.933005
 20
74.27178000000001
 30
0.0
 11
205.667033
 21
74.33138000000001
 31
0.0
  0
LINE
  5
67
330
A
100
AcDbEntity
  8
0
 62
     7
100
AcDbLine
 10
205.667033
 20
74.33138000000001
 30
0.0
 11
209.65921
 21
74.47814100000001
 31
0.0
  0
LINE
  5
66
330
A
100
AcDbEntity
  8
0
 62
     7
100
AcDbLine
 10
209.65921
 20
74.47814100000001
 30
0.0
 11
212.36671
 21
74.72618799999999
 31
0.0
  0
LINE
  5
65
330
A
100
AcDbEntity
  8
0
 62
     7
100
AcDbLine
 10
212.355341
 20
75.014543
 30
0.0
 11
209.860403
 21
75.207812
 31
0.0
  0
LINE
  5
64
330
A
100
AcDbEntity
  8
0
 62
     7
100
AcDbLine
 10
209.860403
 20
75.207812
 30
0.0
 11
205.898199
 21
75.702184
 31
0.0
  0
LINE
  5
63
330
A
100
AcDbEntity
  8
0
 62
     7
100
AcDbLine
 10
205.898199
 20
75.702184
 30
0.0
 11
203.155214
 21
76.174851
 31
0.0
  0
LINE
  5
62
330
A
100
AcDbEntity
  8
0
 62
     7
100
AcDbLine
 10
203.155214
 20
76.174851
 30
0.0
 11
198.612855
 21
76.894187
 31
0.0
  0
LINE
  5
61
330
A
100
AcDbEntity
  8
0
 62
     7
100
AcDbLine
 10
113.8395629999999
 20
74.272469
 30
0.0
 11
121.323516
 21
74.27143599999999
 31
0.0
  0
LINE
  5
60
330
A
100
AcDbEntity
  8
0
 62
     7
100
AcDbLine
 10
108.168247
 20
74.287283
 30
0.0
 11
113.8395629999999
 21
74.272469
 31
0.0
  0
LINE
  5
5F
330
A
100
AcDbEntity
  8
0
 62
     7
100
AcDbLine
 10
108.168247
 20
74.287283
 30
0.0
 11
102.077835
 21
74.138455
 31
0.0
  0
LINE
  5
5E
330
A
100
AcDbEntity
  8
0
 62
     7
100
AcDbLine
 10
198.612855
 20
76.894187
 30
0.0
 11
194.057406
 21
77.52429499999999
 31
0.0
  0
LINE
  5
5D
330
A
100
AcDbEntity
  8
0
 62
     7
100
AcDbLine
 10
194.057406
 20
77.52429499999999
 30
0.0
 11
189.028944
 21
78.10858299999999
 31
0.0
  0
LINE
  5
5C
330
A
100
AcDbEntity
  8
0
 62
     7
100
AcDbLine
 10
189.028944
 20
78.10858299999999
 30
0.0
 11
183.357284
 21
78.570226
 31
0.0
  0
LINE
  5
5B
330
A
100
AcDbEntity
  8
0
 62
     7
100
AcDbLine
 10
183.357284
 20
78.570226
 30
0.0
 11
177.108225
 21
78.962278
 31
0.0
  0
LINE
  5
5A
330
A
100
AcDbEntity
  8
0
 62
     7
100
AcDbLine
 10
177.108225
 20
78.962278
 30
0.0
 11
170.786475
 21
79.218248
 31
0.0
  0
LINE
  5
59
330
A
100
AcDbEntity
  8
0
 62
     7
100
AcDbLine
 10
170.786475
 20
79.218248
 30
0.0
 11
164.897773
 21
79.27061399999999
 31
0.0
  0
LINE
  5
58
330
A
100
AcDbEntity
  8
0
 62
     7
100
AcDbLine
 10
164.897773
 20
79.27061399999999
 30
0.0
 11
159.948204
 21
79.052195
 31
0.0
  0
LINE
  5
57
330
A
100
AcDbEntity
  8
0
 62
     7
100
AcDbLine
 10
128.278647
 20
74.27143599999999
 30
0.0
 11
121.323516
 21
74.27143599999999
 31
0.0
  0
LINE
  5
56
330
A
100
AcDbEntity
  8
0
 62
     7
100
AcDbLine
 10
133.081972
 20
74.27178000000001
 30
0.0
 11
128.278647
 21
74.27143599999999
 31
0.0
  0
LINE
  5
55
330
A
100
AcDbEntity
  8
0
 62
     7
100
AcDbLine
 10
137.242786
 20
74.27143599999999
 30
0.0
 11
133.081972
 21
74.27178000000001
 31
0.0
  0
LINE
  5
54
330
A
100
AcDbEntity
  8
0
 62
     7
100
AcDbLine
 10
142.571143
 20
74.27178000000001
 30
0.0
 11
137.242786
 21
74.27143599999999
 31
0.0
  0
LINE
  5
53
330
A
100
AcDbEntity
  8
0
 62
     7
100
AcDbLine
 10
148.901161
 20
74.27143599999999
 30
0.0
 11
145.814011
 21
74.27143599999999
 31
0.0
  0
LINE
  5
52
330
A
100
AcDbEntity
  8
0
 62
     7
100
AcDbLine
 10
142.769063
 20
74.27178000000001
 30
0.0
 11
142.55185
 21
74.27178000000001
 31
0.0
  0
LINE
  5
51
330
A
100
AcDbEntity
  8
0
 62
     7
100
AcDbLine
 10
154.910441
 20
74.27178000000001
 30
0.0
 11
148.901161
 21
74.27143599999999
 31
0.0
  0
LINE
  5
50
330
A
100
AcDbEntity
  8
0
 62
     7
100
AcDbLine
 10
159.942348
 20
74.27143599999999
 30
0.0
 11
154.910441
 21
74.27178000000001
 31
0.0
  0
LINE
  5
4F
330
A
100
AcDbEntity
  8
0
 62
     7
100
AcDbLine
 10
164.855054
 20
74.27143599999999
 30
0.0
 11
159.942348
 21
74.27143599999999
 31
0.0
  0
LINE
  5
4E
330
A
100
AcDbEntity
  8
0
 62
     7
100
AcDbLine
 10
170.706548
 20
74.27143599999999
 30
0.0
 11
164.855054
 21
74.27143599999999
 31
0.0
  0
LINE
  5
4D
330
A
100
AcDbEntity
  8
0
 62
     7
100
AcDbLine
 10
176.993848
 20
74.27143599999999
 30
0.0
 11
170.706548
 21
74.27143599999999
 31
0.0
  0
LINE
  5
4C
330
A
100
AcDbEntity
  8
0
 62
     7
100
AcDbLine
 10
183.210867
 20
74.27143599999999
 30
0.0
 11
176.993848
 21
74.27143599999999
 31
0.0
  0
LINE
  5
4B
330
A
100
AcDbEntity
  8
0
 62
     7
100
AcDbLine
 10
188.855656
 20
74.27143599999999
 30
0.0
 11
183.210867
 21
74.27143599999999
 31
0.0
  0
LINE
  5
4A
330
A
100
AcDbEntity
  8
0
 62
     7
100
AcDbLine
 10
193.864825
 20
74.27178000000001
 30
0.0
 11
188.855656
 21
74.27143599999999
 31
0.0
  0
LINE
  5
49
330
A
100
AcDbEntity
  8
0
 62
     7
100
AcDbLine
 10
198.406494
 20
74.27178000000001
 30
0.0
 11
193.864825
 21
74.27178000000001
 31
0.0
  0
LINE
  5
48
330
A
100
AcDbEntity
  8
0
 62
     7
100
AcDbLine
 10
202.933005
 20
74.27178000000001
 30
0.0
 11
198.406494
 21
74.27178000000001
 31
0.0
  0
LINE
  5
47
330
A
100
AcDbEntity
  8
0
 62
     7
100
AcDbLine
 10
164.860221
 20
78.676679
 30
0.0
 11
159.943726
 21
78.45825999999999
 31
0.0
  0
LINE
  5
46
330
A
100
AcDbEntity
  8
0
 62
     7
100
AcDbLine
 10
159.943726
 20
78.45825999999999
 30
0.0
 11
154.90803
 21
77.983181
 31
0.0
  0
LINE
  5
45
330
A
100
AcDbEntity
  8
0
 62
     7
100
AcDbLine
 10
154.90803
 20
77.983181
 30
0.0
 11
148.89496
 21
77.36960999999999
 31
0.0
  0
LINE
  5
44
330
A
100
AcDbEntity
  8
0
 62
     7
100
AcDbLine
 10
148.89496
 20
77.36960999999999
 30
0.0
 11
145.947681
 21
77.05507299999999
 31
0.0
  0
LINE
  5
43
330
A
100
AcDbEntity
  8
0
 62
     7
100
AcDbLine
 10
142.716698
 20
76.74329200000001
 30
0.0
 11
137.229522
 21
76.08906800000001
 31
0.0
  0
LINE
  5
42
330
A
100
AcDbEntity
  8
0
 62
     7
100
AcDbLine
 10
137.229522
 20
76.08906800000001
 30
0.0
 11
133.064918
 21
75.617779
 31
0.0
  0
LINE
  5
41
330
A
100
AcDbEntity
  8
0
 62
     7
100
AcDbLine
 10
133.064918
 20
75.617779
 30
0.0
 11
128.257804
 21
75.27946999999999
 31
0.0
  0
LINE
  5
40
330
A
100
AcDbEntity
  8
0
 62
     7
100
AcDbLine
 10
128.257804
 20
75.27946999999999
 30
0.0
 11
121.297506
 21
75.03590200000001
 31
0.0
  0
LINE
  5
3F
330
A
100
AcDbEntity
  8
0
 62
     7
100
AcDbLine
 10
170.71585
 20
78.62396899999999
 30
0.0
 11
164.860221
 21
78.676679
 31
0.0
  0
LINE
  5
3E
330
A
100
AcDbEntity
  8
0
 62
     7
100
AcDbLine
 10
177.007973
 20
78.36731
 30
0.0
 11
170.71585
 21
78.62396899999999
 31
0.0
  0
LINE
  5
3D
330
A
100
AcDbEntity
  8
0
 62
     7
100
AcDbLine
 10
183.229815
 20
77.97422399999999
 30
0.0
 11
177.007973
 21
78.36731
 31
0.0
  0
LINE
  5
3C
330
A
100
AcDbEntity
  8
0
 62
     7
100
AcDbLine
 10
188.878738
 20
77.511892
 30
0.0
 11
183.229815
 21
77.97422399999999
 31
0.0
  0
LINE
  5
3B
330
A
100
AcDbEntity
  8
0
 62
     7
100
AcDbLine
 10
193.891697
 20
76.936561
 30
0.0
 11
188.878738
 21
77.511892
 31
0.0
  0
LINE
  5
3A
330
A
100
AcDbEntity
  8
0
 62
     7
100
AcDbLine
 10
198.436122
 20
76.301975
 30
0.0
 11
193.891697
 21
76.936561
 31
0.0
  0
LINE
  5
39
330
A
100
AcDbEntity
  8
0
 62
     7
100
AcDbLine
 10
202.966078
 20
75.71320799999999
 30
0.0
 11
198.436122
 21
76.301975
 31
0.0
  0
LINE
  5
38
330
A
100
AcDbEntity
  8
0
 62
     7
100
AcDbLine
 10
108.138619
 20
74.53670799999999
 30
0.0
 11
102.073184
 21
74.16015899999999
 31
0.0
  0
LINE
  5
37
330
A
100
AcDbEntity
  8
0
 62
     7
100
AcDbLine
 10
121.297506
 20
75.03590200000001
 30
0.0
 11
113.807007
 21
74.803358
 31
0.0
  0
LINE
  5
36
330
A
100
AcDbEntity
  8
0
 62
     7
100
AcDbLine
 10
113.807007
 20
74.803358
 30
0.0
 11
108.138619
 21
74.53670799999999
 31
0.0
  0
LINE
  5
35
330
A
100
AcDbEntity
  8
0
 62
     7
100
AcDbLine
 10
205.703206
 20
75.270513
 30
0.0
 11
202.966078
 21
75.71320799999999
 31
0.0
  0
LINE
  5
34
330
A
100
AcDbEntity
  8
0
 62
     7
100
AcDbLine
 10
209.724322
 20
74.864681
 30
0.0
 11
205.703206
 21
75.270513
 31
0.0
  0
LINE
  5
33
330
A
100
AcDbEntity
  8
0
 62
     7
100
AcDbLine
 10
212.36671
 20
74.72618799999999
 30
0.0
 11
209.724322
 21
74.864681
 31
0.0
  0
LINE
  5
32
330
A
100
AcDbEntity
  8
0
 62
     7
100
AcDbLine
 10
154.88667
 20
78.578149
 30
0.0
 11
159.948204
 21
79.052195
 31
0.0
  0
LINE
  5
31
330
A
100
AcDbEntity
  8
0
 62
     7
100
AcDbLine
 10
148.853963
 20
77.9663
 30
0.0
 11
154.88667
 21
78.578149
 31
0.0
  0
LINE
  5
30
330
A
100
AcDbEntity
  8
0
 62
     7
100
AcDbLine
 10
145.968007
 20
77.668644
 30
0.0
 11
148.853963
 21
77.9663
 31
0.0
  0
LINE
  5
2F
330
A
100
AcDbEntity
  8
0
 62
     7
100
AcDbLine
 10
137.153902
 20
76.68817
 30
0.0
 11
142.505858
 21
77.30587599999999
 31
0.0
  0
LINE
  5
2E
330
A
100
AcDbEntity
  8
0
 62
     7
100
AcDbLine
 10
132.977585
 20
76.218604
 30
0.0
 11
137.153902
 21
76.68817
 31
0.0
  0
LINE
  5
2D
330
A
100
AcDbEntity
  8
0
 62
     7
100
AcDbLine
 10
128.161686
 20
75.88167299999999
 30
0.0
 11
132.977585
 21
76.218604
 31
0.0
  0
LINE
  5
2C
330
A
100
AcDbEntity
  8
0
 62
     7
100
AcDbLine
 10
121.183301
 20
75.639138
 30
0.0
 11
128.161686
 21
75.88167299999999
 31
0.0
  0
LINE
  5
2B
330
A
100
AcDbEntity
  8
0
 62
     7
100
AcDbLine
 10
113.672476
 20
75.23054999999999
 30
0.0
 11
121.183301
 21
75.639138
 31
0.0
  0
LINE
  5
2A
330
A
100
AcDbEntity
  8
0
 62
     7
100
AcDbLine
 10
107.994442
 20
74.794057
 30
0.0
 11
113.672476
 21
75.23054999999999
 31
0.0
  0
LINE
  5
29
330
A
100
AcDbEntity
  8
0
 62
     7
100
AcDbLine
 10
102.061126
 20
74.21218
 30
0.0
 11
107.994442
 21
74.794057
 31
0.0
  0
DIMENSION
  5
2A2
330
A
100
AcDbEntity
  8
Cotation-JacobDelafon
  6
Continuous
370
     0
100
AcDbDimension
  2
*D1
 10
228.490101
 20
168.8549325592273
 30
0.0
 11
148.6791245
 21
171.2866515223924
 31
0.0
 70
    32
  1
160
 71
     5
 42
159.6219529999999
 73
     0
 74
     0
 75
     0
  3
Cotation-Jacob-Delafon
100
AcDbAlignedDimension
 13
68.868148
 23
141.490416
 33
0.0
 14
228.490101
 24
141.540025
 34
0.0
100
AcDbRotatedDimension
  0
DIMENSION
  5
2AF
330
A
100
AcDbEntity
  8
Cotation-JacobDelafon
  6
Continuous
370
     0
100
AcDbDimension
  2
*D2
 10
49.51155743087685
 20
67.54833199999999
 30
0.0
 11
47.08597762187275
 21
105.0444065
 31
0.0
 70
    32
  1
75
 71
     5
 42
74.99214900000002
 73
     0
 74
     0
 75
     0
  3
Cotation-Jacob-Delafon
100
AcDbAlignedDimension
 13
69.369065
 23
142.540481
 33
0.0
 14
69.369065
 24
67.54833199999999
 34
0.0
 50
90.0
100
AcDbRotatedDimension
  0
ENDSEC
  0
SECTION
  2
OBJECTS
  0
DICTIONARY
  5
19
330
0
100
AcDbDictionary
281
     1
  3
ACAD_COLOR
350
26F
  3
ACAD_GROUP
350
1A
  3
ACAD_LAYOUT
350
1E
  3
ACAD_MATERIAL
350
245
  3
ACAD_MLEADERSTYLE
350
284
  3
ACAD_MLINESTYLE
350
1B
  3
ACAD_PLOTSETTINGS
350
22
  3
ACAD_PLOTSTYLENAME
350
1F
  3
ACAD_SCALELIST
350
272
  3
ACAD_TABLESTYLE
350
270
  3
ACAD_VISUALSTYLE
350
25E
  3
ACAD_WIPEOUT_VARS
350
23
  3
ACDB_RECOMPOSE_DATA
350
2D4
  3
AcDbVariableDictionary
350
2D5
  3
AEC_PROPERTY_SET_DEFS
350
297
  0
DICTIONARY
  5
2CE
330
14
100
AcDbDictionary
280
     1
281
     1
  3
ADSK_XREC_LAYER_RECONCILED
360
2CF
  0
DICTIONARY
  5
2D0
330
29C
100
AcDbDictionary
280
     1
281
     1
  3
ADSK_XREC_LAYER_RECONCILED
360
2D1
  0
DICTIONARY
  5
26F
102
{ACAD_REACTORS
330
19
102
}
330
19
100
AcDbDictionary
281
     1
  0
DICTIONARY
  5
1A
102
{ACAD_REACTORS
330
19
102
}
330
19
100
AcDbDictionary
281
     1
  0
DICTIONARY
  5
1E
102
{ACAD_REACTORS
330
19
102
}
330
19
100
AcDbDictionary
281
     1
  3
Layout1
350
21
  3
Model
350
20
  0
DICTIONARY
  5
245
102
{ACAD_REACTORS
330
19
102
}
330
19
100
AcDbDictionary
281
     1
  3
ByBlock
350
24E
  3
ByLayer
350
246
  3
Global
350
256
  0
DICTIONARY
  5
284
102
{ACAD_REACTORS
330
19
102
}
330
19
100
AcDbDictionary
281
     1
  3
Standard
350
285
  0
DICTIONARY
  5
1B
102
{ACAD_REACTORS
330
19
102
}
330
19
100
AcDbDictionary
281
     1
  3
Standard
350
1C
  0
DICTIONARY
  5
22
102
{ACAD_REACTORS
330
19
102
}
330
19
100
AcDbDictionary
281
     1
  0
ACDBDICTIONARYWDFLT
  5
1F
102
{ACAD_REACTORS
330
19
102
}
330
19
100
AcDbDictionary
281
     1
  3
Normal
350
1D
100
AcDbDictionaryWithDefault
340
1D
  0
DICTIONARY
  5
272
102
{ACAD_REACTORS
330
19
102
}
330
19
100
AcDbDictionary
281
     1
  3
A0
350
273
  3
A1
350
274
  3
A2
350
275
  3
A3
350
276
  3
A4
350
277
  3
A5
350
278
  3
A6
350
279
  3
A7
350
27A
  3
A8
350
27B
  3
A9
350
27C
  3
B0
350
27D
  3
B1
350
27E
  3
B2
350
27F
  3
B3
350
280
  3
B4
350
281
  3
B5
350
282
  3
B6
350
283
  0
DICTIONARY
  5
270
102
{ACAD_REACTORS
330
19
102
}
330
19
100
AcDbDictionary
281
     1
  3
Standard
350
271
  0
DICTIONARY
  5
25E
102
{ACAD_REACTORS
330
19
102
}
330
19
100
AcDbDictionary
281
     1
  3
2dWireframe
350
264
  3
3D Hidden
350
266
  3
3dWireframe
350
265
  3
Basic
350
263
  3
Brighten
350
26A
  3
ColorChange
350
26E
  3
Conceptual
350
267
  3
Dim
350
269
  3
Facepattern
350
26D
  3
Flat
350
25F
  3
FlatWithEdges
350
260
  3
Gouraud
350
261
  3
GouraudWithEdges
350
262
  3
Linepattern
350
26C
  3
Realistic
350
268
  3
Thicken
350
26B
  0
WIPEOUTVARIABLES
  5
23
330
19
100
AcDbWipeoutVariables
 70
     1
  0
XRECORD
  5
2D4
102
{ACAD_REACTORS
330
19
102
}
330
19
100
AcDbXrecord
280
     1
 90
        1
330
271
  0
DICTIONARY
  5
2D5
102
{ACAD_REACTORS
330
19
102
}
330
19
100
AcDbDictionary
281
     1
  3
CANNOSCALE
350
2D9
  3
CMLEADERSTYLE
350
2D7
  3
CTABLESTYLE
350
2D6
  3
LAYEREVAL
350
2DB
  3
LAYERNOTIFY
350
2DC
  3
LIGHTINGUNITS
350
2DA
  3
MSLTSCALE
350
2D8
  0
DICTIONARY
  5
297
102
{ACAD_REACTORS
330
19
102
}
330
19
100
AcDbDictionary
281
     1
  0
XRECORD
  5
2CF
102
{ACAD_REACTORS
330
2CE
102
}
330
2CE
100
AcDbXrecord
280
     1
290
     1
  0
XRECORD
  5
2D1
102
{ACAD_REACTORS
330
2D0
102
}
330
2D0
100
AcDbXrecord
280
     1
290
     1
  0
LAYOUT
  5
21
102
{ACAD_REACTORS
330
1E
102
}
330
1E
100
AcDbPlotSettings
  1

  2

  4

  6

 40
0.0
 41
0.0
 42
0.0
 43
0.0
 44
0.0
 45
0.0
 46
0.0
 47
0.0
 48
0.0
 49
0.0
140
0.0
141
0.0
142
1.0
143
1.0
 70
     0
 72
     0
 73
     0
 74
     0
  7

 75
     0
147
1.0
 76
     0
 77
     2
 78
   300
148
0.0
149
0.0
100
AcDbLayout
  1
Layout1
 70
     0
 71
     1
 10
0.0
 20
0.0
 11
12.0
 21
9.0
 12
0.0
 22
0.0
 32
0.0
 14
1.000000000000000E+20
 24
1.000000000000000E+20
 34
1.000000000000000E+20
 15
-1.000000000000000E+20
 25
-1.000000000000000E+20
 35
-1.000000000000000E+20
146
0.0
 13
0.0
 23
0.0
 33
0.0
 16
1.0
 26
0.0
 36
0.0
 17
0.0
 27
1.0
 37
0.0
 76
     0
330
B
  0
LAYOUT
  5
20
102
{ACAD_REACTORS
330
1E
102
}
330
1E
100
AcDbPlotSettings
  1

  2

  4

  6

 40
0.0
 41
0.0
 42
0.0
 43
0.0
 44
0.0
 45
0.0
 46
0.0
 47
0.0
 48
0.0
 49
0.0
140
0.0
141
0.0
142
1.0
143
1.0
 70
  1024
 72
     0
 73
     0
 74
     0
  7

 75
     0
147
1.0
 76
     0
 77
     2
 78
   300
148
0.0
149
0.0
100
AcDbLayout
  1
Model
 70
     0
 71
     0
 10
0.0
 20
0.0
 11
0.0
 21
0.0
 12
0.0
 22
0.0
 32
0.0
 14
0.0
 24
0.0
 34
0.0
 15
0.0
 25
0.0
 35
0.0
146
0.0
 13
0.0
 23
0.0
 33
0.0
 16
0.0
 26
0.0
 36
0.0
 17
0.0
 27
0.0
 37
0.0
 76
     0
330
A
331
15
  0
MATERIAL
  5
24E
102
{ACAD_XDICTIONARY
360
24F
102
}
102
{ACAD_REACTORS
330
245
102
}
330
245
100
AcDbMaterial
  1
ByBlock
 72
     0
 43
0.0208333333333333
 43
0.0
 43
0.0
 43
0.0
 43
0.0
 43
0.0208333333333333
 43
0.0
 43
0.0
 43
0.0
 43
0.0
 43
1.0
 43
0.0
 43
0.0
 43
0.0
 43
0.0
 43
1.0
 77
     0
 47
0.0208333333333333
 47
0.0
 47
0.0
 47
0.0
 47
0.0
 47
0.0208333333333333
 47
0.0
 47
0.0
 47
0.0
 47
0.0
 47
1.0
 47
0.0
 47
0.0
 47
0.0
 47
0.0
 47
1.0
171
     0
 49
0.0208333333333333
 49
0.0
 49
0.0
 49
0.0
 49
0.0
 49
0.0208333333333333
 49
0.0
 49
0.0
 49
0.0
 49
0.0
 49
1.0
 49
0.0
 49
0.0
 49
0.0
 49
0.0
 49
1.0
175
     0
142
0.0208333333333333
142
0.0
142
0.0
142
0.0
142
0.0
142
0.0208333333333333
142
0.0
142
0.0
142
0.0
142
0.0
142
1.0
142
0.0
142
0.0
142
0.0
142
0.0
142
1.0
179
     0
144
0.0208333333333333
144
0.0
144
0.0
144
0.0
144
0.0
144
0.0208333333333333
144
0.0
144
0.0
144
0.0
144
0.0
144
1.0
144
0.0
144
0.0
144
0.0
144
0.0
144
1.0
147
0.0208333333333333
147
0.0
147
0.0
147
0.0
147
0.0
147
0.0208333333333333
147
0.0
147
0.0
147
0.0
147
0.0
147
1.0
147
0.0
147
0.0
147
0.0
147
0.0
147
1.0
  0
MATERIAL
  5
246
102
{ACAD_XDICTIONARY
360
247
102
}
102
{ACAD_REACTORS
330
245
102
}
330
245
100
AcDbMaterial
  1
ByLayer
 72
     0
 43
0.0208333333333333
 43
0.0
 43
0.0
 43
0.0
 43
0.0
 43
0.0208333333333333
 43
0.0
 43
0.0
 43
0.0
 43
0.0
 43
1.0
 43
0.0
 43
0.0
 43
0.0
 43
0.0
 43
1.0
 77
     0
 47
0.0208333333333333
 47
0.0
 47
0.0
 47
0.0
 47
0.0
 47
0.0208333333333333
 47
0.0
 47
0.0
 47
0.0
 47
0.0
 47
1.0
 47
0.0
 47
0.0
 47
0.0
 47
0.0
 47
1.0
171
     0
 49
0.0208333333333333
 49
0.0
 49
0.0
 49
0.0
 49
0.0
 49
0.0208333333333333
 49
0.0
 49
0.0
 49
0.0
 49
0.0
 49
1.0
 49
0.0
 49
0.0
 49
0.0
 49
0.0
 49
1.0
175
     0
142
0.0208333333333333
142
0.0
142
0.0
142
0.0
142
0.0
142
0.0208333333333333
142
0.0
142
0.0
142
0.0
142
0.0
142
1.0
142
0.0
142
0.0
142
0.0
142
0.0
142
1.0
179
     0
144
0.0208333333333333
144
0.0
144
0.0
144
0.0
144
0.0
144
0.0208333333333333
144
0.0
144
0.0
144
0.0
144
0.0
144
1.0
144
0.0
144
0.0
144
0.0
144
0.0
144
1.0
147
0.0208333333333333
147
0.0
147
0.0
147
0.0
147
0.0
147
0.0208333333333333
147
0.0
147
0.0
147
0.0
147
0.0
147
1.0
147
0.0
147
0.0
147
0.0
147
0.0
147
1.0
  0
MATERIAL
  5
256
102
{ACAD_XDICTIONARY
360
257
102
}
102
{ACAD_REACTORS
330
245
102
}
330
245
100
AcDbMaterial
  1
Global
 72
     0
 43
0.0208333333333333
 43
0.0
 43
0.0
 43
0.0
 43
0.0
 43
0.0208333333333333
 43
0.0
 43
0.0
 43
0.0
 43
0.0
 43
1.0
 43
0.0
 43
0.0
 43
0.0
 43
0.0
 43
1.0
 77
     0
 47
0.0208333333333333
 47
0.0
 47
0.0
 47
0.0
 47
0.0
 47
0.0208333333333333
 47
0.0
 47
0.0
 47
0.0
 47
0.0
 47
1.0
 47
0.0
 47
0.0
 47
0.0
 47
0.0
 47
1.0
171
     0
 49
0.0208333333333333
 49
0.0
 49
0.0
 49
0.0
 49
0.0
 49
0.0208333333333333
 49
0.0
 49
0.0
 49
0.0
 49
0.0
 49
1.0
 49
0.0
 49
0.0
 49
0.0
 49
0.0
 49
1.0
175
     0
142
0.0208333333333333
142
0.0
142
0.0
142
0.0
142
0.0
142
0.0208333333333333
142
0.0
142
0.0
142
0.0
142
0.0
142
1.0
142
0.0
142
0.0
142
0.0
142
0.0
142
1.0
179
     0
144
0.0208333333333333
144
0.0
144
0.0
144
0.0
144
0.0
144
0.0208333333333333
144
0.0
144
0.0
144
0.0
144
0.0
144
1.0
144
0.0
144
0.0
144
0.0
144
0.0
144
1.0
147
0.0208333333333333
147
0.0
147
0.0
147
0.0
147
0.0
147
0.0208333333333333
147
0.0
147
0.0
147
0.0
147
0.0
147
1.0
147
0.0
147
0.0
147
0.0
147
0.0
147
1.0
  0
MLEADERSTYLE
  5
285
102
{ACAD_REACTORS
330
284
102
}
330
284
100
AcDbMLeaderStyle
170
     2
171
     1
172
     0
 90
        2
 40
0.0
 41
0.0
173
     1
 91
-1056964608
340
11
 92
       -2
290
     1
 42
2.0
291
     1
 43
0.36
  3
Standard
 44
4.0
300

342
17
174
     1
178
     6
175
     1
176
     0
 93
-1056964608
 45
4.0
292
     0
297
     0
 46
4.0
 94
-1056964608
 47
1.0
 49
1.0
140
1.0
293
     1
141
0.0
294
     1
177
     0
142
1.0
295
     0
296
     0
143
0.125
1001
ACAD_MLEADERVER
1070
     2
  0
MLINESTYLE
  5
1C
102
{ACAD_REACTORS
330
1B
102
}
330
1B
100
AcDbMlineStyle
  2
STANDARD
 70
     0
  3

 62
     0
 51
90.0
 52
90.0
 71
     2
 49
0.5
 62
   256
  6
BYLAYER
 49
-0.5
 62
   256
  6
BYLAYER
  0
ACDBPLACEHOLDER
  5
1D
102
{ACAD_REACTORS
330
1F
102
}
330
1F
  0
SCALE
  5
273
102
{ACAD_REACTORS
330
272
102
}
330
272
100
AcDbScale
 70
     0
300
1:1
140
1.0
141
1.0
290
     1
  0
SCALE
  5
274
102
{ACAD_REACTORS
330
272
102
}
330
272
100
AcDbScale
 70
     0
300
1:2
140
1.0
141
2.0
290
     0
  0
SCALE
  5
275
102
{ACAD_REACTORS
330
272
102
}
330
272
100
AcDbScale
 70
     0
300
1:4
140
1.0
141
4.0
290
     0
  0
SCALE
  5
276
102
{ACAD_REACTORS
330
272
102
}
330
272
100
AcDbScale
 70
     0
300
1:5
140
1.0
141
5.0
290
     0
  0
SCALE
  5
277
102
{ACAD_REACTORS
330
272
102
}
330
272
100
AcDbScale
 70
     0
300
1:8
140
1.0
141
8.0
290
     0
  0
SCALE
  5
278
102
{ACAD_REACTORS
330
272
102
}
330
272
100
AcDbScale
 70
     0
300
1:10
140
1.0
141
10.0
290
     0
  0
SCALE
  5
279
102
{ACAD_REACTORS
330
272
102
}
330
272
100
AcDbScale
 70
     0
300
1:16
140
1.0
141
16.0
290
     0
  0
SCALE
  5
27A
102
{ACAD_REACTORS
330
272
102
}
330
272
100
AcDbScale
 70
     0
300
1:20
140
1.0
141
20.0
290
     0
  0
SCALE
  5
27B
102
{ACAD_REACTORS
330
272
102
}
330
272
100
AcDbScale
 70
     0
300
1:30
140
1.0
141
30.0
290
     0
  0
SCALE
  5
27C
102
{ACAD_REACTORS
330
272
102
}
330
272
100
AcDbScale
 70
     0
300
1:40
140
1.0
141
40.0
290
     0
  0
SCALE
  5
27D
102
{ACAD_REACTORS
330
272
102
}
330
272
100
AcDbScale
 70
     0
300
1:50
140
1.0
141
50.0
290
     0
  0
SCALE
  5
27E
102
{ACAD_REACTORS
330
272
102
}
330
272
100
AcDbScale
 70
     0
300
1:100
140
1.0
141
100.0
290
     0
  0
SCALE
  5
27F
102
{ACAD_REACTORS
330
272
102
}
330
272
100
AcDbScale
 70
     0
300
2:1
140
2.0
141
1.0
290
     0
  0
SCALE
  5
280
102
{ACAD_REACTORS
330
272
102
}
330
272
100
AcDbScale
 70
     0
300
4:1
140
4.0
141
1.0
290
     0
  0
SCALE
  5
281
102
{ACAD_REACTORS
330
272
102
}
330
272
100
AcDbScale
 70
     0
300
8:1
140
8.0
141
1.0
290
     0
  0
SCALE
  5
282
102
{ACAD_REACTORS
330
272
102
}
330
272
100
AcDbScale
 70
     0
300
10:1
140
10.0
141
1.0
290
     0
  0
SCALE
  5
283
102
{ACAD_REACTORS
330
272
102
}
330
272
100
AcDbScale
 70
     0
300
100:1
140
100.0
141
1.0
290
     0
  0
TABLESTYLE
  5
271
102
{ACAD_XDICTIONARY
360
2D2
102
}
102
{ACAD_REACTORS
330
270
102
}
330
270
100
AcDbTableStyle
  3
Standard
 70
     0
 71
     0
 40
1.5
 41
1.5
280
     0
281
     0
  7
Standard
140
4.5
170
     2
 62
     0
 63
     7
283
     0
 90
      512
 91
        0
  1

274
    -2
284
     1
 64
     0
275
    -2
285
     1
 65
     0
276
    -2
286
     1
 66
     0
277
    -2
287
     1
 67
     0
278
    -2
288
     1
 68
     0
279
    -2
289
     1
 69
     0
  7
Standard
140
6.0
170
     5
 62
     0
 63
     7
283
     0
 90
      512
 91
        0
  1

274
    -2
284
     1
 64
     0
275
    -2
285
     1
 65
     0
276
    -2
286
     1
 66
     0
277
    -2
287
     1
 67
     0
278
    -2
288
     1
 68
     0
279
    -2
289
     1
 69
     0
  7
Standard
140
4.5
170
     5
 62
     0
 63
     7
283
     0
 90
      512
 91
        0
  1

274
    -2
284
     1
 64
     0
275
    -2
285
     1
 65
     0
276
    -2
286
     1
 66
     0
277
    -2
287
     1
 67
     0
278
    -2
288
     1
 68
     0
279
    -2
289
     1
 69
     0
  0
VISUALSTYLE
  5
264
102
{ACAD_REACTORS
330
25E
102
}
330
25E
100
AcDbVisualStyle
  2
2dWireframe
 70
     4
 71
     0
 72
     2
 73
     0
 90
        0
 40
-0.6
 41
-30.0
 62
     5
 63
     7
421
 16777215
 74
     1
 91
        4
 64
     7
 65
   257
 75
     1
175
     1
 42
1.0
 92
        0
 66
   257
 43
1.0
 76
     1
 77
     6
 78
     2
 67
     7
 79
     5
170
     0
171
     0
290
     0
174
     0
 93
        1
 44
0.0
173
     0
291
     0
 45
0.0
  0
VISUALSTYLE
  5
266
102
{ACAD_REACTORS
330
25E
102
}
330
25E
100
AcDbVisualStyle
  2
3D Hidden
 70
     6
 71
     1
 72
     2
 73
     2
 90
        0
 40
-0.6
 41
-30.0
 62
     5
 63
     7
421
 16777215
 74
     2
 91
        2
 64
     7
 65
   257
 75
     2
175
     1
 42
40.0
 92
        0
 66
   257
 43
1.0
 76
     1
 77
     6
 78
     2
 67
     7
 79
     3
170
     0
171
     0
290
     0
174
     0
 93
        1
 44
0.0
173
     0
291
     0
 45
0.0
  0
VISUALSTYLE
  5
265
102
{ACAD_REACTORS
330
25E
102
}
330
25E
100
AcDbVisualStyle
  2
3dWireframe
 70
     5
 71
     0
 72
     2
 73
     0
 90
        0
 40
-0.6
 41
-30.0
 62
     5
 63
     7
421
 16777215
 74
     1
 91
        4
 64
     7
 65
   257
 75
     1
175
     1
 42
1.0
 92
        0
 66
   257
 43
1.0
 76
     1
 77
     6
 78
     2
 67
     7
 79
     5
170
     0
171
     0
290
     0
174
     0
 93
        1
 44
0.0
173
     0
291
     0
 45
0.0
  0
VISUALSTYLE
  5
263
102
{ACAD_REACTORS
330
25E
102
}
330
25E
100
AcDbVisualStyle
  2
Basic
 70
     7
 71
     1
 72
     0
 73
     1
 90
        0
 40
-0.6
 41
-30.0
 62
     5
 63
     7
421
 16777215
 74
     0
 91
        4
 64
     7
 65
   257
 75
     1
175
     1
 42
1.0
 92
        8
 66
     7
 43
1.0
 76
     1
 77
     6
 78
     2
 67
     7
 79
     5
170
     0
171
     0
290
     0
174
     0
 93
        1
 44
0.0
173
     0
291
     1
 45
0.0
  0
VISUALSTYLE
  5
26A
102
{ACAD_REACTORS
330
25E
102
}
330
25E
100
AcDbVisualStyle
  2
Brighten
 70
    12
 71
     2
 72
     2
 73
     0
 90
        0
 40
-0.6
 41
-30.0
 62
     5
 63
     7
421
 16777215
 74
     1
 91
        4
 64
     7
 65
   257
 75
     1
175
     1
 42
1.0
 92
        8
 66
     7
 43
1.0
 76
     1
 77
     6
 78
     2
 67
     7
 79
     5
170
     0
171
     0
290
     0
174
     0
 93
        1
 44
50.0
173
     0
291
     1
 45
0.0
  0
VISUALSTYLE
  5
26E
102
{ACAD_REACTORS
330
25E
102
}
330
25E
100
AcDbVisualStyle
  2
ColorChange
 70
    16
 71
     2
 72
     2
 73
     3
 90
        0
 40
-0.6
 41
-30.0
 62
     5
 63
     8
421
  8421504
 74
     1
 91
        4
 64
     7
 65
   257
 75
     1
175
     1
 42
1.0
 92
        8
 66
     8
424
  8421504
 43
1.0
 76
     1
 77
     6
 78
     2
 67
     7
 79
     5
170
     0
171
     0
290
     0
174
     0
 93
        1
 44
0.0
173
     0
291
     1
 45
0.0
  0
VISUALSTYLE
  5
267
102
{ACAD_REACTORS
330
25E
102
}
330
25E
100
AcDbVisualStyle
  2
Conceptual
 70
     9
 71
     3
 72
     2
 73
     0
 90
        0
 40
-0.6
 41
-30.0
 62
     5
 63
     7
421
 16777215
 74
     2
 91
        2
 64
     7
 65
   257
 75
     1
175
     1
 42
40.0
 92
        8
 66
     7
 43
1.0
 76
     1
 77
     6
 78
     2
 67
     7
 79
     3
170
     0
171
     0
290
     0
174
     0
 93
        1
 44
0.0
173
     0
291
     0
 45
0.0
  0
VISUALSTYLE
  5
269
102
{ACAD_REACTORS
330
25E
102
}
330
25E
100
AcDbVisualStyle
  2
Dim
 70
    11
 71
     2
 72
     2
 73
     0
 90
        0
 40
-0.6
 41
-30.0
 62
     5
 63
     7
421
 16777215
 74
     1
 91
        4
 64
     7
 65
   257
 75
     1
175
     1
 42
1.0
 92
        8
 66
     7
 43
1.0
 76
     1
 77
     6
 78
     2
 67
     7
 79
     5
170
     0
171
     0
290
     0
174
     0
 93
        1
 44
-50.0
173
     0
291
     1
 45
0.0
  0
VISUALSTYLE
  5
26D
102
{ACAD_REACTORS
330
25E
102
}
330
25E
100
AcDbVisualStyle
  2
Facepattern
 70
    15
 71
     2
 72
     2
 73
     0
 90
        0
 40
-0.6
 41
-30.0
 62
     5
 63
     7
421
 16777215
 74
     1
 91
        4
 64
     7
 65
   257
 75
     1
175
     1
 42
1.0
 92
        8
 66
     7
 43
1.0
 76
     1
 77
     6
 78
     2
 67
     7
 79
     5
170
     0
171
     0
290
     0
174
     0
 93
        1
 44
0.0
173
     0
291
     1
 45
0.0
  0
VISUALSTYLE
  5
25F
102
{ACAD_REACTORS
330
25E
102
}
330
25E
100
AcDbVisualStyle
  2
Flat
 70
     0
 71
     2
 72
     1
 73
     1
 90
        2
 40
-0.6
 41
30.0
 62
     5
 63
     7
421
 16777215
 74
     0
 91
        4
 64
     7
 65
   257
 75
     1
175
     1
 42
1.0
 92
        8
 66
     7
 43
1.0
 76
     1
 77
     6
 78
     2
 67
     7
 79
     5
170
     0
171
     0
290
     0
174
     0
 93
       13
 44
0.0
173
     0
291
     1
 45
0.0
  0
VISUALSTYLE
  5
260
102
{ACAD_REACTORS
330
25E
102
}
330
25E
100
AcDbVisualStyle
  2
FlatWithEdges
 70
     1
 71
     2
 72
     1
 73
     1
 90
        2
 40
-0.6
 41
30.0
 62
     5
 63
     7
421
 16777215
 74
     1
 91
        4
 64
     7
 65
   257
 75
     1
175
     1
 42
1.0
 92
        0
 66
   257
 43
1.0
 76
     1
 77
     6
 78
     2
 67
     7
 79
     5
170
     0
171
     0
290
     0
174
     0
 93
       13
 44
0.0
173
     0
291
     1
 45
0.0
  0
VISUALSTYLE
  5
261
102
{ACAD_REACTORS
330
25E
102
}
330
25E
100
AcDbVisualStyle
  2
Gouraud
 70
     2
 71
     2
 72
     2
 73
     1
 90
        2
 40
-0.6
 41
30.0
 62
     5
 63
     7
421
 16777215
 74
     0
 91
        4
 64
     7
 65
   257
 75
     1
175
     1
 42
1.0
 92
        0
 66
     7
 43
1.0
 76
     1
 77
     6
 78
     2
 67
     7
 79
     5
170
     0
171
     0
290
     0
174
     0
 93
       13
 44
0.0
173
     0
291
     1
 45
0.0
  0
VISUALSTYLE
  5
262
102
{ACAD_REACTORS
330
25E
102
}
330
25E
100
AcDbVisualStyle
  2
GouraudWithEdges
 70
     3
 71
     2
 72
     2
 73
     1
 90
        2
 40
-0.6
 41
30.0
 62
     5
 63
     7
421
 16777215
 74
     1
 91
        4
 64
     7
 65
   257
 75
     1
175
     1
 42
1.0
 92
        0
 66
   257
 43
1.0
 76
     1
 77
     6
 78
     2
 67
     7
 79
     5
170
     0
171
     0
290
     0
174
     0
 93
       13
 44
0.0
173
     0
291
     1
 45
0.0
  0
VISUALSTYLE
  5
26C
102
{ACAD_REACTORS
330
25E
102
}
330
25E
100
AcDbVisualStyle
  2
Linepattern
 70
    14
 71
     2
 72
     2
 73
     0
 90
        0
 40
-0.6
 41
-30.0
 62
     5
 63
     7
421
 16777215
 74
     1
 91
        4
 64
     7
 65
   257
 75
     7
175
     7
 42
1.0
 92
        8
 66
     7
 43
1.0
 76
     1
 77
     6
 78
     2
 67
     7
 79
     5
170
     0
171
     0
290
     0
174
     0
 93
        1
 44
0.0
173
     0
291
     1
 45
0.0
  0
VISUALSTYLE
  5
268
102
{ACAD_REACTORS
330
25E
102
}
330
25E
100
AcDbVisualStyle
  2
Realistic
 70
     8
 71
     2
 72
     2
 73
     0
 90
        0
 40
-0.6
 41
-30.0
 62
     5
 63
     7
421
 16777215
 74
     1
 91
        0
 64
     7
 65
   257
 75
     1
175
     1
 42
1.0
 92
        8
 66
     8
424
  7895160
 43
1.0
 76
     1
 77
     6
 78
     2
 67
     7
 79
     5
170
     0
171
     0
290
     0
174
     0
 93
       13
 44
0.0
173
     0
291
     0
 45
0.0
  0
VISUALSTYLE
  5
26B
102
{ACAD_REACTORS
330
25E
102
}
330
25E
100
AcDbVisualStyle
  2
Thicken
 70
    13
 71
     2
 72
     2
 73
     0
 90
        0
 40
-0.6
 41
-30.0
 62
     5
 63
     7
421
 16777215
 74
     1
 91
        4
 64
     7
 65
   257
 75
     1
175
     1
 42
1.0
 92
       12
 66
     7
 43
1.0
 76
     1
 77
     6
 78
     2
 67
     7
 79
     5
170
     0
171
     0
290
     0
174
     0
 93
        1
 44
0.0
173
     0
291
     1
 45
0.0
  0
DICTIONARYVAR
  5
2D9
102
{ACAD_REACTORS
330
2D5
102
}
330
2D5
100
DictionaryVariables
280
     0
  1
1:1
  0
DICTIONARYVAR
  5
2D7
102
{ACAD_REACTORS
330
2D5
102
}
330
2D5
100
DictionaryVariables
280
     0
  1
STANDARD
  0
DICTIONARYVAR
  5
2D6
102
{ACAD_REACTORS
330
2D5
102
}
330
2D5
100
DictionaryVariables
280
     0
  1
STANDARD
  0
DICTIONARYVAR
  5
2DB
102
{ACAD_REACTORS
330
2D5
102
}
330
2D5
100
DictionaryVariables
280
     0
  1
1
  0
DICTIONARYVAR
  5
2DC
102
{ACAD_REACTORS
330
2D5
102
}
330
2D5
100
DictionaryVariables
280
     0
  1
15
  0
DICTIONARYVAR
  5
2DA
102
{ACAD_REACTORS
330
2D5
102
}
330
2D5
100
DictionaryVariables
280
     0
  1
0
  0
DICTIONARYVAR
  5
2D8
102
{ACAD_REACTORS
330
2D5
102
}
330
2D5
100
DictionaryVariables
280
     0
  1
0
  0
DICTIONARY
  5
24F
330
24E
100
AcDbDictionary
280
     1
281
     1
  3
BUMPTILE
360
251
  3
DIFFUSETILE
360
250
  3
OPACITYTILE
360
254
  3
REFLECTIONTILE
360
253
  3
REFRACTIONTILE
360
255
  3
SPECULARTILE
360
252
  0
DICTIONARY
  5
247
330
246
100
AcDbDictionary
280
     1
281
     1
  3
BUMPTILE
360
249
  3
DIFFUSETILE
360
248
  3
OPACITYTILE
360
24C
  3
REFLECTIONTILE
360
24B
  3
REFRACTIONTILE
360
24D
  3
SPECULARTILE
360
24A
  0
DICTIONARY
  5
257
330
256
100
AcDbDictionary
280
     1
281
     1
  3
BUMPTILE
360
259
  3
DIFFUSETILE
360
258
  3
OPACITYTILE
360
25C
  3
REFLECTIONTILE
360
25B
  3
REFRACTIONTILE
360
25D
  3
SPECULARTILE
360
25A
  0
DICTIONARY
  5
2D2
330
271
100
AcDbDictionary
280
     1
281
     1
  3
ACAD_ROUNDTRIP_2008_TABLESTYLE_CELLSTYLEMAP
360
2E4
  0
XRECORD
  5
251
102
{ACAD_REACTORS
330
24F
102
}
330
24F
100
AcDbXrecord
280
     1
270
     1
271
     1
  0
XRECORD
  5
250
102
{ACAD_REACTORS
330
24F
102
}
330
24F
100
AcDbXrecord
280
     1
270
     1
271
     1
  0
XRECORD
  5
254
102
{ACAD_REACTORS
330
24F
102
}
330
24F
100
AcDbXrecord
280
     1
270
     1
271
     1
  0
XRECORD
  5
253
102
{ACAD_REACTORS
330
24F
102
}
330
24F
100
AcDbXrecord
280
     1
270
     1
271
     1
  0
XRECORD
  5
255
102
{ACAD_REACTORS
330
24F
102
}
330
24F
100
AcDbXrecord
280
     1
270
     1
271
     1
  0
XRECORD
  5
252
102
{ACAD_REACTORS
330
24F
102
}
330
24F
100
AcDbXrecord
280
     1
270
     1
271
     1
  0
XRECORD
  5
249
102
{ACAD_REACTORS
330
247
102
}
330
247
100
AcDbXrecord
280
     1
270
     1
271
     1
  0
XRECORD
  5
248
102
{ACAD_REACTORS
330
247
102
}
330
247
100
AcDbXrecord
280
     1
270
     1
271
     1
  0
XRECORD
  5
24C
102
{ACAD_REACTORS
330
247
102
}
330
247
100
AcDbXrecord
280
     1
270
     1
271
     1
  0
XRECORD
  5
24B
102
{ACAD_REACTORS
330
247
102
}
330
247
100
AcDbXrecord
280
     1
270
     1
271
     1
  0
XRECORD
  5
24D
102
{ACAD_REACTORS
330
247
102
}
330
247
100
AcDbXrecord
280
     1
270
     1
271
     1
  0
XRECORD
  5
24A
102
{ACAD_REACTORS
330
247
102
}
330
247
100
AcDbXrecord
280
     1
270
     1
271
     1
  0
XRECORD
  5
259
102
{ACAD_REACTORS
330
257
102
}
330
257
100
AcDbXrecord
280
     1
270
     1
271
     1
  0
XRECORD
  5
258
102
{ACAD_REACTORS
330
257
102
}
330
257
100
AcDbXrecord
280
     1
270
     1
271
     1
  0
XRECORD
  5
25C
102
{ACAD_REACTORS
330
257
102
}
330
257
100
AcDbXrecord
280
     1
270
     1
271
     1
  0
XRECORD
  5
25B
102
{ACAD_REACTORS
330
257
102
}
330
257
100
AcDbXrecord
280
     1
270
     1
271
     1
  0
XRECORD
  5
25D
102
{ACAD_REACTORS
330
257
102
}
330
257
100
AcDbXrecord
280
     1
270
     1
271
     1
  0
XRECORD
  5
25A
102
{ACAD_REACTORS
330
257
102
}
330
257
100
AcDbXrecord
280
     1
270
     1
271
     1
  0
CELLSTYLEMAP
  5
2E4
102
{ACAD_REACTORS
330
2D2
102
}
330
2D2
100
AcDbCellStyleMap
 90
        3
300
CELLSTYLE
  1
TABLEFORMAT_BEGIN
 90
        5
170
     1
 91
        0
 92
    32768
 62
   257
 93
        1
300
CONTENTFORMAT
  1
CONTENTFORMAT_BEGIN
 90
        0
 91
        0
 92
      512
 93
        0
300

 40
0.0
140
1.0
 94
        5
 62
     0
340
17
144
6.0
309
CONTENTFORMAT_END
171
     1
301
MARGIN
  1
CELLMARGIN_BEGIN
 40
1.5
 40
1.5
 40
1.5
 40
1.5
 40
4.5
 40
4.5
309
CELLMARGIN_END
 94
        6
 95
        1
302
GRIDFORMAT
  1
GRIDFORMAT_BEGIN
 90
        0
 91
        1
 62
     0
 92
       -2
340
0
 93
        0
 40
1.125
309
GRIDFORMAT_END
 95
        2
302
GRIDFORMAT
  1
GRIDFORMAT_BEGIN
 90
        0
 91
        1
 62
     0
 92
       -2
340
0
 93
        0
 40
1.125
309
GRIDFORMAT_END
 95
        4
302
GRIDFORMAT
  1
GRIDFORMAT_BEGIN
 90
        0
 91
        1
 62
     0
 92
       -2
340
0
 93
        0
 40
1.125
309
GRIDFORMAT_END
 95
        8
302
GRIDFORMAT
  1
GRIDFORMAT_BEGIN
 90
        0
 91
        1
 62
     0
 92
       -2
340
0
 93
        0
 40
1.125
309
GRIDFORMAT_END
 95
       16
302
GRIDFORMAT
  1
GRIDFORMAT_BEGIN
 90
        0
 91
        1
 62
     0
 92
       -2
340
0
 93
        0
 40
1.125
309
GRIDFORMAT_END
 95
       32
302
GRIDFORMAT
  1
GRIDFORMAT_BEGIN
 90
        0
 91
        1
 62
     0
 92
       -2
340
0
 93
        0
 40
1.125
309
GRIDFORMAT_END
309
TABLEFORMAT_END
  1
CELLSTYLE_BEGIN
 90
        1
 91
        1
300
_TITLE
309
CELLSTYLE_END
300
CELLSTYLE
  1
TABLEFORMAT_BEGIN
 90
        5
170
     1
 91
        0
 92
        0
 62
   257
 93
        1
300
CONTENTFORMAT
  1
CONTENTFORMAT_BEGIN
 90
        0
 91
        0
 92
      512
 93
        0
300

 40
0.0
140
1.0
 94
        5
 62
     0
340
17
144
4.5
309
CONTENTFORMAT_END
171
     1
301
MARGIN
  1
CELLMARGIN_BEGIN
 40
1.5
 40
1.5
 40
1.5
 40
1.5
 40
4.5
 40
4.5
309
CELLMARGIN_END
 94
        6
 95
        1
302
GRIDFORMAT
  1
GRIDFORMAT_BEGIN
 90
        0
 91
        1
 62
     0
 92
       -2
340
0
 93
        0
 40
1.125
309
GRIDFORMAT_END
 95
        2
302
GRIDFORMAT
  1
GRIDFORMAT_BEGIN
 90
        0
 91
        1
 62
     0
 92
       -2
340
0
 93
        0
 40
1.125
309
GRIDFORMAT_END
 95
        4
302
GRIDFORMAT
  1
GRIDFORMAT_BEGIN
 90
        0
 91
        1
 62
     0
 92
       -2
340
0
 93
        0
 40
1.125
309
GRIDFORMAT_END
 95
        8
302
GRIDFORMAT
  1
GRIDFORMAT_BEGIN
 90
        0
 91
        1
 62
     0
 92
       -2
340
0
 93
        0
 40
1.125
309
GRIDFORMAT_END
 95
       16
302
GRIDFORMAT
  1
GRIDFORMAT_BEGIN
 90
        0
 91
        1
 62
     0
 92
       -2
340
0
 93
        0
 40
1.125
309
GRIDFORMAT_END
 95
       32
302
GRIDFORMAT
  1
GRIDFORMAT_BEGIN
 90
        0
 91
        1
 62
     0
 92
       -2
340
0
 93
        0
 40
1.125
309
GRIDFORMAT_END
309
TABLEFORMAT_END
  1
CELLSTYLE_BEGIN
 90
        2
 91
        1
300
_HEADER
309
CELLSTYLE_END
300
CELLSTYLE
  1
TABLEFORMAT_BEGIN
 90
        5
170
     1
 91
        0
 92
        0
 62
   257
 93
        1
300
CONTENTFORMAT
  1
CONTENTFORMAT_BEGIN
 90
        0
 91
        0
 92
      512
 93
        0
300

 40
0.0
140
1.0
 94
        2
 62
     0
340
17
144
4.5
309
CONTENTFORMAT_END
171
     1
301
MARGIN
  1
CELLMARGIN_BEGIN
 40
1.5
 40
1.5
 40
1.5
 40
1.5
 40
4.5
 40
4.5
309
CELLMARGIN_END
 94
        6
 95
        1
302
GRIDFORMAT
  1
GRIDFORMAT_BEGIN
 90
        0
 91
        1
 62
     0
 92
       -2
340
0
 93
        0
 40
1.125
309
GRIDFORMAT_END
 95
        2
302
GRIDFORMAT
  1
GRIDFORMAT_BEGIN
 90
        0
 91
        1
 62
     0
 92
       -2
340
0
 93
        0
 40
1.125
309
GRIDFORMAT_END
 95
        4
302
GRIDFORMAT
  1
GRIDFORMAT_BEGIN
 90
        0
 91
        1
 62
     0
 92
       -2
340
0
 93
        0
 40
1.125
309
GRIDFORMAT_END
 95
        8
302
GRIDFORMAT
  1
GRIDFORMAT_BEGIN
 90
        0
 91
        1
 62
     0
 92
       -2
340
0
 93
        0
 40
1.125
309
GRIDFORMAT_END
 95
       16
302
GRIDFORMAT
  1
GRIDFORMAT_BEGIN
 90
        0
 91
        1
 62
     0
 92
       -2
340
0
 93
        0
 40
1.125
309
GRIDFORMAT_END
 95
       32
302
GRIDFORMAT
  1
GRIDFORMAT_BEGIN
 90
        0
 91
        1
 62
     0
 92
       -2
340
0
 93
        0
 40
1.125
309
GRIDFORMAT_END
309
TABLEFORMAT_END
  1
CELLSTYLE_BEGIN
 90
        3
 91
        2
300
_DATA
309
CELLSTYLE_END
  0
ENDSEC
  0
EOF
