  0
SECTION
  2
HEADER
  9
$ACADVER
  1
AC1021
  9
$ACADMAINTVER
 70
    50
  9
$DWGCODEPAGE
  3
ANSI_1252
  9
$LASTSAVEDBY
  1
François
  9
$INSBASE
 10
64.08014808127814
 20
82.69511037988706
 30
0.0
  9
$EXTMIN
 10
40.37475071089719
 20
81.76644399999998
 30
0.0
  9
$EXTMAX
 10
235.2814193066376
 20
155.1101847637521
 30
0.0
  9
$LIMMIN
 10
63.41180600000001
 20
82.54104299999999
  9
$LIMMAX
 10
233.531654
 20
127.398253
  9
$ORTHOMODE
 70
     0
  9
$REGENMODE
 70
     1
  9
$FILLMODE
 70
     1
  9
$QTEXTMODE
 70
     0
  9
$MIRRTEXT
 70
     1
  9
$LTSCALE
 40
1.0
  9
$ATTMODE
 70
     1
  9
$TEXTSIZE
 40
0.0
  9
$TRACEWID
 40
0.05
  9
$TEXTSTYLE
  7
Standard
  9
$CLAYER
  8
Cotation-JacobDelafon
  9
$CELTYPE
  6
Continuous
  9
$CECOLOR
 62
   256
  9
$CELTSCALE
 40
1.0
  9
$DISPSILH
 70
     0
  9
$DIMSCALE
 40
1.0
  9
$DIMASZ
 40
1.8
  9
$DIMEXO
 40
0.625
  9
$DIMDLI
 40
3.799999999999999
  9
$DIMRND
 40
0.0
  9
$DIMDLE
 40
0.0
  9
$DIMEXE
 40
1.8
  9
$DIMTP
 40
0.0
  9
$DIMTM
 40
0.0
  9
$DIMTXT
 40
3.0
  9
$DIMCEN
 40
0.9
  9
$DIMTSZ
 40
0.0
  9
$DIMTOL
 70
     0
  9
$DIMLIM
 70
     0
  9
$DIMTIH
 70
     0
  9
$DIMTOH
 70
     0
  9
$DIMSE1
 70
     0
  9
$DIMSE2
 70
     0
  9
$DIMTAD
 70
     1
  9
$DIMZIN
 70
    12
  9
$DIMBLK
  1
Oblique
  9
$DIMASO
 70
     1
  9
$DIMSHO
 70
     1
  9
$DIMPOST
  1

  9
$DIMAPOST
  1

  9
$DIMALT
 70
     0
  9
$DIMALTD
 70
     2
  9
$DIMALTF
 40
25.4
  9
$DIMLFAC
 40
1.0
  9
$DIMTOFL
 70
     0
  9
$DIMTVP
 40
0.0
  9
$DIMTIX
 70
     0
  9
$DIMSOXD
 70
     0
  9
$DIMSAH
 70
     0
  9
$DIMBLK1
  1

  9
$DIMBLK2
  1

  9
$DIMSTYLE
  2
Cotation-Jacob-Delafon
  9
$DIMCLRD
 70
     0
  9
$DIMCLRE
 70
     0
  9
$DIMCLRT
 70
     0
  9
$DIMTFAC
 40
1.0
  9
$DIMGAP
 40
0.9
  9
$DIMJUST
 70
     0
  9
$DIMSD1
 70
     0
  9
$DIMSD2
 70
     0
  9
$DIMTOLJ
 70
     1
  9
$DIMTZIN
 70
     0
  9
$DIMALTZ
 70
     0
  9
$DIMALTTZ
 70
     0
  9
$DIMUPT
 70
     0
  9
$DIMDEC
 70
     2
  9
$DIMTDEC
 70
     2
  9
$DIMALTU
 70
     2
  9
$DIMALTTD
 70
     2
  9
$DIMTXSTY
  7
Jacob-Delafon
  9
$DIMAUNIT
 70
     0
  9
$DIMADEC
 70
     0
  9
$DIMALTRND
 40
0.0
  9
$DIMAZIN
 70
     3
  9
$DIMDSEP
 70
    46
  9
$DIMATFIT
 70
     3
  9
$DIMFRAC
 70
     0
  9
$DIMLDRBLK
  1
Oblique
  9
$DIMLUNIT
 70
     2
  9
$DIMLWD
 70
    -2
  9
$DIMLWE
 70
    -2
  9
$DIMTMOVE
 70
     2
  9
$DIMFXL
 40
1.0
  9
$DIMFXLON
 70
     0
  9
$DIMJOGANG
 40
0.7853981633974483
  9
$DIMTFILL
 70
     0
  9
$DIMTFILLCLR
 70
     0
  9
$DIMARCSYM
 70
     0
  9
$DIMLTYPE
  6

  9
$DIMLTEX1
  6

  9
$DIMLTEX2
  6

  9
$LUNITS
 70
     2
  9
$LUPREC
 70
     4
  9
$SKETCHINC
 40
0.1
  9
$FILLETRAD
 40
0.0
  9
$AUNITS
 70
     0
  9
$AUPREC
 70
     0
  9
$MENU
  1
acad
  9
$ELEVATION
 40
0.0
  9
$PELEVATION
 40
0.0
  9
$THICKNESS
 40
0.0
  9
$LIMCHECK
 70
     0
  9
$CHAMFERA
 40
0.0
  9
$CHAMFERB
 40
0.0
  9
$CHAMFERC
 40
0.0
  9
$CHAMFERD
 40
0.0
  9
$SKPOLY
 70
     0
  9
$TDCREATE
 40
2454952.698421401
  9
$TDUCREATE
 40
2454952.615088067
  9
$TDUPDATE
 40
2455006.443882558
  9
$TDUUPDATE
 40
2455006.360549225
  9
$TDINDWG
 40
0.0050549653
  9
$TDUSRTIMER
 40
0.0050547917
  9
$USRTIMER
 70
     1
  9
$ANGBASE
 50
0.0
  9
$ANGDIR
 70
     0
  9
$PDMODE
 70
     0
  9
$PDSIZE
 40
0.0
  9
$PLINEWID
 40
0.0
  9
$SPLFRAME
 70
     0
  9
$SPLINETYPE
 70
     6
  9
$SPLINESEGS
 70
     8
  9
$HANDSEED
  5
13E
  9
$SURFTAB1
 70
     6
  9
$SURFTAB2
 70
     6
  9
$SURFTYPE
 70
     6
  9
$SURFU
 70
     6
  9
$SURFV
 70
     6
  9
$UCSBASE
  2

  9
$UCSNAME
  2

  9
$UCSORG
 10
0.0
 20
0.0
 30
0.0
  9
$UCSXDIR
 10
1.0
 20
0.0
 30
0.0
  9
$UCSYDIR
 10
0.0
 20
1.0
 30
0.0
  9
$UCSORTHOREF
  2

  9
$UCSORTHOVIEW
 70
     0
  9
$UCSORGTOP
 10
0.0
 20
0.0
 30
0.0
  9
$UCSORGBOTTOM
 10
0.0
 20
0.0
 30
0.0
  9
$UCSORGLEFT
 10
0.0
 20
0.0
 30
0.0
  9
$UCSORGRIGHT
 10
0.0
 20
0.0
 30
0.0
  9
$UCSORGFRONT
 10
0.0
 20
0.0
 30
0.0
  9
$UCSORGBACK
 10
0.0
 20
0.0
 30
0.0
  9
$PUCSBASE
  2

  9
$PUCSNAME
  2

  9
$PUCSORG
 10
0.0
 20
0.0
 30
0.0
  9
$PUCSXDIR
 10
1.0
 20
0.0
 30
0.0
  9
$PUCSYDIR
 10
0.0
 20
1.0
 30
0.0
  9
$PUCSORTHOREF
  2

  9
$PUCSORTHOVIEW
 70
     0
  9
$PUCSORGTOP
 10
0.0
 20
0.0
 30
0.0
  9
$PUCSORGBOTTOM
 10
0.0
 20
0.0
 30
0.0
  9
$PUCSORGLEFT
 10
0.0
 20
0.0
 30
0.0
  9
$PUCSORGRIGHT
 10
0.0
 20
0.0
 30
0.0
  9
$PUCSORGFRONT
 10
0.0
 20
0.0
 30
0.0
  9
$PUCSORGBACK
 10
0.0
 20
0.0
 30
0.0
  9
$USERI1
 70
     0
  9
$USERI2
 70
     0
  9
$USERI3
 70
     0
  9
$USERI4
 70
     0
  9
$USERI5
 70
     0
  9
$USERR1
 40
0.0
  9
$USERR2
 40
0.0
  9
$USERR3
 40
0.0
  9
$USERR4
 40
0.0
  9
$USERR5
 40
0.0
  9
$WORLDVIEW
 70
     1
  9
$SHADEDGE
 70
     3
  9
$SHADEDIF
 70
    70
  9
$TILEMODE
 70
     1
  9
$MAXACTVP
 70
    16
  9
$PINSBASE
 10
0.0
 20
0.0
 30
0.0
  9
$PLIMCHECK
 70
     0
  9
$PEXTMIN
 10
1.000000000000000E+20
 20
1.000000000000000E+20
 30
1.000000000000000E+20
  9
$PEXTMAX
 10
-1.000000000000000E+20
 20
-1.000000000000000E+20
 30
-1.000000000000000E+20
  9
$PLIMMIN
 10
0.0
 20
0.0
  9
$PLIMMAX
 10
12.0
 20
9.0
  9
$UNITMODE
 70
     0
  9
$VISRETAIN
 70
     0
  9
$PLINEGEN
 70
     1
  9
$PSLTSCALE
 70
     0
  9
$TREEDEPTH
 70
  3020
  9
$CMLSTYLE
  2
Standard
  9
$CMLJUST
 70
     0
  9
$CMLSCALE
 40
1.0
  9
$PROXYGRAPHICS
 70
     0
  9
$MEASUREMENT
 70
     1
  9
$CELWEIGHT
370
     0
  9
$ENDCAPS
280
     0
  9
$JOINSTYLE
280
     0
  9
$LWDISPLAY
290
     0
  9
$INSUNITS
 70
     0
  9
$HYPERLINKBASE
  1

  9
$STYLESHEET
  1

  9
$XEDIT
290
     1
  9
$CEPSNTYPE
380
     0
  9
$PSTYLEMODE
290
     1
  9
$FINGERPRINTGUID
  2

  9
$VERSIONGUID
  2
{81C2A5A9-7C57-4E1A-84CC-19711C86844C}
  9
$EXTNAMES
290
     1
  9
$PSVPSCALE
 40
0.0
  9
$OLESTARTUP
290
     0
  9
$SORTENTS
280
   127
  9
$INDEXCTL
280
     0
  9
$HIDETEXT
280
     0
  9
$XCLIPFRAME
290
     0
  9
$HALOGAP
280
     0
  9
$OBSCOLOR
 70
   257
  9
$OBSLTYPE
280
     0
  9
$INTERSECTIONDISPLAY
280
     0
  9
$INTERSECTIONCOLOR
 70
   257
  9
$DIMASSOC
280
     1
  9
$PROJECTNAME
  1

  9
$CAMERADISPLAY
290
     0
  9
$LENSLENGTH
 40
50.0
  9
$CAMERAHEIGHT
 40
0.0
  9
$STEPSPERSEC
 40
2.0
  9
$STEPSIZE
 40
6.0
  9
$3DDWFPREC
 40
2.0
  9
$PSOLWIDTH
 40
0.25
  9
$PSOLHEIGHT
 40
4.0
  9
$LOFTANG1
 40
1.570796326794896
  9
$LOFTANG2
 40
1.570796326794896
  9
$LOFTMAG1
 40
0.0
  9
$LOFTMAG2
 40
0.0
  9
$LOFTPARAM
 70
     7
  9
$LOFTNORMALS
280
     1
  9
$LATITUDE
 40
37.795
  9
$LONGITUDE
 40
-122.394
  9
$NORTHDIRECTION
 40
0.0
  9
$TIMEZONE
 70
 -8000
  9
$LIGHTGLYPHDISPLAY
280
     1
  9
$TILEMODELIGHTSYNCH
280
     1
  9
$CMATERIAL
347
92
  9
$SOLIDHIST
280
     1
  9
$SHOWHIST
280
     1
  9
$DWFFRAME
280
     2
  9
$DGNFRAME
280
     0
  9
$REALWORLDSCALE
290
     1
  9
$INTERFERECOLOR
 62
     1
  9
$INTERFEREOBJVS
345
B4
  9
$INTERFEREVPVS
346
B1
  9
$CSHADOW
280
     0
  9
$SHADOWPLANELOCATION
 40
0.0
  0
ENDSEC
  0
SECTION
  2
CLASSES
  0
CLASS
  1
IMAGE
  2
AcDbRasterImage
  3
ISM
 90
     2175
 91
        0
280
     0
281
     1
  0
CLASS
  1
DICTIONARYVAR
  2
AcDbDictionaryVar
  3
ObjectDBX Classes
 90
        0
 91
        7
280
     0
281
     0
  0
CLASS
  1
RASTERVARIABLES
  2
AcDbRasterVariables
  3
ISM
 90
        0
 91
        0
280
     0
281
     0
  0
CLASS
  1
IMAGEDEF
  2
AcDbRasterImageDef
  3
ISM
 90
        0
 91
        0
280
     0
281
     0
  0
CLASS
  1
IMAGEDEF_REACTOR
  2
AcDbRasterImageDefReactor
  3
ISM
 90
        1
 91
        0
280
     0
281
     0
  0
CLASS
  1
IDBUFFER
  2
AcDbIdBuffer
  3
ObjectDBX Classes
 90
        0
 91
        0
280
     0
281
     0
  0
CLASS
  1
SPATIAL_FILTER
  2
AcDbSpatialFilter
  3
ObjectDBX Classes
 90
        0
 91
        0
280
     0
281
     0
  0
CLASS
  1
SORTENTSTABLE
  2
AcDbSortentsTable
  3
ObjectDBX Classes
 90
        0
 91
        0
280
     0
281
     0
  0
CLASS
  1
LAYER_INDEX
  2
AcDbLayerIndex
  3
ObjectDBX Classes
 90
        0
 91
        0
280
     0
281
     0
  0
CLASS
  1
SPATIAL_INDEX
  2
AcDbSpatialIndex
  3
ObjectDBX Classes
 90
        0
 91
        0
280
     0
281
     0
  0
CLASS
  1
OBJECT_PTR
  2
CAseDLPNTableRecord
  3
"ASE-LPNTableRecord"
 90
        1
 91
        0
280
     0
281
     0
  0
CLASS
  1
PLOTSETTINGS
  2
AcDbPlotSettings
  3
ObjectDBX Classes
 90
        0
 91
        0
280
     0
281
     0
  0
CLASS
  1
ACDBDICTIONARYWDFLT
  2
AcDbDictionaryWithDefault
  3
ObjectDBX Classes
 90
        0
 91
        1
280
     0
281
     0
  0
CLASS
  1
WIPEOUT
  2
AcDbWipeout
  3
"WipeOut|Product Desc: Object Enabler for WipeOut entity                        |Company: Autodesk, Inc.                        |WEB Address: www.autodesk.com"
 90
     2175
 91
        0
280
     0
281
     1
  0
CLASS
  1
WIPEOUTVARIABLES
  2
AcDbWipeoutVariables
  3
"WipeOut|Product Desc:     WipeOut Dbx Application|Company:          Autodesk, Inc.|WEB Address:      www.autodesk.com"
 90
        0
 91
        1
280
     0
281
     0
  0
CLASS
  1
RTEXT
  2
RText
  3
RText|AutoCAD Express Tool|expresstools@autodesk.com
 90
        0
 91
        0
280
     0
281
     1
  0
CLASS
  1
ARCALIGNEDTEXT
  2
AcDbArcAlignedText
  3
ATEXT|AutoCAD Express Tool|expresstools@autodesk.com
 90
        0
 91
        0
280
     0
281
     1
  0
CLASS
  1
MATERIAL
  2
AcDbMaterial
  3
ObjectDBX Classes
 90
     1153
 91
        3
280
     0
281
     0
  0
CLASS
  1
VISUALSTYLE
  2
AcDbVisualStyle
  3
ObjectDBX Classes
 90
     4095
 91
       16
280
     0
281
     0
  0
CLASS
  1
TABLESTYLE
  2
AcDbTableStyle
  3
ObjectDBX Classes
 90
     4095
 91
        1
280
     0
281
     0
  0
CLASS
  1
SCALE
  2
AcDbScale
  3
ObjectDBX Classes
 90
     1153
 91
       17
280
     0
281
     0
  0
CLASS
  1
MLEADERSTYLE
  2
AcDbMLeaderStyle
  3
ACDB_MLEADERSTYLE_CLASS
 90
     4095
 91
        1
280
     0
281
     0
  0
CLASS
  1
AEC_REFEDIT_STATUS_TRACKER
  2
AecDbRefEditStatusTracker
  3
AecArchBase50|Product Desc: Autodesk Architectural Desktop 2007 |Company: Autodesk,Inc. |WEB Address: www.autodesk.com
 90
      129
 91
        0
280
     0
281
     0
  0
CLASS
  1
NPOCOLLECTION
  2
AcDbImpNonPersistentObjectsCollection
  3
ObjectDBX Classes
 90
     1153
 91
        0
280
     0
281
     0
  0
CLASS
  1
CELLSTYLEMAP
  2
AcDbCellStyleMap
  3
ObjectDBX Classes
 90
     1152
 91
        2
280
     0
281
     0
  0
ENDSEC
  0
SECTION
  2
TABLES
  0
TABLE
  2
VPORT
  5
7
330
0
100
AcDbSymbolTable
 70
     1
  0
VPORT
  5
15
330
7
100
AcDbSymbolTableRecord
100
AcDbViewportTableRecord
  2
*ACTIVE
 70
     0
 10
0.0
 20
0.0
 11
1.0
 21
1.0
 12
134.4786918905129
 22
104.1219736996467
 13
0.0
 23
0.0
 14
1.0
 24
1.0
 15
0.0
 25
0.0
 16
0.0
 26
0.0
 36
1.0
 17
0.0
 27
0.0
 37
0.0
 40
229.1976058856468
 41
1.226824457593688
 42
50.0
 43
0.0
 44
0.0
 50
0.0
 51
0.0
 71
     0
 72
   100
 73
     1
 74
     1
 75
     0
 76
     0
 77
     0
 78
     0
281
     0
 65
     0
110
0.0
120
0.0
130
0.0
111
1.0
121
0.0
131
0.0
112
0.0
122
1.0
132
0.0
 79
     0
146
0.0
348
B0
 60
     3
 61
     5
292
     1
282
     1
141
0.0
142
0.0
 63
   250
421
  3355443
  0
ENDTAB
  0
TABLE
  2
LTYPE
  5
4
330
0
100
AcDbSymbolTable
 70
     1
  0
LTYPE
  5
11
330
4
100
AcDbSymbolTableRecord
100
AcDbLinetypeTableRecord
  2
ByBlock
 70
     0
  3

 72
    65
 73
     0
 40
0.0
  0
LTYPE
  5
12
330
4
100
AcDbSymbolTableRecord
100
AcDbLinetypeTableRecord
  2
ByLayer
 70
     0
  3

 72
    65
 73
     0
 40
0.0
  0
LTYPE
  5
13
330
4
100
AcDbSymbolTableRecord
100
AcDbLinetypeTableRecord
  2
Continuous
 70
     0
  3
Solid line
 72
    65
 73
     0
 40
0.0
  0
ENDTAB
  0
TABLE
  2
LAYER
  5
2
330
0
100
AcDbSymbolTable
 70
     3
  0
LAYER
  5
14
102
{ACAD_XDICTIONARY
360
127
102
}
330
2
100
AcDbSymbolTableRecord
100
AcDbLayerTableRecord
  2
0
 70
     0
 62
     7
  6
Continuous
370
    -3
390
1D
347
A2
  0
LAYER
  5
D6
330
2
100
AcDbSymbolTableRecord
100
AcDbLayerTableRecord
  2
Defpoints
 70
     0
 62
     7
  6
Continuous
290
     0
370
    -3
390
1D
347
A2
  0
LAYER
  5
D7
102
{ACAD_XDICTIONARY
360
129
102
}
330
2
100
AcDbSymbolTableRecord
100
AcDbLayerTableRecord
  2
Cotation-JacobDelafon
 70
     0
 62
     8
  6
Continuous
370
    -3
390
1D
347
A2
  0
ENDTAB
  0
TABLE
  2
STYLE
  5
3
330
0
100
AcDbSymbolTable
 70
     7
  0
STYLE
  5
17
330
3
100
AcDbSymbolTableRecord
100
AcDbTextStyleTableRecord
  2
Standard
 70
     0
 40
0.0
 41
1.0
 50
0.0
 71
     0
 42
0.0
  3
txt
  4

  0
STYLE
  5
24
330
3
100
AcDbSymbolTableRecord
100
AcDbTextStyleTableRecord
  2
STD
 70
     0
 40
0.0
 41
1.0
 50
0.0
 71
     0
 42
0.0
  3
txt
  4

  0
STYLE
  5
25
330
3
100
AcDbSymbolTableRecord
100
AcDbTextStyleTableRecord
  2
TATESTD
 70
     4
 40
0.0
 41
1.0
 50
0.0
 71
     0
 42
0.0
  3
txt
  4

  0
STYLE
  5
26
330
3
100
AcDbSymbolTableRecord
100
AcDbTextStyleTableRecord
  2
KANJISTD
 70
     0
 40
0.0
 41
1.0
 50
0.0
 71
     0
 42
0.0
  3
txt
  4
extfont
  0
STYLE
  5
27
330
3
100
AcDbSymbolTableRecord
100
AcDbTextStyleTableRecord
  2
KANJITATE
 70
     4
 40
0.0
 41
1.0
 50
0.0
 71
     0
 42
0.0
  3
txt
  4
extfont
  0
STYLE
  5
D8
330
3
100
AcDbSymbolTableRecord
100
AcDbTextStyleTableRecord
  2
Annotative
 70
     0
 40
0.0
 41
1.0
 50
0.0
 71
     0
 42
0.2
  3
txt
  4

1001
AcadAnnotative
1000
AnnotativeData
1002
{
1070
     1
1070
     1
1002
}
  0
STYLE
  5
E6
330
3
100
AcDbSymbolTableRecord
100
AcDbTextStyleTableRecord
  2
Jacob-Delafon
 70
     0
 40
0.0
 41
1.0
 50
0.0
 71
     0
 42
2.5
  3
ARIAL.TTF
  4

1001
ACAD
1000
Arial
1071
       34
  0
ENDTAB
  0
TABLE
  2
VIEW
  5
5
330
0
100
AcDbSymbolTable
 70
     0
  0
ENDTAB
  0
TABLE
  2
UCS
  5
6
330
0
100
AcDbSymbolTable
 70
     0
  0
ENDTAB
  0
TABLE
  2
APPID
  5
8
330
0
100
AcDbSymbolTable
 70
     3
  0
APPID
  5
16
330
8
100
AcDbSymbolTableRecord
100
AcDbRegAppTableRecord
  2
ACAD
 70
     0
  0
APPID
  5
D2
330
8
100
AcDbSymbolTableRecord
100
AcDbRegAppTableRecord
  2
ACAD_MLEADERVER
 70
     0
  0
APPID
  5
DA
330
8
100
AcDbSymbolTableRecord
100
AcDbRegAppTableRecord
  2
AcadAnnotative
 70
     0
  0
ENDTAB
  0
TABLE
  2
DIMSTYLE
  5
9
330
0
100
AcDbSymbolTable
 70
     3
100
AcDbDimStyleTable
 71
     1
340
E7
  0
DIMSTYLE
105
18
330
9
100
AcDbSymbolTableRecord
100
AcDbDimStyleTableRecord
  2
Standard
 70
     0
340
17
  0
DIMSTYLE
105
D9
330
9
100
AcDbSymbolTableRecord
100
AcDbDimStyleTableRecord
  2
Annotative
 70
     0
340
17
1001
AcadAnnotative
1000
AnnotativeData
1002
{
1070
     1
1070
     1
1002
}
  0
DIMSTYLE
105
E7
102
{ACAD_REACTORS
330
EE
330
108
102
}
330
9
100
AcDbSymbolTableRecord
100
AcDbDimStyleTableRecord
  2
Cotation-Jacob-Delafon
 70
     0
 41
1.8
 42
0.625
 43
3.799999999999999
 44
1.8
 73
     0
 74
     0
 77
     1
 78
    12
 79
     3
140
3.0
141
0.9
147
0.9
271
     2
272
     2
279
     2
340
E6
341
E2
342
E2
  0
ENDTAB
  0
TABLE
  2
BLOCK_RECORD
  5
1
330
0
100
AcDbSymbolTable
 70
     4
  0
BLOCK_RECORD
  5
A
330
1
100
AcDbSymbolTableRecord
100
AcDbBlockTableRecord
  2
*MODEL_SPACE
340
20
 70
     0
280
     1
281
     0
  0
BLOCK_RECORD
  5
B
330
1
100
AcDbSymbolTableRecord
100
AcDbBlockTableRecord
  2
*PAPER_SPACE
340
21
 70
     0
280
     1
281
     0
  0
BLOCK_RECORD
  5
E2
330
1
100
AcDbSymbolTableRecord
100
AcDbBlockTableRecord
  2
_Oblique
340
0
102
{BLKREFS
331
102
331
103
331
118
331
119
331
121
331
122
102
}
 70
     0
280
     1
281
     0
  0
BLOCK_RECORD
  5
EF
330
1
100
AcDbSymbolTableRecord
100
AcDbBlockTableRecord
  2
*D1
340
0
 70
     0
280
     1
281
     0
  0
BLOCK_RECORD
  5
109
330
1
100
AcDbSymbolTableRecord
100
AcDbBlockTableRecord
  2
*D3
340
0
 70
     0
280
     1
281
     0
  0
ENDTAB
  0
ENDSEC
  0
SECTION
  2
BLOCKS
  0
BLOCK
  5
D
330
A
100
AcDbEntity
  8
0
100
AcDbBlockBegin
  2
*MODEL_SPACE
 70
     0
 10
0.0
 20
0.0
 30
0.0
  3
*MODEL_SPACE
  1

  0
ENDBLK
  5
E
330
A
100
AcDbEntity
  8
0
100
AcDbBlockEnd
  0
BLOCK
  5
F
330
B
100
AcDbEntity
 67
     1
  8
0
100
AcDbBlockBegin
  2
*PAPER_SPACE
 70
     0
 10
0.0
 20
0.0
 30
0.0
  3
*PAPER_SPACE
  1

  0
ENDBLK
  5
10
330
B
100
AcDbEntity
 67
     1
  8
0
100
AcDbBlockEnd
  0
BLOCK
  5
E3
330
E2
100
AcDbEntity
  8
0
100
AcDbBlockBegin
  2
_Oblique
 70
     0
 10
0.0
 20
0.0
 30
0.0
  3
_Oblique
  1

  0
LINE
  5
E4
330
E2
100
AcDbEntity
  8
0
  6
ByBlock
 62
     0
370
    -2
380
     1
100
AcDbLine
 10
-0.5
 20
-0.5
 30
0.0
 11
0.5
 21
0.5
 31
0.0
  0
ENDBLK
  5
E5
330
E2
100
AcDbEntity
  8
0
100
AcDbBlockEnd
  0
BLOCK
  5
F0
330
EF
100
AcDbEntity
  8
0
370
     0
100
AcDbBlockBegin
  2
*D1
 70
     1
 10
0.0
 20
0.0
 30
0.0
  3
*D1
  1

  0
LINE
  5
115
330
EF
100
AcDbEntity
  8
Cotation-JacobDelafon
  6
Continuous
 62
     0
370
    -2
100
AcDbLine
 10
63.62006199999999
 20
123.268849
 30
0.0
 11
63.62006199999999
 21
152.1588887200959
 31
0.0
  0
LINE
  5
116
330
EF
100
AcDbEntity
  8
Cotation-JacobDelafon
  6
Continuous
 62
     0
370
    -2
100
AcDbLine
 10
234.3814193066376
 20
123.268849
 30
0.0
 11
234.3814193066376
 21
152.1588887200959
 31
0.0
  0
LINE
  5
117
330
EF
100
AcDbEntity
  8
Cotation-JacobDelafon
  6
Continuous
 62
     0
370
    -2
100
AcDbLine
 10
63.62006199999999
 20
150.3588887200959
 30
0.0
 11
234.3814193066376
 21
150.3588887200959
 31
0.0
  0
INSERT
  5
118
330
EF
100
AcDbEntity
  8
Cotation-JacobDelafon
  6
Continuous
 62
     0
370
    -2
100
AcDbBlockReference
  2
_Oblique
 10
63.62006199999999
 20
150.3588887200959
 30
0.0
 41
1.8
 42
1.8
 43
1.8
 50
180.0
  0
INSERT
  5
119
330
EF
100
AcDbEntity
  8
Cotation-JacobDelafon
  6
Continuous
 62
     0
370
    -2
100
AcDbBlockReference
  2
_Oblique
 10
234.3814193066376
 20
150.3588887200959
 30
0.0
 41
1.8
 42
1.8
 43
1.8
  0
MTEXT
  5
11A
330
EF
100
AcDbEntity
  8
Cotation-JacobDelafon
  6
Continuous
 62
     0
370
     0
100
AcDbMText
 10
149.0007406533188
 20
152.790607683261
 30
0.0
 40
3.0
 41
0.0
 46
0.0
 71
     5
 72
     1
  1
\A1;170
  7
Jacob-Delafon
 73
     1
 44
1.0
  0
POINT
  5
11B
330
EF
100
AcDbEntity
  8
Defpoints
  6
Continuous
 62
     0
370
     0
100
AcDbPoint
 10
63.62006199999999
 20
122.643849
 30
0.0
  0
POINT
  5
11C
330
EF
100
AcDbEntity
  8
Defpoints
  6
Continuous
 62
     0
370
     0
100
AcDbPoint
 10
234.3814193066376
 20
122.643849
 30
0.0
  0
POINT
  5
11D
330
EF
100
AcDbEntity
  8
Defpoints
  6
Continuous
 62
     0
370
     0
100
AcDbPoint
 10
234.3814193066376
 20
150.3588887200959
 30
0.0
  0
ENDBLK
  5
F1
330
EF
100
AcDbEntity
  8
0
370
     0
100
AcDbBlockEnd
  0
BLOCK
  5
10A
330
109
100
AcDbEntity
  8
0
370
     0
100
AcDbBlockBegin
  2
*D3
 70
     1
 10
0.0
 20
0.0
 30
0.0
  3
*D3
  1

  0
LINE
  5
11E
330
109
100
AcDbEntity
  8
Cotation-JacobDelafon
  6
Continuous
 62
     0
370
    -2
100
AcDbLine
 10
63.40795599999999
 20
125.644527
 30
0.0
 11
43.32809313927374
 21
125.644527
 31
0.0
  0
LINE
  5
11F
330
109
100
AcDbEntity
  8
Cotation-JacobDelafon
  6
Continuous
 62
     0
370
    -2
100
AcDbLine
 10
88.69478499999999
 20
82.666444
 30
0.0
 11
43.32809313927374
 21
82.666444
 31
0.0
  0
LINE
  5
120
330
109
100
AcDbEntity
  8
Cotation-JacobDelafon
  6
Continuous
 62
     0
370
    -2
100
AcDbLine
 10
45.12809313927375
 20
125.644527
 30
0.0
 11
45.12809313927374
 21
82.666444
 31
0.0
  0
INSERT
  5
121
330
109
100
AcDbEntity
  8
Cotation-JacobDelafon
  6
Continuous
 62
     0
370
    -2
100
AcDbBlockReference
  2
_Oblique
 10
45.12809313927375
 20
125.644527
 30
0.0
 41
1.8
 42
1.8
 43
1.8
 50
90.0
  0
INSERT
  5
122
330
109
100
AcDbEntity
  8
Cotation-JacobDelafon
  6
Continuous
 62
     0
370
    -2
100
AcDbBlockReference
  2
_Oblique
 10
45.12809313927374
 20
82.666444
 30
0.0
 41
1.8
 42
1.8
 43
1.8
 50
270.0
  0
MTEXT
  5
123
330
109
100
AcDbEntity
  8
Cotation-JacobDelafon
  6
Continuous
 62
     0
370
     0
100
AcDbMText
 10
42.69535098374849
 20
104.1554855
 30
0.0
 40
3.0
 41
0.0
 46
0.0
 71
     5
 72
     1
  1
\A1;43
  7
Jacob-Delafon
 11
0.0000000000000001
 21
1.0
 31
0.0
 73
     1
 44
1.0
  0
POINT
  5
124
330
109
100
AcDbEntity
  8
Defpoints
  6
Continuous
 62
     0
370
     0
100
AcDbPoint
 10
64.03295599999999
 20
125.644527
 30
0.0
  0
POINT
  5
125
330
109
100
AcDbEntity
  8
Defpoints
  6
Continuous
 62
     0
370
     0
100
AcDbPoint
 10
89.31978499999999
 20
82.666444
 30
0.0
  0
POINT
  5
126
330
109
100
AcDbEntity
  8
Defpoints
  6
Continuous
 62
     0
370
     0
100
AcDbPoint
 10
45.12809313927374
 20
82.666444
 30
0.0
  0
ENDBLK
  5
10B
330
109
100
AcDbEntity
  8
0
370
     0
100
AcDbBlockEnd
  0
ENDSEC
  0
SECTION
  2
ENTITIES
  0
LINE
  5
8E
330
A
100
AcDbEntity
  8
0
 62
     7
100
AcDbLine
 10
199.41384
 20
87.17469599999999
 30
0.0
 11
199.418319
 21
87.17469599999999
 31
0.0
  0
LINE
  5
8D
330
A
100
AcDbEntity
  8
0
 62
     7
100
AcDbLine
 10
80.01854399999999
 20
88.85797
 30
0.0
 11
81.19762800000001
 21
86.63795
 31
0.0
  0
LINE
  5
8C
330
A
100
AcDbEntity
  8
0
 62
     7
100
AcDbLine
 10
81.19762800000001
 20
86.63795
 30
0.0
 11
83.058496
 21
84.85890299999999
 31
0.0
  0
LINE
  5
8B
330
A
100
AcDbEntity
  8
0
 62
     7
100
AcDbLine
 10
83.058496
 20
84.85890299999999
 30
0.0
 11
85.16655
 21
83.82675199999999
 31
0.0
  0
LINE
  5
8A
330
A
100
AcDbEntity
  8
0
 62
     7
100
AcDbLine
 10
85.16655
 20
83.82675199999999
 30
0.0
 11
87.55503500000001
 21
83.34581700000001
 31
0.0
  0
LINE
  5
89
330
A
100
AcDbEntity
  8
0
 62
     7
100
AcDbLine
 10
199.399371
 20
87.17469599999999
 30
0.0
 11
196.668099
 21
86.211447
 31
0.0
  0
LINE
  5
88
330
A
100
AcDbEntity
  8
0
 62
     7
100
AcDbLine
 10
196.668099
 20
86.211447
 30
0.0
 11
193.821072
 21
85.88485199999999
 31
0.0
  0
LINE
  5
87
330
A
100
AcDbEntity
  8
0
 62
     7
100
AcDbLine
 10
201.335859
 20
88.85797
 30
0.0
 11
200.490088
 21
87.88852
 31
0.0
  0
LINE
  5
86
330
A
100
AcDbEntity
  8
0
 62
     7
100
AcDbLine
 10
200.490088
 20
87.88852
 30
0.0
 11
199.41384
 21
87.17469599999999
 31
0.0
  0
LINE
  5
85
330
A
100
AcDbEntity
  8
0
 62
     7
100
AcDbLine
 10
199.418319
 20
87.17469599999999
 30
0.0
 11
199.41384
 21
87.17469599999999
 31
0.0
  0
LINE
  5
84
330
A
100
AcDbEntity
  8
0
 62
     7
100
AcDbLine
 10
233.256391
 20
125.498111
 30
0.0
 11
63.686724
 21
125.498111
 31
0.0
  0
LINE
  5
83
330
A
100
AcDbEntity
  8
0
 62
     7
100
AcDbLine
 10
63.541341
 20
125.144472
 30
0.0
 11
63.682246
 21
125.50035
 31
0.0
  0
LINE
  5
82
330
A
100
AcDbEntity
  8
0
 62
     7
100
AcDbLine
 10
233.263626
 20
125.498111
 30
0.0
 11
233.402119
 21
125.144472
 31
0.0
  0
LINE
  5
81
330
A
100
AcDbEntity
  8
0
 62
     7
100
AcDbLine
 10
232.924973
 20
125.644527
 30
0.0
 11
233.261559
 21
125.500005
 31
0.0
  0
LINE
  5
80
330
A
100
AcDbEntity
  8
0
 62
     7
100
AcDbLine
 10
233.388338
 20
122.643849
 30
0.0
 11
64.49545999999999
 21
122.643849
 31
0.0
  0
LINE
  5
7F
330
A
100
AcDbEntity
  8
0
 62
     7
100
AcDbLine
 10
64.544208
 20
122.643849
 30
0.0
 11
64.15319000000001
 21
122.643849
 31
0.0
  0
LINE
  5
7E
330
A
100
AcDbEntity
  8
0
 62
     7
100
AcDbLine
 10
64.15319000000001
 20
122.643849
 30
0.0
 11
63.83451899999999
 21
122.643849
 31
0.0
  0
LINE
  5
7D
330
A
100
AcDbEntity
  8
0
 62
     7
100
AcDbLine
 10
63.83451899999999
 20
122.643849
 30
0.0
 11
63.62006199999999
 21
122.643849
 31
0.0
  0
LINE
  5
7C
330
A
100
AcDbEntity
  8
0
 62
     7
100
AcDbLine
 10
63.62006199999999
 20
122.643849
 30
0.0
 11
63.541341
 21
122.643849
 31
0.0
  0
LINE
  5
7B
330
A
100
AcDbEntity
  8
0
 62
     7
100
AcDbLine
 10
63.541341
 20
122.643849
 30
0.0
 11
63.541341
 21
125.144472
 31
0.0
  0
LINE
  5
7A
330
A
100
AcDbEntity
  8
0
 62
     7
100
AcDbLine
 10
63.536863
 20
122.64695
 30
0.0
 11
63.541341
 21
122.643849
 31
0.0
  0
LINE
  5
79
330
A
100
AcDbEntity
  8
0
 62
     7
100
AcDbLine
 10
63.541341
 20
122.643849
 30
0.0
 11
63.536863
 21
122.64695
 31
0.0
  0
LINE
  5
78
330
A
100
AcDbEntity
  8
0
 62
     7
100
AcDbLine
 10
218.736347
 20
114.202332
 30
0.0
 11
223.621837
 21
122.632652
 31
0.0
  0
LINE
  5
77
330
A
100
AcDbEntity
  8
0
 62
     7
100
AcDbLine
 10
212.579617
 20
105.79871
 30
0.0
 11
218.736347
 21
114.202332
 31
0.0
  0
LINE
  5
76
330
A
100
AcDbEntity
  8
0
 62
     7
100
AcDbLine
 10
206.628904
 20
97.394916
 30
0.0
 11
212.579617
 21
105.79871
 31
0.0
  0
LINE
  5
75
330
A
100
AcDbEntity
  8
0
 62
     7
100
AcDbLine
 10
206.628904
 20
97.394916
 30
0.0
 11
201.337237
 21
88.85797
 31
0.0
  0
LINE
  5
74
330
A
100
AcDbEntity
  8
0
 62
     7
100
AcDbLine
 10
211.996018
 20
122.605264
 30
0.0
 11
209.40634
 21
122.232677
 31
0.0
  0
LINE
  5
73
330
A
100
AcDbEntity
  8
0
 62
     7
100
AcDbLine
 10
209.40634
 20
122.232677
 30
0.0
 11
205.126497
 21
121.401892
 31
0.0
  0
LINE
  5
72
330
A
100
AcDbEntity
  8
0
 62
     7
100
AcDbLine
 10
200.83632
 20
120.46586
 30
0.0
 11
205.126497
 21
121.401892
 31
0.0
  0
LINE
  5
71
330
A
100
AcDbEntity
  8
0
 62
     7
100
AcDbLine
 10
196.102759
 20
119.538268
 30
0.0
 11
200.83632
 21
120.46586
 31
0.0
  0
LINE
  5
70
330
A
100
AcDbEntity
  8
0
 62
     7
100
AcDbLine
 10
190.766995
 20
118.637031
 30
0.0
 11
196.102759
 21
119.538268
 31
0.0
  0
LINE
  5
6F
330
A
100
AcDbEntity
  8
0
 62
     7
100
AcDbLine
 10
184.888284
 20
117.825194
 30
0.0
 11
190.766995
 21
118.637031
 31
0.0
  0
LINE
  5
6E
330
A
100
AcDbEntity
  8
0
 62
     7
100
AcDbLine
 10
178.943083
 20
117.196464
 30
0.0
 11
184.888284
 21
117.825194
 31
0.0
  0
LINE
  5
6D
330
A
100
AcDbEntity
  8
0
 62
     7
100
AcDbLine
 10
173.407503
 20
116.780641
 30
0.0
 11
178.943083
 21
117.196464
 31
0.0
  0
LINE
  5
6C
330
A
100
AcDbEntity
  8
0
 62
     7
100
AcDbLine
 10
168.758002
 20
116.553437
 30
0.0
 11
173.407503
 21
116.780641
 31
0.0
  0
LINE
  5
6B
330
A
100
AcDbEntity
  8
0
 62
     7
100
AcDbLine
 10
163.998947
 20
116.432514
 30
0.0
 11
168.758002
 21
116.553437
 31
0.0
  0
LINE
  5
6A
330
A
100
AcDbEntity
  8
0
 62
     7
100
AcDbLine
 10
158.320741
 20
116.430619
 30
0.0
 11
163.998947
 21
116.432514
 31
0.0
  0
LINE
  5
69
330
A
100
AcDbEntity
  8
0
 62
     7
100
AcDbLine
 10
152.319385
 20
116.584787
 30
0.0
 11
158.320741
 21
116.430619
 31
0.0
  0
LINE
  5
68
330
A
100
AcDbEntity
  8
0
 62
     7
100
AcDbLine
 10
146.4908
 20
116.855572
 30
0.0
 11
152.319385
 21
116.584787
 31
0.0
  0
LINE
  5
67
330
A
100
AcDbEntity
  8
0
 62
     7
100
AcDbLine
 10
140.930244
 20
117.138242
 30
0.0
 11
146.4908
 21
116.855572
 31
0.0
  0
LINE
  5
66
330
A
100
AcDbEntity
  8
0
 62
     7
100
AcDbLine
 10
134.600225
 20
117.532878
 30
0.0
 11
140.930244
 21
117.138242
 31
0.0
  0
LINE
  5
65
330
A
100
AcDbEntity
  8
0
 62
     7
100
AcDbLine
 10
125.59509
 20
118.219313
 30
0.0
 11
134.600225
 21
117.532878
 31
0.0
  0
LINE
  5
64
330
A
100
AcDbEntity
  8
0
 62
     7
100
AcDbLine
 10
168.760414
 20
117.388356
 30
0.0
 11
168.741466
 21
117.388011
 31
0.0
  0
LINE
  5
63
330
A
100
AcDbEntity
  8
0
 62
     7
100
AcDbLine
 10
125.59509
 20
118.219313
 30
0.0
 11
116.117805
 21
119.121583
 31
0.0
  0
LINE
  5
62
330
A
100
AcDbEntity
  8
0
 62
     7
100
AcDbLine
 10
116.117805
 20
119.121583
 30
0.0
 11
109.09825
 21
119.969249
 31
0.0
  0
LINE
  5
61
330
A
100
AcDbEntity
  8
0
 62
     7
100
AcDbLine
 10
109.09825
 20
119.969249
 30
0.0
 11
101.805328
 21
121.016041
 31
0.0
  0
LINE
  5
60
330
A
100
AcDbEntity
  8
0
 62
     7
100
AcDbLine
 10
75.38316800000001
 20
116.424935
 30
0.0
 11
74.655391
 21
122.643849
 31
0.0
  0
LINE
  5
5F
330
A
100
AcDbEntity
  8
0
 62
     7
100
AcDbLine
 10
76.56500799999999
 20
107.192251
 30
0.0
 11
75.38316800000001
 21
116.424935
 31
0.0
  0
LINE
  5
5E
330
A
100
AcDbEntity
  8
0
 62
     7
100
AcDbLine
 10
78.040887
 20
97.959223
 30
0.0
 11
76.56500799999999
 21
107.192251
 31
0.0
  0
LINE
  5
5D
330
A
100
AcDbEntity
  8
0
 62
     7
100
AcDbLine
 10
80.01854399999999
 20
88.85797
 30
0.0
 11
78.040887
 21
97.959223
 31
0.0
  0
LINE
  5
5C
330
A
100
AcDbEntity
  8
0
 62
     7
100
AcDbLine
 10
64.03295599999999
 20
125.644527
 30
0.0
 11
222.381947
 21
125.644527
 31
0.0
  0
LINE
  5
5B
330
A
100
AcDbEntity
  8
0
 62
     7
100
AcDbLine
 10
222.357142
 20
125.644527
 30
0.0
 11
232.924973
 21
125.644527
 31
0.0
  0
LINE
  5
5A
330
A
100
AcDbEntity
  8
0
 62
     7
100
AcDbLine
 10
64.042086
 20
125.644527
 30
0.0
 11
64.091351
 21
125.644527
 31
0.0
  0
LINE
  5
59
330
A
100
AcDbEntity
  8
0
 62
     7
100
AcDbLine
 10
63.685002
 20
125.50414
 30
0.0
 11
64.036401
 21
125.645044
 31
0.0
  0
LINE
  5
58
330
A
100
AcDbEntity
  8
0
 62
     7
100
AcDbLine
 10
87.65632099999999
 20
83.34788399999998
 30
0.0
 11
87.55503500000001
 21
83.34581700000001
 31
0.0
  0
LINE
  5
57
330
A
100
AcDbEntity
  8
0
 62
     7
100
AcDbLine
 10
87.70041799999999
 20
83.34926199999999
 30
0.0
 11
87.65632099999999
 21
83.34788399999998
 31
0.0
  0
LINE
  5
56
330
A
100
AcDbEntity
  8
0
 62
     7
100
AcDbLine
 10
87.78068799999999
 20
83.35064
 30
0.0
 11
87.70041799999999
 21
83.34926199999999
 31
0.0
  0
LINE
  5
55
330
A
100
AcDbEntity
  8
0
 62
     7
100
AcDbLine
 10
87.87439499999999
 20
83.352707
 30
0.0
 11
87.78068799999999
 21
83.35064
 31
0.0
  0
LINE
  5
54
330
A
100
AcDbEntity
  8
0
 62
     7
100
AcDbLine
 10
87.94656999999999
 20
83.354774
 30
0.0
 11
87.87439499999999
 21
83.352707
 31
0.0
  0
LINE
  5
53
330
A
100
AcDbEntity
  8
0
 62
     7
100
AcDbLine
 10
88.55325099999999
 20
83.37200000000001
 30
0.0
 11
87.94656999999999
 21
83.354774
 31
0.0
  0
LINE
  5
52
330
A
100
AcDbEntity
  8
0
 62
     7
100
AcDbLine
 10
161.35587
 20
85.117974
 30
0.0
 11
94.78353400000001
 21
83.45054799999999
 31
0.0
  0
LINE
  5
51
330
A
100
AcDbEntity
  8
0
 62
     7
100
AcDbLine
 10
165.798321
 20
85.22339399999999
 30
0.0
 11
161.35587
 21
85.117974
 31
0.0
  0
LINE
  5
50
330
A
100
AcDbEntity
  8
0
 62
     7
100
AcDbLine
 10
168.636046
 20
85.29022900000001
 30
0.0
 11
165.798321
 21
85.22339399999999
 31
0.0
  0
LINE
  5
4F
330
A
100
AcDbEntity
  8
0
 62
     7
100
AcDbLine
 10
171.884427
 20
85.36671
 30
0.0
 11
168.636046
 21
85.29022900000001
 31
0.0
  0
LINE
  5
4E
330
A
100
AcDbEntity
  8
0
 62
     7
100
AcDbLine
 10
175.377753
 20
85.44939199999999
 30
0.0
 11
171.884427
 21
85.36671
 31
0.0
  0
LINE
  5
4D
330
A
100
AcDbEntity
  8
0
 62
     7
100
AcDbLine
 10
178.828016
 20
85.53069699999999
 30
0.0
 11
175.377753
 21
85.44939199999999
 31
0.0
  0
LINE
  5
4C
330
A
100
AcDbEntity
  8
0
 62
     7
100
AcDbLine
 10
181.963053
 20
85.604422
 30
0.0
 11
178.828016
 21
85.53069699999999
 31
0.0
  0
LINE
  5
4B
330
A
100
AcDbEntity
  8
0
 62
     7
100
AcDbLine
 10
184.744623
 20
85.670567
 30
0.0
 11
181.963053
 21
85.604422
 31
0.0
  0
LINE
  5
4A
330
A
100
AcDbEntity
  8
0
 62
     7
100
AcDbLine
 10
187.259543
 20
85.72982299999999
 30
0.0
 11
184.744623
 21
85.670567
 31
0.0
  0
LINE
  5
49
330
A
100
AcDbEntity
  8
0
 62
     7
100
AcDbLine
 10
189.765161
 20
85.789079
 30
0.0
 11
187.259543
 21
85.72982299999999
 31
0.0
  0
LINE
  5
48
330
A
100
AcDbEntity
  8
0
 62
     7
100
AcDbLine
 10
191.148711
 20
85.82146299999999
 30
0.0
 11
189.765161
 21
85.789079
 31
0.0
  0
LINE
  5
47
330
A
100
AcDbEntity
  8
0
 62
     7
100
AcDbLine
 10
192.4785179999999
 20
85.853158
 30
0.0
 11
191.148711
 21
85.82146299999999
 31
0.0
  0
LINE
  5
46
330
A
100
AcDbEntity
  8
0
 62
     7
100
AcDbLine
 10
193.122062
 20
85.86831600000001
 30
0.0
 11
192.4785179999999
 21
85.853158
 31
0.0
  0
LINE
  5
45
330
A
100
AcDbEntity
  8
0
 62
     7
100
AcDbLine
 10
193.400081
 20
85.874517
 30
0.0
 11
193.122062
 21
85.86831600000001
 31
0.0
  0
LINE
  5
44
330
A
100
AcDbEntity
  8
0
 62
     7
100
AcDbLine
 10
193.622979
 20
85.88002900000001
 30
0.0
 11
193.400081
 21
85.874517
 31
0.0
  0
LINE
  5
43
330
A
100
AcDbEntity
  8
0
 62
     7
100
AcDbLine
 10
193.694293
 20
85.881407
 30
0.0
 11
193.622979
 21
85.88002900000001
 31
0.0
  0
LINE
  5
42
330
A
100
AcDbEntity
  8
0
 62
     7
100
AcDbLine
 10
193.756304
 20
85.88278499999999
 30
0.0
 11
193.694293
 21
85.881407
 31
0.0
  0
LINE
  5
41
330
A
100
AcDbEntity
  8
0
 62
     7
100
AcDbLine
 10
193.821072
 20
85.88485199999999
 30
0.0
 11
193.756304
 21
85.88278499999999
 31
0.0
  0
LINE
  5
40
330
A
100
AcDbEntity
  8
0
 62
     7
100
AcDbLine
 10
193.821072
 20
85.877273
 30
0.0
 11
193.821072
 21
85.88485199999999
 31
0.0
  0
LINE
  5
3F
330
A
100
AcDbEntity
  8
0
 62
     7
100
AcDbLine
 10
88.55325099999999
 20
83.37200000000001
 30
0.0
 11
88.981477
 21
83.20319000000001
 31
0.0
  0
LINE
  5
3E
330
A
100
AcDbEntity
  8
0
 62
     7
100
AcDbLine
 10
94.73168499999999
 20
83.436768
 30
0.0
 11
94.32568100000001
 21
83.264513
 31
0.0
  0
LINE
  5
3D
330
A
100
AcDbEntity
  8
0
 62
     7
100
AcDbLine
 10
89.32529699999999
 20
82.66988899999999
 30
0.0
 11
88.981477
 21
83.20319000000001
 31
0.0
  0
LINE
  5
3C
330
A
100
AcDbEntity
  8
0
 62
     7
100
AcDbLine
 10
94.101061
 20
82.68160300000001
 30
0.0
 11
89.31978499999999
 21
82.666444
 31
0.0
  0
LINE
  5
3B
330
A
100
AcDbEntity
  8
0
 62
     7
100
AcDbLine
 10
225.954856
 20
126.553171
 30
0.0
 11
225.40054
 21
125.970433
 31
0.0
  0
LINE
  5
3A
330
A
100
AcDbEntity
  8
0
 62
     7
100
AcDbLine
 10
225.089792
 20
125.644527
 30
0.0
 11
225.40054
 21
125.970433
 31
0.0
  0
LINE
  5
39
330
A
100
AcDbEntity
  8
0
 62
     7
100
AcDbLine
 10
226.09197
 20
126.500806
 30
0.0
 11
226.156394
 21
126.765389
 31
0.0
  0
LINE
  5
38
330
A
100
AcDbEntity
  8
0
 62
     7
100
AcDbLine
 10
226.156394
 20
126.765389
 30
0.0
 11
225.97966
 21
126.996727
 31
0.0
  0
LINE
  5
37
330
A
100
AcDbEntity
  8
0
 62
     7
100
AcDbLine
 10
225.954856
 20
126.553171
 30
0.0
 11
226.156394
 21
126.765389
 31
0.0
  0
LINE
  5
36
330
A
100
AcDbEntity
  8
0
 62
     7
100
AcDbLine
 10
225.97966
 20
126.996727
 30
0.0
 11
225.445326
 21
127.273196
 31
0.0
  0
LINE
  5
35
330
A
100
AcDbEntity
  8
0
 62
     7
100
AcDbLine
 10
225.445326
 20
127.273196
 30
0.0
 11
224.489312
 21
127.157613
 31
0.0
  0
LINE
  5
34
330
A
100
AcDbEntity
  8
0
 62
     7
100
AcDbLine
 10
224.489312
 20
127.157613
 30
0.0
 11
223.453716
 21
126.507524
 31
0.0
  0
LINE
  5
33
330
A
100
AcDbEntity
  8
0
 62
     7
100
AcDbLine
 10
223.453716
 20
126.507524
 30
0.0
 11
222.530775
 21
125.828151
 31
0.0
  0
LINE
  5
32
330
A
100
AcDbEntity
  8
0
 62
     7
100
AcDbLine
 10
225.364022
 20
125.729277
 30
0.0
 11
225.284096
 21
125.644527
 31
0.0
  0
LINE
  5
31
330
A
100
AcDbEntity
  8
0
 62
     7
100
AcDbLine
 10
225.897667
 20
126.295133
 30
0.0
 11
225.364022
 21
125.729277
 31
0.0
  0
LINE
  5
30
330
A
100
AcDbEntity
  8
0
 62
     7
100
AcDbLine
 10
226.09197
 20
126.500806
 30
0.0
 11
225.897667
 21
126.295133
 31
0.0
  0
LINE
  5
2F
330
A
100
AcDbEntity
  8
0
 62
     7
100
AcDbLine
 10
225.897667
 20
126.295133
 30
0.0
 11
226.09197
 21
126.500806
 31
0.0
  0
LINE
  5
2E
330
A
100
AcDbEntity
  8
0
 62
     7
100
AcDbLine
 10
225.364022
 20
125.729277
 30
0.0
 11
225.897667
 21
126.295133
 31
0.0
  0
LINE
  5
2D
330
A
100
AcDbEntity
  8
0
 62
     7
100
AcDbLine
 10
225.284096
 20
125.644527
 30
0.0
 11
225.364022
 21
125.729277
 31
0.0
  0
LINE
  5
2C
330
A
100
AcDbEntity
  8
0
 62
     7
100
AcDbLine
 10
222.479443
 20
125.773718
 30
0.0
 11
222.530775
 21
125.828151
 31
0.0
  0
LINE
  5
2B
330
A
100
AcDbEntity
  8
0
 62
     7
100
AcDbLine
 10
222.357142
 20
125.644527
 30
0.0
 11
222.479443
 21
125.773718
 31
0.0
  0
LINE
  5
2A
330
A
100
AcDbEntity
  8
0
 62
     7
100
AcDbLine
 10
94.10037199999999
 20
82.68160300000001
 30
0.0
 11
94.32568100000001
 21
83.264513
 31
0.0
  0
LINE
  5
29
330
A
100
AcDbEntity
  8
0
 62
     7
100
AcDbLine
 10
233.4065970000001
 20
122.647122
 30
0.0
 11
233.402119
 21
125.144472
 31
0.0
  0
DIMENSION
  5
EE
330
A
100
AcDbEntity
  8
Cotation-JacobDelafon
  6
Continuous
370
     0
100
AcDbDimension
  2
*D1
 10
234.3814193066376
 20
150.3588887200959
 30
0.0
 11
149.0007406533188
 21
152.790607683261
 31
0.0
 70
    32
  1
170
 71
     5
 42
170.7613573066376
 73
     0
 74
     0
 75
     0
  3
Cotation-Jacob-Delafon
100
AcDbAlignedDimension
 13
63.62006199999999
 23
122.643849
 33
0.0
 14
234.3814193066376
 24
122.643849
 34
0.0
100
AcDbRotatedDimension
  0
DIMENSION
  5
108
330
A
100
AcDbEntity
  8
Cotation-JacobDelafon
  6
Continuous
370
     0
100
AcDbDimension
  2
*D3
 10
45.12809313927374
 20
82.666444
 30
0.0
 11
42.69535098374849
 21
104.1554855
 31
0.0
 70
    32
  1
43
 71
     5
 42
42.97808299999999
 73
     0
 74
     0
 75
     0
  3
Cotation-Jacob-Delafon
100
AcDbAlignedDimension
 13
64.03295599999999
 23
125.644527
 33
0.0
 14
89.31978499999999
 24
82.666444
 34
0.0
 50
90.0
100
AcDbRotatedDimension
  0
ENDSEC
  0
SECTION
  2
OBJECTS
  0
DICTIONARY
  5
19
330
0
100
AcDbDictionary
281
     1
  3
ACAD_COLOR
350
BB
  3
ACAD_GROUP
350
1A
  3
ACAD_LAYOUT
350
1E
  3
ACAD_MATERIAL
350
91
  3
ACAD_MLEADERSTYLE
350
D0
  3
ACAD_MLINESTYLE
350
1B
  3
ACAD_PLOTSETTINGS
350
22
  3
ACAD_PLOTSTYLENAME
350
1F
  3
ACAD_SCALELIST
350
BE
  3
ACAD_TABLESTYLE
350
BC
  3
ACAD_VISUALSTYLE
350
AA
  3
ACAD_WIPEOUT_VARS
350
23
  3
ACDB_RECOMPOSE_DATA
350
12D
  3
AcDbVariableDictionary
350
12E
  3
AEC_PROPERTY_SET_DEFS
350
DE
  0
DICTIONARY
  5
127
330
14
100
AcDbDictionary
280
     1
281
     1
  3
ADSK_XREC_LAYER_RECONCILED
360
128
  0
DICTIONARY
  5
129
330
D7
100
AcDbDictionary
280
     1
281
     1
  3
ADSK_XREC_LAYER_RECONCILED
360
12A
  0
DICTIONARY
  5
BB
102
{ACAD_REACTORS
330
19
102
}
330
19
100
AcDbDictionary
281
     1
  0
DICTIONARY
  5
1A
102
{ACAD_REACTORS
330
19
102
}
330
19
100
AcDbDictionary
281
     1
  0
DICTIONARY
  5
1E
102
{ACAD_REACTORS
330
19
102
}
330
19
100
AcDbDictionary
281
     1
  3
Layout1
350
21
  3
Model
350
20
  0
DICTIONARY
  5
91
102
{ACAD_REACTORS
330
19
102
}
330
19
100
AcDbDictionary
281
     1
  3
ByBlock
350
9A
  3
ByLayer
350
92
  3
Global
350
A2
  0
DICTIONARY
  5
D0
102
{ACAD_REACTORS
330
19
102
}
330
19
100
AcDbDictionary
281
     1
  3
Standard
350
D1
  0
DICTIONARY
  5
1B
102
{ACAD_REACTORS
330
19
102
}
330
19
100
AcDbDictionary
281
     1
  3
Standard
350
1C
  0
DICTIONARY
  5
22
102
{ACAD_REACTORS
330
19
102
}
330
19
100
AcDbDictionary
281
     1
  0
ACDBDICTIONARYWDFLT
  5
1F
102
{ACAD_REACTORS
330
19
102
}
330
19
100
AcDbDictionary
281
     1
  3
Normal
350
1D
100
AcDbDictionaryWithDefault
340
1D
  0
DICTIONARY
  5
BE
102
{ACAD_REACTORS
330
19
102
}
330
19
100
AcDbDictionary
281
     1
  3
A0
350
BF
  3
A1
350
C0
  3
A2
350
C1
  3
A3
350
C2
  3
A4
350
C3
  3
A5
350
C4
  3
A6
350
C5
  3
A7
350
C6
  3
A8
350
C7
  3
A9
350
C8
  3
B0
350
C9
  3
B1
350
CA
  3
B2
350
CB
  3
B3
350
CC
  3
B4
350
CD
  3
B5
350
CE
  3
B6
350
CF
  0
DICTIONARY
  5
BC
102
{ACAD_REACTORS
330
19
102
}
330
19
100
AcDbDictionary
281
     1
  3
Standard
350
BD
  0
DICTIONARY
  5
AA
102
{ACAD_REACTORS
330
19
102
}
330
19
100
AcDbDictionary
281
     1
  3
2dWireframe
350
B0
  3
3D Hidden
350
B2
  3
3dWireframe
350
B1
  3
Basic
350
AF
  3
Brighten
350
B6
  3
ColorChange
350
BA
  3
Conceptual
350
B3
  3
Dim
350
B5
  3
Facepattern
350
B9
  3
Flat
350
AB
  3
FlatWithEdges
350
AC
  3
Gouraud
350
AD
  3
GouraudWithEdges
350
AE
  3
Linepattern
350
B8
  3
Realistic
350
B4
  3
Thicken
350
B7
  0
WIPEOUTVARIABLES
  5
23
330
19
100
AcDbWipeoutVariables
 70
     1
  0
XRECORD
  5
12D
102
{ACAD_REACTORS
330
19
102
}
330
19
100
AcDbXrecord
280
     1
 90
        1
330
BD
  0
DICTIONARY
  5
12E
102
{ACAD_REACTORS
330
19
102
}
330
19
100
AcDbDictionary
281
     1
  3
CANNOSCALE
350
132
  3
CMLEADERSTYLE
350
130
  3
CTABLESTYLE
350
12F
  3
LAYEREVAL
350
134
  3
LAYERNOTIFY
350
135
  3
LIGHTINGUNITS
350
133
  3
MSLTSCALE
350
131
  0
DICTIONARY
  5
DE
102
{ACAD_REACTORS
330
19
102
}
330
19
100
AcDbDictionary
281
     1
  0
XRECORD
  5
128
102
{ACAD_REACTORS
330
127
102
}
330
127
100
AcDbXrecord
280
     1
290
     1
  0
XRECORD
  5
12A
102
{ACAD_REACTORS
330
129
102
}
330
129
100
AcDbXrecord
280
     1
290
     1
  0
LAYOUT
  5
21
102
{ACAD_REACTORS
330
1E
102
}
330
1E
100
AcDbPlotSettings
  1

  2

  4

  6

 40
0.0
 41
0.0
 42
0.0
 43
0.0
 44
0.0
 45
0.0
 46
0.0
 47
0.0
 48
0.0
 49
0.0
140
0.0
141
0.0
142
1.0
143
1.0
 70
     0
 72
     0
 73
     0
 74
     0
  7

 75
     0
147
1.0
 76
     0
 77
     2
 78
   300
148
0.0
149
0.0
100
AcDbLayout
  1
Layout1
 70
     0
 71
     1
 10
0.0
 20
0.0
 11
12.0
 21
9.0
 12
0.0
 22
0.0
 32
0.0
 14
1.000000000000000E+20
 24
1.000000000000000E+20
 34
1.000000000000000E+20
 15
-1.000000000000000E+20
 25
-1.000000000000000E+20
 35
-1.000000000000000E+20
146
0.0
 13
0.0
 23
0.0
 33
0.0
 16
1.0
 26
0.0
 36
0.0
 17
0.0
 27
1.0
 37
0.0
 76
     0
330
B
  0
LAYOUT
  5
20
102
{ACAD_REACTORS
330
1E
102
}
330
1E
100
AcDbPlotSettings
  1

  2

  4

  6

 40
0.0
 41
0.0
 42
0.0
 43
0.0
 44
0.0
 45
0.0
 46
0.0
 47
0.0
 48
0.0
 49
0.0
140
0.0
141
0.0
142
1.0
143
1.0
 70
  1024
 72
     0
 73
     0
 74
     0
  7

 75
     0
147
1.0
 76
     0
 77
     2
 78
   300
148
0.0
149
0.0
100
AcDbLayout
  1
Model
 70
     0
 71
     0
 10
0.0
 20
0.0
 11
0.0
 21
0.0
 12
0.0
 22
0.0
 32
0.0
 14
0.0
 24
0.0
 34
0.0
 15
0.0
 25
0.0
 35
0.0
146
0.0
 13
0.0
 23
0.0
 33
0.0
 16
0.0
 26
0.0
 36
0.0
 17
0.0
 27
0.0
 37
0.0
 76
     0
330
A
331
15
  0
MATERIAL
  5
9A
102
{ACAD_XDICTIONARY
360
9B
102
}
102
{ACAD_REACTORS
330
91
102
}
330
91
100
AcDbMaterial
  1
ByBlock
 72
     0
 43
0.0208333333333333
 43
0.0
 43
0.0
 43
0.0
 43
0.0
 43
0.0208333333333333
 43
0.0
 43
0.0
 43
0.0
 43
0.0
 43
1.0
 43
0.0
 43
0.0
 43
0.0
 43
0.0
 43
1.0
 77
     0
 47
0.0208333333333333
 47
0.0
 47
0.0
 47
0.0
 47
0.0
 47
0.0208333333333333
 47
0.0
 47
0.0
 47
0.0
 47
0.0
 47
1.0
 47
0.0
 47
0.0
 47
0.0
 47
0.0
 47
1.0
171
     0
 49
0.0208333333333333
 49
0.0
 49
0.0
 49
0.0
 49
0.0
 49
0.0208333333333333
 49
0.0
 49
0.0
 49
0.0
 49
0.0
 49
1.0
 49
0.0
 49
0.0
 49
0.0
 49
0.0
 49
1.0
175
     0
142
0.0208333333333333
142
0.0
142
0.0
142
0.0
142
0.0
142
0.0208333333333333
142
0.0
142
0.0
142
0.0
142
0.0
142
1.0
142
0.0
142
0.0
142
0.0
142
0.0
142
1.0
179
     0
144
0.0208333333333333
144
0.0
144
0.0
144
0.0
144
0.0
144
0.0208333333333333
144
0.0
144
0.0
144
0.0
144
0.0
144
1.0
144
0.0
144
0.0
144
0.0
144
0.0
144
1.0
147
0.0208333333333333
147
0.0
147
0.0
147
0.0
147
0.0
147
0.0208333333333333
147
0.0
147
0.0
147
0.0
147
0.0
147
1.0
147
0.0
147
0.0
147
0.0
147
0.0
147
1.0
  0
MATERIAL
  5
92
102
{ACAD_XDICTIONARY
360
93
102
}
102
{ACAD_REACTORS
330
91
102
}
330
91
100
AcDbMaterial
  1
ByLayer
 72
     0
 43
0.0208333333333333
 43
0.0
 43
0.0
 43
0.0
 43
0.0
 43
0.0208333333333333
 43
0.0
 43
0.0
 43
0.0
 43
0.0
 43
1.0
 43
0.0
 43
0.0
 43
0.0
 43
0.0
 43
1.0
 77
     0
 47
0.0208333333333333
 47
0.0
 47
0.0
 47
0.0
 47
0.0
 47
0.0208333333333333
 47
0.0
 47
0.0
 47
0.0
 47
0.0
 47
1.0
 47
0.0
 47
0.0
 47
0.0
 47
0.0
 47
1.0
171
     0
 49
0.0208333333333333
 49
0.0
 49
0.0
 49
0.0
 49
0.0
 49
0.0208333333333333
 49
0.0
 49
0.0
 49
0.0
 49
0.0
 49
1.0
 49
0.0
 49
0.0
 49
0.0
 49
0.0
 49
1.0
175
     0
142
0.0208333333333333
142
0.0
142
0.0
142
0.0
142
0.0
142
0.0208333333333333
142
0.0
142
0.0
142
0.0
142
0.0
142
1.0
142
0.0
142
0.0
142
0.0
142
0.0
142
1.0
179
     0
144
0.0208333333333333
144
0.0
144
0.0
144
0.0
144
0.0
144
0.0208333333333333
144
0.0
144
0.0
144
0.0
144
0.0
144
1.0
144
0.0
144
0.0
144
0.0
144
0.0
144
1.0
147
0.0208333333333333
147
0.0
147
0.0
147
0.0
147
0.0
147
0.0208333333333333
147
0.0
147
0.0
147
0.0
147
0.0
147
1.0
147
0.0
147
0.0
147
0.0
147
0.0
147
1.0
  0
MATERIAL
  5
A2
102
{ACAD_XDICTIONARY
360
A3
102
}
102
{ACAD_REACTORS
330
91
102
}
330
91
100
AcDbMaterial
  1
Global
 72
     0
 43
0.0208333333333333
 43
0.0
 43
0.0
 43
0.0
 43
0.0
 43
0.0208333333333333
 43
0.0
 43
0.0
 43
0.0
 43
0.0
 43
1.0
 43
0.0
 43
0.0
 43
0.0
 43
0.0
 43
1.0
 77
     0
 47
0.0208333333333333
 47
0.0
 47
0.0
 47
0.0
 47
0.0
 47
0.0208333333333333
 47
0.0
 47
0.0
 47
0.0
 47
0.0
 47
1.0
 47
0.0
 47
0.0
 47
0.0
 47
0.0
 47
1.0
171
     0
 49
0.0208333333333333
 49
0.0
 49
0.0
 49
0.0
 49
0.0
 49
0.0208333333333333
 49
0.0
 49
0.0
 49
0.0
 49
0.0
 49
1.0
 49
0.0
 49
0.0
 49
0.0
 49
0.0
 49
1.0
175
     0
142
0.0208333333333333
142
0.0
142
0.0
142
0.0
142
0.0
142
0.0208333333333333
142
0.0
142
0.0
142
0.0
142
0.0
142
1.0
142
0.0
142
0.0
142
0.0
142
0.0
142
1.0
179
     0
144
0.0208333333333333
144
0.0
144
0.0
144
0.0
144
0.0
144
0.0208333333333333
144
0.0
144
0.0
144
0.0
144
0.0
144
1.0
144
0.0
144
0.0
144
0.0
144
0.0
144
1.0
147
0.0208333333333333
147
0.0
147
0.0
147
0.0
147
0.0
147
0.0208333333333333
147
0.0
147
0.0
147
0.0
147
0.0
147
1.0
147
0.0
147
0.0
147
0.0
147
0.0
147
1.0
  0
MLEADERSTYLE
  5
D1
102
{ACAD_REACTORS
330
D0
102
}
330
D0
100
AcDbMLeaderStyle
170
     2
171
     1
172
     0
 90
        2
 40
0.0
 41
0.0
173
     1
 91
-1056964608
340
11
 92
       -2
290
     1
 42
2.0
291
     1
 43
0.36
  3
Standard
 44
4.0
300

342
17
174
     1
178
     6
175
     1
176
     0
 93
-1056964608
 45
4.0
292
     0
297
     0
 46
4.0
 94
-1056964608
 47
1.0
 49
1.0
140
1.0
293
     1
141
0.0
294
     1
177
     0
142
1.0
295
     0
296
     0
143
0.125
1001
ACAD_MLEADERVER
1070
     2
  0
MLINESTYLE
  5
1C
102
{ACAD_REACTORS
330
1B
102
}
330
1B
100
AcDbMlineStyle
  2
STANDARD
 70
     0
  3

 62
     0
 51
90.0
 52
90.0
 71
     2
 49
0.5
 62
   256
  6
BYLAYER
 49
-0.5
 62
   256
  6
BYLAYER
  0
ACDBPLACEHOLDER
  5
1D
102
{ACAD_REACTORS
330
1F
102
}
330
1F
  0
SCALE
  5
BF
102
{ACAD_REACTORS
330
BE
102
}
330
BE
100
AcDbScale
 70
     0
300
1:1
140
1.0
141
1.0
290
     1
  0
SCALE
  5
C0
102
{ACAD_REACTORS
330
BE
102
}
330
BE
100
AcDbScale
 70
     0
300
1:2
140
1.0
141
2.0
290
     0
  0
SCALE
  5
C1
102
{ACAD_REACTORS
330
BE
102
}
330
BE
100
AcDbScale
 70
     0
300
1:4
140
1.0
141
4.0
290
     0
  0
SCALE
  5
C2
102
{ACAD_REACTORS
330
BE
102
}
330
BE
100
AcDbScale
 70
     0
300
1:5
140
1.0
141
5.0
290
     0
  0
SCALE
  5
C3
102
{ACAD_REACTORS
330
BE
102
}
330
BE
100
AcDbScale
 70
     0
300
1:8
140
1.0
141
8.0
290
     0
  0
SCALE
  5
C4
102
{ACAD_REACTORS
330
BE
102
}
330
BE
100
AcDbScale
 70
     0
300
1:10
140
1.0
141
10.0
290
     0
  0
SCALE
  5
C5
102
{ACAD_REACTORS
330
BE
102
}
330
BE
100
AcDbScale
 70
     0
300
1:16
140
1.0
141
16.0
290
     0
  0
SCALE
  5
C6
102
{ACAD_REACTORS
330
BE
102
}
330
BE
100
AcDbScale
 70
     0
300
1:20
140
1.0
141
20.0
290
     0
  0
SCALE
  5
C7
102
{ACAD_REACTORS
330
BE
102
}
330
BE
100
AcDbScale
 70
     0
300
1:30
140
1.0
141
30.0
290
     0
  0
SCALE
  5
C8
102
{ACAD_REACTORS
330
BE
102
}
330
BE
100
AcDbScale
 70
     0
300
1:40
140
1.0
141
40.0
290
     0
  0
SCALE
  5
C9
102
{ACAD_REACTORS
330
BE
102
}
330
BE
100
AcDbScale
 70
     0
300
1:50
140
1.0
141
50.0
290
     0
  0
SCALE
  5
CA
102
{ACAD_REACTORS
330
BE
102
}
330
BE
100
AcDbScale
 70
     0
300
1:100
140
1.0
141
100.0
290
     0
  0
SCALE
  5
CB
102
{ACAD_REACTORS
330
BE
102
}
330
BE
100
AcDbScale
 70
     0
300
2:1
140
2.0
141
1.0
290
     0
  0
SCALE
  5
CC
102
{ACAD_REACTORS
330
BE
102
}
330
BE
100
AcDbScale
 70
     0
300
4:1
140
4.0
141
1.0
290
     0
  0
SCALE
  5
CD
102
{ACAD_REACTORS
330
BE
102
}
330
BE
100
AcDbScale
 70
     0
300
8:1
140
8.0
141
1.0
290
     0
  0
SCALE
  5
CE
102
{ACAD_REACTORS
330
BE
102
}
330
BE
100
AcDbScale
 70
     0
300
10:1
140
10.0
141
1.0
290
     0
  0
SCALE
  5
CF
102
{ACAD_REACTORS
330
BE
102
}
330
BE
100
AcDbScale
 70
     0
300
100:1
140
100.0
141
1.0
290
     0
  0
TABLESTYLE
  5
BD
102
{ACAD_XDICTIONARY
360
12B
102
}
102
{ACAD_REACTORS
330
BC
102
}
330
BC
100
AcDbTableStyle
  3
Standard
 70
     0
 71
     0
 40
1.5
 41
1.5
280
     0
281
     0
  7
Standard
140
4.5
170
     2
 62
     0
 63
     7
283
     0
 90
      512
 91
        0
  1

274
    -2
284
     1
 64
     0
275
    -2
285
     1
 65
     0
276
    -2
286
     1
 66
     0
277
    -2
287
     1
 67
     0
278
    -2
288
     1
 68
     0
279
    -2
289
     1
 69
     0
  7
Standard
140
6.0
170
     5
 62
     0
 63
     7
283
     0
 90
      512
 91
        0
  1

274
    -2
284
     1
 64
     0
275
    -2
285
     1
 65
     0
276
    -2
286
     1
 66
     0
277
    -2
287
     1
 67
     0
278
    -2
288
     1
 68
     0
279
    -2
289
     1
 69
     0
  7
Standard
140
4.5
170
     5
 62
     0
 63
     7
283
     0
 90
      512
 91
        0
  1

274
    -2
284
     1
 64
     0
275
    -2
285
     1
 65
     0
276
    -2
286
     1
 66
     0
277
    -2
287
     1
 67
     0
278
    -2
288
     1
 68
     0
279
    -2
289
     1
 69
     0
  0
VISUALSTYLE
  5
B0
102
{ACAD_REACTORS
330
AA
102
}
330
AA
100
AcDbVisualStyle
  2
2dWireframe
 70
     4
 71
     0
 72
     2
 73
     0
 90
        0
 40
-0.6
 41
-30.0
 62
     5
 63
     7
421
 16777215
 74
     1
 91
        4
 64
     7
 65
   257
 75
     1
175
     1
 42
1.0
 92
        0
 66
   257
 43
1.0
 76
     1
 77
     6
 78
     2
 67
     7
 79
     5
170
     0
171
     0
290
     0
174
     0
 93
        1
 44
0.0
173
     0
291
     0
 45
0.0
  0
VISUALSTYLE
  5
B2
102
{ACAD_REACTORS
330
AA
102
}
330
AA
100
AcDbVisualStyle
  2
3D Hidden
 70
     6
 71
     1
 72
     2
 73
     2
 90
        0
 40
-0.6
 41
-30.0
 62
     5
 63
     7
421
 16777215
 74
     2
 91
        2
 64
     7
 65
   257
 75
     2
175
     1
 42
40.0
 92
        0
 66
   257
 43
1.0
 76
     1
 77
     6
 78
     2
 67
     7
 79
     3
170
     0
171
     0
290
     0
174
     0
 93
        1
 44
0.0
173
     0
291
     0
 45
0.0
  0
VISUALSTYLE
  5
B1
102
{ACAD_REACTORS
330
AA
102
}
330
AA
100
AcDbVisualStyle
  2
3dWireframe
 70
     5
 71
     0
 72
     2
 73
     0
 90
        0
 40
-0.6
 41
-30.0
 62
     5
 63
     7
421
 16777215
 74
     1
 91
        4
 64
     7
 65
   257
 75
     1
175
     1
 42
1.0
 92
        0
 66
   257
 43
1.0
 76
     1
 77
     6
 78
     2
 67
     7
 79
     5
170
     0
171
     0
290
     0
174
     0
 93
        1
 44
0.0
173
     0
291
     0
 45
0.0
  0
VISUALSTYLE
  5
AF
102
{ACAD_REACTORS
330
AA
102
}
330
AA
100
AcDbVisualStyle
  2
Basic
 70
     7
 71
     1
 72
     0
 73
     1
 90
        0
 40
-0.6
 41
-30.0
 62
     5
 63
     7
421
 16777215
 74
     0
 91
        4
 64
     7
 65
   257
 75
     1
175
     1
 42
1.0
 92
        8
 66
     7
 43
1.0
 76
     1
 77
     6
 78
     2
 67
     7
 79
     5
170
     0
171
     0
290
     0
174
     0
 93
        1
 44
0.0
173
     0
291
     1
 45
0.0
  0
VISUALSTYLE
  5
B6
102
{ACAD_REACTORS
330
AA
102
}
330
AA
100
AcDbVisualStyle
  2
Brighten
 70
    12
 71
     2
 72
     2
 73
     0
 90
        0
 40
-0.6
 41
-30.0
 62
     5
 63
     7
421
 16777215
 74
     1
 91
        4
 64
     7
 65
   257
 75
     1
175
     1
 42
1.0
 92
        8
 66
     7
 43
1.0
 76
     1
 77
     6
 78
     2
 67
     7
 79
     5
170
     0
171
     0
290
     0
174
     0
 93
        1
 44
50.0
173
     0
291
     1
 45
0.0
  0
VISUALSTYLE
  5
BA
102
{ACAD_REACTORS
330
AA
102
}
330
AA
100
AcDbVisualStyle
  2
ColorChange
 70
    16
 71
     2
 72
     2
 73
     3
 90
        0
 40
-0.6
 41
-30.0
 62
     5
 63
     8
421
  8421504
 74
     1
 91
        4
 64
     7
 65
   257
 75
     1
175
     1
 42
1.0
 92
        8
 66
     8
424
  8421504
 43
1.0
 76
     1
 77
     6
 78
     2
 67
     7
 79
     5
170
     0
171
     0
290
     0
174
     0
 93
        1
 44
0.0
173
     0
291
     1
 45
0.0
  0
VISUALSTYLE
  5
B3
102
{ACAD_REACTORS
330
AA
102
}
330
AA
100
AcDbVisualStyle
  2
Conceptual
 70
     9
 71
     3
 72
     2
 73
     0
 90
        0
 40
-0.6
 41
-30.0
 62
     5
 63
     7
421
 16777215
 74
     2
 91
        2
 64
     7
 65
   257
 75
     1
175
     1
 42
40.0
 92
        8
 66
     7
 43
1.0
 76
     1
 77
     6
 78
     2
 67
     7
 79
     3
170
     0
171
     0
290
     0
174
     0
 93
        1
 44
0.0
173
     0
291
     0
 45
0.0
  0
VISUALSTYLE
  5
B5
102
{ACAD_REACTORS
330
AA
102
}
330
AA
100
AcDbVisualStyle
  2
Dim
 70
    11
 71
     2
 72
     2
 73
     0
 90
        0
 40
-0.6
 41
-30.0
 62
     5
 63
     7
421
 16777215
 74
     1
 91
        4
 64
     7
 65
   257
 75
     1
175
     1
 42
1.0
 92
        8
 66
     7
 43
1.0
 76
     1
 77
     6
 78
     2
 67
     7
 79
     5
170
     0
171
     0
290
     0
174
     0
 93
        1
 44
-50.0
173
     0
291
     1
 45
0.0
  0
VISUALSTYLE
  5
B9
102
{ACAD_REACTORS
330
AA
102
}
330
AA
100
AcDbVisualStyle
  2
Facepattern
 70
    15
 71
     2
 72
     2
 73
     0
 90
        0
 40
-0.6
 41
-30.0
 62
     5
 63
     7
421
 16777215
 74
     1
 91
        4
 64
     7
 65
   257
 75
     1
175
     1
 42
1.0
 92
        8
 66
     7
 43
1.0
 76
     1
 77
     6
 78
     2
 67
     7
 79
     5
170
     0
171
     0
290
     0
174
     0
 93
        1
 44
0.0
173
     0
291
     1
 45
0.0
  0
VISUALSTYLE
  5
AB
102
{ACAD_REACTORS
330
AA
102
}
330
AA
100
AcDbVisualStyle
  2
Flat
 70
     0
 71
     2
 72
     1
 73
     1
 90
        2
 40
-0.6
 41
30.0
 62
     5
 63
     7
421
 16777215
 74
     0
 91
        4
 64
     7
 65
   257
 75
     1
175
     1
 42
1.0
 92
        8
 66
     7
 43
1.0
 76
     1
 77
     6
 78
     2
 67
     7
 79
     5
170
     0
171
     0
290
     0
174
     0
 93
       13
 44
0.0
173
     0
291
     1
 45
0.0
  0
VISUALSTYLE
  5
AC
102
{ACAD_REACTORS
330
AA
102
}
330
AA
100
AcDbVisualStyle
  2
FlatWithEdges
 70
     1
 71
     2
 72
     1
 73
     1
 90
        2
 40
-0.6
 41
30.0
 62
     5
 63
     7
421
 16777215
 74
     1
 91
        4
 64
     7
 65
   257
 75
     1
175
     1
 42
1.0
 92
        0
 66
   257
 43
1.0
 76
     1
 77
     6
 78
     2
 67
     7
 79
     5
170
     0
171
     0
290
     0
174
     0
 93
       13
 44
0.0
173
     0
291
     1
 45
0.0
  0
VISUALSTYLE
  5
AD
102
{ACAD_REACTORS
330
AA
102
}
330
AA
100
AcDbVisualStyle
  2
Gouraud
 70
     2
 71
     2
 72
     2
 73
     1
 90
        2
 40
-0.6
 41
30.0
 62
     5
 63
     7
421
 16777215
 74
     0
 91
        4
 64
     7
 65
   257
 75
     1
175
     1
 42
1.0
 92
        0
 66
     7
 43
1.0
 76
     1
 77
     6
 78
     2
 67
     7
 79
     5
170
     0
171
     0
290
     0
174
     0
 93
       13
 44
0.0
173
     0
291
     1
 45
0.0
  0
VISUALSTYLE
  5
AE
102
{ACAD_REACTORS
330
AA
102
}
330
AA
100
AcDbVisualStyle
  2
GouraudWithEdges
 70
     3
 71
     2
 72
     2
 73
     1
 90
        2
 40
-0.6
 41
30.0
 62
     5
 63
     7
421
 16777215
 74
     1
 91
        4
 64
     7
 65
   257
 75
     1
175
     1
 42
1.0
 92
        0
 66
   257
 43
1.0
 76
     1
 77
     6
 78
     2
 67
     7
 79
     5
170
     0
171
     0
290
     0
174
     0
 93
       13
 44
0.0
173
     0
291
     1
 45
0.0
  0
VISUALSTYLE
  5
B8
102
{ACAD_REACTORS
330
AA
102
}
330
AA
100
AcDbVisualStyle
  2
Linepattern
 70
    14
 71
     2
 72
     2
 73
     0
 90
        0
 40
-0.6
 41
-30.0
 62
     5
 63
     7
421
 16777215
 74
     1
 91
        4
 64
     7
 65
   257
 75
     7
175
     7
 42
1.0
 92
        8
 66
     7
 43
1.0
 76
     1
 77
     6
 78
     2
 67
     7
 79
     5
170
     0
171
     0
290
     0
174
     0
 93
        1
 44
0.0
173
     0
291
     1
 45
0.0
  0
VISUALSTYLE
  5
B4
102
{ACAD_REACTORS
330
AA
102
}
330
AA
100
AcDbVisualStyle
  2
Realistic
 70
     8
 71
     2
 72
     2
 73
     0
 90
        0
 40
-0.6
 41
-30.0
 62
     5
 63
     7
421
 16777215
 74
     1
 91
        0
 64
     7
 65
   257
 75
     1
175
     1
 42
1.0
 92
        8
 66
     8
424
  7895160
 43
1.0
 76
     1
 77
     6
 78
     2
 67
     7
 79
     5
170
     0
171
     0
290
     0
174
     0
 93
       13
 44
0.0
173
     0
291
     0
 45
0.0
  0
VISUALSTYLE
  5
B7
102
{ACAD_REACTORS
330
AA
102
}
330
AA
100
AcDbVisualStyle
  2
Thicken
 70
    13
 71
     2
 72
     2
 73
     0
 90
        0
 40
-0.6
 41
-30.0
 62
     5
 63
     7
421
 16777215
 74
     1
 91
        4
 64
     7
 65
   257
 75
     1
175
     1
 42
1.0
 92
       12
 66
     7
 43
1.0
 76
     1
 77
     6
 78
     2
 67
     7
 79
     5
170
     0
171
     0
290
     0
174
     0
 93
        1
 44
0.0
173
     0
291
     1
 45
0.0
  0
DICTIONARYVAR
  5
132
102
{ACAD_REACTORS
330
12E
102
}
330
12E
100
DictionaryVariables
280
     0
  1
1:1
  0
DICTIONARYVAR
  5
130
102
{ACAD_REACTORS
330
12E
102
}
330
12E
100
DictionaryVariables
280
     0
  1
STANDARD
  0
DICTIONARYVAR
  5
12F
102
{ACAD_REACTORS
330
12E
102
}
330
12E
100
DictionaryVariables
280
     0
  1
STANDARD
  0
DICTIONARYVAR
  5
134
102
{ACAD_REACTORS
330
12E
102
}
330
12E
100
DictionaryVariables
280
     0
  1
1
  0
DICTIONARYVAR
  5
135
102
{ACAD_REACTORS
330
12E
102
}
330
12E
100
DictionaryVariables
280
     0
  1
15
  0
DICTIONARYVAR
  5
133
102
{ACAD_REACTORS
330
12E
102
}
330
12E
100
DictionaryVariables
280
     0
  1
0
  0
DICTIONARYVAR
  5
131
102
{ACAD_REACTORS
330
12E
102
}
330
12E
100
DictionaryVariables
280
     0
  1
0
  0
DICTIONARY
  5
9B
330
9A
100
AcDbDictionary
280
     1
281
     1
  3
BUMPTILE
360
9D
  3
DIFFUSETILE
360
9C
  3
OPACITYTILE
360
A0
  3
REFLECTIONTILE
360
9F
  3
REFRACTIONTILE
360
A1
  3
SPECULARTILE
360
9E
  0
DICTIONARY
  5
93
330
92
100
AcDbDictionary
280
     1
281
     1
  3
BUMPTILE
360
95
  3
DIFFUSETILE
360
94
  3
OPACITYTILE
360
98
  3
REFLECTIONTILE
360
97
  3
REFRACTIONTILE
360
99
  3
SPECULARTILE
360
96
  0
DICTIONARY
  5
A3
330
A2
100
AcDbDictionary
280
     1
281
     1
  3
BUMPTILE
360
A5
  3
DIFFUSETILE
360
A4
  3
OPACITYTILE
360
A8
  3
REFLECTIONTILE
360
A7
  3
REFRACTIONTILE
360
A9
  3
SPECULARTILE
360
A6
  0
DICTIONARY
  5
12B
330
BD
100
AcDbDictionary
280
     1
281
     1
  3
ACAD_ROUNDTRIP_2008_TABLESTYLE_CELLSTYLEMAP
360
13D
  0
XRECORD
  5
9D
102
{ACAD_REACTORS
330
9B
102
}
330
9B
100
AcDbXrecord
280
     1
270
     1
271
     1
  0
XRECORD
  5
9C
102
{ACAD_REACTORS
330
9B
102
}
330
9B
100
AcDbXrecord
280
     1
270
     1
271
     1
  0
XRECORD
  5
A0
102
{ACAD_REACTORS
330
9B
102
}
330
9B
100
AcDbXrecord
280
     1
270
     1
271
     1
  0
XRECORD
  5
9F
102
{ACAD_REACTORS
330
9B
102
}
330
9B
100
AcDbXrecord
280
     1
270
     1
271
     1
  0
XRECORD
  5
A1
102
{ACAD_REACTORS
330
9B
102
}
330
9B
100
AcDbXrecord
280
     1
270
     1
271
     1
  0
XRECORD
  5
9E
102
{ACAD_REACTORS
330
9B
102
}
330
9B
100
AcDbXrecord
280
     1
270
     1
271
     1
  0
XRECORD
  5
95
102
{ACAD_REACTORS
330
93
102
}
330
93
100
AcDbXrecord
280
     1
270
     1
271
     1
  0
XRECORD
  5
94
102
{ACAD_REACTORS
330
93
102
}
330
93
100
AcDbXrecord
280
     1
270
     1
271
     1
  0
XRECORD
  5
98
102
{ACAD_REACTORS
330
93
102
}
330
93
100
AcDbXrecord
280
     1
270
     1
271
     1
  0
XRECORD
  5
97
102
{ACAD_REACTORS
330
93
102
}
330
93
100
AcDbXrecord
280
     1
270
     1
271
     1
  0
XRECORD
  5
99
102
{ACAD_REACTORS
330
93
102
}
330
93
100
AcDbXrecord
280
     1
270
     1
271
     1
  0
XRECORD
  5
96
102
{ACAD_REACTORS
330
93
102
}
330
93
100
AcDbXrecord
280
     1
270
     1
271
     1
  0
XRECORD
  5
A5
102
{ACAD_REACTORS
330
A3
102
}
330
A3
100
AcDbXrecord
280
     1
270
     1
271
     1
  0
XRECORD
  5
A4
102
{ACAD_REACTORS
330
A3
102
}
330
A3
100
AcDbXrecord
280
     1
270
     1
271
     1
  0
XRECORD
  5
A8
102
{ACAD_REACTORS
330
A3
102
}
330
A3
100
AcDbXrecord
280
     1
270
     1
271
     1
  0
XRECORD
  5
A7
102
{ACAD_REACTORS
330
A3
102
}
330
A3
100
AcDbXrecord
280
     1
270
     1
271
     1
  0
XRECORD
  5
A9
102
{ACAD_REACTORS
330
A3
102
}
330
A3
100
AcDbXrecord
280
     1
270
     1
271
     1
  0
XRECORD
  5
A6
102
{ACAD_REACTORS
330
A3
102
}
330
A3
100
AcDbXrecord
280
     1
270
     1
271
     1
  0
CELLSTYLEMAP
  5
13D
102
{ACAD_REACTORS
330
12B
102
}
330
12B
100
AcDbCellStyleMap
 90
        3
300
CELLSTYLE
  1
TABLEFORMAT_BEGIN
 90
        5
170
     1
 91
        0
 92
    32768
 62
   257
 93
        1
300
CONTENTFORMAT
  1
CONTENTFORMAT_BEGIN
 90
        0
 91
        0
 92
      512
 93
        0
300

 40
0.0
140
1.0
 94
        5
 62
     0
340
17
144
6.0
309
CONTENTFORMAT_END
171
     1
301
MARGIN
  1
CELLMARGIN_BEGIN
 40
1.5
 40
1.5
 40
1.5
 40
1.5
 40
4.5
 40
4.5
309
CELLMARGIN_END
 94
        6
 95
        1
302
GRIDFORMAT
  1
GRIDFORMAT_BEGIN
 90
        0
 91
        1
 62
     0
 92
       -2
340
0
 93
        0
 40
1.125
309
GRIDFORMAT_END
 95
        2
302
GRIDFORMAT
  1
GRIDFORMAT_BEGIN
 90
        0
 91
        1
 62
     0
 92
       -2
340
0
 93
        0
 40
1.125
309
GRIDFORMAT_END
 95
        4
302
GRIDFORMAT
  1
GRIDFORMAT_BEGIN
 90
        0
 91
        1
 62
     0
 92
       -2
340
0
 93
        0
 40
1.125
309
GRIDFORMAT_END
 95
        8
302
GRIDFORMAT
  1
GRIDFORMAT_BEGIN
 90
        0
 91
        1
 62
     0
 92
       -2
340
0
 93
        0
 40
1.125
309
GRIDFORMAT_END
 95
       16
302
GRIDFORMAT
  1
GRIDFORMAT_BEGIN
 90
        0
 91
        1
 62
     0
 92
       -2
340
0
 93
        0
 40
1.125
309
GRIDFORMAT_END
 95
       32
302
GRIDFORMAT
  1
GRIDFORMAT_BEGIN
 90
        0
 91
        1
 62
     0
 92
       -2
340
0
 93
        0
 40
1.125
309
GRIDFORMAT_END
309
TABLEFORMAT_END
  1
CELLSTYLE_BEGIN
 90
        1
 91
        1
300
_TITLE
309
CELLSTYLE_END
300
CELLSTYLE
  1
TABLEFORMAT_BEGIN
 90
        5
170
     1
 91
        0
 92
        0
 62
   257
 93
        1
300
CONTENTFORMAT
  1
CONTENTFORMAT_BEGIN
 90
        0
 91
        0
 92
      512
 93
        0
300

 40
0.0
140
1.0
 94
        5
 62
     0
340
17
144
4.5
309
CONTENTFORMAT_END
171
     1
301
MARGIN
  1
CELLMARGIN_BEGIN
 40
1.5
 40
1.5
 40
1.5
 40
1.5
 40
4.5
 40
4.5
309
CELLMARGIN_END
 94
        6
 95
        1
302
GRIDFORMAT
  1
GRIDFORMAT_BEGIN
 90
        0
 91
        1
 62
     0
 92
       -2
340
0
 93
        0
 40
1.125
309
GRIDFORMAT_END
 95
        2
302
GRIDFORMAT
  1
GRIDFORMAT_BEGIN
 90
        0
 91
        1
 62
     0
 92
       -2
340
0
 93
        0
 40
1.125
309
GRIDFORMAT_END
 95
        4
302
GRIDFORMAT
  1
GRIDFORMAT_BEGIN
 90
        0
 91
        1
 62
     0
 92
       -2
340
0
 93
        0
 40
1.125
309
GRIDFORMAT_END
 95
        8
302
GRIDFORMAT
  1
GRIDFORMAT_BEGIN
 90
        0
 91
        1
 62
     0
 92
       -2
340
0
 93
        0
 40
1.125
309
GRIDFORMAT_END
 95
       16
302
GRIDFORMAT
  1
GRIDFORMAT_BEGIN
 90
        0
 91
        1
 62
     0
 92
       -2
340
0
 93
        0
 40
1.125
309
GRIDFORMAT_END
 95
       32
302
GRIDFORMAT
  1
GRIDFORMAT_BEGIN
 90
        0
 91
        1
 62
     0
 92
       -2
340
0
 93
        0
 40
1.125
309
GRIDFORMAT_END
309
TABLEFORMAT_END
  1
CELLSTYLE_BEGIN
 90
        2
 91
        1
300
_HEADER
309
CELLSTYLE_END
300
CELLSTYLE
  1
TABLEFORMAT_BEGIN
 90
        5
170
     1
 91
        0
 92
        0
 62
   257
 93
        1
300
CONTENTFORMAT
  1
CONTENTFORMAT_BEGIN
 90
        0
 91
        0
 92
      512
 93
        0
300

 40
0.0
140
1.0
 94
        2
 62
     0
340
17
144
4.5
309
CONTENTFORMAT_END
171
     1
301
MARGIN
  1
CELLMARGIN_BEGIN
 40
1.5
 40
1.5
 40
1.5
 40
1.5
 40
4.5
 40
4.5
309
CELLMARGIN_END
 94
        6
 95
        1
302
GRIDFORMAT
  1
GRIDFORMAT_BEGIN
 90
        0
 91
        1
 62
     0
 92
       -2
340
0
 93
        0
 40
1.125
309
GRIDFORMAT_END
 95
        2
302
GRIDFORMAT
  1
GRIDFORMAT_BEGIN
 90
        0
 91
        1
 62
     0
 92
       -2
340
0
 93
        0
 40
1.125
309
GRIDFORMAT_END
 95
        4
302
GRIDFORMAT
  1
GRIDFORMAT_BEGIN
 90
        0
 91
        1
 62
     0
 92
       -2
340
0
 93
        0
 40
1.125
309
GRIDFORMAT_END
 95
        8
302
GRIDFORMAT
  1
GRIDFORMAT_BEGIN
 90
        0
 91
        1
 62
     0
 92
       -2
340
0
 93
        0
 40
1.125
309
GRIDFORMAT_END
 95
       16
302
GRIDFORMAT
  1
GRIDFORMAT_BEGIN
 90
        0
 91
        1
 62
     0
 92
       -2
340
0
 93
        0
 40
1.125
309
GRIDFORMAT_END
 95
       32
302
GRIDFORMAT
  1
GRIDFORMAT_BEGIN
 90
        0
 91
        1
 62
     0
 92
       -2
340
0
 93
        0
 40
1.125
309
GRIDFORMAT_END
309
TABLEFORMAT_END
  1
CELLSTYLE_BEGIN
 90
        3
 91
        2
300
_DATA
309
CELLSTYLE_END
  0
ENDSEC
  0
EOF
