  0
SECTION
  2
HEADER
  9
$ACADVER
  1
AC1009
  9
$INSBASE
 10
0.0
 20
0.0
 30
0.0
  9
$EXTMIN
 10
-0.9000000000000058
 20
-96.453642685883381
 30
0.0
  9
$EXTMAX
 10
97.322181239588915
 20
85.900050000000107
 30
0.0
  9
$LIMMIN
 10
0.0
 20
0.0
  9
$LIMMAX
 10
12.0
 20
9.0
  9
$ORTHOMODE
 70
     0
  9
$REGENMODE
 70
     1
  9
$FILLMODE
 70
     1
  9
$QTEXTMODE
 70
     0
  9
$MIRRTEXT
 70
     1
  9
$DRAGMODE
 70
     2
  9
$LTSCALE
 40
1.0
  9
$OSMODE
 70
     1
  9
$ATTMODE
 70
     1
  9
$TEXTSIZE
 40
0.2
  9
$TRACEWID
 40
0.05
  9
$TEXTSTYLE
  7
STANDARD
  9
$CLAYER
  8
COTATION-JACOBDELAFON
  9
$CELTYPE
  6
CONTINUOUS
  9
$CECOLOR
 62
   256
  9
$DIMSCALE
 40
96.0
  9
$DIMASZ
 40
0.18
  9
$DIMEXO
 40
0.0625
  9
$DIMDLI
 40
0.38
  9
$DIMRND
 40
0.0
  9
$DIMDLE
 40
0.0
  9
$DIMEXE
 40
0.18
  9
$DIMTP
 40
0.0
  9
$DIMTM
 40
0.0
  9
$DIMTXT
 40
0.18
  9
$DIMCEN
 40
0.09
  9
$DIMTSZ
 40
0.0
  9
$DIMTOL
 70
     0
  9
$DIMLIM
 70
     0
  9
$DIMTIH
 70
     1
  9
$DIMTOH
 70
     1
  9
$DIMSE1
 70
     0
  9
$DIMSE2
 70
     0
  9
$DIMTAD
 70
     0
  9
$DIMZIN
 70
     0
  9
$DIMBLK
  1

  9
$DIMASO
 70
     1
  9
$DIMSHO
 70
     1
  9
$DIMPOST
  1

  9
$DIMAPOST
  1

  9
$DIMALT
 70
     0
  9
$DIMALTD
 70
     2
  9
$DIMALTF
 40
25.399999999999999
  9
$DIMLFAC
 40
1.0
  9
$DIMTOFL
 70
     0
  9
$DIMTVP
 40
0.0
  9
$DIMTIX
 70
     0
  9
$DIMSOXD
 70
     0
  9
$DIMSAH
 70
     0
  9
$DIMBLK1
  1

  9
$DIMBLK2
  1

  9
$DIMSTYLE
  2
STANDARD
  9
$DIMCLRD
 70
     0
  9
$DIMCLRE
 70
     0
  9
$DIMCLRT
 70
     0
  9
$DIMTFAC
 40
1.0
  9
$DIMGAP
 40
0.09
  9
$LUNITS
 70
     2
  9
$LUPREC
 70
     4
  9
$SKETCHINC
 40
0.1
  9
$FILLETRAD
 40
0.0
  9
$AUNITS
 70
     0
  9
$AUPREC
 70
     2
  9
$MENU
  1
.
  9
$ELEVATION
 40
0.0
  9
$PELEVATION
 40
0.0
  9
$THICKNESS
 40
0.0
  9
$LIMCHECK
 70
     0
  9
$BLIPMODE
 70
     0
  9
$CHAMFERA
 40
0.0
  9
$CHAMFERB
 40
0.0
  9
$SKPOLY
 70
     0
  9
$TDCREATE
 40
2453033.5981132751
  9
$TDUPDATE
 40
2453076.613765914
  9
$TDINDWG
 40
0.0427552315
  9
$TDUSRTIMER
 40
0.0427552315
  9
$USRTIMER
 70
     1
  9
$ANGBASE
 50
0.0
  9
$ANGDIR
 70
     0
  9
$PDMODE
 70
     0
  9
$PDSIZE
 40
0.0
  9
$PLINEWID
 40
0.0
  9
$COORDS
 70
     1
  9
$SPLFRAME
 70
     0
  9
$SPLINETYPE
 70
     6
  9
$SPLINESEGS
 70
     8
  9
$ATTDIA
 70
     1
  9
$ATTREQ
 70
     1
  9
$HANDLING
 70
 22529
  9
$HANDSEED
  5
32D
  9
$SURFTAB1
 70
     6
  9
$SURFTAB2
 70
     6
  9
$SURFTYPE
 70
     6
  9
$SURFU
 70
     6
  9
$SURFV
 70
     6
  9
$UCSNAME
  2

  9
$UCSORG
 10
0.0
 20
0.0
 30
0.0
  9
$UCSXDIR
 10
1.0
 20
0.0
 30
0.0
  9
$UCSYDIR
 10
0.0
 20
1.0
 30
0.0
  9
$PUCSNAME
  2

  9
$PUCSORG
 10
0.0
 20
0.0
 30
0.0
  9
$PUCSXDIR
 10
1.0
 20
0.0
 30
0.0
  9
$PUCSYDIR
 10
0.0
 20
1.0
 30
0.0
  9
$USERI1
 70
     0
  9
$USERI2
 70
     0
  9
$USERI3
 70
     0
  9
$USERI4
 70
     0
  9
$USERI5
 70
     0
  9
$USERR1
 40
0.0
  9
$USERR2
 40
0.0
  9
$USERR3
 40
0.0
  9
$USERR4
 40
0.0
  9
$USERR5
 40
0.0
  9
$WORLDVIEW
 70
     1
  9
$SHADEDGE
 70
     3
  9
$SHADEDIF
 70
    70
  9
$TILEMODE
 70
     1
  9
$MAXACTVP
 70
    64
  9
$PLIMCHECK
 70
     0
  9
$PEXTMIN
 10
-14.11568541011013
 20
-46.080802926603248
 30
-0.0015258207003583
  9
$PEXTMAX
 10
306.96118237775619
 20
100.886896363612
 30
0.0000000349246037
  9
$PLIMMIN
 10
-0.1979161059762549
 20
-0.2679166643638311
  9
$PLIMMAX
 10
11.493750144177531
 20
7.9987497780266699
  9
$UNITMODE
 70
     0
  9
$VISRETAIN
 70
     1
  9
$PLINEGEN
 70
     0
  9
$PSLTSCALE
 70
     1
  0
ENDSEC
  0
SECTION
  2
TABLES
  0
TABLE
  2
VPORT
 70
     2
  0
VPORT
  2
*ACTIVE
 70
     0
 10
0.0
 20
0.0
 11
1.0
 21
1.0
 12
57.47477462699068
 22
-5.2777240390953182
 13
0.0
 23
0.0
 14
1.0
 24
1.0
 15
0.0
 25
0.0
 16
0.0
 26
0.0
 36
1.0
 17
0.0
 27
0.0
 37
0.0
 40
184.6726727218502
 41
1.928853754940711
 42
50.0
 43
0.0
 44
0.0
 50
0.0
 51
0.0
 71
     0
 72
   100
 73
     1
 74
     1
 75
     0
 76
     0
 77
     0
 78
     0
  0
ENDTAB
  0
TABLE
  2
LTYPE
 70
     1
  0
LTYPE
  2
CONTINUOUS
 70
     0
  3
Solid line
 72
    65
 73
     0
 40
0.0
  0
ENDTAB
  0
TABLE
  2
LAYER
 70
     3
  0
LAYER
  2
0
 70
     0
 62
     7
  6
CONTINUOUS
  0
LAYER
  2
DEFPOINTS
 70
     0
 62
     7
  6
CONTINUOUS
  0
LAYER
  2
COTATION-JACOBDELAFON
 70
     0
 62
     8
  6
CONTINUOUS
  0
ENDTAB
  0
TABLE
  2
STYLE
 70
     3
  0
STYLE
  2
STANDARD
 70
     0
 40
0.0
 41
1.0
 50
0.0
 71
     0
 42
0.2
  3
txt
  4

  0
STYLE
  2
ROMANS
 70
     0
 40
0.0
 41
1.0
 50
0.0
 71
     0
 42
0.25
  3
Romans.shx
  4

  0
STYLE
  2
JACOB-DELAFON
 70
     0
 40
0.0
 41
1.0
 50
0.0
 71
     0
 42
2.5
  3
txt
  4

  0
ENDTAB
  0
TABLE
  2
VIEW
 70
     0
  0
ENDTAB
  0
TABLE
  2
UCS
 70
     0
  0
ENDTAB
  0
TABLE
  2
APPID
 70
     7
  0
APPID
  2
ACAD
 70
     0
  0
APPID
  2
ACAECLAYERSTANDARD
 70
     0
  0
APPID
  2
ADCADD_ZZ
 70
     0
  0
APPID
  2
SDSK_PMN
 70
     0
  0
APPID
  2
AEC_DWGVARSSETUP_DATA
 70
     0
  0
APPID
  2
AEC_DISPREPSET_DATA
 70
     0
  0
APPID
  2
CONTENTBLOCKICON
 70
     0
  0
ENDTAB
  0
TABLE
  2
DIMSTYLE
 70
     7
  0
DIMSTYLE
  2
STANDARD
 70
     0
  3

  4

  5

  6

  7

 40
1.0
 41
0.18
 42
0.0625
 43
0.38
 44
0.18
 45
0.0
 46
0.0
 47
0.0
 48
0.0
140
0.18
141
0.09
142
0.0
143
25.399999999999999
144
1.0
145
0.0
146
1.0
147
0.09
 71
     0
 72
     0
 73
     1
 74
     1
 75
     0
 76
     0
 77
     0
 78
     0
170
     0
171
     2
172
     0
173
     0
174
     0
175
     0
176
     0
177
     0
178
     0
  0
DIMSTYLE
  2
ESCALIER_AEC
 70
     0
  3

  4

  5

  6
ORIGIN
  7

 40
1.0
 41
0.1
 42
0.0
 43
0.5
 44
0.125
 45
0.0
 46
125.0
 47
0.0
 48
0.0
140
0.2
141
0.25
142
0.0
143
25.399999999999999
144
1.0
145
0.0
146
1.0
147
0.05
 71
     0
 72
     0
 73
     0
 74
     0
 75
     0
 76
     0
 77
     1
 78
    12
170
     0
171
     2
172
     0
173
     1
174
     0
175
     0
176
     0
177
     0
178
     0
  0
DIMSTYLE
  2
COTATION_AEC_1-100
 70
     0
  3

  4

  5
ARCHTICK
  6

  7

 40
1.0
 41
0.15
 42
0.0
 43
0.5
 44
0.125
 45
0.0025
 46
0.0625
 47
0.0
 48
0.0
140
0.2
141
0.25
142
0.0
143
25.399999999999999
144
1.0
145
0.0
146
1.0
147
0.1
 71
     0
 72
     0
 73
     0
 74
     0
 75
     0
 76
     0
 77
     1
 78
    12
170
     0
171
     2
172
     1
173
     0
174
     1
175
     0
176
     0
177
     0
178
     0
  0
DIMSTYLE
  2
COTATION_AEC_1-50
 70
     0
  3

  4

  5
ARCHTICK
  6

  7

 40
1.0
 41
0.075
 42
0.0
 43
0.5
 44
0.0625
 45
0.0025
 46
0.03125
 47
0.0
 48
0.0
140
0.1
141
0.125
142
0.0
143
25.399999999999999
144
1.0
145
0.0
146
1.0
147
0.05
 71
     0
 72
     0
 73
     0
 74
     0
 75
     0
 76
     0
 77
     1
 78
    12
170
     0
171
     2
172
     1
173
     0
174
     1
175
     0
176
     0
177
     0
178
     0
  0
DIMSTYLE
  2
COTATION_AEC_1-200
 70
     0
  3

  4

  5
ARCHTICK
  6

  7

 40
1.0
 41
0.3
 42
0.0
 43
0.5
 44
0.25
 45
0.0025
 46
0.125
 47
0.0
 48
0.0
140
0.4
141
0.25
142
0.0
143
25.399999999999999
144
1.0
145
0.0
146
1.0
147
0.2
 71
     0
 72
     0
 73
     0
 74
     0
 75
     0
 76
     0
 77
     1
 78
    12
170
     0
171
     2
172
     1
173
     0
174
     1
175
     0
176
     0
177
     0
178
     0
  0
DIMSTYLE
  2
COTATION_AEC_1-500
 70
     0
  3

  4

  5
ARCHTICK
  6

  7

 40
1.0
 41
0.6
 42
0.0
 43
0.5
 44
0.5
 45
0.0025
 46
0.25
 47
0.0
 48
0.0
140
0.8
141
0.25
142
0.0
143
25.399999999999999
144
1.0
145
0.0
146
1.0
147
0.4
 71
     0
 72
     0
 73
     0
 74
     0
 75
     0
 76
     0
 77
     1
 78
    12
170
     0
171
     2
172
     1
173
     0
174
     1
175
     0
176
     0
177
     0
178
     0
  0
DIMSTYLE
  2
COTATION-JACOB-DELAFON
 70
     0
  3

  4

  5
OBLIQUE
  6

  7

 40
1.0
 41
1.8
 42
0.625
 43
3.7999999999999989
 44
1.8
 45
0.0
 46
0.0
 47
0.0
 48
0.0
140
3.0
141
0.9
142
0.0
143
25.399999999999999
144
1.0
145
0.0
146
1.0
147
0.9
 71
     0
 72
     0
 73
     0
 74
     0
 75
     0
 76
     0
 77
     1
 78
    12
170
     0
171
     2
172
     0
173
     0
174
     0
175
     0
176
     0
177
     0
178
     0
  0
ENDTAB
  0
ENDSEC
  0
SECTION
  2
BLOCKS
  0
BLOCK
  8
0
  2
$MODEL_SPACE
 70
     0
 10
0.0
 20
0.0
 30
0.0
  3
$MODEL_SPACE
  1

  0
ENDBLK
  5
9
  8
0
  0
BLOCK
 67
     1
  8
0
  2
$PAPER_SPACE
 70
     0
 10
0.0
 20
0.0
 30
0.0
  3
$PAPER_SPACE
  1

  0
ENDBLK
  5
E
 67
     1
  8
0
  0
BLOCK
  8
0
  2
_ORIGIN
 70
     0
 10
0.0
 20
0.0
 30
0.0
  3
_ORIGIN
  1

  0
CIRCLE
  5
3B
  8
0
  6
BYBLOCK
 62
     0
 10
0.0
 20
0.0
 30
0.0
 40
0.5
  0
LINE
  5
3C
  8
0
  6
BYBLOCK
 62
     0
 10
0.0
 20
0.0
 30
0.0
 11
-1.0
 21
0.0
 31
0.0
  0
ENDBLK
  5
3E
  8
0
  0
BLOCK
  8
0
  2
_ARCHTICK
 70
     0
 10
0.0
 20
0.0
 30
0.0
  3
_ARCHTICK
  1

  0
POLYLINE
  5
40
  8
0
  6
BYBLOCK
 62
     0
 66
     1
 10
0.0
 20
0.0
 30
0.0
 40
0.15
 41
0.15
  0
VERTEX
  5
32A
  8
0
  6
BYBLOCK
 62
     0
 10
-0.5
 20
-0.5
 30
0.0
  0
VERTEX
  5
32B
  8
0
  6
BYBLOCK
 62
     0
 10
0.5
 20
0.5
 30
0.0
  0
SEQEND
  5
32C
  8
0
  6
BYBLOCK
 62
     0
  0
ENDBLK
  5
42
  8
0
  0
BLOCK
  8
0
  2
_OBLIQUE
 70
     0
 10
0.0
 20
0.0
 30
0.0
  3
_OBLIQUE
  1

  0
LINE
  5
44
  8
0
  6
BYBLOCK
 62
     0
 10
-0.5
 20
-0.5
 30
0.0
 11
0.5
 21
0.5
 31
0.0
  0
ENDBLK
  5
46
  8
0
  0
BLOCK
  8
0
  2
*D3
 70
     1
 10
0.0
 20
0.0
 30
0.0
  3
*D3
  1

  0
LINE
  5
251
  8
COTATION-JACOBDELAFON
 62
     0
 10
75.325000000000045
 20
-84.999949999999885
 30
0.0
 11
97.322181239588886
 21
-84.999949999999913
 31
0.0
  0
LINE
  5
252
  8
COTATION-JACOBDELAFON
 62
     0
 10
75.325000000000045
 20
85.000050000000101
 30
0.0
 11
97.322181239588915
 21
85.000050000000087
 31
0.0
  0
LINE
  5
253
  8
COTATION-JACOBDELAFON
 62
     0
 10
95.522181239588889
 20
-84.999949999999885
 30
0.0
 11
95.522181239588917
 21
85.000050000000101
 31
0.0
  0
INSERT
  5
254
  8
COTATION-JACOBDELAFON
 62
     0
  2
_OBLIQUE
 10
95.522181239588889
 20
-84.999949999999885
 30
0.0
 41
1.8
 42
1.8
 43
1.8
 50
270.0
  0
INSERT
  5
255
  8
COTATION-JACOBDELAFON
 62
     0
  2
_OBLIQUE
 10
95.522181239588917
 20
85.000050000000101
 30
0.0
 41
1.8
 42
1.8
 43
1.8
 50
90.0
  0
TEXT
  5
256
  8
COTATION-JACOBDELAFON
  6
CONTINUOUS
 62
     0
 10
94.507583695250574
 20
-7.248244679399618
 30
0.0
 40
6.0
  1
170
 50
90.0
  7
JACOB-DELAFON
  0
POINT
  5
257
  8
DEFPOINTS
 62
     0
 10
74.700000000000045
 20
-84.999949999999885
 30
0.0
  0
POINT
  5
258
  8
DEFPOINTS
 62
     0
 10
74.700000000000045
 20
85.000050000000101
 30
0.0
  0
POINT
  5
259
  8
DEFPOINTS
 62
     0
 10
95.522181239588917
 20
85.000050000000101
 30
0.0
  0
ENDBLK
  5
89
  8
0
  0
BLOCK
  8
0
  2
*D4
 70
     1
 10
0.0
 20
0.0
 30
0.0
  3
*D4
  1

  0
LINE
  5
25A
  8
COTATION-JACOBDELAFON
 62
     0
 10
75.200000000000045
 20
-85.124950000000126
 30
0.0
 11
75.200000000000045
 21
-96.453642685883381
 31
0.0
  0
LINE
  5
25B
  8
COTATION-JACOBDELAFON
 62
     0
 10
-0.0000000000000052
 20
-85.124950000000126
 30
0.0
 11
-0.0000000000000059
 21
-96.453642685883381
 31
0.0
  0
LINE
  5
25C
  8
COTATION-JACOBDELAFON
 62
     0
 10
75.200000000000045
 20
-94.653642685883355
 30
0.0
 11
-0.0000000000000058
 21
-94.653642685883355
 31
0.0
  0
INSERT
  5
25D
  8
COTATION-JACOBDELAFON
 62
     0
  2
_OBLIQUE
 10
75.200000000000045
 20
-94.653642685883355
 30
0.0
 41
1.8
 42
1.8
 43
1.8
  0
INSERT
  5
25E
  8
COTATION-JACOBDELAFON
 62
     0
  2
_OBLIQUE
 10
-0.0000000000000058
 20
-94.653642685883355
 30
0.0
 41
1.8
 42
1.8
 43
1.8
 50
180.0
  0
TEXT
  5
25F
  8
COTATION-JACOBDELAFON
  6
CONTINUOUS
 62
     0
 10
29.465620736698519
 20
-93.639045141545026
 30
0.0
 40
6.0
  1
75.2
  7
JACOB-DELAFON
  0
POINT
  5
260
  8
DEFPOINTS
 62
     0
 10
75.200000000000045
 20
-84.499950000000126
 30
0.0
  0
POINT
  5
261
  8
DEFPOINTS
 62
     0
 10
-0.0000000000000052
 20
-84.499950000000126
 30
0.0
  0
POINT
  5
262
  8
DEFPOINTS
 62
     0
 10
-0.0000000000000058
 20
-94.653642685883355
 30
0.0
  0
ENDBLK
  5
A1
  8
0
  0
BLOCK
  8
0
  2
ADCADD_ZZ
 70
     0
 10
0.0
 20
0.0
 30
0.0
  3
ADCADD_ZZ
  1

  0
ENDBLK
  5
DE
  8
0
  0
ENDSEC
  0
SECTION
  2
ENTITIES
  0
POLYLINE
  5
24
  8
0
  6
CONTINUOUS
 66
     1
 10
0.0
 20
0.0
 30
0.0
 70
     1
  0
VERTEX
  5
27D
  8
0
  6
CONTINUOUS
 10
0.5000000000001085
 20
-84.999949999999885
 30
0.0
  0
VERTEX
  5
27E
  8
0
  6
CONTINUOUS
 10
0.1465000000000548
 20
-84.853549999999814
 30
0.0
  0
VERTEX
  5
27F
  8
0
  6
CONTINUOUS
 10
-0.0000000000000052
 20
-84.499950000000126
 30
0.0
  0
VERTEX
  5
280
  8
0
  6
CONTINUOUS
 10
0.0000000000000052
 20
84.499950000000126
 30
0.0
  0
VERTEX
  5
281
  8
0
  6
CONTINUOUS
 10
0.1465000000000652
 20
84.853550000000254
 30
0.0
  0
VERTEX
  5
282
  8
0
  6
CONTINUOUS
 10
0.500000000000119
 20
85.000050000000101
 30
0.0
  0
VERTEX
  5
283
  8
0
  6
CONTINUOUS
 10
74.700000000000045
 20
85.000050000000101
 30
0.0
  0
VERTEX
  5
284
  8
0
  6
CONTINUOUS
 10
75.053600000000074
 20
84.853550000000254
 30
0.0
  0
VERTEX
  5
285
  8
0
  6
CONTINUOUS
 10
75.200000000000045
 20
84.499950000000126
 30
0.0
  0
VERTEX
  5
286
  8
0
  6
CONTINUOUS
 10
75.200000000000045
 20
-84.499950000000126
 30
0.0
  0
VERTEX
  5
287
  8
0
  6
CONTINUOUS
 10
75.053600000000074
 20
-84.853549999999814
 30
0.0
  0
VERTEX
  5
288
  8
0
  6
CONTINUOUS
 10
74.700000000000045
 20
-84.999949999999885
 30
0.0
  0
SEQEND
  5
289
  8
0
  6
CONTINUOUS
  0
POLYLINE
  5
25
  8
0
  6
CONTINUOUS
 66
     1
 10
0.0
 20
0.0
 30
0.0
 70
     1
  0
VERTEX
  5
28A
  8
0
  6
CONTINUOUS
 10
10.249999999999989
 20
-76.999949999999899
 30
0.0
  0
VERTEX
  5
28B
  8
0
  6
CONTINUOUS
 10
9.3661000000000687
 20
-76.633849999999939
 30
0.0
  0
VERTEX
  5
28C
  8
0
  6
CONTINUOUS
 10
8.9999999999999947
 20
-75.749949999999671
 30
0.0
  0
VERTEX
  5
28D
  8
0
  6
CONTINUOUS
 10
9.0000000000000053
 20
75.749950000000126
 30
0.0
  0
VERTEX
  5
28E
  8
0
  6
CONTINUOUS
 10
9.3661000000000794
 20
76.633850000000393
 30
0.0
  0
VERTEX
  5
28F
  8
0
  6
CONTINUOUS
 10
10.25
 20
76.999950000000126
 30
0.0
  0
VERTEX
  5
290
  8
0
  6
CONTINUOUS
 10
70.950000000000045
 20
76.999950000000126
 30
0.0
  0
VERTEX
  5
291
  8
0
  6
CONTINUOUS
 10
71.833900000000085
 20
76.633850000000393
 30
0.0
  0
VERTEX
  5
292
  8
0
  6
CONTINUOUS
 10
72.199999999999932
 20
75.749950000000126
 30
0.0
  0
VERTEX
  5
293
  8
0
  6
CONTINUOUS
 10
72.199999999999932
 20
-75.749949999999671
 30
0.0
  0
VERTEX
  5
294
  8
0
  6
CONTINUOUS
 10
71.833900000000085
 20
-76.633849999999939
 30
0.0
  0
VERTEX
  5
295
  8
0
  6
CONTINUOUS
 10
70.950000000000045
 20
-76.999949999999899
 30
0.0
  0
SEQEND
  5
296
  8
0
  6
CONTINUOUS
  0
POLYLINE
  5
26
  8
0
  6
CONTINUOUS
 66
     1
 10
0.0
 20
0.0
 30
0.0
  0
VERTEX
  5
297
  8
0
  6
CONTINUOUS
 10
62.842300000000023
 20
-38.235249999999731
 30
0.0
  0
VERTEX
  5
298
  8
0
  6
CONTINUOUS
 10
62.805099999999918
 20
-41.781549999999932
 30
0.0
  0
VERTEX
  5
299
  8
0
  6
CONTINUOUS
 10
62.894800000000032
 20
-46.035849999999982
 30
0.0
  0
VERTEX
  5
29A
  8
0
  6
CONTINUOUS
 10
63.163700000000063
 20
-49.404549999999979
 30
0.0
  0
VERTEX
  5
29B
  8
0
  6
CONTINUOUS
 10
63.432700000000068
 20
-52.324549999999817
 30
0.0
  0
VERTEX
  5
29C
  8
0
  6
CONTINUOUS
 10
63.95920000000001
 20
-56.226649999999843
 30
0.0
  0
VERTEX
  5
29D
  8
0
  6
CONTINUOUS
 10
64.687700000000063
 20
-60.339349999999968
 30
0.0
  0
VERTEX
  5
29E
  8
0
  6
CONTINUOUS
 10
65.942800000000148
 20
-65.479949999999917
 30
0.0
  0
VERTEX
  5
29F
  8
0
  6
CONTINUOUS
 10
66.929000000000073
 20
-67.978849999999966
 30
0.0
  0
VERTEX
  5
2A0
  8
0
  6
CONTINUOUS
 10
68.363400000000055
 20
-70.620450000000105
 30
0.0
  0
VERTEX
  5
2A1
  8
0
  6
CONTINUOUS
 10
70.405600000000049
 20
-73.476349999999911
 30
0.0
  0
VERTEX
  5
2A2
  8
0
  6
CONTINUOUS
 10
72.199999999999932
 20
-75.749949999999671
 30
0.0
  0
SEQEND
  5
2A3
  8
0
  6
CONTINUOUS
  0
POLYLINE
  5
27
  8
0
  6
CONTINUOUS
 66
     1
 10
0.0
 20
0.0
 30
0.0
  0
VERTEX
  5
2A4
  8
0
  6
CONTINUOUS
 10
70.950000000000045
 20
-76.999949999999899
 30
0.0
  0
VERTEX
  5
2A5
  8
0
  6
CONTINUOUS
 10
69.155599999999936
 20
-74.726349999999911
 30
0.0
  0
VERTEX
  5
2A6
  8
0
  6
CONTINUOUS
 10
67.113399999999956
 20
-71.870450000000105
 30
0.0
  0
VERTEX
  5
2A7
  8
0
  6
CONTINUOUS
 10
65.679000000000073
 20
-69.228849999999738
 30
0.0
  0
VERTEX
  5
2A8
  8
0
  6
CONTINUOUS
 10
64.692800000000148
 20
-66.729949999999917
 30
0.0
  0
VERTEX
  5
2A9
  8
0
  6
CONTINUOUS
 10
63.437699999999943
 20
-61.58934999999974
 30
0.0
  0
VERTEX
  5
2AA
  8
0
  6
CONTINUOUS
 10
62.709200000000124
 20
-57.476649999999843
 30
0.0
  0
VERTEX
  5
2AB
  8
0
  6
CONTINUOUS
 10
62.182599999999979
 20
-53.735249999999731
 30
0.0
  0
VERTEX
  5
2AC
  8
0
  6
CONTINUOUS
 10
61.913600000000088
 20
-50.81514999999991
 30
0.0
  0
VERTEX
  5
2AD
  8
0
  6
CONTINUOUS
 10
61.644600000000082
 20
-47.446449999999693
 30
0.0
  0
VERTEX
  5
2AE
  8
0
  6
CONTINUOUS
 10
61.555000000000071
 20
-43.192249999999838
 30
0.0
  0
VERTEX
  5
2AF
  8
0
  6
CONTINUOUS
 10
61.65890000000001
 20
-38.354749999999967
 30
0.0
  0
SEQEND
  5
2B0
  8
0
  6
CONTINUOUS
  0
POLYLINE
  5
28
  8
0
  6
CONTINUOUS
 66
     1
 10
0.0
 20
0.0
 30
0.0
  0
VERTEX
  5
2B1
  8
0
  6
CONTINUOUS
 10
10.249999999999989
 20
-76.999949999999899
 30
0.0
  0
VERTEX
  5
2B2
  8
0
  6
CONTINUOUS
 10
12.04449999999996
 20
-74.726349999999911
 30
0.0
  0
VERTEX
  5
2B3
  8
0
  6
CONTINUOUS
 10
14.08659999999997
 20
-71.870450000000105
 30
0.0
  0
VERTEX
  5
2B4
  8
0
  6
CONTINUOUS
 10
15.520999999999949
 20
-69.228849999999738
 30
0.0
  0
VERTEX
  5
2B5
  8
0
  6
CONTINUOUS
 10
16.507200000000001
 20
-66.729949999999917
 30
0.0
  0
VERTEX
  5
2B6
  8
0
  6
CONTINUOUS
 10
17.762300000000089
 20
-61.58934999999974
 30
0.0
  0
VERTEX
  5
2B7
  8
0
  6
CONTINUOUS
 10
18.490800000000029
 20
-57.476649999999829
 30
0.0
  0
VERTEX
  5
2B8
  8
0
  6
CONTINUOUS
 10
19.012900000000052
 20
-53.735249999999724
 30
0.0
  0
VERTEX
  5
2B9
  8
0
  6
CONTINUOUS
 10
19.281799999999969
 20
-50.815149999999903
 30
0.0
  0
VERTEX
  5
2BA
  8
0
  6
CONTINUOUS
 10
19.55079999999997
 20
-47.446449999999693
 30
0.0
  0
VERTEX
  5
2BB
  8
0
  6
CONTINUOUS
 10
19.640499999999971
 20
-43.192249999999831
 30
0.0
  0
VERTEX
  5
2BC
  8
0
  6
CONTINUOUS
 10
19.536600000000011
 20
-38.354749999999967
 30
0.0
  0
VERTEX
  5
2BD
  8
0
  6
CONTINUOUS
 10
19.536600000000021
 20
38.354750000000188
 30
0.0
  0
VERTEX
  5
2BE
  8
0
  6
CONTINUOUS
 10
19.640499999999971
 20
43.192250000000051
 30
0.0
  0
VERTEX
  5
2BF
  8
0
  6
CONTINUOUS
 10
19.550799999999981
 20
47.446450000000141
 30
0.0
  0
VERTEX
  5
2C0
  8
0
  6
CONTINUOUS
 10
19.281799999999969
 20
50.815150000000351
 30
0.0
  0
VERTEX
  5
2C1
  8
0
  6
CONTINUOUS
 10
19.012900000000059
 20
53.735250000000178
 30
0.0
  0
VERTEX
  5
2C2
  8
0
  6
CONTINUOUS
 10
18.490800000000039
 20
57.476750000000493
 30
0.0
  0
VERTEX
  5
2C3
  8
0
  6
CONTINUOUS
 10
17.762300000000089
 20
61.589350000000202
 30
0.0
  0
VERTEX
  5
2C4
  8
0
  6
CONTINUOUS
 10
16.507200000000012
 20
66.729950000000372
 30
0.0
  0
VERTEX
  5
2C5
  8
0
  6
CONTINUOUS
 10
15.52099999999996
 20
69.228850000000193
 30
0.0
  0
VERTEX
  5
2C6
  8
0
  6
CONTINUOUS
 10
14.086599999999979
 20
71.870450000000574
 30
0.0
  0
VERTEX
  5
2C7
  8
0
  6
CONTINUOUS
 10
12.044499999999969
 20
74.726350000000366
 30
0.0
  0
VERTEX
  5
2C8
  8
0
  6
CONTINUOUS
 10
10.25
 20
76.999950000000126
 30
0.0
  0
SEQEND
  5
2C9
  8
0
  6
CONTINUOUS
  0
POLYLINE
  5
29
  8
0
  6
CONTINUOUS
 66
     1
 10
0.0
 20
0.0
 30
0.0
  0
VERTEX
  5
2CA
  8
0
  6
CONTINUOUS
 10
9.0000000000000053
 20
75.749950000000126
 30
0.0
  0
VERTEX
  5
2CB
  8
0
  6
CONTINUOUS
 10
10.794499999999969
 20
73.476350000000366
 30
0.0
  0
VERTEX
  5
2CC
  8
0
  6
CONTINUOUS
 10
12.836600000000089
 20
70.620450000000346
 30
0.0
  0
VERTEX
  5
2CD
  8
0
  6
CONTINUOUS
 10
14.27099999999996
 20
67.978850000000421
 30
0.0
  0
VERTEX
  5
2CE
  8
0
  6
CONTINUOUS
 10
15.2571999999999
 20
65.479950000000144
 30
0.0
  0
VERTEX
  5
2CF
  8
0
  6
CONTINUOUS
 10
16.512299999999978
 20
60.339350000000422
 30
0.0
  0
VERTEX
  5
2D0
  8
0
  6
CONTINUOUS
 10
17.240800000000149
 20
56.226650000000291
 30
0.0
  0
VERTEX
  5
2D1
  8
0
  6
CONTINUOUS
 10
17.762699999999999
 20
52.324550000000272
 30
0.0
  0
VERTEX
  5
2D2
  8
0
  6
CONTINUOUS
 10
18.031700000000001
 20
49.40455000000042
 30
0.0
  0
VERTEX
  5
2D3
  8
0
  6
CONTINUOUS
 10
18.300699999999999
 20
46.035850000000437
 30
0.0
  0
VERTEX
  5
2D4
  8
0
  6
CONTINUOUS
 10
18.390299999999911
 20
41.781550000000152
 30
0.0
  0
VERTEX
  5
2D5
  8
0
  6
CONTINUOUS
 10
18.353200000000019
 20
38.235250000000171
 30
0.0
  0
VERTEX
  5
2D6
  8
0
  6
CONTINUOUS
 10
18.353200000000012
 20
-38.235249999999724
 30
0.0
  0
VERTEX
  5
2D7
  8
0
  6
CONTINUOUS
 10
18.3902999999999
 20
-41.781549999999918
 30
0.0
  0
VERTEX
  5
2D8
  8
0
  6
CONTINUOUS
 10
18.300699999999999
 20
-46.035849999999982
 30
0.0
  0
VERTEX
  5
2D9
  8
0
  6
CONTINUOUS
 10
18.03169999999999
 20
-49.404549999999972
 30
0.0
  0
VERTEX
  5
2DA
  8
0
  6
CONTINUOUS
 10
17.762699999999992
 20
-52.324549999999817
 30
0.0
  0
VERTEX
  5
2DB
  8
0
  6
CONTINUOUS
 10
16.512299999999978
 20
-60.339349999999961
 30
0.0
  0
VERTEX
  5
2DC
  8
0
  6
CONTINUOUS
 10
15.257199999999891
 20
-65.479949999999917
 30
0.0
  0
VERTEX
  5
2DD
  8
0
  6
CONTINUOUS
 10
14.270999999999949
 20
-67.978849999999966
 30
0.0
  0
VERTEX
  5
2DE
  8
0
  6
CONTINUOUS
 10
12.836600000000081
 20
-70.620450000000105
 30
0.0
  0
VERTEX
  5
2DF
  8
0
  6
CONTINUOUS
 10
10.79449999999996
 20
-73.476349999999911
 30
0.0
  0
VERTEX
  5
2E0
  8
0
  6
CONTINUOUS
 10
8.9999999999999947
 20
-75.749949999999671
 30
0.0
  0
SEQEND
  5
2E1
  8
0
  6
CONTINUOUS
  0
LINE
  5
2A
  8
0
  6
CONTINUOUS
 10
19.536600000000082
 20
38.354750000000159
 30
0.0
 11
61.658900000000109
 21
38.354750000000159
 31
0.0
  0
LINE
  5
2B
  8
0
  6
CONTINUOUS
 10
19.536600000000071
 20
-38.354749999999932
 30
0.0
 11
61.658900000000109
 21
-38.354749999999939
 31
0.0
  0
POLYLINE
  5
2C
  8
0
  6
CONTINUOUS
 66
     1
 10
0.0
 20
0.0
 30
0.0
  0
VERTEX
  5
2E2
  8
0
  6
CONTINUOUS
 10
61.65890000000001
 20
-38.354749999999967
 30
0.0
  0
VERTEX
  5
2E3
  8
0
  6
CONTINUOUS
 10
61.65890000000001
 20
38.35475000000018
 30
0.0
  0
SEQEND
  5
2E4
  8
0
  6
CONTINUOUS
  0
POLYLINE
  5
2D
  8
0
  6
CONTINUOUS
 66
     1
 10
0.0
 20
0.0
 30
0.0
  0
VERTEX
  5
2E5
  8
0
  6
CONTINUOUS
 10
72.199999999999932
 20
75.749950000000126
 30
0.0
  0
VERTEX
  5
2E6
  8
0
  6
CONTINUOUS
 10
70.405600000000049
 20
73.476350000000366
 30
0.0
  0
VERTEX
  5
2E7
  8
0
  6
CONTINUOUS
 10
68.363400000000055
 20
70.620450000000346
 30
0.0
  0
VERTEX
  5
2E8
  8
0
  6
CONTINUOUS
 10
66.929000000000073
 20
67.978850000000421
 30
0.0
  0
VERTEX
  5
2E9
  8
0
  6
CONTINUOUS
 10
65.942800000000148
 20
65.479950000000144
 30
0.0
  0
VERTEX
  5
2EA
  8
0
  6
CONTINUOUS
 10
64.687700000000063
 20
60.339350000000422
 30
0.0
  0
VERTEX
  5
2EB
  8
0
  6
CONTINUOUS
 10
63.95920000000001
 20
56.226650000000276
 30
0.0
  0
VERTEX
  5
2EC
  8
0
  6
CONTINUOUS
 10
63.432700000000068
 20
52.324550000000258
 30
0.0
  0
VERTEX
  5
2ED
  8
0
  6
CONTINUOUS
 10
63.163700000000063
 20
49.40455000000042
 30
0.0
  0
VERTEX
  5
2EE
  8
0
  6
CONTINUOUS
 10
62.894800000000032
 20
46.03585000000043
 30
0.0
  0
VERTEX
  5
2EF
  8
0
  6
CONTINUOUS
 10
62.805099999999918
 20
41.781550000000138
 30
0.0
  0
VERTEX
  5
2F0
  8
0
  6
CONTINUOUS
 10
62.842300000000023
 20
38.235250000000171
 30
0.0
  0
VERTEX
  5
2F1
  8
0
  6
CONTINUOUS
 10
62.842300000000023
 20
-38.235249999999731
 30
0.0
  0
SEQEND
  5
2F2
  8
0
  6
CONTINUOUS
  0
POLYLINE
  5
2E
  8
0
  6
CONTINUOUS
 66
     1
 10
0.0
 20
0.0
 30
0.0
  0
VERTEX
  5
2F3
  8
0
  6
CONTINUOUS
 10
61.65890000000001
 20
38.35475000000018
 30
0.0
  0
VERTEX
  5
2F4
  8
0
  6
CONTINUOUS
 10
61.555000000000071
 20
43.192250000000051
 30
0.0
  0
VERTEX
  5
2F5
  8
0
  6
CONTINUOUS
 10
61.644600000000082
 20
47.446450000000127
 30
0.0
  0
VERTEX
  5
2F6
  8
0
  6
CONTINUOUS
 10
61.913600000000088
 20
50.815150000000351
 30
0.0
  0
VERTEX
  5
2F7
  8
0
  6
CONTINUOUS
 10
62.182599999999979
 20
53.735250000000171
 30
0.0
  0
VERTEX
  5
2F8
  8
0
  6
CONTINUOUS
 10
62.709200000000124
 20
57.476750000000479
 30
0.0
  0
VERTEX
  5
2F9
  8
0
  6
CONTINUOUS
 10
63.43769999999995
 20
61.589350000000188
 30
0.0
  0
VERTEX
  5
2FA
  8
0
  6
CONTINUOUS
 10
64.692800000000148
 20
66.729950000000372
 30
0.0
  0
VERTEX
  5
2FB
  8
0
  6
CONTINUOUS
 10
65.679000000000073
 20
69.228850000000193
 30
0.0
  0
VERTEX
  5
2FC
  8
0
  6
CONTINUOUS
 10
67.113399999999956
 20
71.870450000000574
 30
0.0
  0
VERTEX
  5
2FD
  8
0
  6
CONTINUOUS
 10
69.155599999999936
 20
74.726350000000366
 30
0.0
  0
VERTEX
  5
2FE
  8
0
  6
CONTINUOUS
 10
70.950000000000045
 20
76.999950000000126
 30
0.0
  0
SEQEND
  5
2FF
  8
0
  6
CONTINUOUS
  0
CIRCLE
  5
2F
  8
0
  6
CONTINUOUS
 10
37.060294983316169
 20
-0.0345362484083034
 30
0.0
 40
1.9968050167312139
  0
CIRCLE
  5
30
  8
0
  6
CONTINUOUS
 10
37.060318295675991
 20
-0.0345215434239799
 30
0.0
 40
4.0026817044252949
  0
POLYLINE
  5
31
  8
0
  6
CONTINUOUS
 66
     1
 10
0.0
 20
0.0
 30
0.0
 70
     1
  0
VERTEX
  5
300
  8
0
  6
CONTINUOUS
 10
16.20659999999998
 20
-3.5639499999999771
 30
0.0
  0
VERTEX
  5
301
  8
0
  6
CONTINUOUS
 10
14.83299999999997
 20
-3.5401499999998132
 30
0.0
  0
VERTEX
  5
302
  8
0
  6
CONTINUOUS
 10
14.5824
 20
-3.27314999999976
 30
0.0
  0
VERTEX
  5
303
  8
0
  6
CONTINUOUS
 10
14.369999999999999
 20
-2.512849999999617
 30
0.0
  0
VERTEX
  5
304
  8
0
  6
CONTINUOUS
 10
14.22809999999992
 20
-1.375049999999874
 30
0.0
  0
VERTEX
  5
305
  8
0
  6
CONTINUOUS
 10
14.178200000000061
 20
-0.0328499999995992
 30
0.0
  0
VERTEX
  5
306
  8
0
  6
CONTINUOUS
 10
14.22809999999992
 20
1.3093500000002209
 30
0.0
  0
VERTEX
  5
307
  8
0
  6
CONTINUOUS
 10
14.369999999999999
 20
2.447250000000166
 30
0.0
  0
VERTEX
  5
308
  8
0
  6
CONTINUOUS
 10
14.5824
 20
3.207550000000309
 30
0.0
  0
VERTEX
  5
309
  8
0
  6
CONTINUOUS
 10
14.83289999999999
 20
3.4745500000001339
 30
0.0
  0
VERTEX
  5
30A
  8
0
  6
CONTINUOUS
 10
16.20659999999998
 20
3.4983500000002992
 30
0.0
  0
VERTEX
  5
30B
  8
0
  6
CONTINUOUS
 10
15.954400000000071
 20
3.2295500000002431
 30
0.0
  0
VERTEX
  5
30C
  8
0
  6
CONTINUOUS
 10
15.740500000000109
 20
2.464050000000269
 30
0.0
  0
VERTEX
  5
30D
  8
0
  6
CONTINUOUS
 10
15.59760000000005
 20
1.3185499999999579
 30
0.0
  0
VERTEX
  5
30E
  8
0
  6
CONTINUOUS
 10
15.54750000000001
 20
-0.0328499999995993
 30
0.0
  0
VERTEX
  5
30F
  8
0
  6
CONTINUOUS
 10
15.59760000000005
 20
-1.3841499999998641
 30
0.0
  0
VERTEX
  5
310
  8
0
  6
CONTINUOUS
 10
15.740500000000109
 20
-2.52964999999972
 30
0.0
  0
VERTEX
  5
311
  8
0
  6
CONTINUOUS
 10
15.954400000000071
 20
-3.295149999999694
 30
0.0
  0
SEQEND
  5
312
  8
0
  6
CONTINUOUS
  0
POLYLINE
  5
32
  8
0
  6
CONTINUOUS
 66
     1
 10
0.0
 20
0.0
 30
0.0
  0
VERTEX
  5
313
  8
0
  6
CONTINUOUS
 10
16.458900000000082
 20
-3.295149999999694
 30
0.0
  0
VERTEX
  5
314
  8
0
  6
CONTINUOUS
 10
16.67269999999996
 20
-2.52964999999972
 30
0.0
  0
VERTEX
  5
315
  8
0
  6
CONTINUOUS
 10
16.815600000000011
 20
-1.3841499999998641
 30
0.0
  0
VERTEX
  5
316
  8
0
  6
CONTINUOUS
 10
16.865800000000029
 20
-0.0327499999998519
 30
0.0
  0
VERTEX
  5
317
  8
0
  6
CONTINUOUS
 10
16.815600000000011
 20
1.3185499999999579
 30
0.0
  0
VERTEX
  5
318
  8
0
  6
CONTINUOUS
 10
16.67269999999996
 20
2.4641500000002439
 30
0.0
  0
VERTEX
  5
319
  8
0
  6
CONTINUOUS
 10
16.458799999999989
 20
3.2295500000002431
 30
0.0
  0
VERTEX
  5
31A
  8
0
  6
CONTINUOUS
 10
16.20659999999998
 20
3.4983500000002992
 30
0.0
  0
SEQEND
  5
31B
  8
0
  6
CONTINUOUS
  0
POLYLINE
  5
33
  8
0
  6
CONTINUOUS
 66
     1
 10
0.0
 20
0.0
 30
0.0
  0
VERTEX
  5
31C
  8
0
  6
CONTINUOUS
 10
16.20659999999998
 20
-3.5639499999999771
 30
0.0
  0
VERTEX
  5
31D
  8
0
  6
CONTINUOUS
 10
16.458900000000082
 20
-3.295149999999694
 30
0.0
  0
VERTEX
  5
31E
  8
0
  6
CONTINUOUS
 10
16.259800000000041
 20
-3.04004999999961
 30
0.0
  0
VERTEX
  5
31F
  8
0
  6
CONTINUOUS
 10
16.06270000000006
 20
-2.3343499999996311
 30
0.0
  0
VERTEX
  5
320
  8
0
  6
CONTINUOUS
 10
15.93100000000004
 20
-1.278449999999794
 30
0.0
  0
VERTEX
  5
321
  8
0
  6
CONTINUOUS
 10
15.884800000000039
 20
-0.0327499999998518
 30
0.0
  0
VERTEX
  5
322
  8
0
  6
CONTINUOUS
 10
15.93100000000004
 20
1.212850000000115
 30
0.0
  0
VERTEX
  5
323
  8
0
  6
CONTINUOUS
 10
16.06270000000006
 20
2.268850000000155
 30
0.0
  0
VERTEX
  5
324
  8
0
  6
CONTINUOUS
 10
16.259800000000041
 20
2.974450000000159
 30
0.0
  0
VERTEX
  5
325
  8
0
  6
CONTINUOUS
 10
16.458799999999989
 20
3.2295500000002431
 30
0.0
  0
VERTEX
  5
326
  8
0
  6
CONTINUOUS
 10
16.20659999999998
 20
3.4983500000002992
 30
0.0
  0
SEQEND
  5
327
  8
0
  6
CONTINUOUS
  0
DIMENSION
  5
7C
  8
COTATION-JACOBDELAFON
  2
*D3
 10
95.522181239588917
 20
85.000050000000101
 30
0.0
 11
91.558743313258745
 21
0.00005000000011
 31
0.0
 70
     0
 13
74.700000000000045
 23
-84.999949999999885
 33
0.0
 14
74.700000000000045
 24
85.000050000000101
 34
0.0
 50
90.0
1001
ACAD
1000
DSTYLE
1002
{
1070
   140
1040
6.0
1002
}
  0
DIMENSION
  5
93
  8
COTATION-JACOBDELAFON
  2
*D4
 10
-0.0000000000000058
 20
-94.653642685883355
 30
0.0
 11
37.600000000000023
 21
-90.690204759553225
 31
0.0
 70
     0
 13
75.200000000000045
 23
-84.499950000000126
 33
0.0
 14
-0.0000000000000052
 24
-84.499950000000126
 34
0.0
 50
180.0
1001
ACAD
1000
DSTYLE
1002
{
1070
   140
1040
6.0
1002
}
  0
INSERT
  5
DF
 67
     1
  8
COTATION-JACOBDELAFON
  6
CONTINUOUS
  2
ADCADD_ZZ
 10
0.0
 20
0.0
 30
0.0
1001
ADCADD_ZZ
1070
   205
1070
    14
1070
   209
1070
     1
1070
   231
1070
     0
1070
   235
1070
     0
1070
   236
1070
     4
1070
   237
1070
     2
1070
   238
1070
     4
1070
   239
1070
     2
1070
   240
1070
     0
1070
   241
1070
  4096
1070
   242
1070
     2
1070
   244
1070
     0
1070
   245
1070
     1
1070
   303
1040
0.1
1070
   304
1040
4.0
1070
   305
1040
96.0
1070
   306
1040
0.125
1070
   337
1040
0.0
1070
   338
1040
0.3048
1070
   339
1040
0.0625
1070
   340
1040
96.0
1070
   341
1040
4.0
1070
   342
1040
96.0
1070
   530
1010
0.0
1020
0.0
1030
0.0
1070
   531
1010
0.0
1020
0.0
1030
0.0
1070
   107
1000

1070
   108
1000
Architectural Desktop
1070
   135
1000
L120
1070
   136
1000
'
1070
   137
1000
m
1001
SDSK_PMN
1070
   100
1000
ACADARCH
1070
   300
1040
2453076.6137941889
  0
ENDSEC
  0
EOF
