  0
SECTION
  2
HEADER
  9
$ACADVER
  1
AC1009
  9
$INSBASE
 10
0.0
 20
0.0
 30
0.0
  9
$EXTMIN
 10
-25.975036508323331
 20
-18.208906112921149
 30
0.0
  9
$EXTMAX
 10
140.27321285559259
 20
139.7566058018777
 30
0.0
  9
$LIMMIN
 10
0.0
 20
0.0
  9
$LIMMAX
 10
12.0
 20
9.0
  9
$ORTHOMODE
 70
     1
  9
$REGENMODE
 70
     1
  9
$FILLMODE
 70
     1
  9
$QTEXTMODE
 70
     0
  9
$MIRRTEXT
 70
     1
  9
$DRAGMODE
 70
     2
  9
$LTSCALE
 40
1.0
  9
$OSMODE
 70
     1
  9
$ATTMODE
 70
     1
  9
$TEXTSIZE
 40
0.2
  9
$TRACEWID
 40
0.05
  9
$TEXTSTYLE
  7
STANDARD
  9
$CLAYER
  8
0
  9
$CELTYPE
  6
CONTINUOUS
  9
$CECOLOR
 62
   256
  9
$DIMSCALE
 40
96.0
  9
$DIMASZ
 40
0.18
  9
$DIMEXO
 40
0.0625
  9
$DIMDLI
 40
0.38
  9
$DIMRND
 40
0.0
  9
$DIMDLE
 40
0.0
  9
$DIMEXE
 40
0.18
  9
$DIMTP
 40
0.0
  9
$DIMTM
 40
0.0
  9
$DIMTXT
 40
0.18
  9
$DIMCEN
 40
0.09
  9
$DIMTSZ
 40
0.0
  9
$DIMTOL
 70
     0
  9
$DIMLIM
 70
     0
  9
$DIMTIH
 70
     1
  9
$DIMTOH
 70
     1
  9
$DIMSE1
 70
     0
  9
$DIMSE2
 70
     0
  9
$DIMTAD
 70
     0
  9
$DIMZIN
 70
     0
  9
$DIMBLK
  1

  9
$DIMASO
 70
     1
  9
$DIMSHO
 70
     1
  9
$DIMPOST
  1

  9
$DIMAPOST
  1

  9
$DIMALT
 70
     0
  9
$DIMALTD
 70
     2
  9
$DIMALTF
 40
25.399999999999999
  9
$DIMLFAC
 40
1.0
  9
$DIMTOFL
 70
     0
  9
$DIMTVP
 40
0.0
  9
$DIMTIX
 70
     0
  9
$DIMSOXD
 70
     0
  9
$DIMSAH
 70
     0
  9
$DIMBLK1
  1

  9
$DIMBLK2
  1

  9
$DIMSTYLE
  2
STANDARD
  9
$DIMCLRD
 70
     0
  9
$DIMCLRE
 70
     0
  9
$DIMCLRT
 70
     0
  9
$DIMTFAC
 40
1.0
  9
$DIMGAP
 40
0.09
  9
$LUNITS
 70
     2
  9
$LUPREC
 70
     4
  9
$SKETCHINC
 40
0.1
  9
$FILLETRAD
 40
0.0
  9
$AUNITS
 70
     0
  9
$AUPREC
 70
     2
  9
$MENU
  1
.
  9
$ELEVATION
 40
0.0
  9
$PELEVATION
 40
0.0
  9
$THICKNESS
 40
0.0
  9
$LIMCHECK
 70
     0
  9
$BLIPMODE
 70
     0
  9
$CHAMFERA
 40
0.0
  9
$CHAMFERB
 40
0.0
  9
$SKPOLY
 70
     0
  9
$TDCREATE
 40
2453039.6816144562
  9
$TDUPDATE
 40
2453076.6354892361
  9
$TDINDWG
 40
0.0832718403
  9
$TDUSRTIMER
 40
0.0832718403
  9
$USRTIMER
 70
     1
  9
$ANGBASE
 50
0.0
  9
$ANGDIR
 70
     0
  9
$PDMODE
 70
     0
  9
$PDSIZE
 40
0.0
  9
$PLINEWID
 40
0.0
  9
$COORDS
 70
     1
  9
$SPLFRAME
 70
     0
  9
$SPLINETYPE
 70
     6
  9
$SPLINESEGS
 70
     8
  9
$ATTDIA
 70
     1
  9
$ATTREQ
 70
     1
  9
$HANDLING
 70
 22529
  9
$HANDSEED
  5
3BE
  9
$SURFTAB1
 70
     6
  9
$SURFTAB2
 70
     6
  9
$SURFTYPE
 70
     6
  9
$SURFU
 70
     6
  9
$SURFV
 70
     6
  9
$UCSNAME
  2

  9
$UCSORG
 10
0.0
 20
0.0
 30
0.0
  9
$UCSXDIR
 10
1.0
 20
0.0
 30
0.0
  9
$UCSYDIR
 10
0.0
 20
1.0
 30
0.0
  9
$PUCSNAME
  2

  9
$PUCSORG
 10
0.0
 20
0.0
 30
0.0
  9
$PUCSXDIR
 10
1.0
 20
0.0
 30
0.0
  9
$PUCSYDIR
 10
0.0
 20
1.0
 30
0.0
  9
$USERI1
 70
     0
  9
$USERI2
 70
     0
  9
$USERI3
 70
     0
  9
$USERI4
 70
     0
  9
$USERI5
 70
     0
  9
$USERR1
 40
0.0
  9
$USERR2
 40
0.0
  9
$USERR3
 40
0.0
  9
$USERR4
 40
0.0
  9
$USERR5
 40
0.0
  9
$WORLDVIEW
 70
     1
  9
$SHADEDGE
 70
     3
  9
$SHADEDIF
 70
    70
  9
$TILEMODE
 70
     1
  9
$MAXACTVP
 70
    64
  9
$PLIMCHECK
 70
     0
  9
$PEXTMIN
 10
-0.8931824149261728
 20
-0.6972739900902809
 30
0.0
  9
$PEXTMAX
 10
989.45022067638558
 20
397.70185423348221
 30
0.0
  9
$PLIMMIN
 10
-0.1979161059762549
 20
-0.2679166643638311
  9
$PLIMMAX
 10
11.493750144177531
 20
7.9987497780266699
  9
$UNITMODE
 70
     0
  9
$VISRETAIN
 70
     1
  9
$PLINEGEN
 70
     0
  9
$PSLTSCALE
 70
     1
  0
ENDSEC
  0
SECTION
  2
TABLES
  0
TABLE
  2
VPORT
 70
     2
  0
VPORT
  2
*ACTIVE
 70
     0
 10
0.0
 20
0.0
 11
1.0
 21
1.0
 12
65.165602016561635
 22
60.776722910167599
 13
0.0
 23
0.0
 14
1.0
 24
1.0
 15
0.0
 25
0.0
 16
0.0
 26
0.0
 36
1.0
 17
0.0
 27
0.0
 37
0.0
 40
159.9503614322484
 41
1.928853754940711
 42
50.0
 43
0.0
 44
0.0
 50
0.0
 51
0.0
 71
     0
 72
   100
 73
     1
 74
     1
 75
     0
 76
     0
 77
     0
 78
     0
  0
ENDTAB
  0
TABLE
  2
LTYPE
 70
     1
  0
LTYPE
  2
CONTINUOUS
 70
     0
  3
Solid line
 72
    65
 73
     0
 40
0.0
  0
ENDTAB
  0
TABLE
  2
LAYER
 70
     3
  0
LAYER
  2
0
 70
     0
 62
     7
  6
CONTINUOUS
  0
LAYER
  2
DEFPOINTS
 70
     0
 62
     7
  6
CONTINUOUS
  0
LAYER
  2
COTATION-JACOBDELAFON
 70
     0
 62
     8
  6
CONTINUOUS
  0
ENDTAB
  0
TABLE
  2
STYLE
 70
     2
  0
STYLE
  2
STANDARD
 70
     0
 40
0.0
 41
1.0
 50
0.0
 71
     0
 42
0.2
  3
txt
  4

  0
STYLE
  2
JACOB-DELAFON
 70
     0
 40
0.0
 41
1.0
 50
0.0
 71
     0
 42
2.5
  3
txt
  4

  0
ENDTAB
  0
TABLE
  2
VIEW
 70
     0
  0
ENDTAB
  0
TABLE
  2
UCS
 70
     0
  0
ENDTAB
  0
TABLE
  2
APPID
 70
     6
  0
APPID
  2
ACAD
 70
     0
  0
APPID
  2
ACAECLAYERSTANDARD
 70
     0
  0
APPID
  2
ADCADD_ZZ
 70
     0
  0
APPID
  2
SDSK_PMN
 70
     0
  0
APPID
  2
AEC_DWGVARSSETUP_DATA
 70
     0
  0
APPID
  2
AEC_DISPREPSET_DATA
 70
     0
  0
ENDTAB
  0
TABLE
  2
DIMSTYLE
 70
     2
  0
DIMSTYLE
  2
STANDARD
 70
     0
  3

  4

  5

  6

  7

 40
1.0
 41
0.18
 42
0.0625
 43
0.38
 44
0.18
 45
0.0
 46
0.0
 47
0.0
 48
0.0
140
0.18
141
0.09
142
0.0
143
25.399999999999999
144
1.0
145
0.0
146
1.0
147
0.09
 71
     0
 72
     0
 73
     1
 74
     1
 75
     0
 76
     0
 77
     0
 78
     0
170
     0
171
     2
172
     0
173
     0
174
     0
175
     0
176
     0
177
     0
178
     0
  0
DIMSTYLE
  2
COTATION-JACOB-DELAFON
 70
     0
  3

  4

  5
OBLIQUE
  6

  7

 40
1.0
 41
1.8
 42
0.625
 43
3.7999999999999989
 44
1.8
 45
0.0
 46
0.0
 47
0.0
 48
0.0
140
3.0
141
0.9
142
0.0
143
25.399999999999999
144
1.0
145
0.0
146
1.0
147
0.9
 71
     0
 72
     0
 73
     0
 74
     0
 75
     0
 76
     0
 77
     1
 78
    12
170
     0
171
     2
172
     0
173
     0
174
     0
175
     0
176
     0
177
     0
178
     0
  0
ENDTAB
  0
ENDSEC
  0
SECTION
  2
BLOCKS
  0
BLOCK
  8
0
  2
$MODEL_SPACE
 70
     0
 10
0.0
 20
0.0
 30
0.0
  3
$MODEL_SPACE
  1

  0
ENDBLK
  5
9
  8
0
  0
BLOCK
 67
     1
  8
0
  2
$PAPER_SPACE
 70
     0
 10
0.0
 20
0.0
 30
0.0
  3
$PAPER_SPACE
  1

  0
ENDBLK
  5
E
 67
     1
  8
0
  0
BLOCK
  8
0
  2
_OBLIQUE
 70
     0
 10
0.0
 20
0.0
 30
0.0
  3
_OBLIQUE
  1

  0
LINE
  5
35
  8
0
  6
BYBLOCK
 62
     0
 10
-0.5
 20
-0.5
 30
0.0
 11
0.5
 21
0.5
 31
0.0
  0
ENDBLK
  5
37
  8
0
  0
BLOCK
  8
0
  2
*D1
 70
     1
 10
0.0
 20
0.0
 30
0.0
  3
*D1
  1

  0
LINE
  5
125
  8
COTATION-JACOBDELAFON
 62
     0
 10
134.817138092302
 20
-1.321458684169627
 30
0.0
 11
134.817138092302
 21
-18.208906112921149
 31
0.0
  0
LINE
  5
126
  8
COTATION-JACOBDELAFON
 62
     0
 10
-0.1828635703918735
 20
-0.713007632466926
 30
0.0
 11
-0.1828635703918746
 21
-18.208906112921149
 31
0.0
  0
LINE
  5
127
  8
COTATION-JACOBDELAFON
 62
     0
 10
134.817138092302
 20
-16.408906112921152
 30
0.0
 11
-0.1828635703918745
 21
-16.408906112921152
 31
0.0
  0
INSERT
  5
128
  8
COTATION-JACOBDELAFON
 62
     0
  2
_OBLIQUE
 10
134.817138092302
 20
-16.408906112921152
 30
0.0
 41
1.8
 42
1.8
 43
1.8
  0
INSERT
  5
129
  8
COTATION-JACOBDELAFON
 62
     0
  2
_OBLIQUE
 10
-0.1828635703918745
 20
-16.408906112921152
 30
0.0
 41
1.8
 42
1.8
 43
1.8
 50
180.0
  0
TEXT
  5
12A
  8
0
  6
CONTINUOUS
 62
     0
 10
60.03610042603011
 20
-15.39021579914216
 30
0.0
 40
6.0
  1
135
  7
JACOB-DELAFON
  0
POINT
  5
12B
  8
DEFPOINTS
 62
     0
 10
134.817138092302
 20
-0.6964586841696273
 30
0.0
  0
POINT
  5
12C
  8
DEFPOINTS
 62
     0
 10
-0.1828635703918735
 20
-0.0880076324669259
 30
0.0
  0
POINT
  5
12D
  8
DEFPOINTS
 62
     0
 10
-0.1828635703918745
 20
-16.408906112921152
 30
0.0
  0
ENDBLK
  5
5C
  8
0
  0
BLOCK
  8
0
  2
*D2
 70
     1
 10
0.0
 20
0.0
 30
0.0
  3
*D2
  1

  0
LINE
  5
12E
  8
COTATION-JACOBDELAFON
 62
     0
 10
-0.1965025062387277
 20
-0.6993686966200995
 30
0.0
 11
-19.168351651570259
 21
-0.699368696620094
 31
0.0
  0
LINE
  5
12F
  8
COTATION-JACOBDELAFON
 62
     0
 10
-0.6177651934479727
 20
134.30052937589329
 30
0.0
 11
-19.168351651570241
 21
134.30052937589329
 31
0.0
  0
LINE
  5
130
  8
COTATION-JACOBDELAFON
 62
     0
 10
-17.368351651570261
 20
-0.6993686966200946
 30
0.0
 11
-17.36835165157024
 21
134.30052937589329
 31
0.0
  0
INSERT
  5
131
  8
COTATION-JACOBDELAFON
 62
     0
  2
_OBLIQUE
 10
-17.368351651570261
 20
-0.6993686966200946
 30
0.0
 41
1.8
 42
1.8
 43
1.8
 50
270.0
  0
INSERT
  5
132
  8
COTATION-JACOBDELAFON
 62
     0
  2
_OBLIQUE
 10
-17.36835165157024
 20
134.30052937589329
 30
0.0
 41
1.8
 42
1.8
 43
1.8
 50
90.0
  0
TEXT
  5
133
  8
0
  6
CONTINUOUS
 62
     0
 10
-18.387041965349251
 20
59.519543504711649
 30
0.0
 40
6.0
  1
135
 50
90.0
  7
JACOB-DELAFON
  0
POINT
  5
134
  8
DEFPOINTS
 62
     0
 10
0.4284974937612723
 20
-0.6993686966200996
 30
0.0
  0
POINT
  5
135
  8
DEFPOINTS
 62
     0
 10
0.0072348065520274
 20
134.30052937589329
 30
0.0
  0
POINT
  5
136
  8
DEFPOINTS
 62
     0
 10
-17.36835165157024
 20
134.30052937589329
 30
0.0
  0
ENDBLK
  5
85
  8
0
  0
BLOCK
  8
0
  2
ADCADD_ZZ
 70
     0
 10
0.0
 20
0.0
 30
0.0
  3
ADCADD_ZZ
  1

  0
ENDBLK
  5
152
  8
0
  0
ENDSEC
  0
SECTION
  2
ENTITIES
  0
POLYLINE
  5
24
  8
0
  6
CONTINUOUS
 66
     1
 10
0.0
 20
0.0
 30
0.0
 70
     1
  0
VERTEX
  5
2A8
  8
0
  6
CONTINUOUS
 10
107.4468542565745
 20
64.991367453888245
 30
0.0
  0
VERTEX
  5
2A9
  8
0
  6
CONTINUOUS
 10
108.5973097969374
 20
62.980032362368661
 30
0.0
  0
VERTEX
  5
2AA
  8
0
  6
CONTINUOUS
 10
109.1709576910776
 20
61.925184804362537
 30
0.0
  0
VERTEX
  5
2AB
  8
0
  6
CONTINUOUS
 10
110.95061160573501
 20
58.048067072075433
 30
0.0
  0
VERTEX
  5
2AC
  8
0
  6
CONTINUOUS
 10
112.27954217499639
 20
54.064231261400828
 30
0.0
  0
VERTEX
  5
2AD
  8
0
  6
CONTINUOUS
 10
113.3767915673951
 20
49.77654961340702
 30
0.0
  0
VERTEX
  5
2AE
  8
0
  6
CONTINUOUS
 10
114.088856988231
 20
45.351877423528947
 30
0.0
  0
VERTEX
  5
2AF
  8
0
  6
CONTINUOUS
 10
114.3171745580382
 20
41.295673097424427
 30
0.0
  0
VERTEX
  5
2B0
  8
0
  6
CONTINUOUS
 10
114.4363277897814
 20
37.120825177009408
 30
0.0
  0
VERTEX
  5
2B1
  8
0
  6
CONTINUOUS
 10
113.5631150127556
 20
31.526025441869901
 30
0.0
  0
VERTEX
  5
2B2
  8
0
  6
CONTINUOUS
 10
112.581553317558
 20
28.559935584107802
 30
0.0
  0
VERTEX
  5
2B3
  8
0
  6
CONTINUOUS
 10
109.9907604651665
 20
24.526563014983982
 30
0.0
  0
VERTEX
  5
2B4
  8
0
  6
CONTINUOUS
 10
106.9886902046625
 20
21.718766543789059
 30
0.0
  0
VERTEX
  5
2B5
  8
0
  6
CONTINUOUS
 10
101.7101714601977
 20
18.940019406252599
 30
0.0
  0
VERTEX
  5
2B6
  8
0
  6
CONTINUOUS
 10
94.435606747191585
 20
16.849078947760152
 30
0.0
  0
VERTEX
  5
2B7
  8
0
  6
CONTINUOUS
 10
86.230444082248383
 20
16.754082530322549
 30
0.0
  0
VERTEX
  5
2B8
  8
0
  6
CONTINUOUS
 10
77.403319894553789
 20
18.525378391085081
 30
0.0
  0
VERTEX
  5
2B9
  8
0
  6
CONTINUOUS
 10
68.228928760282116
 20
22.022102743675649
 30
0.0
  0
VERTEX
  5
2BA
  8
0
  6
CONTINUOUS
 10
58.997050523612472
 20
27.083821724310159
 30
0.0
  0
VERTEX
  5
2BB
  8
0
  6
CONTINUOUS
 10
50.014996556405912
 20
33.51432492143568
 30
0.0
  0
VERTEX
  5
2BC
  8
0
  6
CONTINUOUS
 10
41.593339910092048
 20
41.07683478386376
 30
0.0
  0
VERTEX
  5
2BD
  8
0
  6
CONTINUOUS
 10
34.030830047663947
 20
49.498491430177651
 30
0.0
  0
VERTEX
  5
2BE
  8
0
  6
CONTINUOUS
 10
27.600326850538519
 20
58.480545397384219
 30
0.0
  0
VERTEX
  5
2BF
  8
0
  6
CONTINUOUS
 10
22.53860786990397
 20
67.712321706567266
 30
0.0
  0
VERTEX
  5
2C0
  8
0
  6
CONTINUOUS
 10
19.04198544479992
 20
76.886814768325507
 30
0.0
  0
VERTEX
  5
2C1
  8
0
  6
CONTINUOUS
 10
17.270587656550848
 20
85.713938956020044
 30
0.0
  0
VERTEX
  5
2C2
  8
0
  6
CONTINUOUS
 10
17.36558407398859
 20
93.918999693476735
 30
0.0
  0
VERTEX
  5
2C3
  8
0
  6
CONTINUOUS
 10
19.456524532481001
 20
101.19356440648291
 30
0.0
  0
VERTEX
  5
2C4
  8
0
  6
CONTINUOUS
 10
22.235271670017418
 20
106.47218507843409
 30
0.0
  0
VERTEX
  5
2C5
  8
0
  6
CONTINUOUS
 10
25.043068141212292
 20
109.47425533893809
 30
0.0
  0
VERTEX
  5
2C6
  8
0
  6
CONTINUOUS
 10
29.076440710336211
 20
112.06504819132979
 30
0.0
  0
VERTEX
  5
2C7
  8
0
  6
CONTINUOUS
 10
32.042530568098087
 20
113.04660988652731
 30
0.0
  0
VERTEX
  5
2C8
  8
0
  6
CONTINUOUS
 10
37.637330303237754
 20
113.91982266355301
 30
0.0
  0
VERTEX
  5
2C9
  8
0
  6
CONTINUOUS
 10
41.812280151139198
 20
113.80066943180999
 30
0.0
  0
VERTEX
  5
2CA
  8
0
  6
CONTINUOUS
 10
45.868484477243769
 20
113.5723518620028
 30
0.0
  0
VERTEX
  5
2CB
  8
0
  6
CONTINUOUS
 10
50.29305473963533
 20
112.86028644116691
 30
0.0
  0
VERTEX
  5
2CC
  8
0
  6
CONTINUOUS
 10
54.58073638762918
 20
111.763037048768
 30
0.0
  0
VERTEX
  5
2CD
  8
0
  6
CONTINUOUS
 10
58.564572198303672
 20
110.4341064795067
 30
0.0
  0
VERTEX
  5
2CE
  8
0
  6
CONTINUOUS
 10
62.441689930590819
 20
108.6543506373629
 30
0.0
  0
VERTEX
  5
2CF
  8
0
  6
CONTINUOUS
 10
63.496537488596942
 20
108.0807027432226
 30
0.0
  0
VERTEX
  5
2D0
  8
0
  6
CONTINUOUS
 10
65.507974507603066
 20
106.9303491303462
 30
0.0
  0
VERTEX
  5
2D1
  8
0
  6
CONTINUOUS
 10
72.59743890508706
 20
102.85936531869611
 30
0.0
  0
VERTEX
  5
2D2
  8
0
  6
CONTINUOUS
 10
81.447089067302784
 20
96.46402710442041
 30
0.0
  0
VERTEX
  5
2D3
  8
0
  6
CONTINUOUS
 10
89.619838791532302
 20
89.103333665303978
 30
0.0
  0
VERTEX
  5
2D4
  8
0
  6
CONTINUOUS
 10
96.980532230648663
 20
80.93058394107446
 30
0.0
  0
VERTEX
  5
2D5
  8
0
  6
CONTINUOUS
 10
103.3758704449244
 20
72.08093377885875
 30
0.0
  0
SEQEND
  5
2D6
  8
0
  6
CONTINUOUS
  0
POLYLINE
  5
25
  8
0
  6
CONTINUOUS
 66
     1
 10
0.0
 20
0.0
 30
0.0
 70
     1
  0
VERTEX
  5
2D7
  8
0
  6
CONTINUOUS
 10
117.39966560540741
 20
42.009063575585159
 30
0.0
  0
VERTEX
  5
2D8
  8
0
  6
CONTINUOUS
 10
117.32158915073219
 20
37.54841098296513
 30
0.0
  0
VERTEX
  5
2D9
  8
0
  6
CONTINUOUS
 10
115.93405027672139
 20
31.2097444511951
 30
0.0
  0
VERTEX
  5
2DA
  8
0
  6
CONTINUOUS
 10
114.3048413321691
 20
27.292976926651338
 30
0.0
  0
VERTEX
  5
2DB
  8
0
  6
CONTINUOUS
 10
111.18932577916721
 20
22.54978134139505
 30
0.0
  0
VERTEX
  5
2DC
  8
0
  6
CONTINUOUS
 10
107.9548608493953
 20
19.511119113229999
 30
0.0
  0
VERTEX
  5
2DD
  8
0
  6
CONTINUOUS
 10
102.2569104978964
 20
16.45247909770681
 30
0.0
  0
VERTEX
  5
2DE
  8
0
  6
CONTINUOUS
 10
94.199746543381877
 20
13.854755176231739
 30
0.0
  0
VERTEX
  5
2DF
  8
0
  6
CONTINUOUS
 10
85.633760576154259
 20
13.482210212997369
 30
0.0
  0
VERTEX
  5
2E0
  8
0
  6
CONTINUOUS
 10
76.552327309589757
 20
15.578043190842839
 30
0.0
  0
VERTEX
  5
2E1
  8
0
  6
CONTINUOUS
 10
66.943521227765231
 20
19.240195854057099
 30
0.0
  0
VERTEX
  5
2E2
  8
0
  6
CONTINUOUS
 10
57.366516521735491
 20
24.491194177161209
 30
0.0
  0
VERTEX
  5
2E3
  8
0
  6
CONTINUOUS
 10
48.09804631740483
 20
31.126877404653492
 30
0.0
  0
VERTEX
  5
2E4
  8
0
  6
CONTINUOUS
 10
39.428502023871808
 20
38.91199689764354
 30
0.0
  0
VERTEX
  5
2E5
  8
0
  6
CONTINUOUS
 10
31.643382530881809
 20
47.581541191176591
 30
0.0
  0
VERTEX
  5
2E6
  8
0
  6
CONTINUOUS
 10
25.007699303389401
 20
56.850011395507238
 30
0.0
  0
VERTEX
  5
2E7
  8
0
  6
CONTINUOUS
 10
19.75670098028538
 20
66.427016101537035
 30
0.0
  0
VERTEX
  5
2E8
  8
0
  6
CONTINUOUS
 10
16.094548317071109
 20
76.035720255874878
 30
0.0
  0
VERTEX
  5
2E9
  8
0
  6
CONTINUOUS
 10
14.03275911972368
 20
85.075770962911875
 30
0.0
  0
VERTEX
  5
2EA
  8
0
  6
CONTINUOUS
 10
14.37136222994658
 20
93.677431550421886
 30
0.0
  0
VERTEX
  5
2EB
  8
0
  6
CONTINUOUS
 10
17.001702947108448
 20
101.7056480987645
 30
0.0
  0
VERTEX
  5
2EC
  8
0
  6
CONTINUOUS
 10
20.027624239458252
 20
107.4382537956805
 30
0.0
  0
VERTEX
  5
2ED
  8
0
  6
CONTINUOUS
 10
23.066286467623389
 20
110.6727187254525
 30
0.0
  0
VERTEX
  5
2EE
  8
0
  6
CONTINUOUS
 10
27.809482052879659
 20
113.7882342784544
 30
0.0
  0
VERTEX
  5
2EF
  8
0
  6
CONTINUOUS
 10
31.726249577423459
 20
115.4175451504931
 30
0.0
  0
VERTEX
  5
2F0
  8
0
  6
CONTINUOUS
 10
38.06491610919344
 20
116.805084024504
 30
0.0
  0
VERTEX
  5
2F1
  8
0
  6
CONTINUOUS
 10
42.525568701813441
 20
116.8831604791791
 30
0.0
  0
VERTEX
  5
2F2
  8
0
  6
CONTINUOUS
 10
46.605624059763919
 20
116.52855475357239
 30
0.0
  0
VERTEX
  5
2F3
  8
0
  6
CONTINUOUS
 10
51.065053522545568
 20
115.5226323890963
 30
0.0
  0
VERTEX
  5
2F4
  8
0
  6
CONTINUOUS
 10
55.399214104393003
 20
114.0261330319945
 30
0.0
  0
VERTEX
  5
2F5
  8
0
  6
CONTINUOUS
 10
59.418214897917409
 20
112.2730821913192
 30
0.0
  0
VERTEX
  5
2F6
  8
0
  6
CONTINUOUS
 10
63.29716732496194
 20
110.12465463042891
 30
0.0
  0
VERTEX
  5
2F7
  8
0
  6
CONTINUOUS
 10
64.382185418978324
 20
109.3178985746149
 30
0.0
  0
VERTEX
  5
2F8
  8
0
  6
CONTINUOUS
 10
66.372727303247501
 20
108.12320650510181
 30
0.0
  0
VERTEX
  5
2F9
  8
0
  6
CONTINUOUS
 10
73.497050901121682
 20
104.0301044288767
 30
0.0
  0
VERTEX
  5
2FA
  8
0
  6
CONTINUOUS
 10
82.394097344569715
 20
97.508274203828407
 30
0.0
  0
VERTEX
  5
2FB
  8
0
  6
CONTINUOUS
 10
90.593755925240799
 20
90.077250799012447
 30
0.0
  0
VERTEX
  5
2FC
  8
0
  6
CONTINUOUS
 10
98.024779330056674
 20
81.877592218341377
 30
0.0
  0
VERTEX
  5
2FD
  8
0
  6
CONTINUOUS
 10
104.54660955510499
 20
72.980443847406875
 30
0.0
  0
VERTEX
  5
2FE
  8
0
  6
CONTINUOUS
 10
108.6398135588167
 20
65.856222177019234
 30
0.0
  0
VERTEX
  5
2FF
  8
0
  6
CONTINUOUS
 10
109.8344037008432
 20
63.86568029274995
 30
0.0
  0
VERTEX
  5
300
  8
0
  6
CONTINUOUS
 10
110.6411597566572
 20
62.780662198733552
 30
0.0
  0
VERTEX
  5
301
  8
0
  6
CONTINUOUS
 10
112.7895873175475
 20
58.901709771689077
 30
0.0
  0
VERTEX
  5
302
  8
0
  6
CONTINUOUS
 10
114.5427400857093
 20
54.882708978164743
 30
0.0
  0
VERTEX
  5
303
  8
0
  6
CONTINUOUS
 10
116.0391375153246
 20
50.548548396317329
 30
0.0
  0
VERTEX
  5
304
  8
0
  6
CONTINUOUS
 10
117.0450598798007
 20
46.089118933535588
 30
0.0
  0
VERTEX
  5
305
  8
0
  6
CONTINUOUS
 10
117.39966560540741
 20
42.009063575585159
 30
0.0
  0
VERTEX
  5
306
  8
0
  6
CONTINUOUS
 10
117.32158915073219
 20
37.54841098296513
 30
0.0
  0
SEQEND
  5
307
  8
0
  6
CONTINUOUS
  0
POLYLINE
  5
26
  8
0
  6
CONTINUOUS
 66
     1
 10
0.0
 20
0.0
 30
0.0
  0
VERTEX
  5
308
  8
0
  6
CONTINUOUS
 10
134.8171364296081
 20
-0.6994706241066558
 30
0.0
  0
VERTEX
  5
309
  8
0
  6
CONTINUOUS
 10
134.83405639237051
 20
29.950736137687279
 30
0.0
  0
VERTEX
  5
30A
  8
0
  6
CONTINUOUS
 10
132.08649906570949
 20
42.104875412914907
 30
0.0
  0
VERTEX
  5
30B
  8
0
  6
CONTINUOUS
 10
127.82307615950791
 20
54.181957508332651
 30
0.0
  0
VERTEX
  5
30C
  8
0
  6
CONTINUOUS
 10
122.1821032729743
 20
65.913913134390128
 30
0.0
  0
VERTEX
  5
30D
  8
0
  6
CONTINUOUS
 10
115.2858933899341
 20
77.168236558610062
 30
0.0
  0
VERTEX
  5
30E
  8
0
  6
CONTINUOUS
 10
107.2595115363488
 20
87.812320121028534
 30
0.0
  0
VERTEX
  5
30F
  8
0
  6
CONTINUOUS
 10
98.230774780315741
 20
97.714269654087431
 30
0.0
  0
VERTEX
  5
310
  8
0
  6
CONTINUOUS
 10
88.328927174743384
 20
106.7430064101205
 30
0.0
  0
VERTEX
  5
311
  8
0
  6
CONTINUOUS
 10
77.684741684838357
 20
114.76938826370581
 30
0.0
  0
VERTEX
  5
312
  8
0
  6
CONTINUOUS
 10
66.430418260618438
 20
121.66559814674589
 30
0.0
  0
VERTEX
  5
313
  8
0
  6
CONTINUOUS
 10
54.698462634560912
 20
127.3065710332795
 30
0.0
  0
VERTEX
  5
314
  8
0
  6
CONTINUOUS
 10
42.621482466629701
 20
131.56999393948129
 30
0.0
  0
VERTEX
  5
315
  8
0
  6
CONTINUOUS
 10
30.46724126391565
 20
134.31755126614229
 30
0.0
  0
VERTEX
  5
316
  8
0
  6
CONTINUOUS
 10
-0.0097906982790556
 20
134.30052937589329
 30
0.0
  0
SEQEND
  5
317
  8
0
  6
CONTINUOUS
  0
POLYLINE
  5
27
  8
0
  6
CONTINUOUS
 66
     1
 10
0.0
 20
0.0
 30
0.0
 70
     1
  0
VERTEX
  5
318
  8
0
  6
CONTINUOUS
 10
85.419305144513956
 20
12.413194734364749
 30
0.0
  0
VERTEX
  5
319
  8
0
  6
CONTINUOUS
 10
41.223954698939863
 20
12.481690005306939
 30
0.0
  0
VERTEX
  5
31A
  8
0
  6
CONTINUOUS
 10
39.540112621612373
 20
12.487907581984709
 30
0.0
  0
VERTEX
  5
31B
  8
0
  6
CONTINUOUS
 10
38.597385298779422
 20
12.50472561726068
 30
0.0
  0
VERTEX
  5
31C
  8
0
  6
CONTINUOUS
 10
37.890416252269411
 20
12.538361687812589
 30
0.0
  0
VERTEX
  5
31D
  8
0
  6
CONTINUOUS
 10
35.97968358994612
 20
12.63091184557371
 30
0.0
  0
VERTEX
  5
31E
  8
0
  6
CONTINUOUS
 10
34.070174057461102
 20
12.76086939088801
 30
0.0
  0
VERTEX
  5
31F
  8
0
  6
CONTINUOUS
 10
31.27705514432526
 20
13.40433761329531
 30
0.0
  0
VERTEX
  5
320
  8
0
  6
CONTINUOUS
 10
25.36628020097049
 20
15.89880899092455
 30
0.0
  0
VERTEX
  5
321
  8
0
  6
CONTINUOUS
 10
20.370202521655401
 20
19.821080599740458
 30
0.0
  0
VERTEX
  5
322
  8
0
  6
CONTINUOUS
 10
16.447930912839571
 20
24.817158279055441
 30
0.0
  0
VERTEX
  5
323
  8
0
  6
CONTINUOUS
 10
13.95345953521036
 20
30.727933222410162
 30
0.0
  0
VERTEX
  5
324
  8
0
  6
CONTINUOUS
 10
13.30999131280304
 20
33.521052135546078
 30
0.0
  0
VERTEX
  5
325
  8
0
  6
CONTINUOUS
 10
13.18003376748868
 20
35.43056166803111
 30
0.0
  0
VERTEX
  5
326
  8
0
  6
CONTINUOUS
 10
13.08748360972767
 20
37.341192402867911
 30
0.0
  0
VERTEX
  5
327
  8
0
  6
CONTINUOUS
 10
13.05384753917574
 20
38.048263376864313
 30
0.0
  0
VERTEX
  5
328
  8
0
  6
CONTINUOUS
 10
13.03702950389971
 20
38.990990699697363
 30
0.0
  0
VERTEX
  5
329
  8
0
  6
CONTINUOUS
 10
13.03091385470845
 20
40.674832777024847
 30
0.0
  0
VERTEX
  5
32A
  8
0
  6
CONTINUOUS
 10
12.963641713604581
 20
84.861213603785089
 30
0.0
  0
VERTEX
  5
32B
  8
0
  6
CONTINUOUS
 10
15.046937610608079
 20
75.733301403366966
 30
0.0
  0
VERTEX
  5
32C
  8
0
  6
CONTINUOUS
 10
18.76688315867959
 20
65.969667469517162
 30
0.0
  0
VERTEX
  5
32D
  8
0
  6
CONTINUOUS
 10
24.08474591294155
 20
56.269432432283431
 30
0.0
  0
VERTEX
  5
32E
  8
0
  6
CONTINUOUS
 10
30.793103438323321
 20
46.898830886458711
 30
0.0
  0
VERTEX
  5
32F
  8
0
  6
CONTINUOUS
 10
38.657420588340209
 20
38.14091546211192
 30
0.0
  0
VERTEX
  5
330
  8
0
  6
CONTINUOUS
 10
47.415336012687007
 20
30.27659831209505
 30
0.0
  0
VERTEX
  5
331
  8
0
  6
CONTINUOUS
 10
56.78593755851162
 20
23.568240786713201
 30
0.0
  0
VERTEX
  5
332
  8
0
  6
CONTINUOUS
 10
66.486172595745444
 20
18.25037803245133
 30
0.0
  0
VERTEX
  5
333
  8
0
  6
CONTINUOUS
 10
76.249806529595276
 20
14.53043248437972
 30
0.0
  0
SEQEND
  5
334
  8
0
  6
CONTINUOUS
  0
POLYLINE
  5
28
  8
0
  6
CONTINUOUS
 66
     1
 10
0.0
 20
0.0
 30
0.0
 70
     1
  0
VERTEX
  5
335
  8
0
  6
CONTINUOUS
 10
100.74532587278949
 20
69.895506540361254
 30
0.0
  0
VERTEX
  5
336
  8
0
  6
CONTINUOUS
 10
104.6711649436337
 20
62.946905929249361
 30
0.0
  0
VERTEX
  5
337
  8
0
  6
CONTINUOUS
 10
106.3600014678007
 20
59.355694796653758
 30
0.0
  0
VERTEX
  5
338
  8
0
  6
CONTINUOUS
 10
107.6776180860581
 20
56.136213207400402
 30
0.0
  0
VERTEX
  5
339
  8
0
  6
CONTINUOUS
 10
108.9169543946673
 20
52.351747560360927
 30
0.0
  0
VERTEX
  5
33A
  8
0
  6
CONTINUOUS
 10
109.9313367405247
 20
48.286063978009949
 30
0.0
  0
VERTEX
  5
33B
  8
0
  6
CONTINUOUS
 10
110.5698105160925
 20
44.147094532850332
 30
0.0
  0
VERTEX
  5
33C
  8
0
  6
CONTINUOUS
 10
110.7530761368572
 20
40.443355455135517
 30
0.0
  0
VERTEX
  5
33D
  8
0
  6
CONTINUOUS
 10
110.4948938134995
 20
36.747260938909811
 30
0.0
  0
VERTEX
  5
33E
  8
0
  6
CONTINUOUS
 10
109.8301227464094
 20
33.522886830303442
 30
0.0
  0
VERTEX
  5
33F
  8
0
  6
CONTINUOUS
 10
108.694854401538
 20
30.436624465933068
 30
0.0
  0
VERTEX
  5
340
  8
0
  6
CONTINUOUS
 10
107.1720577529138
 20
27.80475483647345
 30
0.0
  0
VERTEX
  5
341
  8
0
  6
CONTINUOUS
 10
105.2390029710423
 20
25.45767060435363
 30
0.0
  0
VERTEX
  5
342
  8
0
  6
CONTINUOUS
 10
100.2600491094629
 20
22.001819173857971
 30
0.0
  0
VERTEX
  5
343
  8
0
  6
CONTINUOUS
 10
93.949412636486215
 20
20.201779761896521
 30
0.0
  0
VERTEX
  5
344
  8
0
  6
CONTINUOUS
 10
86.549579042545787
 20
20.12686305930357
 30
0.0
  0
VERTEX
  5
345
  8
0
  6
CONTINUOUS
 10
78.344926015035043
 20
21.779821108215138
 30
0.0
  0
VERTEX
  5
346
  8
0
  6
CONTINUOUS
 10
69.650715269763907
 20
25.097051157042191
 30
0.0
  0
VERTEX
  5
347
  8
0
  6
CONTINUOUS
 10
60.801167035034851
 20
29.951347702606419
 30
0.0
  0
VERTEX
  5
348
  8
0
  6
CONTINUOUS
 10
52.136209478395124
 20
36.155877662114783
 30
0.0
  0
VERTEX
  5
349
  8
0
  6
CONTINUOUS
 10
43.988941625795903
 20
43.472436499567607
 30
0.0
  0
VERTEX
  5
34A
  8
0
  6
CONTINUOUS
 10
36.672382788343157
 20
51.619704352166899
 30
0.0
  0
VERTEX
  5
34B
  8
0
  6
CONTINUOUS
 10
30.467852828834769
 20
60.284661908806513
 30
0.0
  0
VERTEX
  5
34C
  8
0
  6
CONTINUOUS
 10
25.613556283270519
 20
69.134210143535682
 30
0.0
  0
VERTEX
  5
34D
  8
0
  6
CONTINUOUS
 10
22.296326234443491
 20
77.828420888806804
 30
0.0
  0
VERTEX
  5
34E
  8
0
  6
CONTINUOUS
 10
20.64336818553182
 20
86.033073916317406
 30
0.0
  0
VERTEX
  5
34F
  8
0
  6
CONTINUOUS
 10
20.718386815611471
 20
93.432907510257934
 30
0.0
  0
VERTEX
  5
350
  8
0
  6
CONTINUOUS
 10
22.51832430008627
 20
99.743543983234701
 30
0.0
  0
VERTEX
  5
351
  8
0
  6
CONTINUOUS
 10
25.974175730581958
 20
104.7224978448141
 30
0.0
  0
VERTEX
  5
352
  8
0
  6
CONTINUOUS
 10
28.321259962701781
 20
106.65555262668551
 30
0.0
  0
VERTEX
  5
353
  8
0
  6
CONTINUOUS
 10
30.95312959216141
 20
108.1783492753097
 30
0.0
  0
VERTEX
  5
354
  8
0
  6
CONTINUOUS
 10
34.03939195653173
 20
109.31361762018101
 30
0.0
  0
VERTEX
  5
355
  8
0
  6
CONTINUOUS
 10
37.263766065138228
 20
109.9782867597846
 30
0.0
  0
VERTEX
  5
356
  8
0
  6
CONTINUOUS
 10
40.959860581363827
 20
110.23657101062901
 30
0.0
  0
VERTEX
  5
357
  8
0
  6
CONTINUOUS
 10
44.663599659078677
 20
110.05330538986409
 30
0.0
  0
VERTEX
  5
358
  8
0
  6
CONTINUOUS
 10
48.802569104238337
 20
109.4148316142964
 30
0.0
  0
VERTEX
  5
359
  8
0
  6
CONTINUOUS
 10
52.868252686589301
 20
108.40034734095261
 30
0.0
  0
VERTEX
  5
35A
  8
0
  6
CONTINUOUS
 10
56.652718333628677
 20
107.16111295982979
 30
0.0
  0
VERTEX
  5
35B
  8
0
  6
CONTINUOUS
 10
59.872199922882167
 20
105.8434963415724
 30
0.0
  0
VERTEX
  5
35C
  8
0
  6
CONTINUOUS
 10
63.4634110554777
 20
104.1546598174054
 30
0.0
  0
VERTEX
  5
35D
  8
0
  6
CONTINUOUS
 10
70.412011666589507
 20
100.2288207465613
 30
0.0
  0
VERTEX
  5
35E
  8
0
  6
CONTINUOUS
 10
79.076969223229241
 20
94.024290787052962
 30
0.0
  0
VERTEX
  5
35F
  8
0
  6
CONTINUOUS
 10
87.224237075828441
 20
86.707731949600117
 30
0.0
  0
VERTEX
  5
360
  8
0
  6
CONTINUOUS
 10
94.540795913281286
 20
78.560464097000875
 30
0.0
  0
SEQEND
  5
361
  8
0
  6
CONTINUOUS
  0
POLYLINE
  5
29
  8
0
  6
CONTINUOUS
 66
     1
 10
0.0
 20
0.0
 30
0.0
 70
     1
  0
VERTEX
  5
362
  8
0
  6
CONTINUOUS
 10
122.84667048509139
 20
23.469065342328221
 30
0.0
  0
VERTEX
  5
363
  8
0
  6
CONTINUOUS
 10
117.83907499979949
 20
17.323041760082958
 30
0.0
  0
VERTEX
  5
364
  8
0
  6
CONTINUOUS
 10
111.10452211038179
 20
12.444996110159339
 30
0.0
  0
VERTEX
  5
365
  8
0
  6
CONTINUOUS
 10
102.952871375862
 20
8.9510237997048137
 30
0.0
  0
VERTEX
  5
366
  8
0
  6
CONTINUOUS
 10
93.887338797194857
 20
6.8085080330327088
 30
0.0
  0
VERTEX
  5
367
  8
0
  6
CONTINUOUS
 10
84.547825134759137
 20
6.1034756087667024
 30
0.0
  0
VERTEX
  5
368
  8
0
  6
CONTINUOUS
 10
40.324954267824367
 20
6.1068392158219282
 30
0.0
  0
VERTEX
  5
369
  8
0
  6
CONTINUOUS
 10
38.876870466819938
 20
6.4713319076211482
 30
0.0
  0
VERTEX
  5
36A
  8
0
  6
CONTINUOUS
 10
38.034847500669713
 20
6.864670078105779
 30
0.0
  0
VERTEX
  5
36B
  8
0
  6
CONTINUOUS
 10
37.870744247370943
 20
6.8691548875127131
 30
0.0
  0
VERTEX
  5
36C
  8
0
  6
CONTINUOUS
 10
35.814968771728239
 20
6.6055704073693304
 30
0.0
  0
VERTEX
  5
36D
  8
0
  6
CONTINUOUS
 10
33.571035155967543
 20
6.6059781173154333
 30
0.0
  0
VERTEX
  5
36E
  8
0
  6
CONTINUOUS
 10
29.36387622232548
 20
7.2424133431527489
 30
0.0
  0
VERTEX
  5
36F
  8
0
  6
CONTINUOUS
 10
21.75050454412326
 20
10.45588121070138
 30
0.0
  0
VERTEX
  5
370
  8
0
  6
CONTINUOUS
 10
15.686328733554481
 20
15.1372068116394
 30
0.0
  0
VERTEX
  5
371
  8
0
  6
CONTINUOUS
 10
11.00510506010303
 20
21.201280694721792
 30
0.0
  0
VERTEX
  5
372
  8
0
  6
CONTINUOUS
 10
7.7916371925543686
 20
28.81475430041041
 30
0.0
  0
VERTEX
  5
373
  8
0
  6
CONTINUOUS
 10
7.155100039230514
 20
33.021811306566057
 30
0.0
  0
VERTEX
  5
374
  8
0
  6
CONTINUOUS
 10
7.1546923292843561
 20
35.265846849813137
 30
0.0
  0
VERTEX
  5
375
  8
0
  6
CONTINUOUS
 10
7.4182768094278222
 20
37.32162232545582
 30
0.0
  0
VERTEX
  5
376
  8
0
  6
CONTINUOUS
 10
7.4137920000207487
 20
37.485725578754689
 30
0.0
  0
VERTEX
  5
377
  8
0
  6
CONTINUOUS
 10
7.0204538295361179
 20
38.327748544904978
 30
0.0
  0
VERTEX
  5
378
  8
0
  6
CONTINUOUS
 10
6.6559611377368428
 20
39.775832345909301
 30
0.0
  0
VERTEX
  5
379
  8
0
  6
CONTINUOUS
 10
6.652597530681712
 20
83.998703212844077
 30
0.0
  0
VERTEX
  5
37A
  8
0
  6
CONTINUOUS
 10
7.3250131592609291
 20
93.370833670966618
 30
0.0
  0
VERTEX
  5
37B
  8
0
  6
CONTINUOUS
 10
9.4675289259331201
 20
102.43636624963381
 30
0.0
  0
VERTEX
  5
37C
  8
0
  6
CONTINUOUS
 10
12.961501236387591
 20
110.5880169841535
 30
0.0
  0
VERTEX
  5
37D
  8
0
  6
CONTINUOUS
 10
17.839546886311219
 20
117.3225698735712
 30
0.0
  0
VERTEX
  5
37E
  8
0
  6
CONTINUOUS
 10
23.985570468556588
 20
122.3300634313766
 30
0.0
  0
VERTEX
  5
37F
  8
0
  6
CONTINUOUS
 10
31.117130917973739
 20
125.53007687070441
 30
0.0
  0
VERTEX
  5
380
  8
0
  6
CONTINUOUS
 10
38.844865236052428
 20
127.0209702160476
 30
0.0
  0
VERTEX
  5
381
  8
0
  6
CONTINUOUS
 10
44.724756150991283
 20
126.6370093743228
 30
0.0
  0
VERTEX
  5
382
  8
0
  6
CONTINUOUS
 10
50.765386712173878
 20
125.6161036693282
 30
0.0
  0
VERTEX
  5
383
  8
0
  6
CONTINUOUS
 10
56.268553636930939
 20
123.5173147943736
 30
0.0
  0
VERTEX
  5
384
  8
0
  6
CONTINUOUS
 10
61.109293826787869
 20
120.4527629846322
 30
0.0
  0
VERTEX
  5
385
  8
0
  6
CONTINUOUS
 10
64.850338364569311
 20
117.11066262909399
 30
0.0
  0
VERTEX
  5
386
  8
0
  6
CONTINUOUS
 10
67.412489593248665
 20
113.8482695680153
 30
0.0
  0
VERTEX
  5
387
  8
0
  6
CONTINUOUS
 10
68.242994753421925
 20
112.889845412258
 30
0.0
  0
VERTEX
  5
388
  8
0
  6
CONTINUOUS
 10
69.253401927305021
 20
112.1234526411063
 30
0.0
  0
VERTEX
  5
389
  8
0
  6
CONTINUOUS
 10
76.744562549168336
 20
107.581359986756
 30
0.0
  0
VERTEX
  5
38A
  8
0
  6
CONTINUOUS
 10
85.535502479147937
 20
100.9642275618105
 30
0.0
  0
VERTEX
  5
38B
  8
0
  6
CONTINUOUS
 10
93.875820991218021
 20
93.359315864989725
 30
0.0
  0
VERTEX
  5
38C
  8
0
  6
CONTINUOUS
 10
101.4808346155253
 20
85.018997352919641
 30
0.0
  0
VERTEX
  5
38D
  8
0
  6
CONTINUOUS
 10
108.09786511298429
 20
76.228057422940054
 30
0.0
  0
VERTEX
  5
38E
  8
0
  6
CONTINUOUS
 10
112.63995776733459
 20
68.736896801076682
 30
0.0
  0
VERTEX
  5
38F
  8
0
  6
CONTINUOUS
 10
113.40635053848629
 20
67.726489627193644
 30
0.0
  0
VERTEX
  5
390
  8
0
  6
CONTINUOUS
 10
114.36477469424349
 20
66.895984467020298
 30
0.0
  0
VERTEX
  5
391
  8
0
  6
CONTINUOUS
 10
117.6271677553223
 20
64.33373131085456
 30
0.0
  0
VERTEX
  5
392
  8
0
  6
CONTINUOUS
 10
120.96937003834709
 20
60.592788700559552
 30
0.0
  0
VERTEX
  5
393
  8
0
  6
CONTINUOUS
 10
124.0338199206019
 20
55.752048510702629
 30
0.0
  0
VERTEX
  5
394
  8
0
  6
CONTINUOUS
 10
126.132710723043
 20
50.248881585945497
 30
0.0
  0
VERTEX
  5
395
  8
0
  6
CONTINUOUS
 10
127.1535145005511
 20
44.208251024763001
 30
0.0
  0
VERTEX
  5
396
  8
0
  6
CONTINUOUS
 10
127.5374753422759
 20
38.328360109824089
 30
0.0
  0
VERTEX
  5
397
  8
0
  6
CONTINUOUS
 10
126.0465819969327
 20
30.600625791745411
 30
0.0
  0
SEQEND
  5
398
  8
0
  6
CONTINUOUS
  0
POLYLINE
  5
2A
  8
0
  6
CONTINUOUS
 66
     1
 10
0.0
 20
0.0
 30
0.0
  0
VERTEX
  5
399
  8
0
  6
CONTINUOUS
 10
138.16993917123099
 20
-0.6994706241066561
 30
0.0
  0
VERTEX
  5
39A
  8
0
  6
CONTINUOUS
 10
138.16647363668929
 20
30.321038696218199
 30
0.0
  0
VERTEX
  5
39B
  8
0
  6
CONTINUOUS
 10
135.30852884212601
 20
43.032517467742821
 30
0.0
  0
VERTEX
  5
39C
  8
0
  6
CONTINUOUS
 10
130.91942934504371
 20
55.468282388228083
 30
0.0
  0
VERTEX
  5
39D
  8
0
  6
CONTINUOUS
 10
125.1262787211344
 20
67.518251772231196
 30
0.0
  0
VERTEX
  5
39E
  8
0
  6
CONTINUOUS
 10
118.057097893468
 20
79.055627826520038
 30
0.0
  0
VERTEX
  5
39F
  8
0
  6
CONTINUOUS
 10
109.83970393014231
 20
89.953510830375905
 30
0.0
  0
VERTEX
  5
3A0
  8
0
  6
CONTINUOUS
 10
100.60160811679491
 20
100.0851029905666
 30
0.0
  0
VERTEX
  5
3A1
  8
0
  6
CONTINUOUS
 10
90.470117884090769
 20
109.3231988039139
 30
0.0
  0
VERTEX
  5
3A2
  8
0
  6
CONTINUOUS
 10
79.572132952748305
 20
117.5405927672397
 30
0.0
  0
VERTEX
  5
3A3
  8
0
  6
CONTINUOUS
 10
68.034756898459534
 20
124.609773594906
 30
0.0
  0
VERTEX
  5
3A4
  8
0
  6
CONTINUOUS
 10
55.984787514456421
 20
130.40292421881551
 30
0.0
  0
VERTEX
  5
3A5
  8
0
  6
CONTINUOUS
 10
43.549022593971173
 20
134.7920237158977
 30
0.0
  0
VERTEX
  5
3A6
  8
0
  6
CONTINUOUS
 10
30.83754382244646
 20
137.64996851046101
 30
0.0
  0
VERTEX
  5
3A7
  8
0
  6
CONTINUOUS
 10
-0.0097906982790552
 20
137.65343404500271
 30
0.0
  0
SEQEND
  5
3A8
  8
0
  6
CONTINUOUS
  0
POLYLINE
  5
2B
  8
0
  6
CONTINUOUS
 66
     1
 10
0.0
 20
0.0
 30
0.0
 70
     1
  0
VERTEX
  5
3A9
  8
0
  6
CONTINUOUS
 10
140.27321285559259
 20
-0.6994706241066564
 30
0.0
  0
VERTEX
  5
3AA
  8
0
  6
CONTINUOUS
 10
0.4284974937612723
 20
-0.6993686966200996
 30
0.0
  0
VERTEX
  5
3AB
  8
0
  6
CONTINUOUS
 10
-0.0038789040608901
 20
-0.5202821028026601
 30
0.0
  0
VERTEX
  5
3AC
  8
0
  6
CONTINUOUS
 10
-0.1828635703918735
 20
-0.0880076324669259
 30
0.0
  0
VERTEX
  5
3AD
  8
0
  6
CONTINUOUS
 10
-0.1828635703918568
 20
136.67064921996689
 30
0.0
  0
VERTEX
  5
3AE
  8
0
  6
CONTINUOUS
 10
-0.0097906982790553
 20
137.0773398911858
 30
0.0
  0
VERTEX
  5
3AF
  8
0
  6
CONTINUOUS
 10
-0.0097906982790549
 20
139.7566058018777
 30
0.0
  0
VERTEX
  5
3B0
  8
0
  6
CONTINUOUS
 10
31.069836564227959
 20
139.74029740403429
 30
0.0
  0
VERTEX
  5
3B1
  8
0
  6
CONTINUOUS
 10
44.130926614519723
 20
136.8131438461233
 30
0.0
  0
VERTEX
  5
3B2
  8
0
  6
CONTINUOUS
 10
56.791645497756953
 20
132.34525440196029
 30
0.0
  0
VERTEX
  5
3B3
  8
0
  6
CONTINUOUS
 10
69.041086972881715
 20
126.4564957956941
 30
0.0
  0
VERTEX
  5
3B4
  8
0
  6
CONTINUOUS
 10
80.756020708690144
 20
119.2788641223694
 30
0.0
  0
VERTEX
  5
3B5
  8
0
  6
CONTINUOUS
 10
91.813216373978378
 20
110.9416034348949
 30
0.0
  0
VERTEX
  5
3B6
  8
0
  6
CONTINUOUS
 10
102.0888320726233
 20
101.5722250189085
 30
0.0
  0
VERTEX
  5
3B7
  8
0
  6
CONTINUOUS
 10
111.4581085611232
 20
91.296711247750096
 30
0.0
  0
VERTEX
  5
3B8
  8
0
  6
CONTINUOUS
 10
119.79536924859779
 20
80.239515582461848
 30
0.0
  0
VERTEX
  5
3B9
  8
0
  6
CONTINUOUS
 10
126.9731028494089
 20
68.524581846653376
 30
0.0
  0
VERTEX
  5
3BA
  8
0
  6
CONTINUOUS
 10
132.8617595281886
 20
56.275140371528579
 30
0.0
  0
VERTEX
  5
3BB
  8
0
  6
CONTINUOUS
 10
137.32964897235161
 20
43.61442148829137
 30
0.0
  0
VERTEX
  5
3BC
  8
0
  6
CONTINUOUS
 10
140.25680253026269
 20
30.553331437999638
 30
0.0
  0
SEQEND
  5
3BD
  8
0
  6
CONTINUOUS
  0
CIRCLE
  5
2C
  8
0
  6
CONTINUOUS
 10
79.848319965320073
 20
79.293990207839229
 30
0.0
 40
4.0789996075681927
  0
CIRCLE
  5
2D
  8
0
  6
CONTINUOUS
 10
79.848296858976212
 20
79.294023727127424
 30
0.0
 40
2.0348877252690589
  0
DIMENSION
  5
50
  8
COTATION-JACOBDELAFON
  2
*D1
 10
-0.1828635703918745
 20
-16.408906112921152
 30
0.0
 11
67.317137260955079
 21
-12.44342180187067
 31
0.0
 70
     0
 13
134.817138092302
 23
-0.6964586841696273
 33
0.0
 14
-0.1828635703918735
 24
-0.0880076324669259
 34
0.0
 50
180.0
1001
ACAD
1000
DSTYLE
1002
{
1070
   140
1040
6.0
1002
}
  0
DIMENSION
  5
78
  8
COTATION-JACOBDELAFON
  2
*D2
 10
-17.36835165157024
 20
134.30052937589329
 30
0.0
 11
-21.333835962620739
 21
66.80058033963661
 31
0.0
 70
     0
 13
0.4284974937612723
 23
-0.6993686966200996
 33
0.0
 14
0.0072348065520274
 24
134.30052937589329
 34
0.0
 50
270.0
1001
ACAD
1000
DSTYLE
1002
{
1070
   140
1040
6.0
1002
}
  0
INSERT
  5
153
 67
     1
  8
0
  6
CONTINUOUS
  2
ADCADD_ZZ
 10
0.0
 20
0.0
 30
0.0
1001
ADCADD_ZZ
1070
   205
1070
    14
1070
   209
1070
     1
1070
   231
1070
     0
1070
   235
1070
     0
1070
   236
1070
     4
1070
   237
1070
     2
1070
   238
1070
     4
1070
   239
1070
     2
1070
   240
1070
     0
1070
   241
1070
  4096
1070
   242
1070
     2
1070
   244
1070
     0
1070
   245
1070
     1
1070
   303
1040
0.1
1070
   304
1040
4.0
1070
   305
1040
96.0
1070
   306
1040
0.125
1070
   337
1040
0.0
1070
   338
1040
0.3048
1070
   339
1040
0.0625
1070
   340
1040
96.0
1070
   341
1040
4.0
1070
   342
1040
96.0
1070
   530
1010
0.0
1020
0.0
1030
0.0
1070
   531
1010
0.0
1020
0.0
1030
0.0
1070
   107
1000

1070
   108
1000
AIA (256 Color)
1070
   135
1000
L120
1070
   136
1000
'
1070
   137
1000
m
1001
SDSK_PMN
1070
   100
1000
ACADARCH
1070
   300
1040
2453076.635526319
  0
ENDSEC
  0
EOF
