  0
SECTION
  2
HEADER
  9
$ACADVER
  1
AC1009
  9
$INSBASE
 10
0.0
 20
0.0
 30
0.0
  9
$EXTMIN
 10
-16.637508847213109
 20
-11.33296466944001
 30
0.0
  9
$EXTMAX
 10
135.89999999999989
 20
135.89999999999989
 30
0.0
  9
$LIMMIN
 10
0.0
 20
0.0
  9
$LIMMAX
 10
12.0
 20
9.0
  9
$ORTHOMODE
 70
     1
  9
$REGENMODE
 70
     1
  9
$FILLMODE
 70
     1
  9
$QTEXTMODE
 70
     0
  9
$MIRRTEXT
 70
     1
  9
$DRAGMODE
 70
     2
  9
$LTSCALE
 40
1.0
  9
$OSMODE
 70
     1
  9
$ATTMODE
 70
     1
  9
$TEXTSIZE
 40
0.2
  9
$TRACEWID
 40
0.05
  9
$TEXTSTYLE
  7
STANDARD
  9
$CLAYER
  8
0
  9
$CELTYPE
  6
CONTINUOUS
  9
$CECOLOR
 62
   256
  9
$DIMSCALE
 40
96.0
  9
$DIMASZ
 40
0.18
  9
$DIMEXO
 40
0.0625
  9
$DIMDLI
 40
0.38
  9
$DIMRND
 40
0.0
  9
$DIMDLE
 40
0.0
  9
$DIMEXE
 40
0.18
  9
$DIMTP
 40
0.0
  9
$DIMTM
 40
0.0
  9
$DIMTXT
 40
0.18
  9
$DIMCEN
 40
0.09
  9
$DIMTSZ
 40
0.0
  9
$DIMTOL
 70
     0
  9
$DIMLIM
 70
     0
  9
$DIMTIH
 70
     1
  9
$DIMTOH
 70
     1
  9
$DIMSE1
 70
     0
  9
$DIMSE2
 70
     0
  9
$DIMTAD
 70
     0
  9
$DIMZIN
 70
     0
  9
$DIMBLK
  1

  9
$DIMASO
 70
     1
  9
$DIMSHO
 70
     1
  9
$DIMPOST
  1

  9
$DIMAPOST
  1

  9
$DIMALT
 70
     0
  9
$DIMALTD
 70
     2
  9
$DIMALTF
 40
25.399999999999999
  9
$DIMLFAC
 40
1.0
  9
$DIMTOFL
 70
     0
  9
$DIMTVP
 40
0.0
  9
$DIMTIX
 70
     0
  9
$DIMSOXD
 70
     0
  9
$DIMSAH
 70
     0
  9
$DIMBLK1
  1

  9
$DIMBLK2
  1

  9
$DIMSTYLE
  2
STANDARD
  9
$DIMCLRD
 70
     0
  9
$DIMCLRE
 70
     0
  9
$DIMCLRT
 70
     0
  9
$DIMTFAC
 40
1.0
  9
$DIMGAP
 40
0.09
  9
$LUNITS
 70
     2
  9
$LUPREC
 70
     4
  9
$SKETCHINC
 40
0.1
  9
$FILLETRAD
 40
0.0
  9
$AUNITS
 70
     0
  9
$AUPREC
 70
     2
  9
$MENU
  1
.
  9
$ELEVATION
 40
0.0
  9
$PELEVATION
 40
0.0
  9
$THICKNESS
 40
0.0
  9
$LIMCHECK
 70
     0
  9
$BLIPMODE
 70
     0
  9
$CHAMFERA
 40
0.0
  9
$CHAMFERB
 40
0.0
  9
$SKPOLY
 70
     0
  9
$TDCREATE
 40
2453033.4676452312
  9
$TDUPDATE
 40
2453076.6361323381
  9
$TDINDWG
 40
0.1137175579
  9
$TDUSRTIMER
 40
0.1137175579
  9
$USRTIMER
 70
     1
  9
$ANGBASE
 50
0.0
  9
$ANGDIR
 70
     0
  9
$PDMODE
 70
     0
  9
$PDSIZE
 40
0.0
  9
$PLINEWID
 40
0.0
  9
$COORDS
 70
     1
  9
$SPLFRAME
 70
     0
  9
$SPLINETYPE
 70
     6
  9
$SPLINESEGS
 70
     8
  9
$ATTDIA
 70
     1
  9
$ATTREQ
 70
     1
  9
$HANDLING
 70
 22529
  9
$HANDSEED
  5
387
  9
$SURFTAB1
 70
     6
  9
$SURFTAB2
 70
     6
  9
$SURFTYPE
 70
     6
  9
$SURFU
 70
     6
  9
$SURFV
 70
     6
  9
$UCSNAME
  2

  9
$UCSORG
 10
0.0
 20
0.0
 30
0.0
  9
$UCSXDIR
 10
1.0
 20
0.0
 30
0.0
  9
$UCSYDIR
 10
0.0
 20
1.0
 30
0.0
  9
$PUCSNAME
  2

  9
$PUCSORG
 10
0.0
 20
0.0
 30
0.0
  9
$PUCSXDIR
 10
1.0
 20
0.0
 30
0.0
  9
$PUCSYDIR
 10
0.0
 20
1.0
 30
0.0
  9
$USERI1
 70
     0
  9
$USERI2
 70
     0
  9
$USERI3
 70
     0
  9
$USERI4
 70
     0
  9
$USERI5
 70
     0
  9
$USERR1
 40
0.0
  9
$USERR2
 40
0.0
  9
$USERR3
 40
0.0
  9
$USERR4
 40
0.0
  9
$USERR5
 40
0.0
  9
$WORLDVIEW
 70
     1
  9
$SHADEDGE
 70
     3
  9
$SHADEDIF
 70
    70
  9
$TILEMODE
 70
     1
  9
$MAXACTVP
 70
    64
  9
$PLIMCHECK
 70
     0
  9
$PEXTMIN
 10
-272.45354793764699
 20
-4.9093039185513581
 30
0.0
  9
$PEXTMAX
 10
2986.4048226741288
 20
173.56073976098409
 30
0.0
  9
$PLIMMIN
 10
-0.1979161059762549
 20
-0.2679166643638311
  9
$PLIMMAX
 10
11.493750144177531
 20
7.9987497780266699
  9
$UNITMODE
 70
     0
  9
$VISRETAIN
 70
     1
  9
$PLINEGEN
 70
     0
  9
$PSLTSCALE
 70
     1
  0
ENDSEC
  0
SECTION
  2
TABLES
  0
TABLE
  2
VPORT
 70
     2
  0
VPORT
  2
*ACTIVE
 70
     0
 10
0.0
 20
0.0
 11
1.0
 21
1.0
 12
67.111395286981207
 22
62.28127877309862
 13
0.0
 23
0.0
 14
1.0
 24
1.0
 15
0.0
 25
0.0
 16
0.0
 26
0.0
 36
1.0
 17
0.0
 27
0.0
 37
0.0
 40
149.03557452568731
 41
1.928853754940711
 42
50.0
 43
0.0
 44
0.0
 50
0.0
 51
0.0
 71
     0
 72
   100
 73
     1
 74
     1
 75
     0
 76
     0
 77
     0
 78
     0
  0
ENDTAB
  0
TABLE
  2
LTYPE
 70
     1
  0
LTYPE
  2
CONTINUOUS
 70
     0
  3
Solid line
 72
    65
 73
     0
 40
0.0
  0
ENDTAB
  0
TABLE
  2
LAYER
 70
     3
  0
LAYER
  2
0
 70
     0
 62
     7
  6
CONTINUOUS
  0
LAYER
  2
DEFPOINTS
 70
     0
 62
     7
  6
CONTINUOUS
  0
LAYER
  2
COTATION-JACOBDELAFON
 70
     0
 62
     8
  6
CONTINUOUS
  0
ENDTAB
  0
TABLE
  2
STYLE
 70
     2
  0
STYLE
  2
STANDARD
 70
     0
 40
0.0
 41
1.0
 50
0.0
 71
     0
 42
0.2
  3
txt
  4

  0
STYLE
  2
JACOB-DELAFON
 70
     0
 40
0.0
 41
1.0
 50
0.0
 71
     0
 42
2.5
  3
txt
  4

  0
ENDTAB
  0
TABLE
  2
VIEW
 70
     0
  0
ENDTAB
  0
TABLE
  2
UCS
 70
     0
  0
ENDTAB
  0
TABLE
  2
APPID
 70
     5
  0
APPID
  2
ACAD
 70
     0
  0
APPID
  2
ADCADD_ZZ
 70
     0
  0
APPID
  2
SDSK_PMN
 70
     0
  0
APPID
  2
AEC_DWGVARSSETUP_DATA
 70
     0
  0
APPID
  2
AEC_DISPREPSET_DATA
 70
     0
  0
ENDTAB
  0
TABLE
  2
DIMSTYLE
 70
     2
  0
DIMSTYLE
  2
STANDARD
 70
     0
  3

  4

  5

  6

  7

 40
1.0
 41
0.18
 42
0.0625
 43
0.38
 44
0.18
 45
0.0
 46
0.0
 47
0.0
 48
0.0
140
0.18
141
0.09
142
0.0
143
25.399999999999999
144
1.0
145
0.0
146
1.0
147
0.09
 71
     0
 72
     0
 73
     1
 74
     1
 75
     0
 76
     0
 77
     0
 78
     0
170
     0
171
     2
172
     0
173
     0
174
     0
175
     0
176
     0
177
     0
178
     0
  0
DIMSTYLE
  2
COTATION-JACOB-DELAFON
 70
     0
  3

  4

  5
OBLIQUE
  6

  7

 40
1.0
 41
1.8
 42
0.625
 43
3.7999999999999989
 44
1.8
 45
0.0
 46
0.0
 47
0.0
 48
0.0
140
3.0
141
0.9
142
0.0
143
25.399999999999999
144
1.0
145
0.0
146
1.0
147
0.9
 71
     0
 72
     0
 73
     0
 74
     0
 75
     0
 76
     0
 77
     1
 78
    12
170
     0
171
     2
172
     0
173
     0
174
     0
175
     0
176
     0
177
     0
178
     0
  0
ENDTAB
  0
ENDSEC
  0
SECTION
  2
BLOCKS
  0
BLOCK
  8
0
  2
$MODEL_SPACE
 70
     0
 10
0.0
 20
0.0
 30
0.0
  3
$MODEL_SPACE
  1

  0
ENDBLK
  5
9
  8
0
  0
BLOCK
 67
     1
  8
0
  2
$PAPER_SPACE
 70
     0
 10
0.0
 20
0.0
 30
0.0
  3
$PAPER_SPACE
  1

  0
ENDBLK
  5
E
 67
     1
  8
0
  0
BLOCK
  8
0
  2
*D0
 70
     1
 10
0.0
 20
0.0
 30
0.0
  3
*D0
  1

  0
LINE
  5
AB
  8
COTATION-JACOBDELAFON
 62
     0
 10
-2.885450687749354
 20
0.0000000000000002
 30
0.0
 11
-9.8308239904600434
 21
0.0000000000000021
 31
0.0
  0
LINE
  5
AC
  8
COTATION-JACOBDELAFON
 62
     0
 10
-2.6801688042659459
 20
135.0
 30
0.0
 11
-9.8308239904600132
 21
135.0
 31
0.0
  0
LINE
  5
AD
  8
COTATION-JACOBDELAFON
 62
     0
 10
-8.0308239904600445
 20
0.0000000000000016
 30
0.0
 11
-8.0308239904600143
 21
135.0
 31
0.0
  0
INSERT
  5
AE
  8
COTATION-JACOBDELAFON
 62
     0
  2
_OBLIQUE
 10
-8.0308239904600445
 20
0.0000000000000016
 30
0.0
 41
1.8
 42
1.8
 43
1.8
 50
270.0
  0
INSERT
  5
AF
  8
COTATION-JACOBDELAFON
 62
     0
  2
_OBLIQUE
 10
-8.0308239904600143
 20
135.0
 30
0.0
 41
1.8
 42
1.8
 43
1.8
 50
90.0
  0
TEXT
  5
B0
  8
0
  6
CONTINUOUS
 62
     0
 10
-9.0495143042390325
 20
60.218963165075039
 30
0.0
 40
6.0
  1
135
 50
90.0
  7
JACOB-DELAFON
  0
POINT
  5
B1
  8
DEFPOINTS
 62
     0
 10
-2.260450687749354
 20
0.0
 30
0.0
  0
POINT
  5
B2
  8
DEFPOINTS
 62
     0
 10
-2.0551688042659459
 20
135.0
 30
0.0
  0
POINT
  5
B3
  8
DEFPOINTS
 62
     0
 10
-8.0308239904600143
 20
135.0
 30
0.0
  0
ENDBLK
  5
48
  8
0
  0
BLOCK
  8
0
  2
*D1
 70
     1
 10
0.0
 20
0.0
 30
0.0
  3
*D1
  1

  0
LINE
  5
B4
  8
COTATION-JACOBDELAFON
 62
     0
 10
135.0
 20
-2.0344462146107949
 30
0.0
 11
135.0
 21
-11.33296466944001
 31
0.0
  0
LINE
  5
B5
  8
COTATION-JACOBDELAFON
 62
     0
 10
0.0
 20
-2.0344462146107949
 30
0.0
 11
-0.0000000000000006
 21
-11.33296466944001
 31
0.0
  0
LINE
  5
B6
  8
COTATION-JACOBDELAFON
 62
     0
 10
135.0
 20
-9.5329646694400196
 30
0.0
 11
-0.0000000000000005
 21
-9.5329646694400196
 31
0.0
  0
INSERT
  5
B7
  8
COTATION-JACOBDELAFON
 62
     0
  2
_OBLIQUE
 10
135.0
 20
-9.5329646694400196
 30
0.0
 41
1.8
 42
1.8
 43
1.8
  0
INSERT
  5
B8
  8
COTATION-JACOBDELAFON
 62
     0
  2
_OBLIQUE
 10
-0.0000000000000005
 20
-9.5329646694400196
 30
0.0
 41
1.8
 42
1.8
 43
1.8
 50
180.0
  0
TEXT
  5
B9
  8
0
  6
CONTINUOUS
 62
     0
 10
60.218963165075039
 20
-8.5142743556610299
 30
0.0
 40
6.0
  1
135
  7
JACOB-DELAFON
  0
POINT
  5
BA
  8
DEFPOINTS
 62
     0
 10
135.0
 20
-1.4094462146107949
 30
0.0
  0
POINT
  5
BB
  8
DEFPOINTS
 62
     0
 10
0.0
 20
-1.4094462146107949
 30
0.0
  0
POINT
  5
BC
  8
DEFPOINTS
 62
     0
 10
-0.0000000000000005
 20
-9.5329646694400196
 30
0.0
  0
ENDBLK
  5
56
  8
0
  0
BLOCK
  8
0
  2
_OBLIQUE
 70
     0
 10
0.0
 20
0.0
 30
0.0
  3
_OBLIQUE
  1

  0
LINE
  5
58
  8
0
  6
BYBLOCK
 62
     0
 10
-0.5
 20
-0.5
 30
0.0
 11
0.5
 21
0.5
 31
0.0
  0
ENDBLK
  5
5A
  8
0
  0
BLOCK
  8
0
  2
ADCADD_ZZ
 70
     0
 10
0.0
 20
0.0
 30
0.0
  3
ADCADD_ZZ
  1

  0
ENDBLK
  5
D8
  8
0
  0
ENDSEC
  0
SECTION
  2
ENTITIES
  0
CIRCLE
  5
24
  8
0
  6
CONTINUOUS
 10
78.301806248268406
 20
78.26489999072578
 30
0.0
 40
3.9909062482684718
  0
POLYLINE
  5
25
  8
0
  6
CONTINUOUS
 66
     1
 10
0.0
 20
0.0
 30
0.0
 70
     1
  0
VERTEX
  5
22E
  8
0
  6
CONTINUOUS
 10
83.752399999999966
 20
12.82919999999995
 30
0.0
  0
VERTEX
  5
22F
  8
0
  6
CONTINUOUS
 10
40.512099999999968
 20
12.896299999999959
 30
0.0
  0
VERTEX
  5
230
  8
0
  6
CONTINUOUS
 10
38.864599999999989
 20
12.902299999999959
 30
0.0
  0
VERTEX
  5
231
  8
0
  6
CONTINUOUS
 10
37.942299999999982
 20
12.918799999999971
 30
0.0
  0
VERTEX
  5
232
  8
0
  6
CONTINUOUS
 10
37.250500000000038
 20
12.951699999999979
 30
0.0
  0
VERTEX
  5
233
  8
0
  6
CONTINUOUS
 10
35.381100000000004
 20
13.04229999999998
 30
0.0
  0
VERTEX
  5
234
  8
0
  6
CONTINUOUS
 10
33.512899999999938
 20
13.169499999999969
 30
0.0
  0
VERTEX
  5
235
  8
0
  6
CONTINUOUS
 10
30.780199999999979
 20
13.798999999999999
 30
0.0
  0
VERTEX
  5
236
  8
0
  6
CONTINUOUS
 10
24.99699999999995
 20
16.239499999999989
 30
0.0
  0
VERTEX
  5
237
  8
0
  6
CONTINUOUS
 10
20.10889999999992
 20
20.077100000000002
 30
0.0
  0
VERTEX
  5
238
  8
0
  6
CONTINUOUS
 10
16.271399999999939
 20
24.965199999999982
 30
0.0
  0
VERTEX
  5
239
  8
0
  6
CONTINUOUS
 10
13.83089999999995
 20
30.748300000000029
 30
0.0
  0
VERTEX
  5
23A
  8
0
  6
CONTINUOUS
 10
13.20129999999997
 20
33.480999999999987
 30
0.0
  0
VERTEX
  5
23B
  8
0
  6
CONTINUOUS
 10
13.07419999999999
 20
35.349299999999999
 30
0.0
  0
VERTEX
  5
23C
  8
0
  6
CONTINUOUS
 10
12.98359999999993
 20
37.218700000000013
 30
0.0
  0
VERTEX
  5
23D
  8
0
  6
CONTINUOUS
 10
12.95069999999995
 20
37.91040000000001
 30
0.0
  0
VERTEX
  5
23E
  8
0
  6
CONTINUOUS
 10
12.93419999999994
 20
38.832799999999992
 30
0.0
  0
VERTEX
  5
23F
  8
0
  6
CONTINUOUS
 10
12.928200000000031
 20
40.480299999999993
 30
0.0
  0
VERTEX
  5
240
  8
0
  6
CONTINUOUS
 10
12.86239999999998
 20
83.711799999999982
 30
0.0
  0
VERTEX
  5
241
  8
0
  6
CONTINUOUS
 10
14.90069999999997
 20
74.781099999999981
 30
0.0
  0
VERTEX
  5
242
  8
0
  6
CONTINUOUS
 10
18.540299999999998
 20
65.228499999999997
 30
0.0
  0
VERTEX
  5
243
  8
0
  6
CONTINUOUS
 10
23.743199999999941
 20
55.737899999999968
 30
0.0
  0
VERTEX
  5
244
  8
0
  6
CONTINUOUS
 10
30.3066
 20
46.569699999999983
 30
0.0
  0
VERTEX
  5
245
  8
0
  6
CONTINUOUS
 10
38.000999999999969
 20
38.00109999999998
 30
0.0
  0
VERTEX
  5
246
  8
0
  6
CONTINUOUS
 10
46.569700000000012
 20
30.30669999999995
 30
0.0
  0
VERTEX
  5
247
  8
0
  6
CONTINUOUS
 10
55.737799999999993
 20
23.743299999999969
 30
0.0
  0
VERTEX
  5
248
  8
0
  6
CONTINUOUS
 10
65.228400000000022
 20
18.54029999999997
 30
0.0
  0
VERTEX
  5
249
  8
0
  6
CONTINUOUS
 10
70.003516037421946
 20
16.721020129576171
 30
0.0
  0
VERTEX
  5
24A
  8
0
  6
CONTINUOUS
 10
74.781099999999981
 20
14.90079999999997
 30
0.0
  0
SEQEND
  5
24B
  8
0
  6
CONTINUOUS
  0
POLYLINE
  5
26
  8
0
  6
CONTINUOUS
 66
     1
 10
0.0
 20
0.0
 30
0.0
 70
     1
  0
VERTEX
  5
24C
  8
0
  6
CONTINUOUS
 10
135.0
 20
0.5981999999999914
 30
0.0
  0
VERTEX
  5
24D
  8
0
  6
CONTINUOUS
 10
134.82470000000001
 20
0.1751999999999612
 30
0.0
  0
VERTEX
  5
24E
  8
0
  6
CONTINUOUS
 10
134.40170000000001
 20
-0.0000000000000284
 30
0.0
  0
VERTEX
  5
24F
  8
0
  6
CONTINUOUS
 10
0.5981999999999914
 20
0.0
 30
0.0
  0
VERTEX
  5
250
  8
0
  6
CONTINUOUS
 10
0.1751999999999327
 20
0.1751999999999896
 30
0.0
  0
VERTEX
  5
251
  8
0
  6
CONTINUOUS
 10
-0.0000000000000284
 20
0.5982000000000199
 30
0.0
  0
VERTEX
  5
252
  8
0
  6
CONTINUOUS
 10
0.0
 20
134.40179999999989
 30
0.0
  0
VERTEX
  5
253
  8
0
  6
CONTINUOUS
 10
0.1751999999999612
 20
134.8247999999999
 30
0.0
  0
VERTEX
  5
254
  8
0
  6
CONTINUOUS
 10
0.5982000000000199
 20
135.0
 30
0.0
  0
VERTEX
  5
255
  8
0
  6
CONTINUOUS
 10
30.31009999999992
 20
135.0
 30
0.0
  0
VERTEX
  5
256
  8
0
  6
CONTINUOUS
 10
42.68649999999996
 20
132.2149
 30
0.0
  0
VERTEX
  5
257
  8
0
  6
CONTINUOUS
 10
54.814700000000009
 20
127.9341999999999
 30
0.0
  0
VERTEX
  5
258
  8
0
  6
CONTINUOUS
 10
66.569800000000043
 20
122.28269999999991
 30
0.0
  0
VERTEX
  5
259
  8
0
  6
CONTINUOUS
 10
77.827200000000005
 20
115.3848999999999
 30
0.0
  0
VERTEX
  5
25A
  8
0
  6
CONTINUOUS
 10
88.462199999999996
 20
107.36579999999989
 30
0.0
  0
VERTEX
  5
25B
  8
0
  6
CONTINUOUS
 10
98.349899999999991
 20
98.349999999999966
 30
0.0
  0
VERTEX
  5
25C
  8
0
  6
CONTINUOUS
 10
107.3657
 20
88.462199999999996
 30
0.0
  0
VERTEX
  5
25D
  8
0
  6
CONTINUOUS
 10
115.3849
 20
77.82729999999998
 30
0.0
  0
VERTEX
  5
25E
  8
0
  6
CONTINUOUS
 10
122.2825999999999
 20
66.569899999999961
 30
0.0
  0
VERTEX
  5
25F
  8
0
  6
CONTINUOUS
 10
127.9341999999999
 20
54.814699999999959
 30
0.0
  0
VERTEX
  5
260
  8
0
  6
CONTINUOUS
 10
132.2149
 20
42.68659999999997
 30
0.0
  0
VERTEX
  5
261
  8
0
  6
CONTINUOUS
 10
135.0
 20
30.31019999999998
 30
0.0
  0
SEQEND
  5
262
  8
0
  6
CONTINUOUS
  0
POLYLINE
  5
27
  8
0
  6
CONTINUOUS
 66
     1
 10
0.0
 20
0.0
 30
0.0
 70
     1
  0
VERTEX
  5
263
  8
0
  6
CONTINUOUS
 10
124.9604999999999
 20
38.184499999999979
 30
0.0
  0
VERTEX
  5
264
  8
0
  6
CONTINUOUS
 10
123.50189999999991
 20
30.623699999999982
 30
0.0
  0
VERTEX
  5
265
  8
0
  6
CONTINUOUS
 10
120.3709999999999
 20
23.646199999999961
 30
0.0
  0
VERTEX
  5
266
  8
0
  6
CONTINUOUS
 10
115.4716999999999
 20
17.632999999999949
 30
0.0
  0
VERTEX
  5
267
  8
0
  6
CONTINUOUS
 10
108.8826999999999
 20
12.86039999999997
 30
0.0
  0
VERTEX
  5
268
  8
0
  6
CONTINUOUS
 10
100.9071999999999
 20
9.4418999999999755
 30
0.0
  0
VERTEX
  5
269
  8
0
  6
CONTINUOUS
 10
92.037499999999994
 20
7.3456999999999653
 30
0.0
  0
VERTEX
  5
26A
  8
0
  6
CONTINUOUS
 10
82.899799999999985
 20
6.6558999999999742
 30
0.0
  0
VERTEX
  5
26B
  8
0
  6
CONTINUOUS
 10
39.632499999999993
 20
6.65919999999997
 30
0.0
  0
VERTEX
  5
26C
  8
0
  6
CONTINUOUS
 10
38.21569999999997
 20
7.0157999999999836
 30
0.0
  0
VERTEX
  5
26D
  8
0
  6
CONTINUOUS
 10
37.391899999999957
 20
7.4006999999999721
 30
0.0
  0
VERTEX
  5
26E
  8
0
  6
CONTINUOUS
 10
37.231299999999969
 20
7.4050000000000011
 30
0.0
  0
VERTEX
  5
26F
  8
0
  6
CONTINUOUS
 10
35.21999999999997
 20
7.1471999999999687
 30
0.0
  0
VERTEX
  5
270
  8
0
  6
CONTINUOUS
 10
33.024500000000039
 20
7.147599999999982
 30
0.0
  0
VERTEX
  5
271
  8
0
  6
CONTINUOUS
 10
28.90829999999999
 20
7.7702999999999909
 30
0.0
  0
VERTEX
  5
272
  8
0
  6
CONTINUOUS
 10
21.459499999999991
 20
10.91429999999999
 30
0.0
  0
VERTEX
  5
273
  8
0
  6
CONTINUOUS
 10
15.52629999999996
 20
15.494399999999979
 30
0.0
  0
VERTEX
  5
274
  8
0
  6
CONTINUOUS
 10
10.946199999999941
 20
21.427499999999981
 30
0.0
  0
VERTEX
  5
275
  8
0
  6
CONTINUOUS
 10
7.8021000000000242
 20
28.87639999999999
 30
0.0
  0
VERTEX
  5
276
  8
0
  6
CONTINUOUS
 10
7.1793999999999007
 20
32.992599999999982
 30
0.0
  0
VERTEX
  5
277
  8
0
  6
CONTINUOUS
 10
6.8827344410302942
 20
34.969606863708997
 30
0.0
  0
VERTEX
  5
278
  8
0
  6
CONTINUOUS
 10
7.4369000000000076
 20
37.19939999999999
 30
0.0
  0
VERTEX
  5
279
  8
0
  6
CONTINUOUS
 10
7.4324999999999193
 20
37.360000000000007
 30
0.0
  0
VERTEX
  5
27A
  8
0
  6
CONTINUOUS
 10
7.047699999999991
 20
38.183800000000019
 30
0.0
  0
VERTEX
  5
27B
  8
0
  6
CONTINUOUS
 10
6.6910999999999774
 20
39.600600000000007
 30
0.0
  0
VERTEX
  5
27C
  8
0
  6
CONTINUOUS
 10
6.6877999999999806
 20
82.867899999999992
 30
0.0
  0
VERTEX
  5
27D
  8
0
  6
CONTINUOUS
 10
7.3456999999999653
 20
92.037599999999998
 30
0.0
  0
VERTEX
  5
27E
  8
0
  6
CONTINUOUS
 10
9.4417999999999438
 20
100.9071999999999
 30
0.0
  0
VERTEX
  5
27F
  8
0
  6
CONTINUOUS
 10
12.86029999999999
 20
108.8826999999999
 30
0.0
  0
VERTEX
  5
280
  8
0
  6
CONTINUOUS
 10
17.632999999999981
 20
115.4716999999999
 30
0.0
  0
VERTEX
  5
281
  8
0
  6
CONTINUOUS
 10
23.646200000000022
 20
120.3710999999999
 30
0.0
  0
VERTEX
  5
282
  8
0
  6
CONTINUOUS
 10
30.62359999999995
 20
123.50189999999991
 30
0.0
  0
VERTEX
  5
283
  8
0
  6
CONTINUOUS
 10
38.184399999999982
 20
124.9605
 30
0.0
  0
VERTEX
  5
284
  8
0
  6
CONTINUOUS
 10
43.937200000000011
 20
124.58489999999991
 30
0.0
  0
VERTEX
  5
285
  8
0
  6
CONTINUOUS
 10
49.847300000000018
 20
123.5860999999999
 30
0.0
  0
VERTEX
  5
286
  8
0
  6
CONTINUOUS
 10
55.231599999999958
 20
121.5326
 30
0.0
  0
VERTEX
  5
287
  8
0
  6
CONTINUOUS
 10
59.967700000000043
 20
118.5342999999999
 30
0.0
  0
VERTEX
  5
288
  8
0
  6
CONTINUOUS
 10
63.627899999999947
 20
115.2643999999999
 30
0.0
  0
VERTEX
  5
289
  8
0
  6
CONTINUOUS
 10
66.134700000000009
 20
112.07249999999991
 30
0.0
  0
VERTEX
  5
28A
  8
0
  6
CONTINUOUS
 10
66.947299999999984
 20
111.1347999999999
 30
0.0
  0
VERTEX
  5
28B
  8
0
  6
CONTINUOUS
 10
67.935899999999947
 20
110.3849
 30
0.0
  0
VERTEX
  5
28C
  8
0
  6
CONTINUOUS
 10
75.265100000000004
 20
105.9409999999999
 30
0.0
  0
VERTEX
  5
28D
  8
0
  6
CONTINUOUS
 10
83.866099999999946
 20
99.466900000000024
 30
0.0
  0
VERTEX
  5
28E
  8
0
  6
CONTINUOUS
 10
92.026200000000017
 20
92.026299999999992
 30
0.0
  0
VERTEX
  5
28F
  8
0
  6
CONTINUOUS
 10
99.466799999999978
 20
83.866199999999978
 30
0.0
  0
VERTEX
  5
290
  8
0
  6
CONTINUOUS
 10
105.9409999999999
 20
75.265199999999993
 30
0.0
  0
VERTEX
  5
291
  8
0
  6
CONTINUOUS
 10
110.3849
 20
67.935900000000004
 30
0.0
  0
VERTEX
  5
292
  8
0
  6
CONTINUOUS
 10
111.1347
 20
66.947399999999945
 30
0.0
  0
VERTEX
  5
293
  8
0
  6
CONTINUOUS
 10
112.0724
 20
66.134699999999953
 30
0.0
  0
VERTEX
  5
294
  8
0
  6
CONTINUOUS
 10
115.26429999999991
 20
63.627999999999993
 30
0.0
  0
VERTEX
  5
295
  8
0
  6
CONTINUOUS
 10
118.5342999999999
 20
59.967799999999983
 30
0.0
  0
VERTEX
  5
296
  8
0
  6
CONTINUOUS
 10
121.5326
 20
55.231599999999958
 30
0.0
  0
VERTEX
  5
297
  8
0
  6
CONTINUOUS
 10
123.5859999999999
 20
49.847399999999958
 30
0.0
  0
VERTEX
  5
298
  8
0
  6
CONTINUOUS
 10
124.58489999999991
 20
43.937299999999972
 30
0.0
  0
SEQEND
  5
299
  8
0
  6
CONTINUOUS
  0
POLYLINE
  5
28
  8
0
  6
CONTINUOUS
 66
     1
 10
0.0
 20
0.0
 30
0.0
 70
     1
  0
VERTEX
  5
29A
  8
0
  6
CONTINUOUS
 10
108.28609999999991
 20
36.637499999999982
 30
0.0
  0
VERTEX
  5
29B
  8
0
  6
CONTINUOUS
 10
107.6358
 20
33.48279999999999
 30
0.0
  0
VERTEX
  5
29C
  8
0
  6
CONTINUOUS
 10
106.52500000000001
 20
30.4633
 30
0.0
  0
VERTEX
  5
29D
  8
0
  6
CONTINUOUS
 10
105.0351999999999
 20
27.888299999999951
 30
0.0
  0
VERTEX
  5
29E
  8
0
  6
CONTINUOUS
 10
103.1437999999999
 20
25.591899999999981
 30
0.0
  0
VERTEX
  5
29F
  8
0
  6
CONTINUOUS
 10
98.272499999999951
 20
22.210699999999971
 30
0.0
  0
VERTEX
  5
2A0
  8
0
  6
CONTINUOUS
 10
92.098199999999977
 20
20.44959999999994
 30
0.0
  0
VERTEX
  5
2A1
  8
0
  6
CONTINUOUS
 10
84.858299999999957
 20
20.376299999999979
 30
0.0
  0
VERTEX
  5
2A2
  8
0
  6
CONTINUOUS
 10
76.830899999999986
 20
21.993499999999951
 30
0.0
  0
VERTEX
  5
2A3
  8
0
  6
CONTINUOUS
 10
68.324600000000032
 20
25.239099999999979
 30
0.0
  0
VERTEX
  5
2A4
  8
0
  6
CONTINUOUS
 10
59.666200000000003
 20
29.988399999999981
 30
0.0
  0
VERTEX
  5
2A5
  8
0
  6
CONTINUOUS
 10
51.188499999999983
 20
36.058999999999962
 30
0.0
  0
VERTEX
  5
2A6
  8
0
  6
CONTINUOUS
 10
43.217299999999959
 20
43.217399999999969
 30
0.0
  0
VERTEX
  5
2A7
  8
0
  6
CONTINUOUS
 10
36.058900000000051
 20
51.188599999999973
 30
0.0
  0
VERTEX
  5
2A8
  8
0
  6
CONTINUOUS
 10
29.988400000000009
 20
59.666299999999978
 30
0.0
  0
VERTEX
  5
2A9
  8
0
  6
CONTINUOUS
 10
25.238999999999969
 20
68.324700000000007
 30
0.0
  0
VERTEX
  5
2AA
  8
0
  6
CONTINUOUS
 10
21.993399999999951
 20
76.830999999999989
 30
0.0
  0
VERTEX
  5
2AB
  8
0
  6
CONTINUOUS
 10
20.376200000000029
 20
84.858299999999986
 30
0.0
  0
VERTEX
  5
2AC
  8
0
  6
CONTINUOUS
 10
20.449600000000029
 20
92.098299999999995
 30
0.0
  0
VERTEX
  5
2AD
  8
0
  6
CONTINUOUS
 10
22.210700000000031
 20
98.272499999999994
 30
0.0
  0
VERTEX
  5
2AE
  8
0
  6
CONTINUOUS
 10
25.591899999999999
 20
103.1439
 30
0.0
  0
VERTEX
  5
2AF
  8
0
  6
CONTINUOUS
 10
27.88819999999998
 20
105.0351999999999
 30
0.0
  0
VERTEX
  5
2B0
  8
0
  6
CONTINUOUS
 10
30.463200000000029
 20
106.5250999999999
 30
0.0
  0
VERTEX
  5
2B1
  8
0
  6
CONTINUOUS
 10
33.482799999999941
 20
107.6357999999999
 30
0.0
  0
VERTEX
  5
2B2
  8
0
  6
CONTINUOUS
 10
36.637499999999982
 20
108.28619999999999
 30
0.0
  0
VERTEX
  5
2B3
  8
0
  6
CONTINUOUS
 10
40.253699999999967
 20
108.5387999999999
 30
0.0
  0
VERTEX
  5
2B4
  8
0
  6
CONTINUOUS
 10
43.877400000000023
 20
108.3596
 30
0.0
  0
VERTEX
  5
2B5
  8
0
  6
CONTINUOUS
 10
47.926899999999989
 20
107.7348999999999
 30
0.0
  0
VERTEX
  5
2B6
  8
0
  6
CONTINUOUS
 10
51.904799999999973
 20
106.7423
 30
0.0
  0
VERTEX
  5
2B7
  8
0
  6
CONTINUOUS
 10
55.607400000000041
 20
105.52979999999999
 30
0.0
  0
VERTEX
  5
2B8
  8
0
  6
CONTINUOUS
 10
58.757299999999987
 20
104.2407
 30
0.0
  0
VERTEX
  5
2B9
  8
0
  6
CONTINUOUS
 10
62.271000000000008
 20
102.5883
 30
0.0
  0
VERTEX
  5
2BA
  8
0
  6
CONTINUOUS
 10
69.069500000000005
 20
98.747399999999971
 30
0.0
  0
VERTEX
  5
2BB
  8
0
  6
CONTINUOUS
 10
77.547199999999975
 20
92.676899999999989
 30
0.0
  0
VERTEX
  5
2BC
  8
0
  6
CONTINUOUS
 10
85.518400000000028
 20
85.518399999999986
 30
0.0
  0
VERTEX
  5
2BD
  8
0
  6
CONTINUOUS
 10
92.676800000000014
 20
77.547199999999975
 30
0.0
  0
VERTEX
  5
2BE
  8
0
  6
CONTINUOUS
 10
98.747299999999996
 20
69.069499999999934
 30
0.0
  0
VERTEX
  5
2BF
  8
0
  6
CONTINUOUS
 10
102.5883
 20
62.270999999999958
 30
0.0
  0
VERTEX
  5
2C0
  8
0
  6
CONTINUOUS
 10
104.2407
 20
58.757399999999961
 30
0.0
  0
VERTEX
  5
2C1
  8
0
  6
CONTINUOUS
 10
105.52979999999999
 20
55.60749999999998
 30
0.0
  0
VERTEX
  5
2C2
  8
0
  6
CONTINUOUS
 10
106.7422999999999
 20
51.904799999999973
 30
0.0
  0
VERTEX
  5
2C3
  8
0
  6
CONTINUOUS
 10
107.73480000000001
 20
47.926999999999957
 30
0.0
  0
VERTEX
  5
2C4
  8
0
  6
CONTINUOUS
 10
108.3595
 20
43.877499999999962
 30
0.0
  0
VERTEX
  5
2C5
  8
0
  6
CONTINUOUS
 10
108.5387999999999
 20
40.253699999999967
 30
0.0
  0
SEQEND
  5
2C6
  8
0
  6
CONTINUOUS
  0
POLYLINE
  5
29
  8
0
  6
CONTINUOUS
 66
     1
 10
0.0
 20
0.0
 30
0.0
 70
     1
  0
VERTEX
  5
2C7
  8
0
  6
CONTINUOUS
 10
112.02589999999989
 20
41.087699999999977
 30
0.0
  0
VERTEX
  5
2C8
  8
0
  6
CONTINUOUS
 10
112.14239999999999
 20
37.002999999999979
 30
0.0
  0
VERTEX
  5
2C9
  8
0
  6
CONTINUOUS
 10
111.2880999999999
 20
31.5291
 30
0.0
  0
VERTEX
  5
2CA
  8
0
  6
CONTINUOUS
 10
110.3277999999999
 20
28.627199999999949
 30
0.0
  0
VERTEX
  5
2CB
  8
0
  6
CONTINUOUS
 10
107.7928999999999
 20
24.68089999999998
 30
0.0
  0
VERTEX
  5
2CC
  8
0
  6
CONTINUOUS
 10
104.8556999999999
 20
21.93369999999998
 30
0.0
  0
VERTEX
  5
2CD
  8
0
  6
CONTINUOUS
 10
99.691199999999967
 20
19.21509999999995
 30
0.0
  0
VERTEX
  5
2CE
  8
0
  6
CONTINUOUS
 10
92.573899999999952
 20
17.169299999999961
 30
0.0
  0
VERTEX
  5
2CF
  8
0
  6
CONTINUOUS
 10
84.546099999999925
 20
17.076399999999971
 30
0.0
  0
VERTEX
  5
2D0
  8
0
  6
CONTINUOUS
 10
75.909600000000012
 20
18.80939999999995
 30
0.0
  0
VERTEX
  5
2D1
  8
0
  6
CONTINUOUS
 10
66.933499999999924
 20
22.230499999999971
 30
0.0
  0
VERTEX
  5
2D2
  8
0
  6
CONTINUOUS
 10
57.901099999999978
 20
27.182899999999989
 30
0.0
  0
VERTEX
  5
2D3
  8
0
  6
CONTINUOUS
 10
49.113199999999999
 20
33.474499999999978
 30
0.0
  0
VERTEX
  5
2D4
  8
0
  6
CONTINUOUS
 10
40.873499999999922
 20
40.873599999999982
 30
0.0
  0
VERTEX
  5
2D5
  8
0
  6
CONTINUOUS
 10
33.474400000000003
 20
49.113199999999999
 30
0.0
  0
VERTEX
  5
2D6
  8
0
  6
CONTINUOUS
 10
27.182800000000039
 20
57.90119999999996
 30
0.0
  0
VERTEX
  5
2D7
  8
0
  6
CONTINUOUS
 10
22.230499999999999
 20
66.933499999999981
 30
0.0
  0
VERTEX
  5
2D8
  8
0
  6
CONTINUOUS
 10
18.809399999999918
 20
75.909699999999987
 30
0.0
  0
VERTEX
  5
2D9
  8
0
  6
CONTINUOUS
 10
17.076299999999939
 20
84.546099999999967
 30
0.0
  0
VERTEX
  5
2DA
  8
0
  6
CONTINUOUS
 10
17.169199999999929
 20
92.573899999999995
 30
0.0
  0
VERTEX
  5
2DB
  8
0
  6
CONTINUOUS
 10
19.215000000000028
 20
99.691300000000012
 30
0.0
  0
VERTEX
  5
2DC
  8
0
  6
CONTINUOUS
 10
21.93369999999998
 20
104.8557999999999
 30
0.0
  0
VERTEX
  5
2DD
  8
0
  6
CONTINUOUS
 10
24.680799999999969
 20
107.79300000000001
 30
0.0
  0
VERTEX
  5
2DE
  8
0
  6
CONTINUOUS
 10
28.627100000000041
 20
110.3277999999999
 30
0.0
  0
VERTEX
  5
2DF
  8
0
  6
CONTINUOUS
 10
31.529100000000021
 20
111.2882
 30
0.0
  0
VERTEX
  5
2E0
  8
0
  6
CONTINUOUS
 10
37.002899999999947
 20
112.1424999999999
 30
0.0
  0
VERTEX
  5
2E1
  8
0
  6
CONTINUOUS
 10
41.087600000000009
 20
112.02589999999989
 30
0.0
  0
VERTEX
  5
2E2
  8
0
  6
CONTINUOUS
 10
45.05619999999999
 20
111.80249999999999
 30
0.0
  0
VERTEX
  5
2E3
  8
0
  6
CONTINUOUS
 10
49.385199999999941
 20
111.1057999999999
 30
0.0
  0
VERTEX
  5
2E4
  8
0
  6
CONTINUOUS
 10
53.580299999999959
 20
110.03230000000001
 30
0.0
  0
VERTEX
  5
2E5
  8
0
  6
CONTINUOUS
 10
57.477999999999952
 20
108.7320999999999
 30
0.0
  0
VERTEX
  5
2E6
  8
0
  6
CONTINUOUS
 10
61.271299999999997
 20
106.9909
 30
0.0
  0
VERTEX
  5
2E7
  8
0
  6
CONTINUOUS
 10
62.303399999999947
 20
106.42959999999989
 30
0.0
  0
VERTEX
  5
2E8
  8
0
  6
CONTINUOUS
 10
64.271299999999997
 20
105.3039999999999
 30
0.0
  0
VERTEX
  5
2E9
  8
0
  6
CONTINUOUS
 10
71.207699999999988
 20
101.3209999999999
 30
0.0
  0
VERTEX
  5
2EA
  8
0
  6
CONTINUOUS
 10
79.866100000000017
 20
95.06389999999999
 30
0.0
  0
VERTEX
  5
2EB
  8
0
  6
CONTINUOUS
 10
87.862199999999973
 20
87.86220000000003
 30
0.0
  0
VERTEX
  5
2EC
  8
0
  6
CONTINUOUS
 10
95.06389999999999
 20
79.86609999999996
 30
0.0
  0
VERTEX
  5
2ED
  8
0
  6
CONTINUOUS
 10
101.3209999999999
 20
71.207699999999988
 30
0.0
  0
VERTEX
  5
2EE
  8
0
  6
CONTINUOUS
 10
105.3039999999999
 20
64.271399999999971
 30
0.0
  0
VERTEX
  5
2EF
  8
0
  6
CONTINUOUS
 10
106.42959999999989
 20
62.303399999999982
 30
0.0
  0
VERTEX
  5
2F0
  8
0
  6
CONTINUOUS
 10
106.99079999999989
 20
61.271399999999971
 30
0.0
  0
VERTEX
  5
2F1
  8
0
  6
CONTINUOUS
 10
108.7320999999999
 20
57.478099999999984
 30
0.0
  0
VERTEX
  5
2F2
  8
0
  6
CONTINUOUS
 10
110.0322
 20
53.580299999999959
 30
0.0
  0
VERTEX
  5
2F3
  8
0
  6
CONTINUOUS
 10
111.1057999999999
 20
49.385299999999972
 30
0.0
  0
VERTEX
  5
2F4
  8
0
  6
CONTINUOUS
 10
111.8024999999999
 20
45.056299999999993
 30
0.0
  0
SEQEND
  5
2F5
  8
0
  6
CONTINUOUS
  0
POLYLINE
  5
2A
  8
0
  6
CONTINUOUS
 66
     1
 10
0.0
 20
0.0
 30
0.0
 70
     1
  0
VERTEX
  5
2F6
  8
0
  6
CONTINUOUS
 10
83.962300000000013
 20
13.875199999999969
 30
0.0
  0
VERTEX
  5
2F7
  8
0
  6
CONTINUOUS
 10
75.076999999999941
 20
15.92569999999994
 30
0.0
  0
VERTEX
  5
2F8
  8
0
  6
CONTINUOUS
 10
65.675900000000013
 20
19.508799999999969
 30
0.0
  0
VERTEX
  5
2F9
  8
0
  6
CONTINUOUS
 10
56.305799999999977
 20
24.646299999999961
 30
0.0
  0
VERTEX
  5
2FA
  8
0
  6
CONTINUOUS
 10
47.237599999999979
 20
31.138499999999961
 30
0.0
  0
VERTEX
  5
2FB
  8
0
  6
CONTINUOUS
 10
38.755400000000002
 20
38.755499999999977
 30
0.0
  0
VERTEX
  5
2FC
  8
0
  6
CONTINUOUS
 10
31.138500000000018
 20
47.237699999999961
 30
0.0
  0
VERTEX
  5
2FD
  8
0
  6
CONTINUOUS
 10
24.646299999999989
 20
56.305799999999977
 30
0.0
  0
VERTEX
  5
2FE
  8
0
  6
CONTINUOUS
 10
19.508699999999969
 20
65.675899999999984
 30
0.0
  0
VERTEX
  5
2FF
  8
0
  6
CONTINUOUS
 10
15.925700000000001
 20
75.077099999999973
 30
0.0
  0
VERTEX
  5
300
  8
0
  6
CONTINUOUS
 10
13.90839999999997
 20
83.921699999999987
 30
0.0
  0
VERTEX
  5
301
  8
0
  6
CONTINUOUS
 10
14.239699999999971
 20
92.337600000000009
 30
0.0
  0
VERTEX
  5
302
  8
0
  6
CONTINUOUS
 10
16.813300000000019
 20
100.1922999999999
 30
0.0
  0
VERTEX
  5
303
  8
0
  6
CONTINUOUS
 10
19.773699999999899
 20
105.8009999999999
 30
0.0
  0
VERTEX
  5
304
  8
0
  6
CONTINUOUS
 10
22.746699999999969
 20
108.9655999999999
 30
0.0
  0
VERTEX
  5
305
  8
0
  6
CONTINUOUS
 10
27.387499999999989
 20
112.0138
 30
0.0
  0
VERTEX
  5
306
  8
0
  6
CONTINUOUS
 10
31.219599999999961
 20
113.6078999999999
 30
0.0
  0
VERTEX
  5
307
  8
0
  6
CONTINUOUS
 10
37.421299999999967
 20
114.9653999999999
 30
0.0
  0
VERTEX
  5
308
  8
0
  6
CONTINUOUS
 10
41.785599999999988
 20
115.0417999999999
 30
0.0
  0
VERTEX
  5
309
  8
0
  6
CONTINUOUS
 10
45.777500000000032
 20
114.6948999999999
 30
0.0
  0
VERTEX
  5
30A
  8
0
  6
CONTINUOUS
 10
50.140599999999949
 20
113.7106999999999
 30
0.0
  0
VERTEX
  5
30B
  8
0
  6
CONTINUOUS
 10
54.380999999999972
 20
112.2465999999999
 30
0.0
  0
VERTEX
  5
30C
  8
0
  6
CONTINUOUS
 10
58.313199999999988
 20
110.5314
 30
0.0
  0
VERTEX
  5
30D
  8
0
  6
CONTINUOUS
 10
62.108299999999979
 20
108.4292999999999
 30
0.0
  0
VERTEX
  5
30E
  8
0
  6
CONTINUOUS
 10
63.169899999999977
 20
107.6399999999999
 30
0.0
  0
VERTEX
  5
30F
  8
0
  6
CONTINUOUS
 10
65.117399999999975
 20
106.4712
 30
0.0
  0
VERTEX
  5
310
  8
0
  6
CONTINUOUS
 10
72.087800000000016
 20
102.4664999999999
 30
0.0
  0
VERTEX
  5
311
  8
0
  6
CONTINUOUS
 10
80.792599999999993
 20
96.085599999999999
 30
0.0
  0
VERTEX
  5
312
  8
0
  6
CONTINUOUS
 10
88.815099999999958
 20
88.815099999999958
 30
0.0
  0
VERTEX
  5
313
  8
0
  6
CONTINUOUS
 10
96.085500000000025
 20
80.792599999999965
 30
0.0
  0
VERTEX
  5
314
  8
0
  6
CONTINUOUS
 10
102.4664999999999
 20
72.087799999999987
 30
0.0
  0
VERTEX
  5
315
  8
0
  6
CONTINUOUS
 10
106.47109999999989
 20
65.117399999999975
 30
0.0
  0
VERTEX
  5
316
  8
0
  6
CONTINUOUS
 10
107.6399999999999
 20
63.169999999999959
 30
0.0
  0
VERTEX
  5
317
  8
0
  6
CONTINUOUS
 10
108.4293
 20
62.108399999999989
 30
0.0
  0
VERTEX
  5
318
  8
0
  6
CONTINUOUS
 10
110.5312999999999
 20
58.313199999999988
 30
0.0
  0
VERTEX
  5
319
  8
0
  6
CONTINUOUS
 10
112.2465
 20
54.38109999999994
 30
0.0
  0
VERTEX
  5
31A
  8
0
  6
CONTINUOUS
 10
113.7105999999999
 20
50.140599999999971
 30
0.0
  0
VERTEX
  5
31B
  8
0
  6
CONTINUOUS
 10
114.6947999999999
 20
45.777599999999971
 30
0.0
  0
VERTEX
  5
31C
  8
0
  6
CONTINUOUS
 10
115.04179999999999
 20
41.785599999999988
 30
0.0
  0
VERTEX
  5
31D
  8
0
  6
CONTINUOUS
 10
114.9653999999999
 20
37.421299999999967
 30
0.0
  0
VERTEX
  5
31E
  8
0
  6
CONTINUOUS
 10
113.6077999999999
 20
31.21969999999996
 30
0.0
  0
VERTEX
  5
31F
  8
0
  6
CONTINUOUS
 10
112.0138
 20
27.38749999999996
 30
0.0
  0
VERTEX
  5
320
  8
0
  6
CONTINUOUS
 10
108.9655999999999
 20
22.746799999999951
 30
0.0
  0
VERTEX
  5
321
  8
0
  6
CONTINUOUS
 10
105.8009999999999
 20
19.773799999999959
 30
0.0
  0
VERTEX
  5
322
  8
0
  6
CONTINUOUS
 10
100.22619999999991
 20
16.781299999999948
 30
0.0
  0
VERTEX
  5
323
  8
0
  6
CONTINUOUS
 10
92.343099999999964
 20
14.23959999999996
 30
0.0
  0
SEQEND
  5
324
  8
0
  6
CONTINUOUS
  0
POLYLINE
  5
2B
  8
0
  6
CONTINUOUS
 66
     1
 10
0.0
 20
0.0
 30
0.0
  0
VERTEX
  5
325
  8
0
  6
CONTINUOUS
 10
110.5062520591763
 20
18.907113181337898
 30
0.0
  0
VERTEX
  5
326
  8
0
  6
CONTINUOUS
 10
107.21889999999991
 20
16.533899999999988
 30
0.0
  0
VERTEX
  5
327
  8
0
  6
CONTINUOUS
 10
99.942599999999956
 20
13.09869999999998
 30
0.0
  0
VERTEX
  5
328
  8
0
  6
CONTINUOUS
 10
92.035099999999971
 20
10.22109999999997
 30
0.0
  0
VERTEX
  5
329
  8
0
  6
CONTINUOUS
 10
83.254599999999968
 20
9.6175999999999533
 30
0.0
  0
VERTEX
  5
32A
  8
0
  6
CONTINUOUS
 10
40.099799999999959
 20
9.6463999999999714
 30
0.0
  0
VERTEX
  5
32B
  8
0
  6
CONTINUOUS
 10
38.71350000000001
 20
9.9002999999999872
 30
0.0
  0
VERTEX
  5
32C
  8
0
  6
CONTINUOUS
 10
37.787000000000027
 20
10.161399999999979
 30
0.0
  0
VERTEX
  5
32D
  8
0
  6
CONTINUOUS
 10
37.376399999999983
 20
10.16599999999996
 30
0.0
  0
VERTEX
  5
32E
  8
0
  6
CONTINUOUS
 10
35.420499999999997
 20
10.015799999999951
 30
0.0
  0
VERTEX
  5
32F
  8
0
  6
CONTINUOUS
 10
33.285499999999949
 20
10.029299999999971
 30
0.0
  0
VERTEX
  5
330
  8
0
  6
CONTINUOUS
 10
29.745000000000001
 20
10.549599999999989
 30
0.0
  0
VERTEX
  5
331
  8
0
  6
CONTINUOUS
 10
23.248700000000039
 20
13.3949
 30
0.0
  0
VERTEX
  5
332
  8
0
  6
CONTINUOUS
 10
17.79899999999995
 20
17.767099999999999
 30
0.0
  0
VERTEX
  5
333
  8
0
  6
CONTINUOUS
 10
13.42679999999992
 20
23.216799999999999
 30
0.0
  0
VERTEX
  5
334
  8
0
  6
CONTINUOUS
 10
10.58139999999994
 20
29.713200000000001
 30
0.0
  0
VERTEX
  5
335
  8
0
  6
CONTINUOUS
 10
10.06109999999998
 20
33.253600000000027
 30
0.0
  0
VERTEX
  5
336
  8
0
  6
CONTINUOUS
 10
10.04769999999993
 20
35.3887
 30
0.0
  0
VERTEX
  5
337
  8
0
  6
CONTINUOUS
 10
10.19789999999997
 20
37.344499999999982
 30
0.0
  0
VERTEX
  5
338
  8
0
  6
CONTINUOUS
 10
10.19329999999999
 20
37.755200000000002
 30
0.0
  0
VERTEX
  5
339
  8
0
  6
CONTINUOUS
 10
9.9321999999999946
 20
38.681699999999999
 30
0.0
  0
VERTEX
  5
33A
  8
0
  6
CONTINUOUS
 10
9.6782999999999504
 20
40.067900000000009
 30
0.0
  0
VERTEX
  5
33B
  8
0
  6
CONTINUOUS
 10
9.6499999999999773
 20
83.218900000000005
 30
0.0
  0
VERTEX
  5
33C
  8
0
  6
CONTINUOUS
 10
10.245999999999979
 20
92.007799999999975
 30
0.0
  0
VERTEX
  5
33D
  8
0
  6
CONTINUOUS
 10
13.0702
 20
99.970100000000016
 30
0.0
  0
VERTEX
  5
33E
  8
0
  6
CONTINUOUS
 10
16.53389999999996
 20
107.21889999999991
 30
0.0
  0
VERTEX
  5
33F
  8
0
  6
CONTINUOUS
 10
20.814900000000019
 20
113.1489
 30
0.0
  0
VERTEX
  5
340
  8
0
  6
CONTINUOUS
 10
25.7545
 20
117.1771999999999
 30
0.0
  0
VERTEX
  5
341
  8
0
  6
CONTINUOUS
 10
31.197999999999968
 20
119.33929999999989
 30
0.0
  0
VERTEX
  5
342
  8
0
  6
CONTINUOUS
 10
37.625099999999968
 20
120.14099999999991
 30
0.0
  0
VERTEX
  5
343
  8
0
  6
CONTINUOUS
 10
42.832500000000039
 20
119.5657999999999
 30
0.0
  0
VERTEX
  5
344
  8
0
  6
CONTINUOUS
 10
48.485199999999971
 20
118.79049999999999
 30
0.0
  0
VERTEX
  5
345
  8
0
  6
CONTINUOUS
 10
53.656199999999963
 20
117.2198999999999
 30
0.0
  0
VERTEX
  5
346
  8
0
  6
CONTINUOUS
 10
58.222099999999948
 20
114.884
 30
0.0
  0
VERTEX
  5
347
  8
0
  6
CONTINUOUS
 10
58.222099999999948
 20
114.884
 30
0.0
  0
VERTEX
  5
348
  8
0
  6
CONTINUOUS
 10
61.803899999999999
 20
112.31610000000001
 30
0.0
  0
VERTEX
  5
349
  8
0
  6
CONTINUOUS
 10
64.398699999999963
 20
109.6879
 30
0.0
  0
VERTEX
  5
34A
  8
0
  6
CONTINUOUS
 10
65.234500000000025
 20
109.0019999999999
 30
0.0
  0
VERTEX
  5
34B
  8
0
  6
CONTINUOUS
 10
66.386500000000012
 20
108.22190000000001
 30
0.0
  0
VERTEX
  5
34C
  8
0
  6
CONTINUOUS
 10
73.64349999999996
 20
103.83839999999989
 30
0.0
  0
VERTEX
  5
34D
  8
0
  6
CONTINUOUS
 10
81.704699999999988
 20
97.067399999999964
 30
0.0
  0
VERTEX
  5
34E
  8
0
  6
CONTINUOUS
 10
90.006199999999964
 20
90.006199999999964
 30
0.0
  0
VERTEX
  5
34F
  8
0
  6
CONTINUOUS
 10
97.067399999999964
 20
81.704799999999963
 30
0.0
  0
VERTEX
  5
350
  8
0
  6
CONTINUOUS
 10
103.8383
 20
73.64349999999996
 30
0.0
  0
VERTEX
  5
351
  8
0
  6
CONTINUOUS
 10
108.22190000000001
 20
66.386599999999973
 30
0.0
  0
VERTEX
  5
352
  8
0
  6
CONTINUOUS
 10
109.00189999999991
 20
65.234599999999972
 30
0.0
  0
VERTEX
  5
353
  8
0
  6
CONTINUOUS
 10
109.6877999999999
 20
64.398699999999963
 30
0.0
  0
VERTEX
  5
354
  8
0
  6
CONTINUOUS
 10
112.3159999999999
 20
61.803999999999967
 30
0.0
  0
VERTEX
  5
355
  8
0
  6
CONTINUOUS
 10
114.8838999999999
 20
58.22219999999998
 30
0.0
  0
VERTEX
  5
356
  8
0
  6
CONTINUOUS
 10
117.21979999999991
 20
53.656199999999963
 30
0.0
  0
VERTEX
  5
357
  8
0
  6
CONTINUOUS
 10
118.79049999999989
 20
48.48529999999996
 30
0.0
  0
VERTEX
  5
358
  8
0
  6
CONTINUOUS
 10
119.56569999999989
 20
42.832499999999982
 30
0.0
  0
VERTEX
  5
359
  8
0
  6
CONTINUOUS
 10
120.1408999999999
 20
37.625099999999968
 30
0.0
  0
VERTEX
  5
35A
  8
0
  6
CONTINUOUS
 10
119.33920000000001
 20
31.197999999999968
 30
0.0
  0
VERTEX
  5
35B
  8
0
  6
CONTINUOUS
 10
117.1770999999999
 20
25.754599999999979
 30
0.0
  0
VERTEX
  5
35C
  8
0
  6
CONTINUOUS
 10
115.54968740891439
 20
23.758936930592931
 30
0.0
  0
SEQEND
  5
35D
  8
0
  6
CONTINUOUS
  0
CIRCLE
  5
2C
  8
0
  6
CONTINUOUS
 10
78.301844132323794
 20
78.264900792798841
 30
0.0
 40
1.9908992076902621
  0
POLYLINE
  5
2D
  8
0
  6
CONTINUOUS
 66
     1
 10
0.0
 20
0.0
 30
0.0
 70
     1
  0
VERTEX
  5
35E
  8
0
  6
CONTINUOUS
 10
111.48909999999989
 20
17.89719999999997
 30
0.0
  0
VERTEX
  5
35F
  8
0
  6
CONTINUOUS
 10
111.8659
 20
17.896899999999949
 30
0.0
  0
VERTEX
  5
360
  8
0
  6
CONTINUOUS
 10
112.5616999999999
 20
18.273199999999971
 30
0.0
  0
VERTEX
  5
361
  8
0
  6
CONTINUOUS
 10
113.47069999999999
 20
18.968599999999949
 30
0.0
  0
VERTEX
  5
362
  8
0
  6
CONTINUOUS
 10
114.4544999999999
 20
19.877399999999959
 30
0.0
  0
VERTEX
  5
363
  8
0
  6
CONTINUOUS
 10
115.3632999999999
 20
20.861199999999972
 30
0.0
  0
VERTEX
  5
364
  8
0
  6
CONTINUOUS
 10
116.0586999999999
 20
21.77019999999996
 30
0.0
  0
VERTEX
  5
365
  8
0
  6
CONTINUOUS
 10
116.4348999999999
 20
22.46599999999998
 30
0.0
  0
VERTEX
  5
366
  8
0
  6
CONTINUOUS
 10
116.4345999999999
 20
22.842699999999951
 30
0.0
  0
VERTEX
  5
367
  8
0
  6
CONTINUOUS
 10
115.4853999999999
 20
23.82549999999997
 30
0.0
  0
VERTEX
  5
368
  8
0
  6
CONTINUOUS
 10
115.48569999999999
 20
23.446199999999969
 30
0.0
  0
VERTEX
  5
369
  8
0
  6
CONTINUOUS
 10
115.1068999999999
 20
22.745699999999971
 30
0.0
  0
VERTEX
  5
36A
  8
0
  6
CONTINUOUS
 10
114.4529999999999
 20
21.771399999999971
 30
0.0
  0
VERTEX
  5
36B
  8
0
  6
CONTINUOUS
 10
113.4917999999999
 20
20.839999999999971
 30
0.0
  0
VERTEX
  5
36C
  8
0
  6
CONTINUOUS
 10
112.56049999999991
 20
19.878799999999949
 30
0.0
  0
VERTEX
  5
36D
  8
0
  6
CONTINUOUS
 10
111.58619999999991
 20
19.224899999999959
 30
0.0
  0
VERTEX
  5
36E
  8
0
  6
CONTINUOUS
 10
110.8856
 20
18.846199999999978
 30
0.0
  0
VERTEX
  5
36F
  8
0
  6
CONTINUOUS
 10
110.5063
 20
18.846499999999988
 30
0.0
  0
SEQEND
  5
370
  8
0
  6
CONTINUOUS
  0
POLYLINE
  5
2E
  8
0
  6
CONTINUOUS
 66
     1
 10
0.0
 20
0.0
 30
0.0
  0
VERTEX
  5
371
  8
0
  6
CONTINUOUS
 10
110.5063
 20
18.846499999999988
 30
0.0
  0
VERTEX
  5
372
  8
0
  6
CONTINUOUS
 10
110.5059999999999
 20
19.22579999999996
 30
0.0
  0
VERTEX
  5
373
  8
0
  6
CONTINUOUS
 10
110.8496999999999
 20
19.241799999999952
 30
0.0
  0
VERTEX
  5
374
  8
0
  6
CONTINUOUS
 10
111.49549999999989
 20
19.590999999999951
 30
0.0
  0
VERTEX
  5
375
  8
0
  6
CONTINUOUS
 10
112.3391
 20
20.236399999999971
 30
0.0
  0
VERTEX
  5
376
  8
0
  6
CONTINUOUS
 10
113.1489
 20
20.814899999999991
 30
0.0
  0
VERTEX
  5
377
  8
0
  6
CONTINUOUS
 10
114.0955
 20
21.992799999999988
 30
0.0
  0
VERTEX
  5
378
  8
0
  6
CONTINUOUS
 10
114.74079999999989
 20
22.836399999999969
 30
0.0
  0
VERTEX
  5
379
  8
0
  6
CONTINUOUS
 10
115.0899999999999
 20
23.482099999999971
 30
0.0
  0
VERTEX
  5
37A
  8
0
  6
CONTINUOUS
 10
115.1060999999999
 20
23.825799999999951
 30
0.0
  0
VERTEX
  5
37B
  8
0
  6
CONTINUOUS
 10
115.4853999999999
 20
23.82549999999997
 30
0.0
  0
SEQEND
  5
37C
  8
0
  6
CONTINUOUS
  0
POLYLINE
  5
2F
  8
0
  6
CONTINUOUS
 66
     1
 10
0.0
 20
0.0
 30
0.0
  0
VERTEX
  5
37D
  8
0
  6
CONTINUOUS
 10
115.08969999999999
 20
23.831799999999951
 30
0.0
  0
VERTEX
  5
37E
  8
0
  6
CONTINUOUS
 10
114.7400999999999
 20
23.831999999999962
 30
0.0
  0
VERTEX
  5
37F
  8
0
  6
CONTINUOUS
 10
114.0943
 20
23.482899999999969
 30
0.0
  0
VERTEX
  5
380
  8
0
  6
CONTINUOUS
 10
113.2506999999999
 20
22.837499999999949
 30
0.0
  0
VERTEX
  5
381
  8
0
  6
CONTINUOUS
 10
112.3376999999999
 20
21.994099999999971
 30
0.0
  0
VERTEX
  5
382
  8
0
  6
CONTINUOUS
 10
111.4943
 20
21.08109999999996
 30
0.0
  0
VERTEX
  5
383
  8
0
  6
CONTINUOUS
 10
110.8489
 20
20.237499999999951
 30
0.0
  0
VERTEX
  5
384
  8
0
  6
CONTINUOUS
 10
110.49979999999989
 20
19.591699999999971
 30
0.0
  0
VERTEX
  5
385
  8
0
  6
CONTINUOUS
 10
110.5059999999999
 20
19.22579999999996
 30
0.0
  0
SEQEND
  5
386
  8
0
  6
CONTINUOUS
  0
DIMENSION
  5
3A
  8
COTATION-JACOBDELAFON
  2
*D0
 10
-8.0308239904600143
 20
135.0
 30
0.0
 11
-11.99630830151051
 21
67.5
 31
0.0
 70
     0
 13
-2.260450687749354
 23
0.0
 33
0.0
 14
-2.0551688042659459
 24
135.0
 34
0.0
 50
90.0
1001
ACAD
1000
DSTYLE
1002
{
1070
   140
1040
6.0
1002
}
  0
DIMENSION
  5
49
  8
COTATION-JACOBDELAFON
  2
*D1
 10
-0.0000000000000005
 20
-9.5329646694400196
 30
0.0
 11
67.5
 21
-5.5674803583895409
 31
0.0
 70
     0
 13
135.0
 23
-1.4094462146107949
 33
0.0
 14
0.0
 24
-1.4094462146107949
 34
0.0
1001
ACAD
1000
DSTYLE
1002
{
1070
   140
1040
6.0
1002
}
  0
INSERT
  5
D9
 67
     1
  8
0
  6
CONTINUOUS
  2
ADCADD_ZZ
 10
0.0
 20
0.0
 30
0.0
1001
ADCADD_ZZ
1070
   205
1070
    14
1070
   209
1070
     1
1070
   231
1070
     0
1070
   235
1070
     0
1070
   236
1070
     4
1070
   237
1070
     2
1070
   238
1070
     4
1070
   239
1070
     2
1070
   240
1070
     0
1070
   241
1070
  4096
1070
   242
1070
     2
1070
   244
1070
     0
1070
   245
1070
     1
1070
   303
1040
0.1
1070
   304
1040
4.0
1070
   305
1040
96.0
1070
   306
1040
0.125
1070
   337
1040
0.0
1070
   338
1040
0.3048
1070
   339
1040
0.0625
1070
   340
1040
96.0
1070
   341
1040
4.0
1070
   342
1040
96.0
1070
   530
1010
0.0
1020
0.0
1030
0.0
1070
   531
1010
0.0
1020
0.0
1030
0.0
1070
   107
1000

1070
   108
1000
AIA (256 Color)
1070
   135
1000
L120
1070
   136
1000
'
1070
   137
1000
m
1001
SDSK_PMN
1070
   100
1000
ACADARCH
1070
   300
1040
2453076.6361654862
  0
ENDSEC
  0
EOF
