  0
SECTION
  2
HEADER
  9
$ACADVER
  1
AC1009
  9
$INSBASE
 10
0.0
 20
0.0
 30
0.0
  9
$EXTMIN
 10
-12.516911339924389
 20
-0.9099999999999836
 30
0.0
  9
$EXTMAX
 10
100.90029924916089
 20
56.598935729503552
 30
0.0
  9
$LIMMIN
 10
0.0
 20
0.0
  9
$LIMMAX
 10
12.0
 20
9.0
  9
$ORTHOMODE
 70
     1
  9
$REGENMODE
 70
     1
  9
$FILLMODE
 70
     1
  9
$QTEXTMODE
 70
     0
  9
$MIRRTEXT
 70
     1
  9
$DRAGMODE
 70
     2
  9
$LTSCALE
 40
1.0
  9
$OSMODE
 70
     1
  9
$ATTMODE
 70
     1
  9
$TEXTSIZE
 40
0.2
  9
$TRACEWID
 40
0.05
  9
$TEXTSTYLE
  7
STANDARD
  9
$CLAYER
  8
0
  9
$CELTYPE
  6
CONTINUOUS
  9
$CECOLOR
 62
   256
  9
$DIMSCALE
 40
96.0
  9
$DIMASZ
 40
0.18
  9
$DIMEXO
 40
0.0625
  9
$DIMDLI
 40
0.38
  9
$DIMRND
 40
0.0
  9
$DIMDLE
 40
0.0
  9
$DIMEXE
 40
0.18
  9
$DIMTP
 40
0.0
  9
$DIMTM
 40
0.0
  9
$DIMTXT
 40
0.18
  9
$DIMCEN
 40
0.09
  9
$DIMTSZ
 40
0.0
  9
$DIMTOL
 70
     0
  9
$DIMLIM
 70
     0
  9
$DIMTIH
 70
     1
  9
$DIMTOH
 70
     1
  9
$DIMSE1
 70
     0
  9
$DIMSE2
 70
     0
  9
$DIMTAD
 70
     0
  9
$DIMZIN
 70
     0
  9
$DIMBLK
  1

  9
$DIMASO
 70
     1
  9
$DIMSHO
 70
     1
  9
$DIMPOST
  1

  9
$DIMAPOST
  1

  9
$DIMALT
 70
     0
  9
$DIMALTD
 70
     2
  9
$DIMALTF
 40
25.399999999999999
  9
$DIMLFAC
 40
1.0
  9
$DIMTOFL
 70
     0
  9
$DIMTVP
 40
0.0
  9
$DIMTIX
 70
     0
  9
$DIMSOXD
 70
     0
  9
$DIMSAH
 70
     0
  9
$DIMBLK1
  1

  9
$DIMBLK2
  1

  9
$DIMSTYLE
  2
STANDARD
  9
$DIMCLRD
 70
     0
  9
$DIMCLRE
 70
     0
  9
$DIMCLRT
 70
     0
  9
$DIMTFAC
 40
1.0
  9
$DIMGAP
 40
0.09
  9
$LUNITS
 70
     2
  9
$LUPREC
 70
     4
  9
$SKETCHINC
 40
0.1
  9
$FILLETRAD
 40
0.0
  9
$AUNITS
 70
     0
  9
$AUPREC
 70
     2
  9
$MENU
  1
.
  9
$ELEVATION
 40
0.0
  9
$PELEVATION
 40
0.0
  9
$THICKNESS
 40
0.0
  9
$LIMCHECK
 70
     0
  9
$BLIPMODE
 70
     0
  9
$CHAMFERA
 40
0.0
  9
$CHAMFERB
 40
0.0
  9
$SKPOLY
 70
     0
  9
$TDCREATE
 40
2453066.497988842
  9
$TDUPDATE
 40
2453076.590477569
  9
$TDINDWG
 40
0.0362729861
  9
$TDUSRTIMER
 40
0.0362729861
  9
$USRTIMER
 70
     1
  9
$ANGBASE
 50
0.0
  9
$ANGDIR
 70
     0
  9
$PDMODE
 70
     0
  9
$PDSIZE
 40
0.0
  9
$PLINEWID
 40
0.0
  9
$COORDS
 70
     1
  9
$SPLFRAME
 70
     0
  9
$SPLINETYPE
 70
     6
  9
$SPLINESEGS
 70
     8
  9
$ATTDIA
 70
     1
  9
$ATTREQ
 70
     1
  9
$HANDLING
 70
 22529
  9
$HANDSEED
  5
2BD
  9
$SURFTAB1
 70
     6
  9
$SURFTAB2
 70
     6
  9
$SURFTYPE
 70
     6
  9
$SURFU
 70
     6
  9
$SURFV
 70
     6
  9
$UCSNAME
  2

  9
$UCSORG
 10
0.0
 20
0.0
 30
0.0
  9
$UCSXDIR
 10
1.0
 20
0.0
 30
0.0
  9
$UCSYDIR
 10
0.0
 20
1.0
 30
0.0
  9
$PUCSNAME
  2

  9
$PUCSORG
 10
0.0
 20
0.0
 30
0.0
  9
$PUCSXDIR
 10
1.0
 20
0.0
 30
0.0
  9
$PUCSYDIR
 10
0.0
 20
1.0
 30
0.0
  9
$USERI1
 70
     0
  9
$USERI2
 70
     0
  9
$USERI3
 70
     0
  9
$USERI4
 70
     0
  9
$USERI5
 70
     0
  9
$USERR1
 40
0.0
  9
$USERR2
 40
0.0
  9
$USERR3
 40
0.0
  9
$USERR4
 40
0.0
  9
$USERR5
 40
0.0
  9
$WORLDVIEW
 70
     1
  9
$SHADEDGE
 70
     3
  9
$SHADEDIF
 70
    70
  9
$TILEMODE
 70
     1
  9
$MAXACTVP
 70
    64
  9
$PLIMCHECK
 70
     0
  9
$PEXTMIN
 10
-161.8870169948037
 20
-0.6248517063212377
 30
0.0
  9
$PEXTMAX
 10
554.30321068478793
 20
449.43014803948489
 30
0.0
  9
$PLIMMIN
 10
-0.1979161059762549
 20
-0.2679166643638311
  9
$PLIMMAX
 10
11.493750144177531
 20
7.9987497780266699
  9
$UNITMODE
 70
     0
  9
$VISRETAIN
 70
     1
  9
$PLINEGEN
 70
     0
  9
$PSLTSCALE
 70
     1
  0
ENDSEC
  0
SECTION
  2
TABLES
  0
TABLE
  2
VPORT
 70
     2
  0
VPORT
  2
*ACTIVE
 70
     0
 10
0.0
 20
0.0
 11
1.0
 21
1.0
 12
47.321194778059343
 22
27.84335573901512
 13
0.0
 23
0.0
 14
1.0
 24
1.0
 15
0.0
 25
0.0
 16
0.0
 26
0.0
 36
1.0
 17
0.0
 27
0.0
 37
0.0
 40
62.460709796120227
 41
1.928853754940711
 42
50.0
 43
0.0
 44
0.0
 50
0.0
 51
0.0
 71
     0
 72
   100
 73
     1
 74
     1
 75
     0
 76
     0
 77
     0
 78
     0
  0
ENDTAB
  0
TABLE
  2
LTYPE
 70
     1
  0
LTYPE
  2
CONTINUOUS
 70
     0
  3
Solid line
 72
    65
 73
     0
 40
0.0
  0
ENDTAB
  0
TABLE
  2
LAYER
 70
     3
  0
LAYER
  2
0
 70
     0
 62
     7
  6
CONTINUOUS
  0
LAYER
  2
DEFPOINTS
 70
     0
 62
     7
  6
CONTINUOUS
  0
LAYER
  2
COTATION-JACOBDELAFON
 70
     0
 62
     8
  6
CONTINUOUS
  0
ENDTAB
  0
TABLE
  2
STYLE
 70
     2
  0
STYLE
  2
STANDARD
 70
     0
 40
0.0
 41
1.0
 50
0.0
 71
     0
 42
0.2
  3
txt
  4

  0
STYLE
  2
JACOB-DELAFON
 70
     0
 40
0.0
 41
1.0
 50
0.0
 71
     0
 42
2.5
  3
txt
  4

  0
ENDTAB
  0
TABLE
  2
VIEW
 70
     0
  0
ENDTAB
  0
TABLE
  2
UCS
 70
     0
  0
ENDTAB
  0
TABLE
  2
APPID
 70
     5
  0
APPID
  2
ACAD
 70
     0
  0
APPID
  2
ADCADD_ZZ
 70
     0
  0
APPID
  2
SDSK_PMN
 70
     0
  0
APPID
  2
AEC_DWGVARSSETUP_DATA
 70
     0
  0
APPID
  2
AEC_DISPREPSET_DATA
 70
     0
  0
ENDTAB
  0
TABLE
  2
DIMSTYLE
 70
     2
  0
DIMSTYLE
  2
STANDARD
 70
     0
  3

  4

  5

  6

  7

 40
1.0
 41
0.18
 42
0.0625
 43
0.38
 44
0.18
 45
0.0
 46
0.0
 47
0.0
 48
0.0
140
0.18
141
0.09
142
0.0
143
25.399999999999999
144
1.0
145
0.0
146
1.0
147
0.09
 71
     0
 72
     0
 73
     1
 74
     1
 75
     0
 76
     0
 77
     0
 78
     0
170
     0
171
     2
172
     0
173
     0
174
     0
175
     0
176
     0
177
     0
178
     0
  0
DIMSTYLE
  2
COTATION-JACOB-DELAFON
 70
     0
  3

  4

  5
OBLIQUE
  6

  7

 40
1.0
 41
1.8
 42
0.625
 43
3.7999999999999989
 44
1.8
 45
0.0
 46
0.0
 47
0.0
 48
0.0
140
3.0
141
0.9
142
0.0
143
25.399999999999999
144
1.0
145
0.0
146
1.0
147
0.9
 71
     0
 72
     0
 73
     0
 74
     0
 75
     0
 76
     0
 77
     1
 78
    12
170
     0
171
     2
172
     0
173
     0
174
     0
175
     0
176
     0
177
     0
178
     0
  0
ENDTAB
  0
ENDSEC
  0
SECTION
  2
BLOCKS
  0
BLOCK
  8
0
  2
$MODEL_SPACE
 70
     0
 10
0.0
 20
0.0
 30
0.0
  3
$MODEL_SPACE
  1

  0
ENDBLK
  5
9
  8
0
  0
BLOCK
 67
     1
  8
0
  2
$PAPER_SPACE
 70
     0
 10
0.0
 20
0.0
 30
0.0
  3
$PAPER_SPACE
  1

  0
ENDBLK
  5
10
 67
     1
  8
0
  0
BLOCK
  8
0
  2
ADCADD_ZZ
 70
     0
 10
0.0
 20
0.0
 30
0.0
  3
ADCADD_ZZ
  1

  0
ENDBLK
  5
4B
  8
0
  0
BLOCK
  8
0
  2
_OBLIQUE
 70
     0
 10
0.0
 20
0.0
 30
0.0
  3
_OBLIQUE
  1

  0
LINE
  5
196
  8
0
  6
BYBLOCK
 62
     0
 10
-0.5
 20
-0.5
 30
0.0
 11
0.5
 21
0.5
 31
0.0
  0
ENDBLK
  5
198
  8
0
  0
BLOCK
  8
0
  2
*D2
 70
     1
 10
0.0
 20
0.0
 30
0.0
  3
*D2
  1

  0
LINE
  5
27B
  8
COTATION-JACOBDELAFON
 62
     0
 10
-0.0000955585487076
 20
43.110330759850392
 30
0.0
 11
-0.000095558548707
 21
53.647639685847352
 31
0.0
  0
LINE
  5
27C
  8
COTATION-JACOBDELAFON
 62
     0
 10
100.0002992491609
 20
43.110330759850392
 30
0.0
 11
100.0002992491609
 21
53.647639685847352
 31
0.0
  0
LINE
  5
27D
  8
COTATION-JACOBDELAFON
 62
     0
 10
-0.0000955585487071
 20
51.847639685847362
 30
0.0
 11
100.0002992491609
 21
51.847639685847362
 31
0.0
  0
INSERT
  5
27E
  8
COTATION-JACOBDELAFON
 62
     0
  2
_OBLIQUE
 10
-0.0000955585487071
 20
51.847639685847362
 30
0.0
 41
1.8
 42
1.8
 43
1.8
 50
180.0
  0
INSERT
  5
27F
  8
COTATION-JACOBDELAFON
 62
     0
  2
_OBLIQUE
 10
100.0002992491609
 20
51.847639685847362
 30
0.0
 41
1.8
 42
1.8
 43
1.8
  0
TEXT
  5
280
  8
0
  6
CONTINUOUS
 62
     0
 10
46.375954505606281
 20
52.804938458016522
 30
0.0
 40
3.0
  1
100
  7
JACOB-DELAFON
  0
POINT
  5
281
  8
DEFPOINTS
 62
     0
 10
-0.0000955585487077
 20
42.485330759850392
 30
0.0
  0
POINT
  5
282
  8
DEFPOINTS
 62
     0
 10
100.0002992491609
 20
42.485330759850392
 30
0.0
  0
POINT
  5
283
  8
DEFPOINTS
 62
     0
 10
100.0002992491609
 20
51.847639685847362
 30
0.0
  0
ENDBLK
  5
1BC
  8
0
  0
BLOCK
  8
0
  2
*D3
 70
     1
 10
0.0
 20
0.0
 30
0.0
  3
*D3
  1

  0
LINE
  5
284
  8
COTATION-JACOBDELAFON
 62
     0
 10
-0.0239008941104544
 20
43.086202914186742
 30
0.0
 11
-9.5635689115478542
 21
43.086202914186742
 31
0.0
  0
LINE
  5
285
  8
COTATION-JACOBDELAFON
 62
     0
 10
49.718638779122237
 20
-0.0099999999999996
 30
0.0
 11
-9.5635689115478613
 21
-0.0099999999999828
 31
0.0
  0
LINE
  5
286
  8
COTATION-JACOBDELAFON
 62
     0
 10
-7.7635689115478543
 20
43.086202914186742
 30
0.0
 11
-7.7635689115478641
 21
-0.0099999999999833
 31
0.0
  0
INSERT
  5
287
  8
COTATION-JACOBDELAFON
 62
     0
  2
_OBLIQUE
 10
-7.7635689115478543
 20
43.086202914186742
 30
0.0
 41
1.8
 42
1.8
 43
1.8
 50
90.0
  0
INSERT
  5
288
  8
COTATION-JACOBDELAFON
 62
     0
  2
_OBLIQUE
 10
-7.7635689115478641
 20
-0.0099999999999833
 30
0.0
 41
1.8
 42
1.8
 43
1.8
 50
270.0
  0
TEXT
  5
289
  8
0
  6
CONTINUOUS
 62
     0
 10
-8.7229140684373565
 20
17.817774035538118
 30
0.0
 40
3.0
  1
43.1
 50
90.0
  7
JACOB-DELAFON
  0
POINT
  5
28A
  8
DEFPOINTS
 62
     0
 10
0.6010991058895457
 20
43.086202914186742
 30
0.0
  0
POINT
  5
28B
  8
DEFPOINTS
 62
     0
 10
50.343638779122237
 20
-0.0099999999999998
 30
0.0
  0
POINT
  5
28C
  8
DEFPOINTS
 62
     0
 10
-7.7635689115478641
 20
-0.0099999999999833
 30
0.0
  0
ENDBLK
  5
1E3
  8
0
  0
ENDSEC
  0
SECTION
  2
ENTITIES
  0
POLYLINE
  5
26
  8
0
  6
CONTINUOUS
 66
     1
 10
0.0
 20
0.0
 30
0.0
 70
     1
  0
VERTEX
  5
296
  8
0
  6
CONTINUOUS
 10
100.0002992491609
 20
40.080313205725531
 30
0.0
  0
VERTEX
  5
297
  8
0
  6
CONTINUOUS
 10
100.0002992491609
 20
42.485330759850392
 30
0.0
  0
VERTEX
  5
298
  8
0
  6
CONTINUOUS
 10
99.824250540376624
 20
42.91037518454629
 30
0.0
  0
VERTEX
  5
299
  8
0
  6
CONTINUOUS
 10
99.399098612313423
 20
43.086202914186742
 30
0.0
  0
VERTEX
  5
29A
  8
0
  6
CONTINUOUS
 10
0.6010991058895457
 20
43.086202914186742
 30
0.0
  0
VERTEX
  5
29B
  8
0
  6
CONTINUOUS
 10
0.1760546811936479
 20
42.91037518454629
 30
0.0
  0
VERTEX
  5
29C
  8
0
  6
CONTINUOUS
 10
-0.0000955585487077
 20
42.485330759850392
 30
0.0
  0
VERTEX
  5
29D
  8
0
  6
CONTINUOUS
 10
0.0
 20
40.080313205725531
 30
0.0
  0
SEQEND
  5
29E
  8
0
  6
CONTINUOUS
  0
POLYLINE
  5
27
  8
0
  6
CONTINUOUS
 66
     1
 10
0.0
 20
0.0
 30
0.0
  0
VERTEX
  5
29F
  8
0
  6
CONTINUOUS
 10
93.22920319111698
 20
40.080313205725531
 30
0.0
  0
VERTEX
  5
2A0
  8
0
  6
CONTINUOUS
 10
89.934167699656982
 20
6.3113891147674979
 30
0.0
  0
VERTEX
  5
2A1
  8
0
  6
CONTINUOUS
 10
89.200499024649602
 20
3.8100485435352791
 30
0.0
  0
VERTEX
  5
2A2
  8
0
  6
CONTINUOUS
 10
87.662824610369483
 20
1.80561242563464
 30
0.0
  0
VERTEX
  5
2A3
  8
0
  6
CONTINUOUS
 10
85.516030144516776
 20
0.4731440223162533
 30
0.0
  0
VERTEX
  5
2A4
  8
0
  6
CONTINUOUS
 10
82.954410046271605
 20
-0.0099999999999998
 30
0.0
  0
VERTEX
  5
2A5
  8
0
  6
CONTINUOUS
 10
17.532867511972881
 20
-0.0099999999999998
 30
0.0
  0
VERTEX
  5
2A6
  8
0
  6
CONTINUOUS
 10
14.97655688559086
 20
0.4731440223162533
 30
0.0
  0
VERTEX
  5
2A7
  8
0
  6
CONTINUOUS
 10
12.834265616346499
 20
1.80561242563464
 30
0.0
  0
VERTEX
  5
2A8
  8
0
  6
CONTINUOUS
 10
11.29989394440639
 20
3.8100485435352791
 30
0.0
  0
VERTEX
  5
2A9
  8
0
  6
CONTINUOUS
 10
10.56764073040193
 20
6.3113891147674979
 30
0.0
  0
VERTEX
  5
2AA
  8
0
  6
CONTINUOUS
 10
7.2252497050555462
 20
40.080313205725467
 30
0.0
  0
SEQEND
  5
2AB
  8
0
  6
CONTINUOUS
  0
POLYLINE
  5
28
  8
0
  6
CONTINUOUS
 66
     1
 10
0.0
 20
0.0
 30
0.0
  0
VERTEX
  5
2AC
  8
0
  6
CONTINUOUS
 10
92.873958582514319
 20
40.080313205725531
 30
0.0
  0
VERTEX
  5
2AD
  8
0
  6
CONTINUOUS
 10
83.873748981437288
 20
6.3113891147674979
 30
0.0
  0
VERTEX
  5
2AE
  8
0
  6
CONTINUOUS
 10
82.719138926919513
 20
3.8100485435352791
 30
0.0
  0
VERTEX
  5
2AF
  8
0
  6
CONTINUOUS
 10
81.145393090441814
 20
1.80561242563464
 30
0.0
  0
VERTEX
  5
2B0
  8
0
  6
CONTINUOUS
 10
78.909621670914419
 20
0.4731440223162533
 30
0.0
  0
VERTEX
  5
2B1
  8
0
  6
CONTINUOUS
 10
76.432361853959094
 20
-0.0099999999999998
 30
0.0
  0
SEQEND
  5
2B2
  8
0
  6
CONTINUOUS
  0
POLYLINE
  5
29
  8
0
  6
CONTINUOUS
 66
     1
 10
0.0
 20
0.0
 30
0.0
  0
VERTEX
  5
2B3
  8
0
  6
CONTINUOUS
 10
68.556531022320243
 20
40.080313205725531
 30
0.0
  0
VERTEX
  5
2B4
  8
0
  6
CONTINUOUS
 10
61.028658255600533
 20
6.3113891147674979
 30
0.0
  0
VERTEX
  5
2B5
  8
0
  6
CONTINUOUS
 10
60.272049556491602
 20
3.8100485435352791
 30
0.0
  0
VERTEX
  5
2B6
  8
0
  6
CONTINUOUS
 10
59.336973322834012
 20
1.80561242563464
 30
0.0
  0
VERTEX
  5
2B7
  8
0
  6
CONTINUOUS
 10
58.399794801104633
 20
0.4731440223162533
 30
0.0
  0
VERTEX
  5
2B8
  8
0
  6
CONTINUOUS
 10
57.486374523550182
 20
-0.0099999999999998
 30
0.0
  0
SEQEND
  5
2B9
  8
0
  6
CONTINUOUS
  0
POLYLINE
  5
2A
  8
0
  6
CONTINUOUS
 66
     1
 10
0.0
 20
0.0
 30
0.0
  0
VERTEX
  5
2BA
  8
0
  6
CONTINUOUS
 10
89.934167699656982
 20
6.3113891147674979
 30
0.0
  0
VERTEX
  5
2BB
  8
0
  6
CONTINUOUS
 10
10.56764073040193
 20
6.3113891147674979
 30
0.0
  0
SEQEND
  5
2BC
  8
0
  6
CONTINUOUS
  0
DIMENSION
  5
1B0
  8
COTATION-JACOBDELAFON
  2
*D2
 10
100.0002992491609
 20
51.847639685847362
 30
0.0
 11
50.000101845306141
 21
54.27935864901243
 31
0.0
 70
     0
 13
-0.0000955585487077
 23
42.485330759850392
 33
0.0
 14
100.0002992491609
 24
42.485330759850392
 34
0.0
  0
DIMENSION
  5
1D7
  8
COTATION-JACOBDELAFON
  2
*D3
 10
-7.7635689115478641
 20
-0.0099999999999833
 30
0.0
 11
-10.196311067073101
 21
21.538101457093369
 31
0.0
 70
     0
 13
0.6010991058895457
 23
43.086202914186742
 33
0.0
 14
50.343638779122237
 24
-0.0099999999999998
 34
0.0
 50
90.0
  0
INSERT
  5
4C
 67
     1
  8
0
  6
CONTINUOUS
  2
ADCADD_ZZ
 10
0.0
 20
0.0
 30
0.0
1001
ADCADD_ZZ
1070
   205
1070
    14
1070
   209
1070
     1
1070
   231
1070
     0
1070
   235
1070
     0
1070
   236
1070
     4
1070
   237
1070
     2
1070
   238
1070
     4
1070
   239
1070
     2
1070
   240
1070
     0
1070
   241
1070
  4096
1070
   242
1070
     2
1070
   244
1070
     0
1070
   245
1070
     1
1070
   303
1040
0.1
1070
   304
1040
4.0
1070
   305
1040
96.0
1070
   306
1040
0.125
1070
   337
1040
0.0
1070
   338
1040
0.3048
1070
   339
1040
0.0625
1070
   340
1040
96.0
1070
   341
1040
4.0
1070
   342
1040
96.0
1070
   530
1010
0.0
1020
0.0
1030
0.0
1070
   531
1010
0.0
1020
0.0
1030
0.0
1070
   107
1000

1070
   108
1000
AIA (256 Color)
1070
   135
1000
L120
1070
   136
1000
'
1070
   137
1000
m
1001
SDSK_PMN
1070
   100
1000
ACADARCH
1070
   300
1040
2453076.5905051501
  0
ENDSEC
  0
EOF
