  0
SECTION
  2
HEADER
  9
$ACADVER
  1
AC1009
  9
$INSBASE
 10
0.0
 20
0.0
 30
0.0
  9
$EXTMIN
 10
-167.44636051753719
 20
-101.1004007801189
 30
0.0
  9
$EXTMAX
 10
0.900000000000001
 20
20.60522096003352
 30
0.0
  9
$LIMMIN
 10
0.0
 20
0.0
  9
$LIMMAX
 10
12.0
 20
9.0
  9
$ORTHOMODE
 70
     1
  9
$REGENMODE
 70
     1
  9
$FILLMODE
 70
     1
  9
$QTEXTMODE
 70
     0
  9
$MIRRTEXT
 70
     1
  9
$DRAGMODE
 70
     2
  9
$LTSCALE
 40
1.0
  9
$OSMODE
 70
     1
  9
$ATTMODE
 70
     1
  9
$TEXTSIZE
 40
0.2
  9
$TRACEWID
 40
0.05
  9
$TEXTSTYLE
  7
STANDARD
  9
$CLAYER
  8
0
  9
$CELTYPE
  6
CONTINUOUS
  9
$CECOLOR
 62
   256
  9
$DIMSCALE
 40
96.0
  9
$DIMASZ
 40
0.18
  9
$DIMEXO
 40
0.0625
  9
$DIMDLI
 40
0.38
  9
$DIMRND
 40
0.0
  9
$DIMDLE
 40
0.0
  9
$DIMEXE
 40
0.18
  9
$DIMTP
 40
0.0
  9
$DIMTM
 40
0.0
  9
$DIMTXT
 40
0.18
  9
$DIMCEN
 40
0.09
  9
$DIMTSZ
 40
0.0
  9
$DIMTOL
 70
     0
  9
$DIMLIM
 70
     0
  9
$DIMTIH
 70
     1
  9
$DIMTOH
 70
     1
  9
$DIMSE1
 70
     0
  9
$DIMSE2
 70
     0
  9
$DIMTAD
 70
     0
  9
$DIMZIN
 70
     0
  9
$DIMBLK
  1

  9
$DIMASO
 70
     1
  9
$DIMSHO
 70
     1
  9
$DIMPOST
  1

  9
$DIMAPOST
  1

  9
$DIMALT
 70
     0
  9
$DIMALTD
 70
     2
  9
$DIMALTF
 40
25.399999999999999
  9
$DIMLFAC
 40
1.0
  9
$DIMTOFL
 70
     0
  9
$DIMTVP
 40
0.0
  9
$DIMTIX
 70
     0
  9
$DIMSOXD
 70
     0
  9
$DIMSAH
 70
     0
  9
$DIMBLK1
  1

  9
$DIMBLK2
  1

  9
$DIMSTYLE
  2
STANDARD
  9
$DIMCLRD
 70
     0
  9
$DIMCLRE
 70
     0
  9
$DIMCLRT
 70
     0
  9
$DIMTFAC
 40
1.0
  9
$DIMGAP
 40
0.09
  9
$LUNITS
 70
     2
  9
$LUPREC
 70
     4
  9
$SKETCHINC
 40
0.1
  9
$FILLETRAD
 40
0.0
  9
$AUNITS
 70
     0
  9
$AUPREC
 70
     2
  9
$MENU
  1
.
  9
$ELEVATION
 40
0.0
  9
$PELEVATION
 40
0.0
  9
$THICKNESS
 40
0.0
  9
$LIMCHECK
 70
     0
  9
$BLIPMODE
 70
     0
  9
$CHAMFERA
 40
0.0
  9
$CHAMFERB
 40
0.0
  9
$SKPOLY
 70
     0
  9
$TDCREATE
 40
2453066.497988842
  9
$TDUPDATE
 40
2453076.5906538418
  9
$TDINDWG
 40
0.0429959954
  9
$TDUSRTIMER
 40
0.0429959954
  9
$USRTIMER
 70
     1
  9
$ANGBASE
 50
0.0
  9
$ANGDIR
 70
     0
  9
$PDMODE
 70
     0
  9
$PDSIZE
 40
0.0
  9
$PLINEWID
 40
0.0
  9
$COORDS
 70
     1
  9
$SPLFRAME
 70
     0
  9
$SPLINETYPE
 70
     6
  9
$SPLINESEGS
 70
     8
  9
$ATTDIA
 70
     1
  9
$ATTREQ
 70
     1
  9
$HANDLING
 70
 22529
  9
$HANDSEED
  5
3D0
  9
$SURFTAB1
 70
     6
  9
$SURFTAB2
 70
     6
  9
$SURFTYPE
 70
     6
  9
$SURFU
 70
     6
  9
$SURFV
 70
     6
  9
$UCSNAME
  2

  9
$UCSORG
 10
0.0
 20
0.0
 30
0.0
  9
$UCSXDIR
 10
1.0
 20
0.0
 30
0.0
  9
$UCSYDIR
 10
0.0
 20
1.0
 30
0.0
  9
$PUCSNAME
  2

  9
$PUCSORG
 10
0.0
 20
0.0
 30
0.0
  9
$PUCSXDIR
 10
1.0
 20
0.0
 30
0.0
  9
$PUCSYDIR
 10
0.0
 20
1.0
 30
0.0
  9
$USERI1
 70
     0
  9
$USERI2
 70
     0
  9
$USERI3
 70
     0
  9
$USERI4
 70
     0
  9
$USERI5
 70
     0
  9
$USERR1
 40
0.0
  9
$USERR2
 40
0.0
  9
$USERR3
 40
0.0
  9
$USERR4
 40
0.0
  9
$USERR5
 40
0.0
  9
$WORLDVIEW
 70
     1
  9
$SHADEDGE
 70
     3
  9
$SHADEDIF
 70
    70
  9
$TILEMODE
 70
     1
  9
$MAXACTVP
 70
    64
  9
$PLIMCHECK
 70
     0
  9
$PEXTMIN
 10
-0.4290283746865953
 20
-0.6248517063212377
 30
0.0
  9
$PEXTMAX
 10
296.57097162531329
 20
449.43014803948489
 30
0.0
  9
$PLIMMIN
 10
-0.1979161059762549
 20
-0.2679166643638311
  9
$PLIMMAX
 10
11.493750144177531
 20
7.9987497780266699
  9
$UNITMODE
 70
     0
  9
$VISRETAIN
 70
     1
  9
$PLINEGEN
 70
     0
  9
$PSLTSCALE
 70
     1
  0
ENDSEC
  0
SECTION
  2
TABLES
  0
TABLE
  2
VPORT
 70
     2
  0
VPORT
  2
*ACTIVE
 70
     0
 10
0.0
 20
0.0
 11
1.0
 21
1.0
 12
-77.094307917948498
 22
-40.24861752473614
 13
0.0
 23
0.0
 14
1.0
 24
1.0
 15
0.0
 25
0.0
 16
0.0
 26
0.0
 36
1.0
 17
0.0
 27
0.0
 37
0.0
 40
123.1777783406132
 41
1.928853754940711
 42
50.0
 43
0.0
 44
0.0
 50
0.0
 51
0.0
 71
     0
 72
   100
 73
     1
 74
     1
 75
     0
 76
     0
 77
     0
 78
     0
  0
ENDTAB
  0
TABLE
  2
LTYPE
 70
     1
  0
LTYPE
  2
CONTINUOUS
 70
     0
  3
Solid line
 72
    65
 73
     0
 40
0.0
  0
ENDTAB
  0
TABLE
  2
LAYER
 70
     3
  0
LAYER
  2
0
 70
     0
 62
     7
  6
CONTINUOUS
  0
LAYER
  2
DEFPOINTS
 70
     0
 62
     7
  6
CONTINUOUS
  0
LAYER
  2
COTATION-JACOBDELAFON
 70
     0
 62
     8
  6
CONTINUOUS
  0
ENDTAB
  0
TABLE
  2
STYLE
 70
     2
  0
STYLE
  2
STANDARD
 70
     0
 40
0.0
 41
1.0
 50
0.0
 71
     0
 42
0.2
  3
txt
  4

  0
STYLE
  2
JACOB-DELAFON
 70
     0
 40
0.0
 41
1.0
 50
0.0
 71
     0
 42
2.5
  3
txt
  4

  0
ENDTAB
  0
TABLE
  2
VIEW
 70
     0
  0
ENDTAB
  0
TABLE
  2
UCS
 70
     0
  0
ENDTAB
  0
TABLE
  2
APPID
 70
     5
  0
APPID
  2
ACAD
 70
     0
  0
APPID
  2
ADCADD_ZZ
 70
     0
  0
APPID
  2
SDSK_PMN
 70
     0
  0
APPID
  2
AEC_DWGVARSSETUP_DATA
 70
     0
  0
APPID
  2
AEC_DISPREPSET_DATA
 70
     0
  0
ENDTAB
  0
TABLE
  2
DIMSTYLE
 70
     2
  0
DIMSTYLE
  2
STANDARD
 70
     0
  3

  4

  5

  6

  7

 40
1.0
 41
0.18
 42
0.0625
 43
0.38
 44
0.18
 45
0.0
 46
0.0
 47
0.0
 48
0.0
140
0.18
141
0.09
142
0.0
143
25.399999999999999
144
1.0
145
0.0
146
1.0
147
0.09
 71
     0
 72
     0
 73
     1
 74
     1
 75
     0
 76
     0
 77
     0
 78
     0
170
     0
171
     2
172
     0
173
     0
174
     0
175
     0
176
     0
177
     0
178
     0
  0
DIMSTYLE
  2
COTATION-JACOB-DELAFON
 70
     0
  3

  4

  5
OBLIQUE
  6

  7

 40
1.0
 41
1.8
 42
0.625
 43
3.7999999999999989
 44
1.8
 45
0.0
 46
0.0
 47
0.0
 48
0.0
140
3.0
141
0.9
142
0.0
143
25.399999999999999
144
1.0
145
0.0
146
1.0
147
0.9
 71
     0
 72
     0
 73
     0
 74
     0
 75
     0
 76
     0
 77
     1
 78
    12
170
     0
171
     2
172
     0
173
     0
174
     0
175
     0
176
     0
177
     0
178
     0
  0
ENDTAB
  0
ENDSEC
  0
SECTION
  2
BLOCKS
  0
BLOCK
  8
0
  2
$MODEL_SPACE
 70
     0
 10
0.0
 20
0.0
 30
0.0
  3
$MODEL_SPACE
  1

  0
ENDBLK
  5
9
  8
0
  0
BLOCK
 67
     1
  8
0
  2
$PAPER_SPACE
 70
     0
 10
0.0
 20
0.0
 30
0.0
  3
$PAPER_SPACE
  1

  0
ENDBLK
  5
10
 67
     1
  8
0
  0
BLOCK
  8
0
  2
ADCADD_ZZ
 70
     0
 10
0.0
 20
0.0
 30
0.0
  3
ADCADD_ZZ
  1

  0
ENDBLK
  5
5A
  8
0
  0
BLOCK
  8
0
  2
_OBLIQUE
 70
     0
 10
0.0
 20
0.0
 30
0.0
  3
_OBLIQUE
  1

  0
LINE
  5
1B1
  8
0
  6
BYBLOCK
 62
     0
 10
-0.5
 20
-0.5
 30
0.0
 11
0.5
 21
0.5
 31
0.0
  0
ENDBLK
  5
1B3
  8
0
  0
BLOCK
  8
0
  2
*D2
 70
     1
 10
0.0
 20
0.0
 30
0.0
  3
*D2
  1

  0
LINE
  5
24F
  8
COTATION-JACOBDELAFON
 62
     0
 10
-149.99999996783811
 20
-0.1793086171048905
 30
0.0
 11
-149.99999996783811
 21
17.65392491637731
 31
0.0
  0
LINE
  5
250
  8
COTATION-JACOBDELAFON
 62
     0
 10
0.0
 20
-0.1762024046806907
 30
0.0
 11
0.0000000000000011
 21
17.65392491637731
 31
0.0
  0
LINE
  5
251
  8
COTATION-JACOBDELAFON
 62
     0
 10
-149.99999996783811
 20
15.853924916377309
 30
0.0
 11
0.000000000000001
 21
15.853924916377309
 31
0.0
  0
INSERT
  5
252
  8
COTATION-JACOBDELAFON
 62
     0
  2
_OBLIQUE
 10
-149.99999996783811
 20
15.853924916377309
 30
0.0
 41
1.8
 42
1.8
 43
1.8
 50
180.0
  0
INSERT
  5
253
  8
COTATION-JACOBDELAFON
 62
     0
  2
_OBLIQUE
 10
0.000000000000001
 20
15.853924916377309
 30
0.0
 41
1.8
 42
1.8
 43
1.8
  0
TEXT
  5
254
  8
0
  6
CONTINUOUS
 62
     0
 10
-78.624147323618956
 20
16.81122368854648
 30
0.0
 40
3.0
  1
150
  7
JACOB-DELAFON
  0
POINT
  5
255
  8
DEFPOINTS
 62
     0
 10
-149.99999996783811
 20
-0.8043086171048905
 30
0.0
  0
POINT
  5
256
  8
DEFPOINTS
 62
     0
 10
0.0
 20
-0.8012024046806907
 30
0.0
  0
POINT
  5
257
  8
DEFPOINTS
 62
     0
 10
0.000000000000001
 20
15.853924916377309
 30
0.0
  0
ENDBLK
  5
1CB
  8
0
  0
BLOCK
  8
0
  2
*D3
 70
     1
 10
0.0
 20
0.0
 30
0.0
  3
*D3
  1

  0
LINE
  5
258
  8
COTATION-JACOBDELAFON
 62
     0
 10
-150.02379756315739
 20
-0.1999999999999991
 30
0.0
 11
-164.495064473881
 21
-0.199999999999995
 31
0.0
  0
LINE
  5
259
  8
COTATION-JACOBDELAFON
 62
     0
 10
-1.2267034066846341
 20
-100.2004007801189
 30
0.0
 11
-164.495064473881
 21
-100.2004007801189
 31
0.0
  0
LINE
  5
25A
  8
COTATION-JACOBDELAFON
 62
     0
 10
-162.69506447388099
 20
-0.1999999999999955
 30
0.0
 11
-162.69506447388099
 21
-100.2004007801189
 31
0.0
  0
INSERT
  5
25B
  8
COTATION-JACOBDELAFON
 62
     0
  2
_OBLIQUE
 10
-162.69506447388099
 20
-0.1999999999999955
 30
0.0
 41
1.8
 42
1.8
 43
1.8
 50
90.0
  0
INSERT
  5
25C
  8
COTATION-JACOBDELAFON
 62
     0
  2
_OBLIQUE
 10
-162.69506447388099
 20
-100.2004007801189
 30
0.0
 41
1.8
 42
1.8
 43
1.8
 50
270.0
  0
TEXT
  5
25D
  8
0
  6
CONTINUOUS
 62
     0
 10
-163.65236324605019
 20
-53.824347729759339
 30
0.0
 40
3.0
  1
100
 50
90.0
  7
JACOB-DELAFON
  0
POINT
  5
25E
  8
DEFPOINTS
 62
     0
 10
-149.39879756315739
 20
-0.1999999999999993
 30
0.0
  0
POINT
  5
25F
  8
DEFPOINTS
 62
     0
 10
-0.601703406684635
 20
-100.2004007801189
 30
0.0
  0
POINT
  5
260
  8
DEFPOINTS
 62
     0
 10
-162.69506447388099
 20
-100.2004007801189
 30
0.0
  0
ENDBLK
  5
1F2
  8
0
  0
ENDSEC
  0
SECTION
  2
ENTITIES
  0
POLYLINE
  5
26
  8
0
  6
CONTINUOUS
 66
     1
 10
0.0
 20
0.0
 30
0.0
 70
     1
  0
VERTEX
  5
26A
  8
0
  6
CONTINUOUS
 10
-149.99999996783811
 20
-0.8043086171048905
 30
0.0
  0
VERTEX
  5
26B
  8
0
  6
CONTINUOUS
 10
-149.825050068076
 20
-0.3771543085792466
 30
0.0
  0
VERTEX
  5
26C
  8
0
  6
CONTINUOUS
 10
-149.39879756315739
 20
-0.1999999999999993
 30
0.0
  0
VERTEX
  5
26D
  8
0
  6
CONTINUOUS
 10
-0.6012024046807483
 20
-0.1999999999999993
 30
0.0
  0
VERTEX
  5
26E
  8
0
  6
CONTINUOUS
 10
-0.1760521041706795
 20
-0.3760521041707072
 30
0.0
  0
VERTEX
  5
26F
  8
0
  6
CONTINUOUS
 10
0.0
 20
-0.8012024046806907
 30
0.0
  0
VERTEX
  5
270
  8
0
  6
CONTINUOUS
 10
0.0
 20
-99.599198375438291
 30
0.0
  0
VERTEX
  5
271
  8
0
  6
CONTINUOUS
 10
-0.1762525049722683
 20
-100.024448876349
 30
0.0
  0
VERTEX
  5
272
  8
0
  6
CONTINUOUS
 10
-0.601703406684635
 20
-100.2004007801189
 30
0.0
  0
VERTEX
  5
273
  8
0
  6
CONTINUOUS
 10
-15.371943884479631
 20
-100.18727452761669
 30
0.0
  0
VERTEX
  5
274
  8
0
  6
CONTINUOUS
 10
-30.726853700826631
 20
-99.276953886529384
 30
0.0
  0
VERTEX
  5
275
  8
0
  6
CONTINUOUS
 10
-46.155511012147763
 20
-97.386172323808523
 30
0.0
  0
VERTEX
  5
276
  8
0
  6
CONTINUOUS
 10
-61.548697381592802
 20
-94.614829639031996
 30
0.0
  0
VERTEX
  5
277
  8
0
  6
CONTINUOUS
 10
-76.66983966291977
 20
-90.832665311185622
 30
0.0
  0
VERTEX
  5
278
  8
0
  6
CONTINUOUS
 10
-91.201903788060406
 20
-85.825450883401516
 30
0.0
  0
VERTEX
  5
279
  8
0
  6
CONTINUOUS
 10
-104.8151302380474
 20
-79.365631245508041
 30
0.0
  0
VERTEX
  5
27A
  8
0
  6
CONTINUOUS
 10
-117.23697392275869
 20
-71.28547092659926
 30
0.0
  0
VERTEX
  5
27B
  8
0
  6
CONTINUOUS
 10
-128.31503003260789
 20
-61.542084155141247
 30
0.0
  0
VERTEX
  5
27C
  8
0
  6
CONTINUOUS
 10
-135.74539075245761
 20
-52.971242473612222
 30
0.0
  0
VERTEX
  5
27D
  8
0
  6
CONTINUOUS
 10
-141.37064125225351
 20
-44.329258507529289
 30
0.0
  0
VERTEX
  5
27E
  8
0
  6
CONTINUOUS
 10
-145.99889776428719
 20
-33.864529050898128
 30
0.0
  0
VERTEX
  5
27F
  8
0
  6
CONTINUOUS
 10
-148.72224445709
 20
-22.758316628429728
 30
0.0
  0
VERTEX
  5
280
  8
0
  6
CONTINUOUS
 10
-149.9449899478098
 20
-11.50991983725436
 30
0.0
  0
SEQEND
  5
281
  8
0
  6
CONTINUOUS
  0
POLYLINE
  5
27
  8
0
  6
CONTINUOUS
 66
     1
 10
0.0
 20
0.0
 30
0.0
 70
     1
  0
VERTEX
  5
282
  8
0
  6
CONTINUOUS
 10
-149.39879756315739
 20
-0.8012024046806907
 30
0.0
  0
VERTEX
  5
283
  8
0
  6
CONTINUOUS
 10
-0.6012024046807483
 20
-0.8012024046806907
 30
0.0
  0
VERTEX
  5
284
  8
0
  6
CONTINUOUS
 10
-0.6012024046807483
 20
-99.599198375438291
 30
0.0
  0
VERTEX
  5
285
  8
0
  6
CONTINUOUS
 10
-15.35390781233923
 20
-99.586072122936073
 30
0.0
  0
VERTEX
  5
286
  8
0
  6
CONTINUOUS
 10
-30.672545083603811
 20
-98.677955890665828
 30
0.0
  0
VERTEX
  5
287
  8
0
  6
CONTINUOUS
 10
-46.065631252648011
 20
-96.791482945178529
 30
0.0
  0
VERTEX
  5
288
  8
0
  6
CONTINUOUS
 10
-61.422344676209029
 20
-94.026753486853522
 30
0.0
  0
VERTEX
  5
289
  8
0
  6
CONTINUOUS
 10
-76.498597177986539
 20
-90.255711403493706
 30
0.0
  0
VERTEX
  5
28A
  8
0
  6
CONTINUOUS
 10
-90.974348677888784
 20
-85.267935853460926
 30
0.0
  0
VERTEX
  5
28B
  8
0
  6
CONTINUOUS
 10
-104.5209418613569
 20
-78.839779542213989
 30
0.0
  0
VERTEX
  5
28C
  8
0
  6
CONTINUOUS
 10
-116.87264526552219
 20
-70.805210405660148
 30
0.0
  0
VERTEX
  5
28D
  8
0
  6
CONTINUOUS
 10
-127.88737472207831
 20
-61.1174348566351
 30
0.0
  0
VERTEX
  5
28E
  8
0
  6
CONTINUOUS
 10
-135.26392782670911
 20
-52.608617223188958
 30
0.0
  0
VERTEX
  5
28F
  8
0
  6
CONTINUOUS
 10
-140.8392785269165
 20
-44.043687365305971
 30
0.0
  0
VERTEX
  5
290
  8
0
  6
CONTINUOUS
 10
-145.42715427743579
 20
-33.671843680197938
 30
0.0
  0
VERTEX
  5
291
  8
0
  6
CONTINUOUS
 10
-148.12885768367011
 20
-22.653907810816872
 30
0.0
  0
VERTEX
  5
292
  8
0
  6
CONTINUOUS
 10
-149.3438877435299
 20
-11.475751500588339
 30
0.0
  0
SEQEND
  5
293
  8
0
  6
CONTINUOUS
  0
POLYLINE
  5
28
  8
0
  6
CONTINUOUS
 66
     1
 10
0.0
 20
0.0
 30
0.0
 70
     1
  0
VERTEX
  5
294
  8
0
  6
CONTINUOUS
 10
-140.35170337672039
 20
-32.915030053105689
 30
0.0
  0
VERTEX
  5
295
  8
0
  6
CONTINUOUS
 10
-140.5127254207741
 20
-31.97064127575306
 30
0.0
  0
VERTEX
  5
296
  8
0
  6
CONTINUOUS
 10
-140.21683363727041
 20
-31.059318630657859
 30
0.0
  0
VERTEX
  5
297
  8
0
  6
CONTINUOUS
 10
-125.0975951635582
 20
-6.691783565742309
 30
0.0
  0
VERTEX
  5
298
  8
0
  6
CONTINUOUS
 10
-124.3430861456839
 20
-5.9828657302229651
 30
0.0
  0
VERTEX
  5
299
  8
0
  6
CONTINUOUS
 10
-123.3352705146375
 20
-5.7452905799733101
 30
0.0
  0
VERTEX
  5
29A
  8
0
  6
CONTINUOUS
 10
-106.18507011751311
 20
-6.2544088163371141
 30
0.0
  0
VERTEX
  5
29B
  8
0
  6
CONTINUOUS
 10
-94.723647274279287
 20
-7.2479959904727691
 30
0.0
  0
VERTEX
  5
29C
  8
0
  6
CONTINUOUS
 10
-84.367034050046954
 20
-8.7054108198195852
 30
0.0
  0
VERTEX
  5
29D
  8
0
  6
CONTINUOUS
 10
-75.50781561507273
 20
-10.571342683146961
 30
0.0
  0
VERTEX
  5
29E
  8
0
  6
CONTINUOUS
 10
-68.297294574534561
 20
-12.71282564861969
 30
0.0
  0
VERTEX
  5
29F
  8
0
  6
CONTINUOUS
 10
-64.594689364907623
 20
-13.20030059841492
 30
0.0
  0
VERTEX
  5
2A0
  8
0
  6
CONTINUOUS
 10
-60.891883754479103
 20
-12.71282564861969
 30
0.0
  0
VERTEX
  5
2A1
  8
0
  6
CONTINUOUS
 10
-57.44158315401652
 20
-11.283667332292859
 30
0.0
  0
VERTEX
  5
2A2
  8
0
  6
CONTINUOUS
 10
-51.724749487907587
 20
-8.2280561105031431
 30
0.0
  0
VERTEX
  5
2A3
  8
0
  6
CONTINUOUS
 10
-45.521643276812739
 20
-6.3463927842532932
 30
0.0
  0
VERTEX
  5
2A4
  8
0
  6
CONTINUOUS
 10
-39.070541073787147
 20
-5.7110220429065173
 30
0.0
  0
VERTEX
  5
2A5
  8
0
  6
CONTINUOUS
 10
-32.619539071162279
 20
-6.3463927842532932
 30
0.0
  0
VERTEX
  5
2A6
  8
0
  6
CONTINUOUS
 10
-26.416432860067459
 20
-8.2280561105031431
 30
0.0
  0
VERTEX
  5
2A7
  8
0
  6
CONTINUOUS
 10
-20.699599193958559
 20
-11.283667332292859
 30
0.0
  0
VERTEX
  5
2A8
  8
0
  6
CONTINUOUS
 10
-15.68887775214713
 20
-15.39589178030889
 30
0.0
  0
VERTEX
  5
2A9
  8
0
  6
CONTINUOUS
 10
-11.5765531037303
 20
-20.40671342252114
 30
0.0
  0
VERTEX
  5
2AA
  8
0
  6
CONTINUOUS
 10
-8.5208416815397925
 20
-26.12344688822925
 30
0.0
  0
VERTEX
  5
2AB
  8
0
  6
CONTINUOUS
 10
-6.6390781548891482
 20
-32.326452898923279
 30
0.0
  0
VERTEX
  5
2AC
  8
0
  6
CONTINUOUS
 10
-6.0038076139431951
 20
-38.577354701147321
 30
0.0
  0
VERTEX
  5
2AD
  8
0
  6
CONTINUOUS
 10
-6.0038076139431951
 20
-82.255110202804303
 30
0.0
  0
VERTEX
  5
2AE
  8
0
  6
CONTINUOUS
 10
-6.941883766046657
 20
-86.898697376157372
 30
0.0
  0
VERTEX
  5
2AF
  8
0
  6
CONTINUOUS
 10
-9.4997995971615392
 20
-90.689779539673168
 30
0.0
  0
VERTEX
  5
2B0
  8
0
  6
CONTINUOUS
 10
-13.29318636989529
 20
-93.244288557161539
 30
0.0
  0
VERTEX
  5
2B1
  8
0
  6
CONTINUOUS
 10
-17.937675346855372
 20
-94.178256492833043
 30
0.0
  0
VERTEX
  5
2B2
  8
0
  6
CONTINUOUS
 10
-30.633066125696441
 20
-93.294689358753956
 30
0.0
  0
VERTEX
  5
2B3
  8
0
  6
CONTINUOUS
 10
-45.682865721667952
 20
-91.454007996423172
 30
0.0
  0
VERTEX
  5
2B4
  8
0
  6
CONTINUOUS
 10
-60.688577141296257
 20
-88.757915812632518
 30
0.0
  0
VERTEX
  5
2B5
  8
0
  6
CONTINUOUS
 10
-75.346492969816723
 20
-85.099098178146434
 30
0.0
  0
VERTEX
  5
2B6
  8
0
  6
CONTINUOUS
 10
-89.312625231351305
 20
-80.296593169156154
 30
0.0
  0
VERTEX
  5
2B7
  8
0
  6
CONTINUOUS
 10
-102.26933865542691
 20
-74.160721426984765
 30
0.0
  0
VERTEX
  5
2B8
  8
0
  6
CONTINUOUS
 10
-114.0055109975999
 20
-66.542084154069187
 30
0.0
  0
VERTEX
  5
2B9
  8
0
  6
CONTINUOUS
 10
-124.4664328390443
 20
-57.360120228182211
 30
0.0
  0
VERTEX
  5
2BA
  8
0
  6
CONTINUOUS
 10
-131.3796592904678
 20
-49.40190379702284
 30
0.0
  0
VERTEX
  5
2BB
  8
0
  6
CONTINUOUS
 10
-136.5275550809472
 20
-41.509318628374437
 30
0.0
  0
SEQEND
  5
2BC
  8
0
  6
CONTINUOUS
  0
POLYLINE
  5
29
  8
0
  6
CONTINUOUS
 66
     1
 10
0.0
 20
0.0
 30
0.0
 70
     1
  0
VERTEX
  5
2BD
  8
0
  6
CONTINUOUS
 10
-124.50671340015791
 20
-8.0337675333904706
 30
0.0
  0
VERTEX
  5
2BE
  8
0
  6
CONTINUOUS
 10
-123.5790580897355
 20
-7.1209418822836126
 30
0.0
  0
VERTEX
  5
2BF
  8
0
  6
CONTINUOUS
 10
-122.37444887155689
 20
-6.7658316619188774
 30
0.0
  0
VERTEX
  5
2C0
  8
0
  6
CONTINUOUS
 10
-106.2676352477559
 20
-7.2499999984883727
 30
0.0
  0
VERTEX
  5
2C1
  8
0
  6
CONTINUOUS
 10
-94.833266512732706
 20
-8.2405811606005948
 30
0.0
  0
VERTEX
  5
2C2
  8
0
  6
CONTINUOUS
 10
-84.537174330571588
 20
-9.6888777534764579
 30
0.0
  0
VERTEX
  5
2C3
  8
0
  6
CONTINUOUS
 10
-75.751502989769961
 20
-11.53867735227829
 30
0.0
  0
VERTEX
  5
2C4
  8
0
  6
CONTINUOUS
 10
-68.504509003347863
 20
-13.688376750614969
 30
0.0
  0
VERTEX
  5
2C5
  8
0
  6
CONTINUOUS
 10
-64.594689364907623
 20
-14.19739478657789
 30
0.0
  0
VERTEX
  5
2C6
  8
0
  6
CONTINUOUS
 10
-60.63386772247032
 20
-13.676052101318939
 30
0.0
  0
VERTEX
  5
2C7
  8
0
  6
CONTINUOUS
 10
-57.015230448697082
 20
-12.185070137710801
 30
0.0
  0
VERTEX
  5
2C8
  8
0
  6
CONTINUOUS
 10
-51.343186361736883
 20
-9.1491983948747695
 30
0.0
  0
VERTEX
  5
2C9
  8
0
  6
CONTINUOUS
 10
-45.327054098497769
 20
-7.3243486958671831
 30
0.0
  0
VERTEX
  5
2CA
  8
0
  6
CONTINUOUS
 10
-39.070541073787147
 20
-6.708116231069492
 30
0.0
  0
VERTEX
  5
2CB
  8
0
  6
CONTINUOUS
 10
-32.814128249477307
 20
-7.3243486958671831
 30
0.0
  0
VERTEX
  5
2CC
  8
0
  6
CONTINUOUS
 10
-26.798096186638951
 20
-9.1492985952755355
 30
0.0
  0
VERTEX
  5
2CD
  8
0
  6
CONTINUOUS
 10
-21.25360720987182
 20
-12.1127254483476
 30
0.0
  0
VERTEX
  5
2CE
  8
0
  6
CONTINUOUS
 10
-16.393887772036059
 20
-16.101002000598619
 30
0.0
  0
VERTEX
  5
2CF
  8
0
  6
CONTINUOUS
 10
-12.40561121978498
 20
-20.960621238033649
 30
0.0
  0
VERTEX
  5
2D0
  8
0
  6
CONTINUOUS
 10
-9.4420841663121848
 20
-26.50501001439995
 30
0.0
  0
VERTEX
  5
2D1
  8
0
  6
CONTINUOUS
 10
-7.61713426690386
 20
-32.52094187683754
 30
0.0
  0
VERTEX
  5
2D2
  8
0
  6
CONTINUOUS
 10
-6.9996993972968076
 20
-38.626252496728057
 30
0.0
  0
VERTEX
  5
2D3
  8
0
  6
CONTINUOUS
 10
-6.9959919824679551
 20
-82.155911806032009
 30
0.0
  0
VERTEX
  5
2D4
  8
0
  6
CONTINUOUS
 10
-7.8551102187566642
 20
-86.486372726947195
 30
0.0
  0
VERTEX
  5
2D5
  8
0
  6
CONTINUOUS
 10
-10.20450901584814
 20
-89.984368718181145
 30
0.0
  0
VERTEX
  5
2D6
  8
0
  6
CONTINUOUS
 10
-13.696492983035251
 20
-92.326953888019546
 30
0.0
  0
VERTEX
  5
2D7
  8
0
  6
CONTINUOUS
 10
-18.001903803755422
 20
-93.183266513086437
 30
0.0
  0
VERTEX
  5
2D8
  8
0
  6
CONTINUOUS
 10
-30.537975945356092
 20
-92.302104188626103
 30
0.0
  0
VERTEX
  5
2D9
  8
0
  6
CONTINUOUS
 10
-45.534068126509482
 20
-90.468136253147577
 30
0.0
  0
VERTEX
  5
2DA
  8
0
  6
CONTINUOUS
 10
-60.479559105268919
 20
-87.783066113442715
 30
0.0
  0
VERTEX
  5
2DB
  8
0
  6
CONTINUOUS
 10
-75.063326637212128
 20
-84.142985953902539
 30
0.0
  0
VERTEX
  5
2DC
  8
0
  6
CONTINUOUS
 10
-88.936472926822717
 20
-79.373146275566569
 30
0.0
  0
VERTEX
  5
2DD
  8
0
  6
CONTINUOUS
 10
-101.7832665112425
 20
-73.290080144606293
 30
0.0
  0
VERTEX
  5
2DE
  8
0
  6
CONTINUOUS
 10
-113.40200398370121
 20
-65.74809617828754
 30
0.0
  0
VERTEX
  5
2DF
  8
0
  6
CONTINUOUS
 10
-123.8057113963002
 20
-56.612525037961738
 30
0.0
  0
VERTEX
  5
2E0
  8
0
  6
CONTINUOUS
 10
-130.30400798809319
 20
-49.013627243999849
 30
0.0
  0
VERTEX
  5
2E1
  8
0
  6
CONTINUOUS
 10
-135.25521039184119
 20
-41.412324640419222
 30
0.0
  0
VERTEX
  5
2E2
  8
0
  6
CONTINUOUS
 10
-139.04769536096799
 20
-33.26122243780101
 30
0.0
  0
VERTEX
  5
2E3
  8
0
  6
CONTINUOUS
 10
-139.18476950923511
 20
-32.237174341828229
 30
0.0
  0
VERTEX
  5
2E4
  8
0
  6
CONTINUOUS
 10
-138.93406810648329
 20
-31.37494989311524
 30
0.0
  0
SEQEND
  5
2E5
  8
0
  6
CONTINUOUS
  0
POLYLINE
  5
2A
  8
0
  6
CONTINUOUS
 66
     1
 10
0.0
 20
0.0
 30
0.0
 70
     1
  0
VERTEX
  5
2E6
  8
0
  6
CONTINUOUS
 10
-110.4806612989568
 20
-18.915531058111419
 30
0.0
  0
VERTEX
  5
2E7
  8
0
  6
CONTINUOUS
 10
-109.3198396559192
 20
-17.834869735697801
 30
0.0
  0
VERTEX
  5
2E8
  8
0
  6
CONTINUOUS
 10
-108.196593163174
 20
-17.463226449204349
 30
0.0
  0
VERTEX
  5
2E9
  8
0
  6
CONTINUOUS
 10
-97.65901801513283
 20
-16.326553102754652
 30
0.0
  0
VERTEX
  5
2EA
  8
0
  6
CONTINUOUS
 10
-87.781262506228728
 20
-16.400500998530401
 30
0.0
  0
VERTEX
  5
2EB
  8
0
  6
CONTINUOUS
 10
-79.392484952917158
 20
-16.76683366378251
 30
0.0
  0
VERTEX
  5
2EC
  8
0
  6
CONTINUOUS
 10
-72.634468922302034
 20
-17.463827651609058
 30
0.0
  0
VERTEX
  5
2ED
  8
0
  6
CONTINUOUS
 10
-67.082464915476393
 20
-18.510420837757358
 30
0.0
  0
VERTEX
  5
2EE
  8
0
  6
CONTINUOUS
 10
-63.162124234954263
 20
-18.644188372798862
 30
0.0
  0
VERTEX
  5
2EF
  8
0
  6
CONTINUOUS
 10
-58.488677342168728
 20
-17.87234468558956
 30
0.0
  0
VERTEX
  5
2F0
  8
0
  6
CONTINUOUS
 10
-55.493987964053311
 20
-15.40140280235182
 30
0.0
  0
VERTEX
  5
2F1
  8
0
  6
CONTINUOUS
 10
-49.981563115535828
 20
-12.436372742867331
 30
0.0
  0
VERTEX
  5
2F2
  8
0
  6
CONTINUOUS
 10
-44.632965922293863
 20
-10.813927853435651
 30
0.0
  0
VERTEX
  5
2F3
  8
0
  6
CONTINUOUS
 10
-39.070541073787147
 20
-10.26613226237072
 30
0.0
  0
VERTEX
  5
2F4
  8
0
  6
CONTINUOUS
 10
-33.50831662608195
 20
-10.813927853435651
 30
0.0
  0
VERTEX
  5
2F5
  8
0
  6
CONTINUOUS
 10
-28.15961923243918
 20
-12.436372742867331
 30
0.0
  0
VERTEX
  5
2F6
  8
0
  6
CONTINUOUS
 10
-23.23036071646203
 20
-15.07114228138057
 30
0.0
  0
VERTEX
  5
2F7
  8
0
  6
CONTINUOUS
 10
-18.909819635224061
 20
-18.616833663385819
 30
0.0
  0
VERTEX
  5
2F8
  8
0
  6
CONTINUOUS
 10
-15.364028052818011
 20
-22.93737474462381
 30
0.0
  0
VERTEX
  5
2F9
  8
0
  6
CONTINUOUS
 10
-12.729258514304769
 20
-27.866533060200211
 30
0.0
  0
VERTEX
  5
2FA
  8
0
  6
CONTINUOUS
 10
-11.106813624873091
 20
-33.21503005304141
 30
0.0
  0
VERTEX
  5
2FB
  8
0
  6
CONTINUOUS
 10
-10.553406811364511
 20
-38.800801594887041
 30
0.0
  0
VERTEX
  5
2FC
  8
0
  6
CONTINUOUS
 10
-10.53627254283108
 20
-81.801903790075869
 30
0.0
  0
VERTEX
  5
2FD
  8
0
  6
CONTINUOUS
 10
-11.113727452526909
 20
-85.015030041891919
 30
0.0
  0
VERTEX
  5
2FE
  8
0
  6
CONTINUOUS
 10
-12.719338674627551
 20
-87.467434850985342
 30
0.0
  0
VERTEX
  5
2FF
  8
0
  6
CONTINUOUS
 10
-15.13587174024166
 20
-89.053506994933855
 30
0.0
  0
VERTEX
  5
300
  8
0
  6
CONTINUOUS
 10
-18.231162320740331
 20
-89.632665311442906
 30
0.0
  0
VERTEX
  5
301
  8
0
  6
CONTINUOUS
 10
-30.198296586711471
 20
-88.760420822651994
 30
0.0
  0
VERTEX
  5
302
  8
0
  6
CONTINUOUS
 10
-45.003306603577208
 20
-86.949899780956002
 30
0.0
  0
VERTEX
  5
303
  8
0
  6
CONTINUOUS
 10
-59.733667321861702
 20
-84.304108198356985
 30
0.0
  0
VERTEX
  5
304
  8
0
  6
CONTINUOUS
 10
-74.001603190545978
 20
-80.763426836390693
 30
0.0
  0
VERTEX
  5
305
  8
0
  6
CONTINUOUS
 10
-86.780160302034531
 20
-76.583166316244956
 30
0.0
  0
VERTEX
  5
306
  8
0
  6
CONTINUOUS
 10
-98.383567113173896
 20
-71.216733451664084
 30
0.0
  0
VERTEX
  5
307
  8
0
  6
CONTINUOUS
 10
-106.35531059843851
 20
-65.951001989867265
 30
0.0
  0
VERTEX
  5
308
  8
0
  6
CONTINUOUS
 10
-114.0133266288607
 20
-58.557915819107727
 30
0.0
  0
VERTEX
  5
309
  8
0
  6
CONTINUOUS
 10
-118.3445891529821
 20
-52.939879748168039
 30
0.0
  0
VERTEX
  5
30A
  8
0
  6
CONTINUOUS
 10
-121.5949899538884
 20
-47.247494979849471
 30
0.0
  0
VERTEX
  5
30B
  8
0
  6
CONTINUOUS
 10
-121.9054107955052
 20
-40.778657305885758
 30
0.0
  0
VERTEX
  5
30C
  8
0
  6
CONTINUOUS
 10
-121.9404809357783
 20
-39.956613217885661
 30
0.0
  0
VERTEX
  5
30D
  8
0
  6
CONTINUOUS
 10
-121.6666332404462
 20
-39.171643278174201
 30
0.0
  0
SEQEND
  5
30E
  8
0
  6
CONTINUOUS
  0
POLYLINE
  5
2B
  8
0
  6
CONTINUOUS
 66
     1
 10
0.0
 20
0.0
 30
0.0
 70
     1
  0
VERTEX
  5
30F
  8
0
  6
CONTINUOUS
 10
-112.0972945651433
 20
-44.90440880800719
 30
0.0
  0
VERTEX
  5
310
  8
0
  6
CONTINUOUS
 10
-111.794388753585
 20
-43.696593177003649
 30
0.0
  0
VERTEX
  5
311
  8
0
  6
CONTINUOUS
 10
-111.3257514791364
 20
-42.71392784655302
 30
0.0
  0
VERTEX
  5
312
  8
0
  6
CONTINUOUS
 10
-102.50430859525621
 20
-25.633867730017592
 30
0.0
  0
VERTEX
  5
313
  8
0
  6
CONTINUOUS
 10
-101.5847695172971
 20
-24.793687369476299
 30
0.0
  0
VERTEX
  5
314
  8
0
  6
CONTINUOUS
 10
-100.42585168187421
 20
-24.447394784380158
 30
0.0
  0
VERTEX
  5
315
  8
0
  6
CONTINUOUS
 10
-96.769438857006961
 20
-24.206212419702471
 30
0.0
  0
VERTEX
  5
316
  8
0
  6
CONTINUOUS
 10
-87.550100181629006
 20
-23.967935866647341
 30
0.0
  0
VERTEX
  5
317
  8
0
  6
CONTINUOUS
 10
-80.066833650167396
 20
-23.971643281476201
 30
0.0
  0
VERTEX
  5
318
  8
0
  6
CONTINUOUS
 10
-74.272444873854653
 20
-24.27715430345479
 30
0.0
  0
VERTEX
  5
319
  8
0
  6
CONTINUOUS
 10
-69.163627239679485
 20
-24.947895786276899
 30
0.0
  0
VERTEX
  5
31A
  8
0
  6
CONTINUOUS
 10
-63.363326639720761
 20
-25.499198391369141
 30
0.0
  0
VERTEX
  5
31B
  8
0
  6
CONTINUOUS
 10
-56.960320629069571
 20
-24.441683361535699
 30
0.0
  0
VERTEX
  5
31C
  8
0
  6
CONTINUOUS
 10
-52.509619227218252
 20
-21.71102203947596
 30
0.0
  0
VERTEX
  5
31D
  8
0
  6
CONTINUOUS
 10
-47.310521031940233
 20
-18.884869735472659
 30
0.0
  0
VERTEX
  5
31E
  8
0
  6
CONTINUOUS
 10
-43.271342676092843
 20
-17.659619234733391
 30
0.0
  0
VERTEX
  5
31F
  8
0
  6
CONTINUOUS
 10
-39.070641274187892
 20
-17.24589177991226
 30
0.0
  0
VERTEX
  5
320
  8
0
  6
CONTINUOUS
 10
-34.869939872282998
 20
-17.659619234733391
 30
0.0
  0
VERTEX
  5
321
  8
0
  6
CONTINUOUS
 10
-30.830661316034849
 20
-18.884869735472659
 30
0.0
  0
VERTEX
  5
322
  8
0
  6
CONTINUOUS
 10
-27.108216427053399
 20
-20.874549093763509
 30
0.0
  0
VERTEX
  5
323
  8
0
  6
CONTINUOUS
 10
-23.84539077645038
 20
-23.552304604211439
 30
0.0
  0
VERTEX
  5
324
  8
0
  6
CONTINUOUS
 10
-21.167535065601719
 20
-26.815030054413629
 30
0.0
  0
VERTEX
  5
325
  8
0
  6
CONTINUOUS
 10
-19.177755506910131
 20
-30.537575143795781
 30
0.0
  0
VERTEX
  5
326
  8
0
  6
CONTINUOUS
 10
-17.952505006170838
 20
-34.576753499643203
 30
0.0
  0
VERTEX
  5
327
  8
0
  6
CONTINUOUS
 10
-17.524949896042038
 20
-39.143286564753453
 30
0.0
  0
VERTEX
  5
328
  8
0
  6
CONTINUOUS
 10
-17.481563122504269
 20
-81.107414812268857
 30
0.0
  0
VERTEX
  5
329
  8
0
  6
CONTINUOUS
 10
-17.50651302229852
 20
-82.128557096619033
 30
0.0
  0
VERTEX
  5
32A
  8
0
  6
CONTINUOUS
 10
-17.652605206635911
 20
-82.529859701743405
 30
0.0
  0
VERTEX
  5
32B
  8
0
  6
CONTINUOUS
 10
-17.95941883382465
 20
-82.631763509336793
 30
0.0
  0
VERTEX
  5
32C
  8
0
  6
CONTINUOUS
 10
-18.680961919842272
 20
-82.667434852014537
 30
0.0
  0
VERTEX
  5
32D
  8
0
  6
CONTINUOUS
 10
-29.532064121924488
 20
-81.812525032558526
 30
0.0
  0
VERTEX
  5
32E
  8
0
  6
CONTINUOUS
 10
-43.962024038670222
 20
-80.048196375622183
 30
0.0
  0
VERTEX
  5
32F
  8
0
  6
CONTINUOUS
 10
-58.270440869269642
 20
-77.479458901223083
 30
0.0
  0
VERTEX
  5
330
  8
0
  6
CONTINUOUS
 10
-71.918837659930404
 20
-74.133466917972555
 30
0.0
  0
VERTEX
  5
331
  8
0
  6
CONTINUOUS
 10
-84.083466915839196
 20
-70.158617219426048
 30
0.0
  0
VERTEX
  5
332
  8
0
  6
CONTINUOUS
 10
-94.831362705117897
 20
-65.215430847740436
 30
0.0
  0
VERTEX
  5
333
  8
0
  6
CONTINUOUS
 10
-101.3478957698529
 20
-60.879058103179197
 30
0.0
  0
VERTEX
  5
334
  8
0
  6
CONTINUOUS
 10
-107.99539075840759
 20
-54.189278545495362
 30
0.0
  0
VERTEX
  5
335
  8
0
  6
CONTINUOUS
 10
-110.3477955675224
 20
-50.974849688469128
 30
0.0
  0
VERTEX
  5
336
  8
0
  6
CONTINUOUS
 10
-112.0807614990146
 20
-47.674348687172817
 30
0.0
  0
SEQEND
  5
337
  8
0
  6
CONTINUOUS
  0
POLYLINE
  5
2C
  8
0
  6
CONTINUOUS
 66
     1
 10
0.0
 20
0.0
 30
0.0
  0
VERTEX
  5
338
  8
0
  6
CONTINUOUS
 10
-140.21683363727041
 20
-31.059318630657859
 30
0.0
  0
VERTEX
  5
339
  8
0
  6
CONTINUOUS
 10
-139.43657311639561
 20
-31.26523045426104
 30
0.0
  0
VERTEX
  5
33A
  8
0
  6
CONTINUOUS
 10
-138.93406810648329
 20
-31.37494989311524
 30
0.0
  0
VERTEX
  5
33B
  8
0
  6
CONTINUOUS
 10
-121.6666332404462
 20
-39.171643278174201
 30
0.0
  0
VERTEX
  5
33C
  8
0
  6
CONTINUOUS
 10
-119.8548095935401
 20
-39.928256504464912
 30
0.0
  0
VERTEX
  5
33D
  8
0
  6
CONTINUOUS
 10
-117.14018033560509
 20
-40.863326644544991
 30
0.0
  0
VERTEX
  5
33E
  8
0
  6
CONTINUOUS
 10
-114.35050097748579
 20
-41.800500993041453
 30
0.0
  0
VERTEX
  5
33F
  8
0
  6
CONTINUOUS
 10
-111.3257514791364
 20
-42.71392784655302
 30
0.0
  0
SEQEND
  5
340
  8
0
  6
CONTINUOUS
  0
POLYLINE
  5
2D
  8
0
  6
CONTINUOUS
 66
     1
 10
0.0
 20
0.0
 30
0.0
  0
VERTEX
  5
341
  8
0
  6
CONTINUOUS
 10
-112.0972945651433
 20
-44.90440880800719
 30
0.0
  0
VERTEX
  5
342
  8
0
  6
CONTINUOUS
 10
-114.936472921248
 20
-43.703006002653517
 30
0.0
  0
VERTEX
  5
343
  8
0
  6
CONTINUOUS
 10
-117.7219438625345
 20
-42.4709418746612
 30
0.0
  0
VERTEX
  5
344
  8
0
  6
CONTINUOUS
 10
-120.2042083910604
 20
-41.493386764650367
 30
0.0
  0
VERTEX
  5
345
  8
0
  6
CONTINUOUS
 10
-121.9054107955052
 20
-40.778657305885758
 30
0.0
  0
VERTEX
  5
346
  8
0
  6
CONTINUOUS
 10
-139.04769536096799
 20
-33.26122243780101
 30
0.0
  0
VERTEX
  5
347
  8
0
  6
CONTINUOUS
 10
-139.47374746508501
 20
-33.146793580110121
 30
0.0
  0
VERTEX
  5
348
  8
0
  6
CONTINUOUS
 10
-140.35170337672039
 20
-32.915030053105689
 30
0.0
  0
SEQEND
  5
349
  8
0
  6
CONTINUOUS
  0
POLYLINE
  5
2E
  8
0
  6
CONTINUOUS
 66
     1
 10
0.0
 20
0.0
 30
0.0
  0
VERTEX
  5
34A
  8
0
  6
CONTINUOUS
 10
-125.0975951635582
 20
-6.691783565742309
 30
0.0
  0
VERTEX
  5
34B
  8
0
  6
CONTINUOUS
 10
-124.5898797328054
 20
-7.3469939864435316
 30
0.0
  0
VERTEX
  5
34C
  8
0
  6
CONTINUOUS
 10
-124.50671340015791
 20
-8.0337675333904706
 30
0.0
  0
VERTEX
  5
34D
  8
0
  6
CONTINUOUS
 10
-110.4806612989568
 20
-18.915531058111419
 30
0.0
  0
VERTEX
  5
34E
  8
0
  6
CONTINUOUS
 10
-108.9506011790444
 20
-20.08336672920365
 30
0.0
  0
VERTEX
  5
34F
  8
0
  6
CONTINUOUS
 10
-107.0206412596186
 20
-21.87394789114439
 30
0.0
  0
VERTEX
  5
350
  8
0
  6
CONTINUOUS
 10
-104.8058116007748
 20
-23.85801602699156
 30
0.0
  0
VERTEX
  5
351
  8
0
  6
CONTINUOUS
 10
-102.50430859525621
 20
-25.633867730017592
 30
0.0
  0
SEQEND
  5
352
  8
0
  6
CONTINUOUS
  0
POLYLINE
  5
2F
  8
0
  6
CONTINUOUS
 66
     1
 10
0.0
 20
0.0
 30
0.0
  0
VERTEX
  5
353
  8
0
  6
CONTINUOUS
 10
-100.42585168187421
 20
-24.447394784380158
 30
0.0
  0
VERTEX
  5
354
  8
0
  6
CONTINUOUS
 10
-102.5909819419311
 20
-22.265731458194701
 30
0.0
  0
VERTEX
  5
355
  8
0
  6
CONTINUOUS
 10
-104.7907815406578
 20
-20.223446889494259
 30
0.0
  0
VERTEX
  5
356
  8
0
  6
CONTINUOUS
 10
-106.7559118007575
 20
-18.544288573221031
 30
0.0
  0
VERTEX
  5
357
  8
0
  6
CONTINUOUS
 10
-122.37444887155689
 20
-6.7658316619188774
 30
0.0
  0
VERTEX
  5
358
  8
0
  6
CONTINUOUS
 10
-122.6886773284034
 20
-6.4322645277218369
 30
0.0
  0
VERTEX
  5
359
  8
0
  6
CONTINUOUS
 10
-123.3352705146375
 20
-5.7452905799733101
 30
0.0
  0
SEQEND
  5
35A
  8
0
  6
CONTINUOUS
  0
POLYLINE
  5
30
  8
0
  6
CONTINUOUS
 66
     1
 10
0.0
 20
0.0
 30
0.0
  0
VERTEX
  5
35B
  8
0
  6
CONTINUOUS
 10
-6.0038076139431951
 20
-38.577354701147321
 30
0.0
  0
VERTEX
  5
35C
  8
0
  6
CONTINUOUS
 10
-6.9996993972968076
 20
-38.626252496728057
 30
0.0
  0
VERTEX
  5
35D
  8
0
  6
CONTINUOUS
 10
-10.553406811364511
 20
-38.800801594887041
 30
0.0
  0
VERTEX
  5
35E
  8
0
  6
CONTINUOUS
 10
-11.286372743071061
 20
-38.836873739167849
 30
0.0
  0
VERTEX
  5
35F
  8
0
  6
CONTINUOUS
 10
-12.82204408542716
 20
-38.912324640955262
 30
0.0
  0
VERTEX
  5
360
  8
0
  6
CONTINUOUS
 10
-14.96633266212174
 20
-39.017535061774417
 30
0.0
  0
VERTEX
  5
361
  8
0
  6
CONTINUOUS
 10
-17.524949896042038
 20
-39.143286564753453
 30
0.0
  0
SEQEND
  5
362
  8
0
  6
CONTINUOUS
  0
POLYLINE
  5
31
  8
0
  6
CONTINUOUS
 66
     1
 10
0.0
 20
0.0
 30
0.0
  0
VERTEX
  5
363
  8
0
  6
CONTINUOUS
 10
-17.481563122504269
 20
-81.107414812268857
 30
0.0
  0
VERTEX
  5
364
  8
0
  6
CONTINUOUS
 10
-14.932665327459601
 20
-81.362324631853497
 30
0.0
  0
VERTEX
  5
365
  8
0
  6
CONTINUOUS
 10
-12.796392782827461
 20
-81.575951886316716
 30
0.0
  0
VERTEX
  5
366
  8
0
  6
CONTINUOUS
 10
-11.266432863315821
 20
-81.728857697907131
 30
0.0
  0
VERTEX
  5
367
  8
0
  6
CONTINUOUS
 10
-10.53627254283108
 20
-81.801903790075869
 30
0.0
  0
VERTEX
  5
368
  8
0
  6
CONTINUOUS
 10
-6.9959919824679551
 20
-82.155911806032009
 30
0.0
  0
VERTEX
  5
369
  8
0
  6
CONTINUOUS
 10
-6.6730460907536147
 20
-82.188176335083199
 30
0.0
  0
VERTEX
  5
36A
  8
0
  6
CONTINUOUS
 10
-6.0038076139431951
 20
-82.255110202804303
 30
0.0
  0
SEQEND
  5
36B
  8
0
  6
CONTINUOUS
  0
POLYLINE
  5
32
  8
0
  6
CONTINUOUS
 66
     1
 10
0.0
 20
0.0
 30
0.0
  0
VERTEX
  5
36C
  8
0
  6
CONTINUOUS
 10
-17.937675346855372
 20
-94.178256492833043
 30
0.0
  0
VERTEX
  5
36D
  8
0
  6
CONTINUOUS
 10
-18.001903803755422
 20
-93.183266513086437
 30
0.0
  0
VERTEX
  5
36E
  8
0
  6
CONTINUOUS
 10
-18.231162320740331
 20
-89.632665311442906
 30
0.0
  0
VERTEX
  5
36F
  8
0
  6
CONTINUOUS
 10
-18.27845690990852
 20
-88.900400782541865
 30
0.0
  0
VERTEX
  5
370
  8
0
  6
CONTINUOUS
 10
-18.377555106280081
 20
-87.366032045395855
 30
0.0
  0
VERTEX
  5
371
  8
0
  6
CONTINUOUS
 10
-18.515831659356639
 20
-85.223747476716937
 30
0.0
  0
VERTEX
  5
372
  8
0
  6
CONTINUOUS
 10
-18.680961919842272
 20
-82.667434852014537
 30
0.0
  0
SEQEND
  5
373
  8
0
  6
CONTINUOUS
  0
POLYLINE
  5
33
  8
0
  6
CONTINUOUS
 66
     1
 10
0.0
 20
0.0
 30
0.0
 70
     1
  0
VERTEX
  5
374
  8
0
  6
CONTINUOUS
 10
-31.56012023371408
 20
-73.370140264829615
 30
0.0
  0
VERTEX
  5
375
  8
0
  6
CONTINUOUS
 10
-31.25470941213629
 20
-71.835270525679789
 30
0.0
  0
VERTEX
  5
376
  8
0
  6
CONTINUOUS
 10
-30.385270534567209
 20
-70.534168321549942
 30
0.0
  0
VERTEX
  5
377
  8
0
  6
CONTINUOUS
 10
-29.084168330437361
 20
-69.664729443980832
 30
0.0
  0
VERTEX
  5
378
  8
0
  6
CONTINUOUS
 10
-27.549198390886708
 20
-69.359418822803832
 30
0.0
  0
VERTEX
  5
379
  8
0
  6
CONTINUOUS
 10
-26.014328651736861
 20
-69.664729443980832
 30
0.0
  0
VERTEX
  5
37A
  8
0
  6
CONTINUOUS
 10
-24.71312624720624
 20
-70.534168321549942
 30
0.0
  0
VERTEX
  5
37B
  8
0
  6
CONTINUOUS
 10
-23.843687369637131
 20
-71.835370726080555
 30
0.0
  0
VERTEX
  5
37C
  8
0
  6
CONTINUOUS
 10
-23.538476948860868
 20
-73.370140264829615
 30
0.0
  0
VERTEX
  5
37D
  8
0
  6
CONTINUOUS
 10
-23.843687369637131
 20
-74.905010003979498
 30
0.0
  0
VERTEX
  5
37E
  8
0
  6
CONTINUOUS
 10
-24.71312624720624
 20
-76.206212408510112
 30
0.0
  0
VERTEX
  5
37F
  8
0
  6
CONTINUOUS
 10
-26.014328651736861
 20
-77.075551085678455
 30
0.0
  0
VERTEX
  5
380
  8
0
  6
CONTINUOUS
 10
-27.549198390886708
 20
-77.380861706855455
 30
0.0
  0
VERTEX
  5
381
  8
0
  6
CONTINUOUS
 10
-29.084168330437361
 20
-77.075551085678455
 30
0.0
  0
VERTEX
  5
382
  8
0
  6
CONTINUOUS
 10
-30.385370734967971
 20
-76.206212408510112
 30
0.0
  0
VERTEX
  5
383
  8
0
  6
CONTINUOUS
 10
-31.25470941213629
 20
-74.905010003979498
 30
0.0
  0
SEQEND
  5
384
  8
0
  6
CONTINUOUS
  0
POLYLINE
  5
34
  8
0
  6
CONTINUOUS
 66
     1
 10
0.0
 20
0.0
 30
0.0
 70
     1
  0
VERTEX
  5
385
  8
0
  6
CONTINUOUS
 10
-29.39779558487913
 20
-72.604509002468717
 30
0.0
  0
VERTEX
  5
386
  8
0
  6
CONTINUOUS
 10
-28.964028049901991
 20
-71.955310605814361
 30
0.0
  0
VERTEX
  5
387
  8
0
  6
CONTINUOUS
 10
-28.314929853648369
 20
-71.52164327123802
 30
0.0
  0
VERTEX
  5
388
  8
0
  6
CONTINUOUS
 10
-27.549198390886708
 20
-71.369338662052201
 30
0.0
  0
VERTEX
  5
389
  8
0
  6
CONTINUOUS
 10
-26.78356712852581
 20
-71.52164327123802
 30
0.0
  0
VERTEX
  5
38A
  8
0
  6
CONTINUOUS
 10
-26.134468932272231
 20
-71.955310605814361
 30
0.0
  0
VERTEX
  5
38B
  8
0
  6
CONTINUOUS
 10
-25.70070139729506
 20
-72.604509002468717
 30
0.0
  0
VERTEX
  5
38C
  8
0
  6
CONTINUOUS
 10
-25.548396788109301
 20
-73.370140264829615
 30
0.0
  0
VERTEX
  5
38D
  8
0
  6
CONTINUOUS
 10
-25.70070139729506
 20
-74.13587172759128
 30
0.0
  0
VERTEX
  5
38E
  8
0
  6
CONTINUOUS
 10
-26.134468932272231
 20
-74.784969923844926
 30
0.0
  0
VERTEX
  5
38F
  8
0
  6
CONTINUOUS
 10
-26.78356712852581
 20
-75.218637258421268
 30
0.0
  0
VERTEX
  5
390
  8
0
  6
CONTINUOUS
 10
-27.549198390886708
 20
-75.37094186760703
 30
0.0
  0
VERTEX
  5
391
  8
0
  6
CONTINUOUS
 10
-28.314929853648369
 20
-75.218637258421268
 30
0.0
  0
VERTEX
  5
392
  8
0
  6
CONTINUOUS
 10
-28.964028049901991
 20
-74.784969923844926
 30
0.0
  0
VERTEX
  5
393
  8
0
  6
CONTINUOUS
 10
-29.39779558487913
 20
-74.13587172759128
 30
0.0
  0
VERTEX
  5
394
  8
0
  6
CONTINUOUS
 10
-29.550100194064921
 20
-73.370140264829615
 30
0.0
  0
SEQEND
  5
395
  8
0
  6
CONTINUOUS
  0
POLYLINE
  5
35
  8
0
  6
CONTINUOUS
 66
     1
 10
0.0
 20
0.0
 30
0.0
 70
     1
  0
VERTEX
  5
396
  8
0
  6
CONTINUOUS
 10
-30.55941883112305
 20
-72.123346677922584
 30
0.0
  0
VERTEX
  5
397
  8
0
  6
CONTINUOUS
 10
-29.853206406424761
 20
-71.066332650093159
 30
0.0
  0
VERTEX
  5
398
  8
0
  6
CONTINUOUS
 10
-28.79619237859529
 20
-70.360020024994071
 30
0.0
  0
VERTEX
  5
399
  8
0
  6
CONTINUOUS
 10
-27.549198390886708
 20
-70.112024033063264
 30
0.0
  0
VERTEX
  5
39A
  8
0
  6
CONTINUOUS
 10
-26.302404803979691
 20
-70.360020024994071
 30
0.0
  0
VERTEX
  5
39B
  8
0
  6
CONTINUOUS
 10
-25.245290575749429
 20
-71.066332650093159
 30
0.0
  0
VERTEX
  5
39C
  8
0
  6
CONTINUOUS
 10
-24.53907815105114
 20
-72.123346677922584
 30
0.0
  0
VERTEX
  5
39D
  8
0
  6
CONTINUOUS
 10
-24.291082159120371
 20
-73.370140264829615
 30
0.0
  0
VERTEX
  5
39E
  8
0
  6
CONTINUOUS
 10
-24.53907815105114
 20
-74.617034052137456
 30
0.0
  0
VERTEX
  5
39F
  8
0
  6
CONTINUOUS
 10
-25.245290575749429
 20
-75.674048079966894
 30
0.0
  0
VERTEX
  5
3A0
  8
0
  6
CONTINUOUS
 10
-26.302404803979691
 20
-76.380260504665216
 30
0.0
  0
VERTEX
  5
3A1
  8
0
  6
CONTINUOUS
 10
-27.549198390886708
 20
-76.628256496596009
 30
0.0
  0
VERTEX
  5
3A2
  8
0
  6
CONTINUOUS
 10
-28.79619237859529
 20
-76.380260504665216
 30
0.0
  0
VERTEX
  5
3A3
  8
0
  6
CONTINUOUS
 10
-29.853206406424761
 20
-75.674048079966894
 30
0.0
  0
VERTEX
  5
3A4
  8
0
  6
CONTINUOUS
 10
-30.55941883112305
 20
-74.617034052137456
 30
0.0
  0
VERTEX
  5
3A5
  8
0
  6
CONTINUOUS
 10
-30.807515023454609
 20
-73.370140264829615
 30
0.0
  0
SEQEND
  5
3A6
  8
0
  6
CONTINUOUS
  0
POLYLINE
  5
36
  8
0
  6
CONTINUOUS
 66
     1
 10
0.0
 20
0.0
 30
0.0
 70
     1
  0
VERTEX
  5
3A7
  8
0
  6
CONTINUOUS
 10
-31.089278550448309
 20
-90.392685351360115
 30
0.0
  0
VERTEX
  5
3A8
  8
0
  6
CONTINUOUS
 10
-30.812625243894392
 20
-90.102805591903234
 30
0.0
  0
VERTEX
  5
3A9
  8
0
  6
CONTINUOUS
 10
-30.56432865076129
 20
-89.975050080908588
 30
0.0
  0
VERTEX
  5
3AA
  8
0
  6
CONTINUOUS
 10
-29.857314622856759
 20
-89.866733447665297
 30
0.0
  0
VERTEX
  5
3AB
  8
0
  6
CONTINUOUS
 10
-28.799198390618692
 20
-89.794388758302034
 30
0.0
  0
VERTEX
  5
3AC
  8
0
  6
CONTINUOUS
 10
-27.55110219850155
 20
-89.768937856503896
 30
0.0
  0
VERTEX
  5
3AD
  8
0
  6
CONTINUOUS
 10
-26.30290580598361
 20
-89.794388758302034
 30
0.0
  0
VERTEX
  5
3AE
  8
0
  6
CONTINUOUS
 10
-25.244789573745539
 20
-89.866733447665297
 30
0.0
  0
VERTEX
  5
3AF
  8
0
  6
CONTINUOUS
 10
-24.537775545841011
 20
-89.975050080908588
 30
0.0
  0
VERTEX
  5
3B0
  8
0
  6
CONTINUOUS
 10
-24.289378752307101
 20
-90.102705391502454
 30
0.0
  0
VERTEX
  5
3B1
  8
0
  6
CONTINUOUS
 10
-24.012725445753201
 20
-90.392685351360115
 30
0.0
  0
VERTEX
  5
3B2
  8
0
  6
CONTINUOUS
 10
-24.036573141138849
 20
-91.786372725810793
 30
0.0
  0
VERTEX
  5
3B3
  8
0
  6
CONTINUOUS
 10
-24.304008010821001
 20
-91.924048076482677
 30
0.0
  0
VERTEX
  5
3B4
  8
0
  6
CONTINUOUS
 10
-25.065931858353022
 20
-92.040681342990766
 30
0.0
  0
VERTEX
  5
3B5
  8
0
  6
CONTINUOUS
 10
-26.206112218830011
 20
-92.11873745519847
 30
0.0
  0
VERTEX
  5
3B6
  8
0
  6
CONTINUOUS
 10
-27.551001998100759
 20
-92.146092164611446
 30
0.0
  0
VERTEX
  5
3B7
  8
0
  6
CONTINUOUS
 10
-28.895891777371531
 20
-92.11873745519847
 30
0.0
  0
VERTEX
  5
3B8
  8
0
  6
CONTINUOUS
 10
-30.036072137848489
 20
-92.040781543391518
 30
0.0
  0
VERTEX
  5
3B9
  8
0
  6
CONTINUOUS
 10
-30.79789578497974
 20
-91.924048076482677
 30
0.0
  0
VERTEX
  5
3BA
  8
0
  6
CONTINUOUS
 10
-31.065430855062651
 20
-91.786472926211616
 30
0.0
  0
SEQEND
  5
3BB
  8
0
  6
CONTINUOUS
  0
POLYLINE
  5
37
  8
0
  6
CONTINUOUS
 66
     1
 10
0.0
 20
0.0
 30
0.0
  0
VERTEX
  5
3BC
  8
0
  6
CONTINUOUS
 10
-31.089278550448309
 20
-90.392685351360115
 30
0.0
  0
VERTEX
  5
3BD
  8
0
  6
CONTINUOUS
 10
-30.820040073552121
 20
-90.531262505639063
 30
0.0
  0
VERTEX
  5
3BE
  8
0
  6
CONTINUOUS
 10
-30.052905805179531
 20
-90.648697375353322
 30
0.0
  0
VERTEX
  5
3BF
  8
0
  6
CONTINUOUS
 10
-28.90511021424328
 20
-90.727154289164147
 30
0.0
  0
VERTEX
  5
3C0
  8
0
  6
CONTINUOUS
 10
-27.551001998100759
 20
-90.754709399378726
 30
0.0
  0
VERTEX
  5
3C1
  8
0
  6
CONTINUOUS
 10
-26.196993982359
 20
-90.727154289164147
 30
0.0
  0
VERTEX
  5
3C2
  8
0
  6
CONTINUOUS
 10
-25.049098191021951
 20
-90.648697375353322
 30
0.0
  0
VERTEX
  5
3C3
  8
0
  6
CONTINUOUS
 10
-24.282064123050159
 20
-90.531262505639063
 30
0.0
  0
VERTEX
  5
3C4
  8
0
  6
CONTINUOUS
 10
-24.012725445753201
 20
-90.392685351360115
 30
0.0
  0
SEQEND
  5
3C5
  8
0
  6
CONTINUOUS
  0
POLYLINE
  5
38
  8
0
  6
CONTINUOUS
 66
     1
 10
0.0
 20
0.0
 30
0.0
  0
VERTEX
  5
3C6
  8
0
  6
CONTINUOUS
 10
-24.289378752307101
 20
-90.102705391502454
 30
0.0
  0
VERTEX
  5
3C7
  8
0
  6
CONTINUOUS
 10
-24.537675345440249
 20
-90.230460902497157
 30
0.0
  0
VERTEX
  5
3C8
  8
0
  6
CONTINUOUS
 10
-25.244789573745539
 20
-90.338777535740405
 30
0.0
  0
VERTEX
  5
3C9
  8
0
  6
CONTINUOUS
 10
-26.30290580598361
 20
-90.411122225103668
 30
0.0
  0
VERTEX
  5
3CA
  8
0
  6
CONTINUOUS
 10
-27.55110219850155
 20
-90.436472926501054
 30
0.0
  0
VERTEX
  5
3CB
  8
0
  6
CONTINUOUS
 10
-28.799198390618692
 20
-90.411122225103668
 30
0.0
  0
VERTEX
  5
3CC
  8
0
  6
CONTINUOUS
 10
-29.857314622856759
 20
-90.338777535740405
 30
0.0
  0
VERTEX
  5
3CD
  8
0
  6
CONTINUOUS
 10
-30.56432865076129
 20
-90.230460902497157
 30
0.0
  0
VERTEX
  5
3CE
  8
0
  6
CONTINUOUS
 10
-30.812625243894392
 20
-90.102805591903234
 30
0.0
  0
SEQEND
  5
3CF
  8
0
  6
CONTINUOUS
  0
DIMENSION
  5
1BF
  8
COTATION-JACOBDELAFON
  2
*D2
 10
0.000000000000001
 20
15.853924916377309
 30
0.0
 11
-74.999999983919082
 21
18.285643879542381
 31
0.0
 70
     0
 13
-149.99999996783811
 23
-0.8043086171048905
 33
0.0
 14
0.0
 24
-0.8012024046806907
 34
0.0
  0
DIMENSION
  5
1E6
  8
COTATION-JACOBDELAFON
  2
*D3
 10
-162.69506447388099
 20
-100.2004007801189
 30
0.0
 11
-165.1267834370461
 21
-50.200200390059493
 31
0.0
 70
     0
 13
-149.39879756315739
 23
-0.1999999999999993
 33
0.0
 14
-0.601703406684635
 24
-100.2004007801189
 34
0.0
 50
90.0
  0
INSERT
  5
5B
 67
     1
  8
0
  6
CONTINUOUS
  2
ADCADD_ZZ
 10
0.0
 20
0.0
 30
0.0
1001
ADCADD_ZZ
1070
   205
1070
    14
1070
   209
1070
     1
1070
   231
1070
     0
1070
   235
1070
     0
1070
   236
1070
     4
1070
   237
1070
     2
1070
   238
1070
     4
1070
   239
1070
     2
1070
   240
1070
     0
1070
   241
1070
  4096
1070
   242
1070
     2
1070
   244
1070
     0
1070
   245
1070
     1
1070
   303
1040
0.1
1070
   304
1040
4.0
1070
   305
1040
96.0
1070
   306
1040
0.125
1070
   337
1040
0.0
1070
   338
1040
0.3048
1070
   339
1040
0.0625
1070
   340
1040
96.0
1070
   341
1040
4.0
1070
   342
1040
96.0
1070
   530
1010
0.0
1020
0.0
1030
0.0
1070
   531
1010
0.0
1020
0.0
1030
0.0
1070
   107
1000

1070
   108
1000
AIA (256 Color)
1070
   135
1000
L120
1070
   136
1000
'
1070
   137
1000
m
1001
SDSK_PMN
1070
   100
1000
ACADARCH
1070
   300
1040
2453076.590682013
  0
ENDSEC
  0
EOF
