  0
SECTION
  2
HEADER
  9
$ACADVER
  1
AC1009
  9
$INSBASE
 10
0.0
 20
0.0
 30
0.0
  9
$EXTMIN
 10
-161.88022981610251
 20
-0.9099999999999738
 30
0.0
  9
$EXTMAX
 10
0.9000000000000005
 20
53.870221460314362
 30
0.0
  9
$LIMMIN
 10
0.0
 20
0.0
  9
$LIMMAX
 10
12.0
 20
9.0
  9
$ORTHOMODE
 70
     1
  9
$REGENMODE
 70
     1
  9
$FILLMODE
 70
     1
  9
$QTEXTMODE
 70
     0
  9
$MIRRTEXT
 70
     1
  9
$DRAGMODE
 70
     2
  9
$LTSCALE
 40
1.0
  9
$OSMODE
 70
     1
  9
$ATTMODE
 70
     1
  9
$TEXTSIZE
 40
0.2
  9
$TRACEWID
 40
0.05
  9
$TEXTSTYLE
  7
STANDARD
  9
$CLAYER
  8
0
  9
$CELTYPE
  6
CONTINUOUS
  9
$CECOLOR
 62
   256
  9
$DIMSCALE
 40
96.0
  9
$DIMASZ
 40
0.18
  9
$DIMEXO
 40
0.0625
  9
$DIMDLI
 40
0.38
  9
$DIMRND
 40
0.0
  9
$DIMDLE
 40
0.0
  9
$DIMEXE
 40
0.18
  9
$DIMTP
 40
0.0
  9
$DIMTM
 40
0.0
  9
$DIMTXT
 40
0.18
  9
$DIMCEN
 40
0.09
  9
$DIMTSZ
 40
0.0
  9
$DIMTOL
 70
     0
  9
$DIMLIM
 70
     0
  9
$DIMTIH
 70
     1
  9
$DIMTOH
 70
     1
  9
$DIMSE1
 70
     0
  9
$DIMSE2
 70
     0
  9
$DIMTAD
 70
     0
  9
$DIMZIN
 70
     0
  9
$DIMBLK
  1

  9
$DIMASO
 70
     1
  9
$DIMSHO
 70
     1
  9
$DIMPOST
  1

  9
$DIMAPOST
  1

  9
$DIMALT
 70
     0
  9
$DIMALTD
 70
     2
  9
$DIMALTF
 40
25.399999999999999
  9
$DIMLFAC
 40
1.0
  9
$DIMTOFL
 70
     0
  9
$DIMTVP
 40
0.0
  9
$DIMTIX
 70
     0
  9
$DIMSOXD
 70
     0
  9
$DIMSAH
 70
     0
  9
$DIMBLK1
  1

  9
$DIMBLK2
  1

  9
$DIMSTYLE
  2
STANDARD
  9
$DIMCLRD
 70
     0
  9
$DIMCLRE
 70
     0
  9
$DIMCLRT
 70
     0
  9
$DIMTFAC
 40
1.0
  9
$DIMGAP
 40
0.09
  9
$LUNITS
 70
     2
  9
$LUPREC
 70
     4
  9
$SKETCHINC
 40
0.1
  9
$FILLETRAD
 40
0.0
  9
$AUNITS
 70
     0
  9
$AUPREC
 70
     2
  9
$MENU
  1
.
  9
$ELEVATION
 40
0.0
  9
$PELEVATION
 40
0.0
  9
$THICKNESS
 40
0.0
  9
$LIMCHECK
 70
     0
  9
$BLIPMODE
 70
     0
  9
$CHAMFERA
 40
0.0
  9
$CHAMFERB
 40
0.0
  9
$SKPOLY
 70
     0
  9
$TDCREATE
 40
2453066.497988842
  9
$TDUPDATE
 40
2453076.59083662
  9
$TDINDWG
 40
0.0468584375
  9
$TDUSRTIMER
 40
0.0468584375
  9
$USRTIMER
 70
     1
  9
$ANGBASE
 50
0.0
  9
$ANGDIR
 70
     0
  9
$PDMODE
 70
     0
  9
$PDSIZE
 40
0.0
  9
$PLINEWID
 40
0.0
  9
$COORDS
 70
     1
  9
$SPLFRAME
 70
     0
  9
$SPLINETYPE
 70
     6
  9
$SPLINESEGS
 70
     8
  9
$ATTDIA
 70
     1
  9
$ATTREQ
 70
     1
  9
$HANDLING
 70
 22529
  9
$HANDSEED
  5
283
  9
$SURFTAB1
 70
     6
  9
$SURFTAB2
 70
     6
  9
$SURFTYPE
 70
     6
  9
$SURFU
 70
     6
  9
$SURFV
 70
     6
  9
$UCSNAME
  2

  9
$UCSORG
 10
0.0
 20
0.0
 30
0.0
  9
$UCSXDIR
 10
1.0
 20
0.0
 30
0.0
  9
$UCSYDIR
 10
0.0
 20
1.0
 30
0.0
  9
$PUCSNAME
  2

  9
$PUCSORG
 10
0.0
 20
0.0
 30
0.0
  9
$PUCSXDIR
 10
1.0
 20
0.0
 30
0.0
  9
$PUCSYDIR
 10
0.0
 20
1.0
 30
0.0
  9
$USERI1
 70
     0
  9
$USERI2
 70
     0
  9
$USERI3
 70
     0
  9
$USERI4
 70
     0
  9
$USERI5
 70
     0
  9
$USERR1
 40
0.0
  9
$USERR2
 40
0.0
  9
$USERR3
 40
0.0
  9
$USERR4
 40
0.0
  9
$USERR5
 40
0.0
  9
$WORLDVIEW
 70
     1
  9
$SHADEDGE
 70
     3
  9
$SHADEDIF
 70
    70
  9
$TILEMODE
 70
     1
  9
$MAXACTVP
 70
    64
  9
$PLIMCHECK
 70
     0
  9
$PEXTMIN
 10
-0.4290283746865953
 20
-0.6248517063212377
 30
0.0
  9
$PEXTMAX
 10
296.57097162531329
 20
449.43014803948489
 30
0.0
  9
$PLIMMIN
 10
-0.1979161059762549
 20
-0.2679166643638311
  9
$PLIMMAX
 10
11.493750144177531
 20
7.9987497780266699
  9
$UNITMODE
 70
     0
  9
$VISRETAIN
 70
     1
  9
$PLINEGEN
 70
     0
  9
$PSLTSCALE
 70
     1
  0
ENDSEC
  0
SECTION
  2
TABLES
  0
TABLE
  2
VPORT
 70
     2
  0
VPORT
  2
*ACTIVE
 70
     0
 10
0.0
 20
0.0
 11
1.0
 21
1.0
 12
-75.997615640922305
 22
26.4800787655115
 13
0.0
 23
0.0
 14
1.0
 24
1.0
 15
0.0
 25
0.0
 16
0.0
 26
0.0
 36
1.0
 17
0.0
 27
0.0
 37
0.0
 40
89.626342816871372
 41
1.928853754940711
 42
50.0
 43
0.0
 44
0.0
 50
0.0
 51
0.0
 71
     0
 72
   100
 73
     1
 74
     1
 75
     0
 76
     0
 77
     0
 78
     0
  0
ENDTAB
  0
TABLE
  2
LTYPE
 70
     1
  0
LTYPE
  2
CONTINUOUS
 70
     0
  3
Solid line
 72
    65
 73
     0
 40
0.0
  0
ENDTAB
  0
TABLE
  2
LAYER
 70
     3
  0
LAYER
  2
0
 70
     0
 62
     7
  6
CONTINUOUS
  0
LAYER
  2
DEFPOINTS
 70
     0
 62
     7
  6
CONTINUOUS
  0
LAYER
  2
COTATION-JACOBDELAFON
 70
     0
 62
     8
  6
CONTINUOUS
  0
ENDTAB
  0
TABLE
  2
STYLE
 70
     2
  0
STYLE
  2
STANDARD
 70
     0
 40
0.0
 41
1.0
 50
0.0
 71
     0
 42
0.2
  3
txt
  4

  0
STYLE
  2
JACOB-DELAFON
 70
     0
 40
0.0
 41
1.0
 50
0.0
 71
     0
 42
2.5
  3
txt
  4

  0
ENDTAB
  0
TABLE
  2
VIEW
 70
     0
  0
ENDTAB
  0
TABLE
  2
UCS
 70
     0
  0
ENDTAB
  0
TABLE
  2
APPID
 70
     5
  0
APPID
  2
ACAD
 70
     0
  0
APPID
  2
ADCADD_ZZ
 70
     0
  0
APPID
  2
SDSK_PMN
 70
     0
  0
APPID
  2
AEC_DWGVARSSETUP_DATA
 70
     0
  0
APPID
  2
AEC_DISPREPSET_DATA
 70
     0
  0
ENDTAB
  0
TABLE
  2
DIMSTYLE
 70
     2
  0
DIMSTYLE
  2
STANDARD
 70
     0
  3

  4

  5

  6

  7

 40
1.0
 41
0.18
 42
0.0625
 43
0.38
 44
0.18
 45
0.0
 46
0.0
 47
0.0
 48
0.0
140
0.18
141
0.09
142
0.0
143
25.399999999999999
144
1.0
145
0.0
146
1.0
147
0.09
 71
     0
 72
     0
 73
     1
 74
     1
 75
     0
 76
     0
 77
     0
 78
     0
170
     0
171
     2
172
     0
173
     0
174
     0
175
     0
176
     0
177
     0
178
     0
  0
DIMSTYLE
  2
COTATION-JACOB-DELAFON
 70
     0
  3

  4

  5
OBLIQUE
  6

  7

 40
1.0
 41
1.8
 42
0.625
 43
3.7999999999999989
 44
1.8
 45
0.0
 46
0.0
 47
0.0
 48
0.0
140
3.0
141
0.9
142
0.0
143
25.399999999999999
144
1.0
145
0.0
146
1.0
147
0.9
 71
     0
 72
     0
 73
     0
 74
     0
 75
     0
 76
     0
 77
     1
 78
    12
170
     0
171
     2
172
     0
173
     0
174
     0
175
     0
176
     0
177
     0
178
     0
  0
ENDTAB
  0
ENDSEC
  0
SECTION
  2
BLOCKS
  0
BLOCK
  8
0
  2
$MODEL_SPACE
 70
     0
 10
0.0
 20
0.0
 30
0.0
  3
$MODEL_SPACE
  1

  0
ENDBLK
  5
9
  8
0
  0
BLOCK
 67
     1
  8
0
  2
$PAPER_SPACE
 70
     0
 10
0.0
 20
0.0
 30
0.0
  3
$PAPER_SPACE
  1

  0
ENDBLK
  5
10
 67
     1
  8
0
  0
BLOCK
  8
0
  2
ADCADD_ZZ
 70
     0
 10
0.0
 20
0.0
 30
0.0
  3
ADCADD_ZZ
  1

  0
ENDBLK
  5
49
  8
0
  0
BLOCK
  8
0
  2
_OBLIQUE
 70
     0
 10
0.0
 20
0.0
 30
0.0
  3
_OBLIQUE
  1

  0
LINE
  5
197
  8
0
  6
BYBLOCK
 62
     0
 10
-0.5
 20
-0.5
 30
0.0
 11
0.5
 21
0.5
 31
0.0
  0
ENDBLK
  5
199
  8
0
  0
BLOCK
  8
0
  2
*D2
 70
     1
 10
0.0
 20
0.0
 30
0.0
  3
*D2
  1

  0
LINE
  5
23C
  8
COTATION-JACOBDELAFON
 62
     0
 10
-150.00000383795941
 20
43.110330759850392
 30
0.0
 11
-150.00000383795941
 21
50.918925416658148
 31
0.0
  0
LINE
  5
23D
  8
COTATION-JACOBDELAFON
 62
     0
 10
0.0
 20
43.110330759850392
 30
0.0
 11
0.0000000000000005
 21
50.918925416658148
 31
0.0
  0
LINE
  5
23E
  8
COTATION-JACOBDELAFON
 62
     0
 10
-150.00000383795941
 20
49.118925416658158
 30
0.0
 11
0.0000000000000004
 21
49.118925416658158
 31
0.0
  0
INSERT
  5
23F
  8
COTATION-JACOBDELAFON
 62
     0
  2
_OBLIQUE
 10
-150.00000383795941
 20
49.118925416658158
 30
0.0
 41
1.8
 42
1.8
 43
1.8
 50
180.0
  0
INSERT
  5
240
  8
COTATION-JACOBDELAFON
 62
     0
  2
_OBLIQUE
 10
0.0000000000000004
 20
49.118925416658158
 30
0.0
 41
1.8
 42
1.8
 43
1.8
  0
TEXT
  5
241
  8
0
  6
CONTINUOUS
 62
     0
 10
-78.62414925867958
 20
50.076224188827318
 30
0.0
 40
3.0
  1
150
  7
JACOB-DELAFON
  0
POINT
  5
242
  8
DEFPOINTS
 62
     0
 10
-150.00000383795941
 20
42.485330759850392
 30
0.0
  0
POINT
  5
243
  8
DEFPOINTS
 62
     0
 10
0.0
 20
42.485330759850392
 30
0.0
  0
POINT
  5
244
  8
DEFPOINTS
 62
     0
 10
0.0000000000000004
 20
49.118925416658158
 30
0.0
  0
ENDBLK
  5
1BD
  8
0
  0
BLOCK
  8
0
  2
*D3
 70
     1
 10
0.0
 20
0.0
 30
0.0
  3
*D3
  1

  0
LINE
  5
24E
  8
COTATION-JACOBDELAFON
 62
     0
 10
-150.02380021490711
 20
43.086202914186742
 30
0.0
 11
-158.926887387726
 21
43.086202914186742
 31
0.0
  0
LINE
  5
24F
  8
COTATION-JACOBDELAFON
 62
     0
 10
-65.414430636884418
 20
-0.0099999999999996
 30
0.0
 11
-158.926887387726
 21
-0.0099999999999731
 31
0.0
  0
LINE
  5
250
  8
COTATION-JACOBDELAFON
 62
     0
 10
-157.12688738772599
 20
43.086202914186742
 30
0.0
 11
-157.12688738772599
 21
-0.0099999999999736
 31
0.0
  0
INSERT
  5
251
  8
COTATION-JACOBDELAFON
 62
     0
  2
_OBLIQUE
 10
-157.12688738772599
 20
43.086202914186742
 30
0.0
 41
1.8
 42
1.8
 43
1.8
 50
90.0
  0
INSERT
  5
252
  8
COTATION-JACOBDELAFON
 62
     0
  2
_OBLIQUE
 10
-157.12688738772599
 20
-0.0099999999999736
 30
0.0
 41
1.8
 42
1.8
 43
1.8
 50
270.0
  0
TEXT
  5
253
  8
0
  6
CONTINUOUS
 62
     0
 10
-158.08623254461551
 20
17.817774035538111
 30
0.0
 40
3.0
  1
43.1
 50
90.0
  7
JACOB-DELAFON
  0
POINT
  5
254
  8
DEFPOINTS
 62
     0
 10
-149.39880021490711
 20
43.086202914186742
 30
0.0
  0
POINT
  5
255
  8
DEFPOINTS
 62
     0
 10
-64.789430636884418
 20
-0.0099999999999998
 30
0.0
  0
POINT
  5
256
  8
DEFPOINTS
 62
     0
 10
-157.12688738772599
 20
-0.0099999999999736
 30
0.0
  0
ENDBLK
  5
1E4
  8
0
  0
ENDSEC
  0
SECTION
  2
ENTITIES
  0
POLYLINE
  5
26
  8
0
  6
CONTINUOUS
 66
     1
 10
0.0
 20
0.0
 30
0.0
 70
     1
  0
VERTEX
  5
260
  8
0
  6
CONTINUOUS
 10
-150.00000383795941
 20
40.080313205725531
 30
0.0
  0
VERTEX
  5
261
  8
0
  6
CONTINUOUS
 10
-150.00000383795941
 20
42.485330759850392
 30
0.0
  0
VERTEX
  5
262
  8
0
  6
CONTINUOUS
 10
-149.82385061201239
 20
42.91037518454629
 30
0.0
  0
VERTEX
  5
263
  8
0
  6
CONTINUOUS
 10
-149.39880021490711
 20
43.086202914186742
 30
0.0
  0
VERTEX
  5
264
  8
0
  6
CONTINUOUS
 10
-0.6012066092569058
 20
43.086202914186742
 30
0.0
  0
VERTEX
  5
265
  8
0
  6
CONTINUOUS
 10
-0.1760546811936479
 20
42.91037518454629
 30
0.0
  0
VERTEX
  5
266
  8
0
  6
CONTINUOUS
 10
0.0
 20
42.485330759850392
 30
0.0
  0
VERTEX
  5
267
  8
0
  6
CONTINUOUS
 10
0.0
 20
40.080313205725531
 30
0.0
  0
SEQEND
  5
268
  8
0
  6
CONTINUOUS
  0
POLYLINE
  5
27
  8
0
  6
CONTINUOUS
 66
     1
 10
0.0
 20
0.0
 30
0.0
  0
VERTEX
  5
269
  8
0
  6
CONTINUOUS
 10
-138.17349611026441
 20
40.080313205725531
 30
0.0
  0
VERTEX
  5
26A
  8
0
  6
CONTINUOUS
 10
-121.9404842405751
 20
6.3121535831572171
 30
0.0
  0
VERTEX
  5
26B
  8
0
  6
CONTINUOUS
 10
-120.2042093000133
 20
3.8100485435352791
 30
0.0
  0
VERTEX
  5
26C
  8
0
  6
CONTINUOUS
 10
-117.7219446040688
 20
1.80561242563464
 30
0.0
  0
VERTEX
  5
26D
  8
0
  6
CONTINUOUS
 10
-114.93647860545271
 20
0.4731440223162533
 30
0.0
  0
VERTEX
  5
26E
  8
0
  6
CONTINUOUS
 10
-112.0972967576386
 20
-0.0099999999999998
 30
0.0
  0
VERTEX
  5
26F
  8
0
  6
CONTINUOUS
 10
-17.48156451613016
 20
-0.0099999999999998
 30
0.0
  0
VERTEX
  5
270
  8
0
  6
CONTINUOUS
 10
-14.9326716220923
 20
0.4731440223162533
 30
0.0
  0
VERTEX
  5
271
  8
0
  6
CONTINUOUS
 10
-12.796400541417141
 20
1.80561242563464
 30
0.0
  0
VERTEX
  5
272
  8
0
  6
CONTINUOUS
 10
-11.26643650753666
 20
3.8100485435352791
 30
0.0
  0
VERTEX
  5
273
  8
0
  6
CONTINUOUS
 10
-10.536273636785349
 20
6.3121535831572171
 30
0.0
  0
VERTEX
  5
274
  8
0
  6
CONTINUOUS
 10
-7.203613390471105
 20
40.080313205725581
 30
0.0
  0
SEQEND
  5
275
  8
0
  6
CONTINUOUS
  0
POLYLINE
  5
28
  8
0
  6
CONTINUOUS
 66
     1
 10
0.0
 20
0.0
 30
0.0
  0
VERTEX
  5
276
  8
0
  6
CONTINUOUS
 10
-124.5067180250005
 20
42.183365745902726
 30
0.0
  0
VERTEX
  5
277
  8
0
  6
CONTINUOUS
 10
-110.4806670924805
 20
6.3121535831572171
 30
0.0
  0
VERTEX
  5
278
  8
0
  6
CONTINUOUS
 10
-108.95060750005131
 20
3.8100485435352791
 30
0.0
  0
VERTEX
  5
279
  8
0
  6
CONTINUOUS
 10
-107.0206473260575
 20
1.80561242563464
 30
0.0
  0
VERTEX
  5
27A
  8
0
  6
CONTINUOUS
 10
-104.8058151735178
 20
0.4731440223162533
 30
0.0
  0
VERTEX
  5
27B
  8
0
  6
CONTINUOUS
 10
-102.50431141729131
 20
-0.0099999999999998
 30
0.0
  0
SEQEND
  5
27C
  8
0
  6
CONTINUOUS
  0
POLYLINE
  5
29
  8
0
  6
CONTINUOUS
 66
     1
 10
0.0
 20
0.0
 30
0.0
  0
VERTEX
  5
27D
  8
0
  6
CONTINUOUS
 10
-121.9404842405751
 20
6.3121535831572171
 30
0.0
  0
VERTEX
  5
27E
  8
0
  6
CONTINUOUS
 10
-118.3445921626942
 20
6.3121535831572171
 30
0.0
  0
VERTEX
  5
27F
  8
0
  6
CONTINUOUS
 10
-114.0133292731569
 20
6.3121535831572171
 30
0.0
  0
VERTEX
  5
280
  8
0
  6
CONTINUOUS
 10
-110.4806670924805
 20
6.3121535831572171
 30
0.0
  0
VERTEX
  5
281
  8
0
  6
CONTINUOUS
 10
-10.55341445146157
 20
6.3121535831572171
 30
0.0
  0
SEQEND
  5
282
  8
0
  6
CONTINUOUS
  0
DIMENSION
  5
1B1
  8
COTATION-JACOBDELAFON
  2
*D2
 10
0.0000000000000004
 20
49.118925416658158
 30
0.0
 11
-75.000001918979706
 21
51.550644379823233
 31
0.0
 70
     0
 13
-150.00000383795941
 23
42.485330759850392
 33
0.0
 14
0.0
 24
42.485330759850392
 34
0.0
  0
DIMENSION
  5
1D8
  8
COTATION-JACOBDELAFON
  2
*D3
 10
-157.12688738772599
 20
-0.0099999999999736
 30
0.0
 11
-159.55962954325119
 21
21.538101457093362
 31
0.0
 70
     0
 13
-149.39880021490711
 23
43.086202914186742
 33
0.0
 14
-64.789430636884418
 24
-0.0099999999999998
 34
0.0
 50
90.0
  0
INSERT
  5
4A
 67
     1
  8
0
  6
CONTINUOUS
  2
ADCADD_ZZ
 10
0.0
 20
0.0
 30
0.0
1001
ADCADD_ZZ
1070
   205
1070
    14
1070
   209
1070
     1
1070
   231
1070
     0
1070
   235
1070
     0
1070
   236
1070
     4
1070
   237
1070
     2
1070
   238
1070
     4
1070
   239
1070
     2
1070
   240
1070
     0
1070
   241
1070
  4096
1070
   242
1070
     2
1070
   244
1070
     0
1070
   245
1070
     1
1070
   303
1040
0.1
1070
   304
1040
4.0
1070
   305
1040
96.0
1070
   306
1040
0.125
1070
   337
1040
0.0
1070
   338
1040
0.3048
1070
   339
1040
0.0625
1070
   340
1040
96.0
1070
   341
1040
4.0
1070
   342
1040
96.0
1070
   530
1010
0.0
1020
0.0
1030
0.0
1070
   531
1010
0.0
1020
0.0
1030
0.0
1070
   107
1000

1070
   108
1000
AIA (256 Color)
1070
   135
1000
L120
1070
   136
1000
'
1070
   137
1000
m
1001
SDSK_PMN
1070
   100
1000
ACADARCH
1070
   300
1040
2453076.5908631589
  0
ENDSEC
  0
EOF
