  0
SECTION
  2
HEADER
  9
$ACADVER
  1
AC1009
  9
$INSBASE
 10
0.0
 20
0.0
 30
0.0
  9
$EXTMIN
 10
-54.566158499932271
 20
-3.057322724932888
 30
0.0
  9
$EXTMAX
 10
40.898843394396827
 20
15.15523058619328
 30
0.0
  9
$LIMMIN
 10
0.0
 20
0.0
  9
$LIMMAX
 10
12.0
 20
9.0
  9
$ORTHOMODE
 70
     1
  9
$REGENMODE
 70
     1
  9
$FILLMODE
 70
     1
  9
$QTEXTMODE
 70
     0
  9
$MIRRTEXT
 70
     1
  9
$DRAGMODE
 70
     2
  9
$LTSCALE
 40
1.0
  9
$OSMODE
 70
    35
  9
$ATTMODE
 70
     1
  9
$TEXTSIZE
 40
0.2
  9
$TRACEWID
 40
0.05
  9
$TEXTSTYLE
  7
STANDARD
  9
$CLAYER
  8
0
  9
$CELTYPE
  6
CONTINUOUS
  9
$CECOLOR
 62
   256
  9
$DIMSCALE
 40
1.0
  9
$DIMASZ
 40
0.18
  9
$DIMEXO
 40
0.0625
  9
$DIMDLI
 40
0.38
  9
$DIMRND
 40
0.0
  9
$DIMDLE
 40
0.0
  9
$DIMEXE
 40
0.18
  9
$DIMTP
 40
0.0
  9
$DIMTM
 40
0.0
  9
$DIMTXT
 40
0.18
  9
$DIMCEN
 40
0.09
  9
$DIMTSZ
 40
0.0
  9
$DIMTOL
 70
     0
  9
$DIMLIM
 70
     0
  9
$DIMTIH
 70
     1
  9
$DIMTOH
 70
     1
  9
$DIMSE1
 70
     0
  9
$DIMSE2
 70
     0
  9
$DIMTAD
 70
     0
  9
$DIMZIN
 70
     0
  9
$DIMBLK
  1

  9
$DIMASO
 70
     1
  9
$DIMSHO
 70
     1
  9
$DIMPOST
  1

  9
$DIMAPOST
  1

  9
$DIMALT
 70
     0
  9
$DIMALTD
 70
     2
  9
$DIMALTF
 40
25.399999999999999
  9
$DIMLFAC
 40
1.0
  9
$DIMTOFL
 70
     0
  9
$DIMTVP
 40
0.0
  9
$DIMTIX
 70
     0
  9
$DIMSOXD
 70
     0
  9
$DIMSAH
 70
     0
  9
$DIMBLK1
  1

  9
$DIMBLK2
  1

  9
$DIMSTYLE
  2
STANDARD
  9
$DIMCLRD
 70
     0
  9
$DIMCLRE
 70
     0
  9
$DIMCLRT
 70
     0
  9
$DIMTFAC
 40
1.0
  9
$DIMGAP
 40
0.09
  9
$LUNITS
 70
     2
  9
$LUPREC
 70
     4
  9
$SKETCHINC
 40
0.1
  9
$FILLETRAD
 40
0.0
  9
$AUNITS
 70
     0
  9
$AUPREC
 70
     2
  9
$MENU
  1
.
  9
$ELEVATION
 40
0.0
  9
$PELEVATION
 40
0.0
  9
$THICKNESS
 40
0.0
  9
$LIMCHECK
 70
     0
  9
$BLIPMODE
 70
     0
  9
$CHAMFERA
 40
0.0
  9
$CHAMFERB
 40
0.0
  9
$SKPOLY
 70
     0
  9
$TDCREATE
 40
2453068.4755562609
  9
$TDUPDATE
 40
2453087.5029271292
  9
$TDINDWG
 40
0.0420144907
  9
$TDUSRTIMER
 40
0.0420144907
  9
$USRTIMER
 70
     1
  9
$ANGBASE
 50
0.0
  9
$ANGDIR
 70
     0
  9
$PDMODE
 70
     0
  9
$PDSIZE
 40
0.0
  9
$PLINEWID
 40
0.0
  9
$COORDS
 70
     0
  9
$SPLFRAME
 70
     0
  9
$SPLINETYPE
 70
     6
  9
$SPLINESEGS
 70
     8
  9
$ATTDIA
 70
     1
  9
$ATTREQ
 70
     1
  9
$HANDLING
 70
 22529
  9
$HANDSEED
  5
1FF
  9
$SURFTAB1
 70
     6
  9
$SURFTAB2
 70
     6
  9
$SURFTYPE
 70
     6
  9
$SURFU
 70
     6
  9
$SURFV
 70
     6
  9
$UCSNAME
  2

  9
$UCSORG
 10
0.0
 20
0.0
 30
0.0
  9
$UCSXDIR
 10
1.0
 20
0.0
 30
0.0
  9
$UCSYDIR
 10
0.0
 20
1.0
 30
0.0
  9
$PUCSNAME
  2

  9
$PUCSORG
 10
0.0
 20
0.0
 30
0.0
  9
$PUCSXDIR
 10
1.0
 20
0.0
 30
0.0
  9
$PUCSYDIR
 10
0.0
 20
1.0
 30
0.0
  9
$USERI1
 70
     0
  9
$USERI2
 70
     0
  9
$USERI3
 70
     0
  9
$USERI4
 70
     0
  9
$USERI5
 70
     0
  9
$USERR1
 40
0.0
  9
$USERR2
 40
0.0
  9
$USERR3
 40
0.0
  9
$USERR4
 40
0.0
  9
$USERR5
 40
0.0
  9
$WORLDVIEW
 70
     1
  9
$SHADEDGE
 70
     3
  9
$SHADEDIF
 70
    70
  9
$TILEMODE
 70
     1
  9
$MAXACTVP
 70
    64
  9
$PLIMCHECK
 70
     0
  9
$PEXTMIN
 10
0.0521934418496244
 20
0.0894417821796765
 30
0.0
  9
$PEXTMAX
 10
297.05219344184962
 20
433.33131401557182
 30
0.0
  9
$PLIMMIN
 10
-0.1979161059762549
 20
-0.2679166643638311
  9
$PLIMMAX
 10
11.493750144177531
 20
7.9987497780266699
  9
$UNITMODE
 70
     0
  9
$VISRETAIN
 70
     1
  9
$PLINEGEN
 70
     0
  9
$PSLTSCALE
 70
     1
  0
ENDSEC
  0
SECTION
  2
TABLES
  0
TABLE
  2
VPORT
 70
     2
  0
VPORT
  2
*ACTIVE
 70
     0
 10
0.0
 20
0.0
 11
1.0
 21
1.0
 12
-5.6305007686972601
 22
6.0489539306301969
 13
0.0
 23
0.0
 14
1.0
 24
1.0
 15
0.0
 25
0.0
 16
0.0
 26
0.0
 36
1.0
 17
0.0
 27
0.0
 37
0.0
 40
53.900585523635549
 41
1.828516377649325
 42
50.0
 43
0.0
 44
0.0
 50
0.0
 51
0.0
 71
     0
 72
   100
 73
     1
 74
     1
 75
     0
 76
     0
 77
     0
 78
     0
  0
ENDTAB
  0
TABLE
  2
LTYPE
 70
     1
  0
LTYPE
  2
CONTINUOUS
 70
     0
  3
Solid line
 72
    65
 73
     0
 40
0.0
  0
ENDTAB
  0
TABLE
  2
LAYER
 70
     3
  0
LAYER
  2
0
 70
     0
 62
     7
  6
CONTINUOUS
  0
LAYER
  2
DEFPOINTS
 70
     0
 62
     7
  6
CONTINUOUS
  0
LAYER
  2
COTATION-JACOBDELAFON
 70
     0
 62
     8
  6
CONTINUOUS
  0
ENDTAB
  0
TABLE
  2
STYLE
 70
     2
  0
STYLE
  2
STANDARD
 70
     0
 40
0.0
 41
1.0
 50
0.0
 71
     0
 42
0.2
  3
txt
  4

  0
STYLE
  2
JACOB-DELAFON
 70
     0
 40
0.0
 41
1.0
 50
0.0
 71
     0
 42
2.5
  3
txt
  4

  0
ENDTAB
  0
TABLE
  2
VIEW
 70
     0
  0
ENDTAB
  0
TABLE
  2
UCS
 70
     0
  0
ENDTAB
  0
TABLE
  2
APPID
 70
     9
  0
APPID
  2
ACAD
 70
     0
  0
APPID
  2
ADCADD_ZZ
 70
     0
  0
APPID
  2
SDSK_PMN
 70
     0
  0
APPID
  2
ACAECLAYERSTANDARD
 70
     0
  0
APPID
  2
AECBASE
 70
     0
  0
APPID
  2
AEC_DWGVARSSETUP_DATA
 70
     0
  0
APPID
  2
AEC_DISPREPCONFIG_DATA
 70
     0
  0
APPID
  2
AEC_DISPREPSET_DATA
 70
     0
  0
APPID
  2
DCO15
 70
     0
  0
ENDTAB
  0
TABLE
  2
DIMSTYLE
 70
     2
  0
DIMSTYLE
  2
STANDARD
 70
     0
  3

  4

  5

  6

  7

 40
1.0
 41
0.18
 42
0.0625
 43
0.38
 44
0.18
 45
0.0
 46
0.0
 47
0.0
 48
0.0
140
0.18
141
0.09
142
0.0
143
25.399999999999999
144
1.0
145
0.0
146
1.0
147
0.09
 71
     0
 72
     0
 73
     1
 74
     1
 75
     0
 76
     0
 77
     0
 78
     0
170
     0
171
     2
172
     0
173
     0
174
     0
175
     0
176
     0
177
     0
178
     0
  0
DIMSTYLE
  2
COTATION-JACOB-DELAFON
 70
     0
  3

  4

  5
OBLIQUE
  6

  7

 40
1.0
 41
1.8
 42
0.625
 43
3.7999999999999989
 44
1.8
 45
0.0
 46
0.0
 47
0.0
 48
0.0
140
3.0
141
0.9
142
0.0
143
25.399999999999999
144
1.0
145
0.0
146
1.0
147
0.9
 71
     0
 72
     0
 73
     0
 74
     0
 75
     0
 76
     0
 77
     1
 78
    12
170
     0
171
     2
172
     0
173
     0
174
     0
175
     0
176
     0
177
     0
178
     0
  0
ENDTAB
  0
ENDSEC
  0
SECTION
  2
BLOCKS
  0
BLOCK
  8
0
  2
$MODEL_SPACE
 70
     0
 10
0.0
 20
0.0
 30
0.0
  3
$MODEL_SPACE
  1

  0
ENDBLK
  5
55
  8
0
  0
BLOCK
 67
     1
  8
0
  2
$PAPER_SPACE
 70
     0
 10
0.0
 20
0.0
 30
0.0
  3
$PAPER_SPACE
  1

  0
ENDBLK
  5
5A
 67
     1
  8
0
  0
BLOCK
  8
0
  2
*D0
 70
     1
 10
0.0
 20
0.0
 30
0.0
  3
*D0
  1

  0
LINE
  5
3D
  8
COTATION-JACOBDELAFON
 62
     0
 10
-40.000103394348642
 20
4.2309348625284988
 30
0.0
 11
-40.000103394348642
 21
8.3526384988808662
 31
0.0
  0
LINE
  5
3E
  8
COTATION-JACOBDELAFON
 62
     0
 10
39.998843394396829
 20
4.2308298625324587
 30
0.0
 11
39.998843394396829
 21
8.3526384988808662
 31
0.0
  0
LINE
  5
3F
  8
COTATION-JACOBDELAFON
 62
     0
 10
-40.000103394348642
 20
6.5526384988808672
 30
0.0
 11
39.998843394396829
 21
6.5526384988808672
 31
0.0
  0
INSERT
  5
40
  8
COTATION-JACOBDELAFON
 62
     0
  2
_OBLIQUE
 10
-40.000103394348642
 20
6.5526384988808672
 30
0.0
 41
1.8
 42
1.8
 43
1.8
 50
180.0
  0
INSERT
  5
41
  8
COTATION-JACOBDELAFON
 62
     0
  2
_OBLIQUE
 10
39.998843394396829
 20
6.5526384988808672
 30
0.0
 41
1.8
 42
1.8
 43
1.8
  0
TEXT
  5
42
  8
0
  6
CONTINUOUS
 62
     0
 10
-4.6315986220768597
 20
7.5672360432192036
 30
0.0
 40
6.0
  1
80
  7
JACOB-DELAFON
  0
POINT
  5
43
  8
DEFPOINTS
 62
     0
 10
-40.000103394348642
 20
3.6059348625284988
 30
0.0
  0
POINT
  5
45
  8
DEFPOINTS
 62
     0
 10
39.998843394396829
 20
3.6058298625324592
 30
0.0
  0
POINT
  5
46
  8
DEFPOINTS
 62
     0
 10
39.998843394396829
 20
6.5526384988808672
 30
0.0
  0
ENDBLK
  5
47
  8
0
  0
BLOCK
  8
0
  2
_OBLIQUE
 70
     0
 10
0.0
 20
0.0
 30
0.0
  3
_OBLIQUE
  1

  0
LINE
  5
38
  8
0
  6
BYBLOCK
 62
     0
 10
-0.5
 20
-0.5
 30
0.0
 11
0.5
 21
0.5
 31
0.0
  0
ENDBLK
  5
39
  8
0
  0
BLOCK
  8
0
  2
*D2
 70
     1
 10
0.0
 20
0.0
 30
0.0
  3
*D2
  1

  0
LINE
  5
4B
  8
COTATION-JACOBDELAFON
 62
     0
 10
-39.966858419513137
 20
0.0000000000000002
 30
0.0
 11
-45.615885648636223
 21
0.0000000000000018
 31
0.0
  0
LINE
  5
4C
  8
COTATION-JACOBDELAFON
 62
     0
 10
-39.964653419597447
 20
4.1049998434493773
 30
0.0
 11
-45.615885648636223
 21
4.1049998434493782
 31
0.0
  0
LINE
  5
4D
  8
COTATION-JACOBDELAFON
 62
     0
 10
-43.815885648636218
 20
0.0000000000000013
 30
0.0
 11
-43.815885648636218
 21
4.1049998434493782
 31
0.0
  0
TEXT
  5
4E
  8
0
  6
CONTINUOUS
 62
     0
 10
-46.978163956958191
 20
-3.057322724932888
 30
0.0
 40
6.0
  1
4.1
 50
90.0
  7
JACOB-DELAFON
  0
INSERT
  5
4F
  8
COTATION-JACOBDELAFON
 62
     0
  2
_OBLIQUE
 10
-43.815885648636218
 20
0.0000000000000013
 30
0.0
 41
1.8
 42
1.8
 43
1.8
 50
270.0
  0
INSERT
  5
50
  8
COTATION-JACOBDELAFON
 62
     0
  2
_OBLIQUE
 10
-43.815885648636218
 20
4.1049998434493782
 30
0.0
 41
1.8
 42
1.8
 43
1.8
 50
90.0
  0
POINT
  5
51
  8
DEFPOINTS
 62
     0
 10
-39.341858419513137
 20
0.0
 30
0.0
  0
POINT
  5
52
  8
DEFPOINTS
 62
     0
 10
-39.339653419597447
 20
4.1049998434493773
 30
0.0
  0
POINT
  5
53
  8
DEFPOINTS
 62
     0
 10
-43.815885648636218
 20
4.1049998434493782
 30
0.0
  0
ENDBLK
  5
54
  8
0
  0
BLOCK
  8
0
  2
ADCADD_ZZ
 70
     0
 10
0.0
 20
0.0
 30
0.0
  3
ADCADD_ZZ
  1

  0
ENDBLK
  5
96
  8
0
  0
ENDSEC
  0
SECTION
  2
ENTITIES
  0
LINE
  5
9
  8
0
  6
CONTINUOUS
 10
39.341858419513159
 20
3.6014198627010501
 30
0.0
 11
-39.347738036139532
 21
3.6014198627010501
 31
0.0
  0
LINE
  5
A
  8
0
  6
CONTINUOUS
 10
-39.347320801294543
 20
0.5042100102422183
 30
0.0
 11
39.341858419513159
 21
0.5042100102422183
 31
0.0
  0
LINE
  5
B
  8
0
  6
CONTINUOUS
 10
39.334718419786142
 20
3.6723998599875349
 30
0.0
 11
-39.348998419240168
 21
3.6725048599835191
 31
0.0
  0
LINE
  5
C
  8
0
  6
CONTINUOUS
 10
39.33944341960553
 20
4.0316048462552203
 30
0.0
 11
-39.344273419420787
 21
4.0317098462512027
 31
0.0
  0
LINE
  5
D
  8
0
  6
CONTINUOUS
 10
39.344063419428849
 20
4.1048948434533372
 30
0.0
 11
-39.339653419597447
 21
4.1049998434493773
 31
0.0
  0
LINE
  5
E
  8
0
  6
CONTINUOUS
 10
-39.341858419513137
 20
0.4324949834658583
 30
0.0
 11
39.341858419513137
 21
0.4324949834658014
 31
0.0
  0
LINE
  5
F
  8
0
  6
CONTINUOUS
 10
-39.341858419513137
 20
0.0732899971981169
 30
0.0
 11
39.341858419513137
 21
0.0732899971981169
 31
0.0
  0
LINE
  5
10
  8
0
  6
CONTINUOUS
 10
-39.341858419513137
 20
0.0
 30
0.0
 11
39.341858419513137
 21
0.0
 31
0.0
  0
LINE
  5
11
  8
0
  6
CONTINUOUS
 10
-39.407378417008339
 20
3.6529748607301249
 30
0.0
 11
-39.43320841602084
 21
3.6059348625284988
 31
0.0
  0
LINE
  5
12
  8
0
  6
CONTINUOUS
 10
-39.348998419240139
 20
3.6725048599835191
 30
0.0
 11
-39.407378417008339
 21
3.6529748607301249
 31
0.0
  0
LINE
  5
13
  8
0
  6
CONTINUOUS
 10
-39.742958404179248
 20
3.907074851015977
 30
0.0
 11
-39.907703397881022
 21
3.6059348625284988
 31
0.0
  0
LINE
  5
14
  8
0
  6
CONTINUOUS
 10
-39.344273419420787
 20
4.0317098462512027
 30
0.0
 11
-39.742958404179248
 21
3.907074851015977
 31
0.0
  0
LINE
  5
15
  8
0
  6
CONTINUOUS
 10
-39.808268401682447
 20
3.9584198490530862
 30
0.0
 11
-40.000103394348642
 21
3.6059348625284988
 31
0.0
  0
LINE
  5
16
  8
0
  6
CONTINUOUS
 10
-39.339653419597447
 20
4.1049998434493773
 30
0.0
 11
-39.808268401682447
 21
3.9584198490530862
 31
0.0
  0
LINE
  5
17
  8
0
  6
CONTINUOUS
 10
-39.40958341692405
 20
0.4519199827232115
 30
0.0
 11
-39.35120341915588
 21
0.432389983469875
 31
0.0
  0
LINE
  5
18
  8
0
  6
CONTINUOUS
 10
-39.432683416040952
 20
0.5033699807563039
 30
0.0
 11
-39.40958341692405
 21
0.4519199827232115
 31
0.0
  0
LINE
  5
19
  8
0
  6
CONTINUOUS
 10
-39.745058404098913
 20
0.1979249924333999
 30
0.0
 11
-39.34647841933652
 21
0.0731849972021337
 31
0.0
  0
LINE
  5
1A
  8
0
  6
CONTINUOUS
 10
-39.907178397901099
 20
0.5033699807563039
 30
0.0
 11
-39.745058404098913
 21
0.1979249924333999
 31
0.0
  0
LINE
  5
1B
  8
0
  6
CONTINUOUS
 10
-39.810473401598131
 20
0.1445849944725523
 30
0.0
 11
-39.341858419513137
 21
0.0
 31
0.0
  0
LINE
  5
1C
  8
0
  6
CONTINUOUS
 10
-40.001153394308503
 20
0.5007449808566662
 30
0.0
 11
-39.810473401598131
 21
0.1445849944725523
 31
0.0
  0
LINE
  5
1D
  8
0
  6
CONTINUOUS
 10
-39.347738036139532
 20
3.6014198627010501
 30
0.0
 11
-39.347320801294543
 21
0.5042100102422183
 31
0.0
  0
LINE
  5
1E
  8
0
  6
CONTINUOUS
 10
-39.43320841602084
 20
3.6059348625284988
 30
0.0
 11
-39.432683416040952
 21
0.5033699807563039
 31
0.0
  0
LINE
  5
1F
  8
0
  6
CONTINUOUS
 10
-39.907703397881022
 20
3.6059348625284988
 30
0.0
 11
-39.907178397901099
 21
0.5033699807563039
 31
0.0
  0
LINE
  5
20
  8
0
  6
CONTINUOUS
 10
-40.000103394348642
 20
3.6059348625284988
 30
0.0
 11
-40.001153394308503
 21
0.5007449808566662
 31
0.0
  0
LINE
  5
21
  8
0
  6
CONTINUOUS
 10
39.807008401730599
 20
3.9602048489848012
 30
0.0
 11
39.998843394396829
 21
3.6058298625324592
 31
0.0
  0
LINE
  5
22
  8
0
  6
CONTINUOUS
 10
39.343958419432852
 20
4.0316048462552203
 30
0.0
 11
39.741698404227392
 21
3.9068648510239541
 31
0.0
  0
LINE
  5
23
  8
0
  6
CONTINUOUS
 10
39.406118417056511
 20
3.6528698607341421
 30
0.0
 11
39.343958419432852
 21
3.6723998599875349
 31
0.0
  0
LINE
  5
24
  8
0
  6
CONTINUOUS
 10
39.431948416069027
 20
3.6058298625324592
 30
0.0
 11
39.406118417056511
 21
3.6528698607341421
 31
0.0
  0
LINE
  5
25
  8
0
  6
CONTINUOUS
 10
39.344063419428849
 20
4.1048948434533372
 30
0.0
 11
39.807008401730599
 21
3.9602048489848012
 31
0.0
  0
LINE
  5
26
  8
0
  6
CONTINUOUS
 10
39.741698404227392
 20
3.9068648510239541
 30
0.0
 11
39.906443397929252
 21
3.6058298625324592
 31
0.0
  0
LINE
  5
27
  8
0
  6
CONTINUOUS
 10
39.804908401810899
 20
0.1446899944685356
 30
0.0
 11
39.996638394481103
 21
0.4939199811175286
 31
0.0
  0
LINE
  5
28
  8
0
  6
CONTINUOUS
 10
39.341858419513159
 20
0.5042100102422183
 30
0.0
 11
39.341858419513137
 21
0.5178852997428863
 31
0.0
  0
LINE
  5
29
  8
0
  6
CONTINUOUS
 10
39.404018417136811
 20
0.4520249827191947
 30
0.0
 11
39.429743416153322
 21
0.4991699809168609
 31
0.0
  0
LINE
  5
2A
  8
0
  6
CONTINUOUS
 10
39.341858419513137
 20
0.4324949834658014
 30
0.0
 11
39.404018417136811
 21
0.4520249827191947
 31
0.0
  0
LINE
  5
2B
  8
0
  6
CONTINUOUS
 10
39.341858419513137
 20
0.0732899971981169
 30
0.0
 11
39.739493404311681
 21
0.1980299924293831
 31
0.0
  0
LINE
  5
2C
  8
0
  6
CONTINUOUS
 10
39.739493404311681
 20
0.1980299924293831
 30
0.0
 11
39.904343398009509
 21
0.4991699809168609
 31
0.0
  0
LINE
  5
2D
  8
0
  6
CONTINUOUS
 10
39.341858419513137
 20
0.0
 30
0.0
 11
39.804908401810899
 21
0.1446899944685356
 31
0.0
  0
LINE
  5
2E
  8
0
  6
CONTINUOUS
 10
39.341858419513159
 20
0.5042100102422183
 30
0.0
 11
39.341858419513159
 21
3.6014198627010501
 31
0.0
  0
LINE
  5
2F
  8
0
  6
CONTINUOUS
 10
39.429743416153322
 20
0.4991699809168609
 30
0.0
 11
39.431948416069027
 21
3.6058298625324592
 31
0.0
  0
LINE
  5
30
  8
0
  6
CONTINUOUS
 10
39.904343398009509
 20
0.4991699809168609
 30
0.0
 11
39.906443397929252
 21
3.6058298625324592
 31
0.0
  0
LINE
  5
31
  8
0
  6
CONTINUOUS
 10
39.998843394396829
 20
3.6058298625324592
 30
0.0
 11
39.998843394396808
 21
0.4979363172181479
 31
0.0
  0
DIMENSION
  5
32
  8
COTATION-JACOBDELAFON
  2
*D0
 10
39.998843394396829
 20
6.5526384988808672
 30
0.0
 11
-0.0006299999759063
 21
10.516076425211009
 31
0.0
 13
-40.000103394348642
 23
3.6059348625284988
 33
0.0
 14
39.998843394396829
 24
3.6058298625324592
 34
0.0
1001
ACAD
1000
DSTYLE
1002
{
1070
   140
1040
6.0
1002
}
  0
DIMENSION
  5
48
  8
COTATION-JACOBDELAFON
  2
*D2
 10
-43.815885648636218
 20
4.1049998434493782
 30
0.0
 11
-49.978163956958191
 21
2.052499921724682
 31
0.0
 13
-39.341858419513137
 23
0.0
 33
0.0
 14
-39.339653419597447
 24
4.1049998434493773
 34
0.0
 50
90.0
1001
ACAD
1000
DSTYLE
1002
{
1070
   140
1040
6.0
1002
}
  0
INSERT
  5
97
 67
     1
  8
0
  6
CONTINUOUS
  2
ADCADD_ZZ
 10
0.0
 20
0.0
 30
0.0
1001
ADCADD_ZZ
1070
   205
1070
    14
1070
   209
1070
     1
1070
   231
1070
     0
1070
   235
1070
     0
1070
   236
1070
     4
1070
   237
1070
     2
1070
   238
1070
     4
1070
   239
1070
     2
1070
   240
1070
     0
1070
   241
1070
  4096
1070
   242
1070
     2
1070
   244
1070
     0
1070
   245
1070
     1
1070
   303
1040
0.1
1070
   304
1040
4.0
1070
   305
1040
1.0
1070
   306
1040
1.0
1070
   337
1040
0.0
1070
   338
1040
0.3048
1070
   339
1040
0.0625
1070
   340
1040
96.0
1070
   341
1040
4.0
1070
   342
1040
1.0
1070
   530
1010
0.0
1020
0.0
1030
0.0
1070
   531
1010
0.0
1020
0.0
1030
0.0
1070
   107
1000

1070
   108
1000
Architectural Desktop
1070
   135
1000
L120
1070
   136
1000
'
1070
   137
1000
m
1001
SDSK_PMN
1070
   100
1000
ACADARCH
1070
   300
1040
2453087.502973842
  0
ENDSEC
  0
EOF
