  0
SECTION
  2
HEADER
  9
$ACADVER
  1
AC1009
  9
$INSBASE
 10
0.0
 20
0.0
 30
0.0
  9
$EXTMIN
 10
-50.545353852285857
 20
-3.0621473474377718
 30
0.0
  9
$EXTMAX
 10
35.904948575429529
 20
17.254777571990179
 30
0.0
  9
$LIMMIN
 10
0.0
 20
0.0
  9
$LIMMAX
 10
12.0
 20
9.0
  9
$ORTHOMODE
 70
     1
  9
$REGENMODE
 70
     1
  9
$FILLMODE
 70
     1
  9
$QTEXTMODE
 70
     0
  9
$MIRRTEXT
 70
     1
  9
$DRAGMODE
 70
     2
  9
$LTSCALE
 40
1.0
  9
$OSMODE
 70
    35
  9
$ATTMODE
 70
     1
  9
$TEXTSIZE
 40
0.2
  9
$TRACEWID
 40
0.05
  9
$TEXTSTYLE
  7
STANDARD
  9
$CLAYER
  8
0
  9
$CELTYPE
  6
CONTINUOUS
  9
$CECOLOR
 62
   256
  9
$DIMSCALE
 40
96.0
  9
$DIMASZ
 40
0.18
  9
$DIMEXO
 40
0.0625
  9
$DIMDLI
 40
0.38
  9
$DIMRND
 40
0.0
  9
$DIMDLE
 40
0.0
  9
$DIMEXE
 40
0.18
  9
$DIMTP
 40
0.0
  9
$DIMTM
 40
0.0
  9
$DIMTXT
 40
0.18
  9
$DIMCEN
 40
0.09
  9
$DIMTSZ
 40
0.0
  9
$DIMTOL
 70
     0
  9
$DIMLIM
 70
     0
  9
$DIMTIH
 70
     1
  9
$DIMTOH
 70
     1
  9
$DIMSE1
 70
     0
  9
$DIMSE2
 70
     0
  9
$DIMTAD
 70
     0
  9
$DIMZIN
 70
     0
  9
$DIMBLK
  1

  9
$DIMASO
 70
     1
  9
$DIMSHO
 70
     1
  9
$DIMPOST
  1

  9
$DIMAPOST
  1

  9
$DIMALT
 70
     0
  9
$DIMALTD
 70
     2
  9
$DIMALTF
 40
25.399999999999999
  9
$DIMLFAC
 40
1.0
  9
$DIMTOFL
 70
     0
  9
$DIMTVP
 40
0.0
  9
$DIMTIX
 70
     0
  9
$DIMSOXD
 70
     0
  9
$DIMSAH
 70
     0
  9
$DIMBLK1
  1

  9
$DIMBLK2
  1

  9
$DIMSTYLE
  2
STANDARD
  9
$DIMCLRD
 70
     0
  9
$DIMCLRE
 70
     0
  9
$DIMCLRT
 70
     0
  9
$DIMTFAC
 40
1.0
  9
$DIMGAP
 40
0.09
  9
$LUNITS
 70
     2
  9
$LUPREC
 70
     4
  9
$SKETCHINC
 40
0.1
  9
$FILLETRAD
 40
0.0
  9
$AUNITS
 70
     0
  9
$AUPREC
 70
     2
  9
$MENU
  1
.
  9
$ELEVATION
 40
0.0
  9
$PELEVATION
 40
0.0
  9
$THICKNESS
 40
0.0
  9
$LIMCHECK
 70
     0
  9
$BLIPMODE
 70
     0
  9
$CHAMFERA
 40
0.0
  9
$CHAMFERB
 40
0.0
  9
$SKPOLY
 70
     0
  9
$TDCREATE
 40
2453067.4964745478
  9
$TDUPDATE
 40
2453087.5052159722
  9
$TDINDWG
 40
0.1221922801
  9
$TDUSRTIMER
 40
0.1221922801
  9
$USRTIMER
 70
     1
  9
$ANGBASE
 50
0.0
  9
$ANGDIR
 70
     0
  9
$PDMODE
 70
     0
  9
$PDSIZE
 40
0.0
  9
$PLINEWID
 40
0.0
  9
$COORDS
 70
     0
  9
$SPLFRAME
 70
     0
  9
$SPLINETYPE
 70
     6
  9
$SPLINESEGS
 70
     8
  9
$ATTDIA
 70
     1
  9
$ATTREQ
 70
     1
  9
$HANDLING
 70
 22529
  9
$HANDSEED
  5
263
  9
$SURFTAB1
 70
     6
  9
$SURFTAB2
 70
     6
  9
$SURFTYPE
 70
     6
  9
$SURFU
 70
     6
  9
$SURFV
 70
     6
  9
$UCSNAME
  2

  9
$UCSORG
 10
0.0
 20
0.0
 30
0.0
  9
$UCSXDIR
 10
1.0
 20
0.0
 30
0.0
  9
$UCSYDIR
 10
0.0
 20
1.0
 30
0.0
  9
$PUCSNAME
  2

  9
$PUCSORG
 10
0.0
 20
0.0
 30
0.0
  9
$PUCSXDIR
 10
1.0
 20
0.0
 30
0.0
  9
$PUCSYDIR
 10
0.0
 20
1.0
 30
0.0
  9
$USERI1
 70
     0
  9
$USERI2
 70
     0
  9
$USERI3
 70
     0
  9
$USERI4
 70
     0
  9
$USERI5
 70
     0
  9
$USERR1
 40
0.0
  9
$USERR2
 40
0.0
  9
$USERR3
 40
0.0
  9
$USERR4
 40
0.0
  9
$USERR5
 40
0.0
  9
$WORLDVIEW
 70
     1
  9
$SHADEDGE
 70
     3
  9
$SHADEDIF
 70
    70
  9
$TILEMODE
 70
     1
  9
$MAXACTVP
 70
    64
  9
$PLIMCHECK
 70
     0
  9
$PEXTMIN
 10
0.0632012528350288
 20
0.0361794184764506
 30
0.0
  9
$PEXTMAX
 10
297.06320125283497
 20
413.74432887926338
 30
0.0
  9
$PLIMMIN
 10
-0.1979161059762549
 20
-0.2679166643638311
  9
$PLIMMAX
 10
11.493750144177531
 20
7.9987497780266699
  9
$UNITMODE
 70
     0
  9
$VISRETAIN
 70
     1
  9
$PLINEGEN
 70
     0
  9
$PSLTSCALE
 70
     1
  0
ENDSEC
  0
SECTION
  2
TABLES
  0
TABLE
  2
VPORT
 70
     2
  0
VPORT
  2
*ACTIVE
 70
     0
 10
0.0
 20
0.0
 11
1.0
 21
1.0
 12
-6.2305924832059096
 22
7.0963151595802323
 13
0.0
 23
0.0
 14
1.0
 24
1.0
 15
0.0
 25
0.0
 16
0.0
 26
0.0
 36
1.0
 17
0.0
 27
0.0
 37
0.0
 40
48.781083711621207
 41
1.828516377649325
 42
50.0
 43
0.0
 44
0.0
 50
0.0
 51
0.0
 71
     0
 72
   100
 73
     1
 74
     1
 75
     0
 76
     0
 77
     0
 78
     0
  0
ENDTAB
  0
TABLE
  2
LTYPE
 70
     1
  0
LTYPE
  2
CONTINUOUS
 70
     0
  3
Solid line
 72
    65
 73
     0
 40
0.0
  0
ENDTAB
  0
TABLE
  2
LAYER
 70
     3
  0
LAYER
  2
0
 70
     0
 62
     7
  6
CONTINUOUS
  0
LAYER
  2
DEFPOINTS
 70
     0
 62
     7
  6
CONTINUOUS
  0
LAYER
  2
COTATION-JACOBDELAFON
 70
     0
 62
     8
  6
CONTINUOUS
  0
ENDTAB
  0
TABLE
  2
STYLE
 70
     2
  0
STYLE
  2
STANDARD
 70
     0
 40
0.0
 41
1.0
 50
0.0
 71
     0
 42
0.2
  3
txt
  4

  0
STYLE
  2
JACOB-DELAFON
 70
     0
 40
0.0
 41
1.0
 50
0.0
 71
     0
 42
2.5
  3
txt
  4

  0
ENDTAB
  0
TABLE
  2
VIEW
 70
     0
  0
ENDTAB
  0
TABLE
  2
UCS
 70
     0
  0
ENDTAB
  0
TABLE
  2
APPID
 70
     9
  0
APPID
  2
ACAD
 70
     0
  0
APPID
  2
ADCADD_ZZ
 70
     0
  0
APPID
  2
SDSK_PMN
 70
     0
  0
APPID
  2
ACAECLAYERSTANDARD
 70
     0
  0
APPID
  2
AECBASE
 70
     0
  0
APPID
  2
AEC_DWGVARSSETUP_DATA
 70
     0
  0
APPID
  2
AEC_DISPREPCONFIG_DATA
 70
     0
  0
APPID
  2
AEC_DISPREPSET_DATA
 70
     0
  0
APPID
  2
DCO15
 70
     0
  0
ENDTAB
  0
TABLE
  2
DIMSTYLE
 70
     2
  0
DIMSTYLE
  2
STANDARD
 70
     0
  3

  4

  5

  6

  7

 40
1.0
 41
0.18
 42
0.0625
 43
0.38
 44
0.18
 45
0.0
 46
0.0
 47
0.0
 48
0.0
140
0.18
141
0.09
142
0.0
143
25.399999999999999
144
1.0
145
0.0
146
1.0
147
0.09
 71
     0
 72
     0
 73
     1
 74
     1
 75
     0
 76
     0
 77
     0
 78
     0
170
     0
171
     2
172
     0
173
     0
174
     0
175
     0
176
     0
177
     0
178
     0
  0
DIMSTYLE
  2
COTATION-JACOB-DELAFON
 70
     0
  3

  4

  5
OBLIQUE
  6

  7

 40
1.0
 41
1.8
 42
0.625
 43
3.7999999999999989
 44
1.8
 45
0.0
 46
0.0
 47
0.0
 48
0.0
140
3.0
141
0.9
142
0.0
143
25.399999999999999
144
1.0
145
0.0
146
1.0
147
0.9
 71
     0
 72
     0
 73
     0
 74
     0
 75
     0
 76
     0
 77
     1
 78
    12
170
     0
171
     2
172
     0
173
     0
174
     0
175
     0
176
     0
177
     0
178
     0
  0
ENDTAB
  0
ENDSEC
  0
SECTION
  2
BLOCKS
  0
BLOCK
  8
0
  2
$MODEL_SPACE
 70
     0
 10
0.0
 20
0.0
 30
0.0
  3
$MODEL_SPACE
  1

  0
ENDBLK
  5
9
  8
0
  0
BLOCK
 67
     1
  8
0
  2
$PAPER_SPACE
 70
     0
 10
0.0
 20
0.0
 30
0.0
  3
$PAPER_SPACE
  1

  0
ENDBLK
  5
E
 67
     1
  8
0
  0
BLOCK
  8
0
  2
*D0
 70
     1
 10
0.0
 20
0.0
 30
0.0
  3
*D0
  1

  0
LINE
  5
D7
  8
COTATION-JACOBDELAFON
 62
     0
 10
-34.998317336702677
 20
3.7755833963739742
 30
0.0
 11
-34.998317336702677
 21
10.45218548467777
 31
0.0
  0
LINE
  5
D8
  8
COTATION-JACOBDELAFON
 62
     0
 10
35.00494857542953
 20
3.7825310889306252
 30
0.0
 11
35.00494857542953
 21
10.45218548467777
 31
0.0
  0
LINE
  5
D9
  8
COTATION-JACOBDELAFON
 62
     0
 10
-34.998317336702677
 20
8.6521854846777728
 30
0.0
 11
35.00494857542953
 21
8.6521854846777728
 31
0.0
  0
INSERT
  5
DA
  8
COTATION-JACOBDELAFON
 62
     0
  2
_OBLIQUE
 10
-34.998317336702677
 20
8.6521854846777728
 30
0.0
 41
1.8
 42
1.8
 43
1.8
 50
180.0
  0
INSERT
  5
DB
  8
COTATION-JACOBDELAFON
 62
     0
  2
_OBLIQUE
 10
35.00494857542953
 20
8.6521854846777728
 30
0.0
 41
1.8
 42
1.8
 43
1.8
  0
TEXT
  5
DC
  8
0
  6
CONTINUOUS
 62
     0
 10
-4.6563023888221116
 20
9.6667830290161092
 30
0.0
 40
6.0
  1
70
  7
JACOB-DELAFON
  0
POINT
  5
DD
  8
DEFPOINTS
 62
     0
 10
-34.998317336702677
 20
3.1505833963739742
 30
0.0
  0
POINT
  5
DE
  8
DEFPOINTS
 62
     0
 10
35.00494857542953
 20
3.1575310889306252
 30
0.0
  0
POINT
  5
DF
  8
DEFPOINTS
 62
     0
 10
35.00494857542953
 20
8.6521854846777728
 30
0.0
  0
ENDBLK
  5
61
  8
0
  0
BLOCK
  8
0
  2
_OBLIQUE
 70
     0
 10
0.0
 20
0.0
 30
0.0
  3
_OBLIQUE
  1

  0
LINE
  5
63
  8
0
  6
BYBLOCK
 62
     0
 10
-0.5
 20
-0.5
 30
0.0
 11
0.5
 21
0.5
 31
0.0
  0
ENDBLK
  5
65
  8
0
  0
BLOCK
  8
0
  2
*D2
 70
     1
 10
0.0
 20
0.0
 30
0.0
  3
*D2
  1

  0
LINE
  5
CE
  8
COTATION-JACOBDELAFON
 62
     0
 10
-34.966760390095239
 20
0.00000058695872
 30
0.0
 11
-41.595081000989808
 21
0.0000005869587219
 31
0.0
  0
LINE
  5
CF
  8
COTATION-JACOBDELAFON
 62
     0
 10
-34.964655028714397
 20
4.0953500114808881
 30
0.0
 11
-41.595081000989808
 21
4.0953500114808898
 31
0.0
  0
LINE
  5
D0
  8
COTATION-JACOBDELAFON
 62
     0
 10
-39.795081000989811
 20
0.0000005869587214
 30
0.0
 11
-39.795081000989811
 21
4.095350011480889
 31
0.0
  0
TEXT
  5
D1
  8
0
  6
CONTINUOUS
 62
     0
 10
-42.957359309311776
 20
-3.0621473474377718
 30
0.0
 40
6.0
  1
4.1
 50
90.0
  7
JACOB-DELAFON
  0
INSERT
  5
D2
  8
COTATION-JACOBDELAFON
 62
     0
  2
_OBLIQUE
 10
-39.795081000989811
 20
0.0000005869587214
 30
0.0
 41
1.8
 42
1.8
 43
1.8
 50
270.0
  0
INSERT
  5
D3
  8
COTATION-JACOBDELAFON
 62
     0
  2
_OBLIQUE
 10
-39.795081000989811
 20
4.095350011480889
 30
0.0
 41
1.8
 42
1.8
 43
1.8
 50
90.0
  0
POINT
  5
D4
  8
DEFPOINTS
 62
     0
 10
-34.341760390095239
 20
0.0000005869587199
 30
0.0
  0
POINT
  5
D5
  8
DEFPOINTS
 62
     0
 10
-34.339655028714397
 20
4.0953500114808881
 30
0.0
  0
POINT
  5
D6
  8
DEFPOINTS
 62
     0
 10
-39.795081000989811
 20
4.095350011480889
 30
0.0
  0
ENDBLK
  5
BB
  8
0
  0
BLOCK
  8
0
  2
ADCADD_ZZ
 70
     0
 10
0.0
 20
0.0
 30
0.0
  3
ADCADD_ZZ
  1

  0
ENDBLK
  5
FB
  8
0
  0
ENDSEC
  0
SECTION
  2
ENTITIES
  0
LINE
  5
24
  8
0
  6
CONTINUOUS
 10
-34.339655028714397
 20
3.5905896204302499
 30
0.0
 11
34.349549577581527
 21
3.5908001565683199
 31
0.0
  0
LINE
  5
25
  8
0
  6
CONTINUOUS
 10
-34.339735706058022
 20
0.5038135126408179
 30
0.0
 11
34.349865381788682
 21
0.5038135126408179
 31
0.0
  0
LINE
  5
26
  8
0
  6
CONTINUOUS
 10
34.353339228066979
 20
3.6618561031708619
 30
0.0
 11
-34.339549760645347
 21
3.6617508351018269
 31
0.0
  0
LINE
  5
27
  8
0
  6
CONTINUOUS
 10
-34.341760390095239
 20
0.4337050314068165
 30
0.0
 11
34.351233866686137
 21
0.4335997633377247
 31
0.0
  0
LINE
  5
28
  8
0
  6
CONTINUOUS
 10
34.348602164960148
 20
4.0219781673594071
 30
0.0
 11
-34.339549760645347
 21
4.021872899290428
 31
0.0
  0
LINE
  5
29
  8
0
  6
CONTINUOUS
 10
-34.341760390095239
 20
0.0734776991491799
 30
0.0
 11
34.346496803579342
 21
0.0734776991491799
 31
0.0
  0
LINE
  5
2A
  8
0
  6
CONTINUOUS
 10
34.34397036992236
 20
4.0954552795499231
 30
0.0
 11
-34.339655028714397
 21
4.0953500114808881
 31
0.0
  0
LINE
  5
2B
  8
0
  6
CONTINUOUS
 10
-34.341760390095239
 20
0.0000005869587199
 30
0.0
 11
34.341760390095239
 21
-0.0000005869587199
 31
0.0
  0
LINE
  5
2C
  8
0
  6
CONTINUOUS
 10
-34.339655028714397
 20
3.5905896204302499
 30
0.0
 11
-34.339735706058022
 21
0.5038135126408179
 31
0.0
  0
LINE
  5
2D
  8
0
  6
CONTINUOUS
 10
-34.42776440250158
 20
3.5950108793299469
 30
0.0
 11
-34.429869763882351
 21
0.5004449871786392
 31
0.0
  0
LINE
  5
2E
  8
0
  6
CONTINUOUS
 10
-34.903576074565969
 20
3.5950108793299469
 30
0.0
 11
-34.905681435946782
 21
0.5004449871786392
 31
0.0
  0
LINE
  5
2F
  8
0
  6
CONTINUOUS
 10
-34.998317336702677
 20
3.5864841657376578
 30
0.0
 11
-34.998317336702677
 21
0.4951815837266054
 31
0.0
  0
LINE
  5
30
  8
0
  6
CONTINUOUS
 10
-34.404079086967371
 20
0.45317962417937
 30
0.0
 11
-34.341760390095239
 21
0.4337050314068165
 31
0.0
  0
LINE
  5
31
  8
0
  6
CONTINUOUS
 10
-34.429869763882351
 20
0.5004449871786392
 30
0.0
 11
-34.404079086967371
 21
0.45317962417937
 31
0.0
  0
LINE
  5
32
  8
0
  6
CONTINUOUS
 10
-34.740515835621757
 20
0.198536165169628
 30
0.0
 11
-34.341760390095239
 21
0.0734776991491799
 31
0.0
  0
LINE
  5
33
  8
0
  6
CONTINUOUS
 10
-34.905681435946782
 20
0.5004449871786392
 30
0.0
 11
-34.740515835621757
 21
0.198536165169628
 31
0.0
  0
LINE
  5
34
  8
0
  6
CONTINUOUS
 10
-34.805992574565138
 20
0.1450599860968964
 30
0.0
 11
-34.341760390095239
 21
0.0000005869587199
 31
0.0
  0
LINE
  5
35
  8
0
  6
CONTINUOUS
 10
-34.998317336702677
 20
0.4951815837266054
 30
0.0
 11
-34.805992574565138
 21
0.1450599860968964
 31
0.0
  0
LINE
  5
36
  8
0
  6
CONTINUOUS
 10
-34.401973725586551
 20
3.6421709742602379
 30
0.0
 11
-34.42776440250158
 21
3.5950108793299469
 31
0.0
  0
LINE
  5
37
  8
0
  6
CONTINUOUS
 10
-34.339549760645347
 20
3.6617508351018269
 30
0.0
 11
-34.401973725586551
 21
3.6421709742602379
 31
0.0
  0
LINE
  5
38
  8
0
  6
CONTINUOUS
 10
-34.738305206171908
 20
3.896919701338958
 30
0.0
 11
-34.903576074565969
 21
3.5950108793299469
 31
0.0
  0
LINE
  5
39
  8
0
  6
CONTINUOUS
 10
-34.339549760645347
 20
4.021872899290428
 30
0.0
 11
-34.738305206171908
 21
3.896919701338958
 31
0.0
  0
LINE
  5
3A
  8
0
  6
CONTINUOUS
 10
-34.996106707252821
 20
3.6002742827819811
 30
0.0
 11
-34.998317336702677
 21
3.5864841657376578
 31
0.0
  0
LINE
  5
3B
  8
0
  6
CONTINUOUS
 10
-34.803887213184332
 20
3.9503958804116901
 30
0.0
 11
-34.996106707252821
 21
3.6002742827819811
 31
0.0
  0
LINE
  5
3C
  8
0
  6
CONTINUOUS
 10
-34.339655028714397
 20
4.0953500114808881
 30
0.0
 11
-34.803887213184332
 21
3.9503958804116901
 31
0.0
  0
LINE
  5
3D
  8
0
  6
CONTINUOUS
 10
34.349865381788682
 20
0.5038515292803254
 30
0.0
 11
34.349549577581527
 21
3.5908001565683199
 31
0.0
  0
LINE
  5
3E
  8
0
  6
CONTINUOUS
 10
34.435553589987862
 20
0.5003397191096042
 30
0.0
 11
34.435027249642658
 21
3.5908001565683199
 31
0.0
  0
LINE
  5
3F
  8
0
  6
CONTINUOUS
 10
34.911259993983222
 20
0.5003397191096042
 30
0.0
 11
34.910733653638012
 21
3.5908001565683199
 31
0.0
  0
LINE
  5
40
  8
0
  6
CONTINUOUS
 10
35.003895894739131
 20
0.4950763156575704
 30
0.0
 11
35.00494857542953
 21
3.5934318582943088
 31
0.0
  0
LINE
  5
41
  8
0
  6
CONTINUOUS
 10
34.409762913072839
 20
0.4530743561102782
 30
0.0
 11
34.435553589987862
 21
0.5003397191096042
 31
0.0
  0
LINE
  5
42
  8
0
  6
CONTINUOUS
 10
34.351233866686137
 20
0.4335997633377247
 30
0.0
 11
34.409762913072839
 21
0.4530743561102782
 31
0.0
  0
LINE
  5
43
  8
0
  6
CONTINUOUS
 10
34.74609439365819
 20
0.198430897100593
 30
0.0
 11
34.911259993983222
 21
0.5003397191096042
 31
0.0
  0
LINE
  5
44
  8
0
  6
CONTINUOUS
 10
34.346496803579342
 20
0.0734776991491799
 30
0.0
 11
34.74609439365819
 21
0.198430897100593
 31
0.0
  0
LINE
  5
45
  8
0
  6
CONTINUOUS
 10
34.811676400670599
 20
0.1449547180278614
 30
0.0
 11
35.003895894739131
 21
0.4950763156575704
 31
0.0
  0
LINE
  5
46
  8
0
  6
CONTINUOUS
 10
34.341760390095239
 20
-0.0000005869587199
 30
0.0
 11
34.811676400670599
 21
0.1449547180278614
 31
0.0
  0
LINE
  5
47
  8
0
  6
CONTINUOUS
 10
34.411868274453681
 20
3.6423815103983079
 30
0.0
 11
34.353339228066979
 21
3.6618561031708619
 31
0.0
  0
LINE
  5
48
  8
0
  6
CONTINUOUS
 10
34.435027249642658
 20
3.5908001565683199
 30
0.0
 11
34.411868274453681
 21
3.6423815103983079
 31
0.0
  0
LINE
  5
49
  8
0
  6
CONTINUOUS
 10
34.748305023108067
 20
3.897024969407993
 30
0.0
 11
34.348602164960148
 21
4.0219781673594071
 31
0.0
  0
LINE
  5
4A
  8
0
  6
CONTINUOUS
 10
34.910733653638012
 20
3.5908001565683199
 30
0.0
 11
34.748305023108067
 21
3.897024969407993
 31
0.0
  0
LINE
  5
4B
  8
0
  6
CONTINUOUS
 10
34.813781762051448
 20
3.9505011484807251
 30
0.0
 11
34.34397036992236
 21
4.0954552795499231
 31
0.0
  0
LINE
  5
4C
  8
0
  6
CONTINUOUS
 10
35.00494857542953
 20
3.5934318582943088
 30
0.0
 11
34.813781762051448
 21
3.9505011484807251
 31
0.0
  0
DIMENSION
  5
53
  8
COTATION-JACOBDELAFON
  2
*D0
 10
35.00494857542953
 20
8.6521854846777728
 30
0.0
 11
0.0033156193634272
 21
12.61562341100792
 31
0.0
 70
     0
 13
-34.998317336702677
 23
3.1505833963739742
 33
0.0
 14
35.00494857542953
 24
3.1575310889306252
 34
0.0
1001
ACAD
1000
DSTYLE
1002
{
1070
   140
1040
6.0
1002
}
  0
DIMENSION
  5
AD
  8
COTATION-JACOBDELAFON
  2
*D2
 10
-39.795081000989811
 20
4.095350011480889
 30
0.0
 11
-45.957359309311769
 21
2.0476752992197991
 31
0.0
 70
     0
 13
-34.341760390095239
 23
0.0000005869587199
 33
0.0
 14
-34.339655028714397
 24
4.0953500114808881
 34
0.0
 50
90.0
1001
ACAD
1000
DSTYLE
1002
{
1070
   140
1040
6.0
1002
}
  0
INSERT
  5
FC
 67
     1
  8
0
  6
CONTINUOUS
  2
ADCADD_ZZ
 10
0.0
 20
0.0
 30
0.0
1001
ADCADD_ZZ
1070
   205
1070
    14
1070
   209
1070
     1
1070
   231
1070
     0
1070
   235
1070
     0
1070
   236
1070
     4
1070
   237
1070
     2
1070
   238
1070
     4
1070
   239
1070
     2
1070
   240
1070
     0
1070
   241
1070
  4096
1070
   242
1070
     2
1070
   244
1070
     0
1070
   245
1070
     1
1070
   303
1040
0.1
1070
   304
1040
4.0
1070
   305
1040
96.0
1070
   306
1040
0.125
1070
   337
1040
0.0
1070
   338
1040
0.3048
1070
   339
1040
0.0625
1070
   340
1040
96.0
1070
   341
1040
4.0
1070
   342
1040
96.0
1070
   530
1010
0.0
1020
0.0
1030
0.0
1070
   531
1010
0.0
1020
0.0
1030
0.0
1070
   107
1000

1070
   108
1000
Architectural Desktop
1070
   135
1000
L120
1070
   136
1000
'
1070
   137
1000
m
1001
SDSK_PMN
1070
   100
1000
ACADARCH
1070
   300
1040
2453087.5052673258
  0
ENDSEC
  0
EOF
