  0
SECTION
  2
HEADER
  9
$ACADVER
  1
AC1021
  9
$ACADMAINTVER
 70
    50
  9
$DWGCODEPAGE
  3
ANSI_1252
  9
$LASTSAVEDBY
  1
François
  9
$INSBASE
 10
88.48452100000001
 20
128.83882
 30
0.0
  9
$EXTMIN
 10
64.69619869259289
 20
77.89208999999999
 30
0.0
  9
$EXTMAX
 10
209.387877
 20
161.2883767285576
 30
0.0
  9
$LIMMIN
 10
88.44042399999999
 20
78.74799300000001
  9
$LIMMAX
 10
208.531974
 20
128.882917
  9
$ORTHOMODE
 70
     0
  9
$REGENMODE
 70
     1
  9
$FILLMODE
 70
     1
  9
$QTEXTMODE
 70
     0
  9
$MIRRTEXT
 70
     1
  9
$LTSCALE
 40
1.0
  9
$ATTMODE
 70
     1
  9
$TEXTSIZE
 40
0.0
  9
$TRACEWID
 40
0.05
  9
$TEXTSTYLE
  7
Standard
  9
$CLAYER
  8
Cotation-JacobDelafon
  9
$CELTYPE
  6
Continuous
  9
$CECOLOR
 62
   256
  9
$CELTSCALE
 40
1.0
  9
$DISPSILH
 70
     0
  9
$DIMSCALE
 40
1.0
  9
$DIMASZ
 40
1.8
  9
$DIMEXO
 40
0.625
  9
$DIMDLI
 40
3.799999999999999
  9
$DIMRND
 40
0.0
  9
$DIMDLE
 40
0.0
  9
$DIMEXE
 40
1.8
  9
$DIMTP
 40
0.0
  9
$DIMTM
 40
0.0
  9
$DIMTXT
 40
3.0
  9
$DIMCEN
 40
0.9
  9
$DIMTSZ
 40
0.0
  9
$DIMTOL
 70
     0
  9
$DIMLIM
 70
     0
  9
$DIMTIH
 70
     0
  9
$DIMTOH
 70
     0
  9
$DIMSE1
 70
     0
  9
$DIMSE2
 70
     0
  9
$DIMTAD
 70
     1
  9
$DIMZIN
 70
    12
  9
$DIMBLK
  1
Oblique
  9
$DIMASO
 70
     1
  9
$DIMSHO
 70
     1
  9
$DIMPOST
  1

  9
$DIMAPOST
  1

  9
$DIMALT
 70
     0
  9
$DIMALTD
 70
     2
  9
$DIMALTF
 40
25.4
  9
$DIMLFAC
 40
1.0
  9
$DIMTOFL
 70
     0
  9
$DIMTVP
 40
0.0
  9
$DIMTIX
 70
     0
  9
$DIMSOXD
 70
     0
  9
$DIMSAH
 70
     0
  9
$DIMBLK1
  1

  9
$DIMBLK2
  1

  9
$DIMSTYLE
  2
Cotation-Jacob-Delafon
  9
$DIMCLRD
 70
     0
  9
$DIMCLRE
 70
     0
  9
$DIMCLRT
 70
     0
  9
$DIMTFAC
 40
1.0
  9
$DIMGAP
 40
0.9
  9
$DIMJUST
 70
     0
  9
$DIMSD1
 70
     0
  9
$DIMSD2
 70
     0
  9
$DIMTOLJ
 70
     1
  9
$DIMTZIN
 70
     0
  9
$DIMALTZ
 70
     0
  9
$DIMALTTZ
 70
     0
  9
$DIMUPT
 70
     0
  9
$DIMDEC
 70
     2
  9
$DIMTDEC
 70
     2
  9
$DIMALTU
 70
     2
  9
$DIMALTTD
 70
     2
  9
$DIMTXSTY
  7
Jacob-Delafon
  9
$DIMAUNIT
 70
     0
  9
$DIMADEC
 70
     0
  9
$DIMALTRND
 40
0.0
  9
$DIMAZIN
 70
     3
  9
$DIMDSEP
 70
    46
  9
$DIMATFIT
 70
     3
  9
$DIMFRAC
 70
     0
  9
$DIMLDRBLK
  1
Oblique
  9
$DIMLUNIT
 70
     2
  9
$DIMLWD
 70
    -2
  9
$DIMLWE
 70
    -2
  9
$DIMTMOVE
 70
     2
  9
$DIMFXL
 40
1.0
  9
$DIMFXLON
 70
     0
  9
$DIMJOGANG
 40
0.7853981633974483
  9
$DIMTFILL
 70
     0
  9
$DIMTFILLCLR
 70
     0
  9
$DIMARCSYM
 70
     0
  9
$DIMLTYPE
  6

  9
$DIMLTEX1
  6

  9
$DIMLTEX2
  6

  9
$LUNITS
 70
     2
  9
$LUPREC
 70
     4
  9
$SKETCHINC
 40
0.1
  9
$FILLETRAD
 40
0.0
  9
$AUNITS
 70
     0
  9
$AUPREC
 70
     0
  9
$MENU
  1
acad
  9
$ELEVATION
 40
0.0
  9
$PELEVATION
 40
0.0
  9
$THICKNESS
 40
0.0
  9
$LIMCHECK
 70
     0
  9
$CHAMFERA
 40
0.0
  9
$CHAMFERB
 40
0.0
  9
$CHAMFERC
 40
0.0
  9
$CHAMFERD
 40
0.0
  9
$SKPOLY
 70
     0
  9
$TDCREATE
 40
2454974.758493924
  9
$TDUCREATE
 40
2454974.675160590
  9
$TDUPDATE
 40
2455006.529609734
  9
$TDUUPDATE
 40
2455006.446276400
  9
$TDINDWG
 40
0.0015315741
  9
$TDUSRTIMER
 40
0.0015313889
  9
$USRTIMER
 70
     1
  9
$ANGBASE
 50
0.0
  9
$ANGDIR
 70
     0
  9
$PDMODE
 70
     0
  9
$PDSIZE
 40
0.0
  9
$PLINEWID
 40
0.0
  9
$SPLFRAME
 70
     0
  9
$SPLINETYPE
 70
     6
  9
$SPLINESEGS
 70
     8
  9
$HANDSEED
  5
1DD
  9
$SURFTAB1
 70
     6
  9
$SURFTAB2
 70
     6
  9
$SURFTYPE
 70
     6
  9
$SURFU
 70
     6
  9
$SURFV
 70
     6
  9
$UCSBASE
  2

  9
$UCSNAME
  2

  9
$UCSORG
 10
0.0
 20
0.0
 30
0.0
  9
$UCSXDIR
 10
1.0
 20
0.0
 30
0.0
  9
$UCSYDIR
 10
0.0
 20
1.0
 30
0.0
  9
$UCSORTHOREF
  2

  9
$UCSORTHOVIEW
 70
     0
  9
$UCSORGTOP
 10
0.0
 20
0.0
 30
0.0
  9
$UCSORGBOTTOM
 10
0.0
 20
0.0
 30
0.0
  9
$UCSORGLEFT
 10
0.0
 20
0.0
 30
0.0
  9
$UCSORGRIGHT
 10
0.0
 20
0.0
 30
0.0
  9
$UCSORGFRONT
 10
0.0
 20
0.0
 30
0.0
  9
$UCSORGBACK
 10
0.0
 20
0.0
 30
0.0
  9
$PUCSBASE
  2

  9
$PUCSNAME
  2

  9
$PUCSORG
 10
0.0
 20
0.0
 30
0.0
  9
$PUCSXDIR
 10
1.0
 20
0.0
 30
0.0
  9
$PUCSYDIR
 10
0.0
 20
1.0
 30
0.0
  9
$PUCSORTHOREF
  2

  9
$PUCSORTHOVIEW
 70
     0
  9
$PUCSORGTOP
 10
0.0
 20
0.0
 30
0.0
  9
$PUCSORGBOTTOM
 10
0.0
 20
0.0
 30
0.0
  9
$PUCSORGLEFT
 10
0.0
 20
0.0
 30
0.0
  9
$PUCSORGRIGHT
 10
0.0
 20
0.0
 30
0.0
  9
$PUCSORGFRONT
 10
0.0
 20
0.0
 30
0.0
  9
$PUCSORGBACK
 10
0.0
 20
0.0
 30
0.0
  9
$USERI1
 70
     0
  9
$USERI2
 70
     0
  9
$USERI3
 70
     0
  9
$USERI4
 70
     0
  9
$USERI5
 70
     0
  9
$USERR1
 40
0.0
  9
$USERR2
 40
0.0
  9
$USERR3
 40
0.0
  9
$USERR4
 40
0.0
  9
$USERR5
 40
0.0
  9
$WORLDVIEW
 70
     1
  9
$SHADEDGE
 70
     3
  9
$SHADEDIF
 70
    70
  9
$TILEMODE
 70
     1
  9
$MAXACTVP
 70
    16
  9
$PINSBASE
 10
0.0
 20
0.0
 30
0.0
  9
$PLIMCHECK
 70
     0
  9
$PEXTMIN
 10
1.000000000000000E+20
 20
1.000000000000000E+20
 30
1.000000000000000E+20
  9
$PEXTMAX
 10
-1.000000000000000E+20
 20
-1.000000000000000E+20
 30
-1.000000000000000E+20
  9
$PLIMMIN
 10
0.0
 20
0.0
  9
$PLIMMAX
 10
12.0
 20
9.0
  9
$UNITMODE
 70
     0
  9
$VISRETAIN
 70
     0
  9
$PLINEGEN
 70
     1
  9
$PSLTSCALE
 70
     0
  9
$TREEDEPTH
 70
  3020
  9
$CMLSTYLE
  2
Standard
  9
$CMLJUST
 70
     0
  9
$CMLSCALE
 40
1.0
  9
$PROXYGRAPHICS
 70
     0
  9
$MEASUREMENT
 70
     1
  9
$CELWEIGHT
370
     0
  9
$ENDCAPS
280
     0
  9
$JOINSTYLE
280
     0
  9
$LWDISPLAY
290
     0
  9
$INSUNITS
 70
     0
  9
$HYPERLINKBASE
  1

  9
$STYLESHEET
  1

  9
$XEDIT
290
     1
  9
$CEPSNTYPE
380
     0
  9
$PSTYLEMODE
290
     1
  9
$FINGERPRINTGUID
  2

  9
$VERSIONGUID
  2
{AFD577D9-EEC6-4C4F-85E4-343086E9FB50}
  9
$EXTNAMES
290
     1
  9
$PSVPSCALE
 40
0.0
  9
$OLESTARTUP
290
     0
  9
$SORTENTS
280
   127
  9
$INDEXCTL
280
     0
  9
$HIDETEXT
280
     0
  9
$XCLIPFRAME
290
     0
  9
$HALOGAP
280
     0
  9
$OBSCOLOR
 70
   257
  9
$OBSLTYPE
280
     0
  9
$INTERSECTIONDISPLAY
280
     0
  9
$INTERSECTIONCOLOR
 70
   257
  9
$DIMASSOC
280
     1
  9
$PROJECTNAME
  1

  9
$CAMERADISPLAY
290
     0
  9
$LENSLENGTH
 40
50.0
  9
$CAMERAHEIGHT
 40
0.0
  9
$STEPSPERSEC
 40
2.0
  9
$STEPSIZE
 40
6.0
  9
$3DDWFPREC
 40
2.0
  9
$PSOLWIDTH
 40
0.25
  9
$PSOLHEIGHT
 40
4.0
  9
$LOFTANG1
 40
1.570796326794896
  9
$LOFTANG2
 40
1.570796326794896
  9
$LOFTMAG1
 40
0.0
  9
$LOFTMAG2
 40
0.0
  9
$LOFTPARAM
 70
     7
  9
$LOFTNORMALS
280
     1
  9
$LATITUDE
 40
37.795
  9
$LONGITUDE
 40
-122.394
  9
$NORTHDIRECTION
 40
0.0
  9
$TIMEZONE
 70
 -8000
  9
$LIGHTGLYPHDISPLAY
280
     1
  9
$TILEMODELIGHTSYNCH
280
     1
  9
$CMATERIAL
347
13D
  9
$SOLIDHIST
280
     1
  9
$SHOWHIST
280
     1
  9
$DWFFRAME
280
     2
  9
$DGNFRAME
280
     0
  9
$REALWORLDSCALE
290
     1
  9
$INTERFERECOLOR
 62
     1
  9
$INTERFEREOBJVS
345
15F
  9
$INTERFEREVPVS
346
15C
  9
$CSHADOW
280
     0
  9
$SHADOWPLANELOCATION
 40
0.0
  0
ENDSEC
  0
SECTION
  2
CLASSES
  0
CLASS
  1
IMAGE
  2
AcDbRasterImage
  3
ISM
 90
     2175
 91
        0
280
     0
281
     1
  0
CLASS
  1
DICTIONARYVAR
  2
AcDbDictionaryVar
  3
ObjectDBX Classes
 90
        0
 91
        7
280
     0
281
     0
  0
CLASS
  1
RASTERVARIABLES
  2
AcDbRasterVariables
  3
ISM
 90
        0
 91
        0
280
     0
281
     0
  0
CLASS
  1
IMAGEDEF
  2
AcDbRasterImageDef
  3
ISM
 90
        0
 91
        0
280
     0
281
     0
  0
CLASS
  1
IMAGEDEF_REACTOR
  2
AcDbRasterImageDefReactor
  3
ISM
 90
        1
 91
        0
280
     0
281
     0
  0
CLASS
  1
IDBUFFER
  2
AcDbIdBuffer
  3
ObjectDBX Classes
 90
        0
 91
        0
280
     0
281
     0
  0
CLASS
  1
SPATIAL_FILTER
  2
AcDbSpatialFilter
  3
ObjectDBX Classes
 90
        0
 91
        0
280
     0
281
     0
  0
CLASS
  1
SORTENTSTABLE
  2
AcDbSortentsTable
  3
ObjectDBX Classes
 90
        0
 91
        0
280
     0
281
     0
  0
CLASS
  1
LAYER_INDEX
  2
AcDbLayerIndex
  3
ObjectDBX Classes
 90
        0
 91
        0
280
     0
281
     0
  0
CLASS
  1
SPATIAL_INDEX
  2
AcDbSpatialIndex
  3
ObjectDBX Classes
 90
        0
 91
        0
280
     0
281
     0
  0
CLASS
  1
OBJECT_PTR
  2
CAseDLPNTableRecord
  3
"ASE-LPNTableRecord"
 90
        1
 91
        0
280
     0
281
     0
  0
CLASS
  1
PLOTSETTINGS
  2
AcDbPlotSettings
  3
ObjectDBX Classes
 90
        0
 91
        0
280
     0
281
     0
  0
CLASS
  1
ACDBDICTIONARYWDFLT
  2
AcDbDictionaryWithDefault
  3
ObjectDBX Classes
 90
        0
 91
        1
280
     0
281
     0
  0
CLASS
  1
WIPEOUT
  2
AcDbWipeout
  3
"WipeOut|Product Desc: Object Enabler for WipeOut entity                        |Company: Autodesk, Inc.                        |WEB Address: www.autodesk.com"
 90
     2175
 91
        0
280
     0
281
     1
  0
CLASS
  1
WIPEOUTVARIABLES
  2
AcDbWipeoutVariables
  3
"WipeOut|Product Desc:     WipeOut Dbx Application|Company:          Autodesk, Inc.|WEB Address:      www.autodesk.com"
 90
        0
 91
        1
280
     0
281
     0
  0
CLASS
  1
RTEXT
  2
RText
  3
RText|AutoCAD Express Tool|expresstools@autodesk.com
 90
        0
 91
        0
280
     0
281
     1
  0
CLASS
  1
ARCALIGNEDTEXT
  2
AcDbArcAlignedText
  3
ATEXT|AutoCAD Express Tool|expresstools@autodesk.com
 90
        0
 91
        0
280
     0
281
     1
  0
CLASS
  1
MATERIAL
  2
AcDbMaterial
  3
ObjectDBX Classes
 90
     1153
 91
        3
280
     0
281
     0
  0
CLASS
  1
VISUALSTYLE
  2
AcDbVisualStyle
  3
ObjectDBX Classes
 90
     4095
 91
       16
280
     0
281
     0
  0
CLASS
  1
TABLESTYLE
  2
AcDbTableStyle
  3
ObjectDBX Classes
 90
     4095
 91
        1
280
     0
281
     0
  0
CLASS
  1
SCALE
  2
AcDbScale
  3
ObjectDBX Classes
 90
     1153
 91
       17
280
     0
281
     0
  0
CLASS
  1
MLEADERSTYLE
  2
AcDbMLeaderStyle
  3
ACDB_MLEADERSTYLE_CLASS
 90
     4095
 91
        1
280
     0
281
     0
  0
CLASS
  1
AEC_REFEDIT_STATUS_TRACKER
  2
AecDbRefEditStatusTracker
  3
AecArchBase50|Product Desc: Autodesk Architectural Desktop 2007 |Company: Autodesk,Inc. |WEB Address: www.autodesk.com
 90
      129
 91
        0
280
     0
281
     0
  0
CLASS
  1
NPOCOLLECTION
  2
AcDbImpNonPersistentObjectsCollection
  3
ObjectDBX Classes
 90
     1153
 91
        0
280
     0
281
     0
  0
CLASS
  1
CELLSTYLEMAP
  2
AcDbCellStyleMap
  3
ObjectDBX Classes
 90
     1152
 91
        2
280
     0
281
     0
  0
ENDSEC
  0
SECTION
  2
TABLES
  0
TABLE
  2
VPORT
  5
7
330
0
100
AcDbSymbolTable
 70
     1
  0
VPORT
  5
15
330
7
100
AcDbSymbolTableRecord
100
AcDbViewportTableRecord
  2
*ACTIVE
 70
     0
 10
0.0
 20
0.0
 11
1.0
 21
1.0
 12
138.2478473073569
 22
126.8174319816737
 13
0.0
 23
0.0
 14
1.0
 24
1.0
 15
0.0
 25
0.0
 16
0.0
 26
0.0
 36
1.0
 17
0.0
 27
0.0
 37
0.0
 40
158.0898581800229
 41
1.226824457593688
 42
50.0
 43
0.0
 44
0.0
 50
0.0
 51
0.0
 71
     0
 72
   100
 73
     1
 74
     1
 75
     0
 76
     0
 77
     0
 78
     0
281
     0
 65
     0
110
0.0
120
0.0
130
0.0
111
1.0
121
0.0
131
0.0
112
0.0
122
1.0
132
0.0
 79
     0
146
0.0
348
15B
 60
     3
 61
     5
292
     1
282
     1
141
0.0
142
0.0
 63
   250
421
  3355443
  0
ENDTAB
  0
TABLE
  2
LTYPE
  5
4
330
0
100
AcDbSymbolTable
 70
     1
  0
LTYPE
  5
11
330
4
100
AcDbSymbolTableRecord
100
AcDbLinetypeTableRecord
  2
ByBlock
 70
     0
  3

 72
    65
 73
     0
 40
0.0
  0
LTYPE
  5
12
330
4
100
AcDbSymbolTableRecord
100
AcDbLinetypeTableRecord
  2
ByLayer
 70
     0
  3

 72
    65
 73
     0
 40
0.0
  0
LTYPE
  5
13
330
4
100
AcDbSymbolTableRecord
100
AcDbLinetypeTableRecord
  2
Continuous
 70
     0
  3
Solid line
 72
    65
 73
     0
 40
0.0
  0
ENDTAB
  0
TABLE
  2
LAYER
  5
2
330
0
100
AcDbSymbolTable
 70
     3
  0
LAYER
  5
14
102
{ACAD_XDICTIONARY
360
1C8
102
}
330
2
100
AcDbSymbolTableRecord
100
AcDbLayerTableRecord
  2
0
 70
     0
 62
     7
  6
Continuous
370
    -3
390
1D
347
14D
  0
LAYER
  5
18E
330
2
100
AcDbSymbolTableRecord
100
AcDbLayerTableRecord
  2
Defpoints
 70
     0
 62
     7
  6
Continuous
290
     0
370
    -3
390
1D
347
14D
  0
LAYER
  5
18F
102
{ACAD_XDICTIONARY
360
190
102
}
330
2
100
AcDbSymbolTableRecord
100
AcDbLayerTableRecord
  2
Cotation-JacobDelafon
 70
     0
 62
     8
  6
Continuous
370
    -3
390
1D
347
14D
  0
ENDTAB
  0
TABLE
  2
STYLE
  5
3
330
0
100
AcDbSymbolTable
 70
     3
  0
STYLE
  5
17
330
3
100
AcDbSymbolTableRecord
100
AcDbTextStyleTableRecord
  2
Standard
 70
     0
 40
0.0
 41
1.0
 50
0.0
 71
     0
 42
0.0
  3
txt
  4

  0
STYLE
  5
191
330
3
100
AcDbSymbolTableRecord
100
AcDbTextStyleTableRecord
  2
Annotative
 70
     0
 40
0.0
 41
1.0
 50
0.0
 71
     0
 42
0.2
  3
txt
  4

1001
AcadAnnotative
1000
AnnotativeData
1002
{
1070
     1
1070
     1
1002
}
  0
STYLE
  5
19D
330
3
100
AcDbSymbolTableRecord
100
AcDbTextStyleTableRecord
  2
Jacob-Delafon
 70
     0
 40
0.0
 41
1.0
 50
0.0
 71
     0
 42
2.5
  3
ARIAL.TTF
  4

1001
ACAD
1000
Arial
1071
       34
  0
ENDTAB
  0
TABLE
  2
VIEW
  5
5
330
0
100
AcDbSymbolTable
 70
     0
  0
ENDTAB
  0
TABLE
  2
UCS
  5
6
330
0
100
AcDbSymbolTable
 70
     0
  0
ENDTAB
  0
TABLE
  2
APPID
  5
8
330
0
100
AcDbSymbolTable
 70
     3
  0
APPID
  5
16
330
8
100
AcDbSymbolTableRecord
100
AcDbRegAppTableRecord
  2
ACAD
 70
     0
  0
APPID
  5
17D
330
8
100
AcDbSymbolTableRecord
100
AcDbRegAppTableRecord
  2
ACAD_MLEADERVER
 70
     0
  0
APPID
  5
193
330
8
100
AcDbSymbolTableRecord
100
AcDbRegAppTableRecord
  2
AcadAnnotative
 70
     0
  0
ENDTAB
  0
TABLE
  2
DIMSTYLE
  5
9
330
0
100
AcDbSymbolTable
 70
     3
100
AcDbDimStyleTable
 71
     1
340
19E
  0
DIMSTYLE
105
18
330
9
100
AcDbSymbolTableRecord
100
AcDbDimStyleTableRecord
  2
Standard
 70
     0
340
17
  0
DIMSTYLE
105
192
330
9
100
AcDbSymbolTableRecord
100
AcDbDimStyleTableRecord
  2
Annotative
 70
     0
340
17
1001
AcadAnnotative
1000
AnnotativeData
1002
{
1070
     1
1070
     1
1002
}
  0
DIMSTYLE
105
19E
102
{ACAD_REACTORS
330
1A5
330
1B2
102
}
330
9
100
AcDbSymbolTableRecord
100
AcDbDimStyleTableRecord
  2
Cotation-Jacob-Delafon
 70
     0
 41
1.8
 42
0.625
 43
3.799999999999999
 44
1.8
 73
     0
 74
     0
 77
     1
 78
    12
 79
     3
140
3.0
141
0.9
147
0.9
271
     2
272
     2
279
     2
340
19D
341
199
342
199
  0
ENDTAB
  0
TABLE
  2
BLOCK_RECORD
  5
1
330
0
100
AcDbSymbolTable
 70
     3
  0
BLOCK_RECORD
  5
A
330
1
100
AcDbSymbolTableRecord
100
AcDbBlockTableRecord
  2
*MODEL_SPACE
340
20
 70
     0
280
     1
281
     0
  0
BLOCK_RECORD
  5
B
330
1
100
AcDbSymbolTableRecord
100
AcDbBlockTableRecord
  2
*PAPER_SPACE
340
21
 70
     0
280
     1
281
     0
  0
BLOCK_RECORD
  5
199
330
1
100
AcDbSymbolTableRecord
100
AcDbBlockTableRecord
  2
_Oblique
340
0
102
{BLKREFS
331
1AC
331
1AD
331
1C2
331
1C3
102
}
 70
     0
280
     1
281
     0
  0
BLOCK_RECORD
  5
1A6
330
1
100
AcDbSymbolTableRecord
100
AcDbBlockTableRecord
  2
*D1
340
0
 70
     0
280
     1
281
     0
  0
BLOCK_RECORD
  5
1B3
330
1
100
AcDbSymbolTableRecord
100
AcDbBlockTableRecord
  2
*D2
340
0
 70
     0
280
     1
281
     0
  0
ENDTAB
  0
ENDSEC
  0
SECTION
  2
BLOCKS
  0
BLOCK
  5
D
330
A
100
AcDbEntity
  8
0
100
AcDbBlockBegin
  2
*MODEL_SPACE
 70
     0
 10
0.0
 20
0.0
 30
0.0
  3
*MODEL_SPACE
  1

  0
ENDBLK
  5
E
330
A
100
AcDbEntity
  8
0
100
AcDbBlockEnd
  0
BLOCK
  5
F
330
B
100
AcDbEntity
 67
     1
  8
0
100
AcDbBlockBegin
  2
*PAPER_SPACE
 70
     0
 10
0.0
 20
0.0
 30
0.0
  3
*PAPER_SPACE
  1

  0
ENDBLK
  5
10
330
B
100
AcDbEntity
 67
     1
  8
0
100
AcDbBlockEnd
  0
BLOCK
  5
19A
330
199
100
AcDbEntity
  8
0
100
AcDbBlockBegin
  2
_Oblique
 70
     0
 10
0.0
 20
0.0
 30
0.0
  3
_Oblique
  1

  0
LINE
  5
19B
330
199
100
AcDbEntity
  8
0
  6
ByBlock
 62
     0
370
    -2
380
     1
100
AcDbLine
 10
-0.5
 20
-0.5
 30
0.0
 11
0.5
 21
0.5
 31
0.0
  0
ENDBLK
  5
19C
330
199
100
AcDbEntity
  8
0
100
AcDbBlockEnd
  0
BLOCK
  5
1A7
330
1A6
100
AcDbEntity
  8
0
370
     0
100
AcDbBlockBegin
  2
*D1
 70
     1
 10
0.0
 20
0.0
 30
0.0
  3
*D1
  1

  0
LINE
  5
1A9
330
1A6
100
AcDbEntity
  8
Cotation-JacobDelafon
  6
Continuous
 62
     0
370
    -2
100
AcDbLine
 10
88.48452100000001
 20
128.699525
 30
0.0
 11
88.48452100000001
 21
158.3370806849014
 31
0.0
  0
LINE
  5
1AA
330
1A6
100
AcDbEntity
  8
Cotation-JacobDelafon
  6
Continuous
 62
     0
370
    -2
100
AcDbLine
 10
208.487877
 20
128.707104
 30
0.0
 11
208.487877
 21
158.3370806849014
 31
0.0
  0
LINE
  5
1AB
330
1A6
100
AcDbEntity
  8
Cotation-JacobDelafon
  6
Continuous
 62
     0
370
    -2
100
AcDbLine
 10
88.48452100000001
 20
156.5370806849014
 30
0.0
 11
208.487877
 21
156.5370806849014
 31
0.0
  0
INSERT
  5
1AC
330
1A6
100
AcDbEntity
  8
Cotation-JacobDelafon
  6
Continuous
 62
     0
370
    -2
100
AcDbBlockReference
  2
_Oblique
 10
88.48452100000001
 20
156.5370806849014
 30
0.0
 41
1.8
 42
1.8
 43
1.8
 50
180.0
  0
INSERT
  5
1AD
330
1A6
100
AcDbEntity
  8
Cotation-JacobDelafon
  6
Continuous
 62
     0
370
    -2
100
AcDbBlockReference
  2
_Oblique
 10
208.487877
 20
156.5370806849014
 30
0.0
 41
1.8
 42
1.8
 43
1.8
  0
MTEXT
  5
1AE
330
1A6
100
AcDbEntity
  8
Cotation-JacobDelafon
  6
Continuous
 62
     0
370
     0
100
AcDbMText
 10
148.486199
 20
158.9687996480665
 30
0.0
 40
3.0
 41
0.0
 46
0.0
 71
     5
 72
     1
  1
\A1;120
  7
Jacob-Delafon
 73
     1
 44
1.0
  0
POINT
  5
1AF
330
1A6
100
AcDbEntity
  8
Defpoints
  6
Continuous
 62
     0
370
     0
100
AcDbPoint
 10
88.48452100000001
 20
128.074525
 30
0.0
  0
POINT
  5
1B0
330
1A6
100
AcDbEntity
  8
Defpoints
  6
Continuous
 62
     0
370
     0
100
AcDbPoint
 10
208.487877
 20
128.082104
 30
0.0
  0
POINT
  5
1B1
330
1A6
100
AcDbEntity
  8
Defpoints
  6
Continuous
 62
     0
370
     0
100
AcDbPoint
 10
208.487877
 20
156.5370806849014
 30
0.0
  0
ENDBLK
  5
1A8
330
1A6
100
AcDbEntity
  8
0
370
     0
100
AcDbBlockEnd
  0
BLOCK
  5
1B4
330
1B3
100
AcDbEntity
  8
0
370
     0
100
AcDbBlockBegin
  2
*D2
 70
     1
 10
0.0
 20
0.0
 30
0.0
  3
*D2
  1

  0
LINE
  5
1BF
330
1B3
100
AcDbEntity
  8
Cotation-JacobDelafon
  6
Continuous
 62
     0
370
    -2
100
AcDbLine
 10
88.612619
 20
128.83882
 30
0.0
 11
67.64749473624911
 21
128.83882
 31
0.0
  0
LINE
  5
1C0
330
1B3
100
AcDbEntity
  8
Cotation-JacobDelafon
  6
Continuous
 62
     0
370
    -2
100
AcDbLine
 10
88.61261899999998
 20
78.79209
 30
0.0
 11
67.6474947362491
 21
78.79209
 31
0.0
  0
LINE
  5
1C1
330
1B3
100
AcDbEntity
  8
Cotation-JacobDelafon
  6
Continuous
 62
     0
370
    -2
100
AcDbLine
 10
69.44749473624911
 20
128.83882
 30
0.0
 11
69.44749473624909
 21
78.79209
 31
0.0
  0
INSERT
  5
1C2
330
1B3
100
AcDbEntity
  8
Cotation-JacobDelafon
  6
Continuous
 62
     0
370
    -2
100
AcDbBlockReference
  2
_Oblique
 10
69.44749473624911
 20
128.83882
 30
0.0
 41
1.8
 42
1.8
 43
1.8
 50
90.0
  0
INSERT
  5
1C3
330
1B3
100
AcDbEntity
  8
Cotation-JacobDelafon
  6
Continuous
 62
     0
370
    -2
100
AcDbBlockReference
  2
_Oblique
 10
69.44749473624909
 20
78.79209
 30
0.0
 41
1.8
 42
1.8
 43
1.8
 50
270.0
  0
MTEXT
  5
1C4
330
1B3
100
AcDbEntity
  8
Cotation-JacobDelafon
  6
Continuous
 62
     0
370
     0
100
AcDbMText
 10
67.01577577308402
 20
103.815455
 30
0.0
 40
3.0
 41
0.0
 46
0.0
 71
     5
 72
     1
  1
\A1;50
  7
Jacob-Delafon
 11
0.0000000000000001
 21
1.0
 31
0.0
 73
     1
 44
1.0
  0
POINT
  5
1C5
330
1B3
100
AcDbEntity
  8
Defpoints
  6
Continuous
 62
     0
370
     0
100
AcDbPoint
 10
89.237619
 20
128.83882
 30
0.0
  0
POINT
  5
1C6
330
1B3
100
AcDbEntity
  8
Defpoints
  6
Continuous
 62
     0
370
     0
100
AcDbPoint
 10
89.23761899999998
 20
78.79209
 30
0.0
  0
POINT
  5
1C7
330
1B3
100
AcDbEntity
  8
Defpoints
  6
Continuous
 62
     0
370
     0
100
AcDbPoint
 10
69.44749473624909
 20
78.79209
 30
0.0
  0
ENDBLK
  5
1B5
330
1B3
100
AcDbEntity
  8
0
370
     0
100
AcDbBlockEnd
  0
ENDSEC
  0
SECTION
  2
ENTITIES
  0
LINE
  5
12A
330
A
100
AcDbEntity
  8
0
 62
     7
100
AcDbLine
 10
88.48762200000001
 20
128.088822
 30
0.0
 11
88.70741899999998
 21
128.619195
 31
0.0
  0
LINE
  5
129
330
A
100
AcDbEntity
  8
0
 62
     7
100
AcDbLine
 10
88.70741899999998
 20
128.619195
 30
0.0
 11
89.237619
 21
128.83882
 31
0.0
  0
LINE
  5
128
330
A
100
AcDbEntity
  8
0
 62
     7
100
AcDbLine
 10
208.26808
 20
128.619195
 30
0.0
 11
208.487533
 21
128.088822
 31
0.0
  0
LINE
  5
127
330
A
100
AcDbEntity
  8
0
 62
     7
100
AcDbLine
 10
207.737535
 20
128.83882
 30
0.0
 11
208.26808
 21
128.619195
 31
0.0
  0
LINE
  5
126
330
A
100
AcDbEntity
  8
0
 62
     7
100
AcDbLine
 10
88.48452100000001
 20
79.71227500000001
 30
0.0
 11
88.48452100000001
 21
128.074525
 31
0.0
  0
LINE
  5
125
330
A
100
AcDbEntity
  8
0
 62
     7
100
AcDbLine
 10
89.211953
 20
78.79209
 30
0.0
 11
207.625914
 21
78.79209
 31
0.0
  0
LINE
  5
124
330
A
100
AcDbEntity
  8
0
 62
     7
100
AcDbLine
 10
89.237619
 20
128.83882
 30
0.0
 11
207.737535
 21
128.83882
 31
0.0
  0
LINE
  5
123
330
A
100
AcDbEntity
  8
0
 62
     7
100
AcDbLine
 10
194.01951
 20
116.543102
 30
0.0
 11
157.915253
 21
116.543102
 31
0.0
  0
LINE
  5
122
330
A
100
AcDbEntity
  8
0
 62
     7
100
AcDbLine
 10
196.268123
 20
115.593633
 30
0.0
 11
195.233217
 21
116.290748
 31
0.0
  0
LINE
  5
121
330
A
100
AcDbEntity
  8
0
 62
     7
100
AcDbLine
 10
196.965066
 20
114.558727
 30
0.0
 11
196.268123
 21
115.593633
 31
0.0
  0
LINE
  5
120
330
A
100
AcDbEntity
  8
0
 62
     7
100
AcDbLine
 10
197.217592
 20
113.344847
 30
0.0
 11
196.965066
 21
114.558727
 31
0.0
  0
LINE
  5
11F
330
A
100
AcDbEntity
  8
0
 62
     7
100
AcDbLine
 10
197.220003
 20
83.78954499999998
 30
0.0
 11
197.217592
 21
113.344847
 31
0.0
  0
LINE
  5
11E
330
A
100
AcDbEntity
  8
0
 62
     7
100
AcDbLine
 10
196.977813
 20
82.536909
 30
0.0
 11
197.220003
 21
83.78954499999998
 31
0.0
  0
LINE
  5
11D
330
A
100
AcDbEntity
  8
0
 62
     7
100
AcDbLine
 10
196.278459
 20
81.39175899999999
 30
0.0
 11
196.977813
 21
82.536909
 31
0.0
  0
LINE
  5
11C
330
A
100
AcDbEntity
  8
0
 62
     7
100
AcDbLine
 10
195.240107
 20
80.620402
 30
0.0
 11
196.278459
 21
81.39175899999999
 31
0.0
  0
LINE
  5
11B
330
A
100
AcDbEntity
  8
0
 62
     7
100
AcDbLine
 10
194.039147
 20
80.342383
 30
0.0
 11
195.240107
 21
80.620402
 31
0.0
  0
LINE
  5
11A
330
A
100
AcDbEntity
  8
0
 62
     7
100
AcDbLine
 10
194.032256
 20
80.342383
 30
0.0
 11
194.039147
 21
80.342383
 31
0.0
  0
LINE
  5
119
330
A
100
AcDbEntity
  8
0
 62
     7
100
AcDbLine
 10
155.65596
 20
81.39175899999999
 30
0.0
 11
156.694312
 21
80.620402
 31
0.0
  0
LINE
  5
118
330
A
100
AcDbEntity
  8
0
 62
     7
100
AcDbLine
 10
154.716827
 20
113.343814
 30
0.0
 11
154.714415
 21
83.78954499999998
 31
0.0
  0
LINE
  5
117
330
A
100
AcDbEntity
  8
0
 62
     7
100
AcDbLine
 10
154.969352
 20
114.558727
 30
0.0
 11
154.967974
 21
114.553042
 31
0.0
  0
LINE
  5
116
330
A
100
AcDbEntity
  8
0
 62
     7
100
AcDbLine
 10
155.666295
 20
115.593633
 30
0.0
 11
154.969352
 21
114.558727
 31
0.0
  0
LINE
  5
115
330
A
100
AcDbEntity
  8
0
 62
     7
100
AcDbLine
 10
157.915253
 20
116.543102
 30
0.0
 11
156.701202
 21
116.290748
 31
0.0
  0
LINE
  5
114
330
A
100
AcDbEntity
  8
0
 62
     7
100
AcDbLine
 10
141.23324
 20
116.290748
 30
0.0
 11
140.01936
 21
116.543102
 31
0.0
  0
LINE
  5
113
330
A
100
AcDbEntity
  8
0
 62
     7
100
AcDbLine
 10
142.268146
 20
115.593633
 30
0.0
 11
141.23324
 21
116.290748
 31
0.0
  0
LINE
  5
112
330
A
100
AcDbEntity
  8
0
 62
     7
100
AcDbLine
 10
142.965262
 20
114.558727
 30
0.0
 11
142.268146
 21
115.593633
 31
0.0
  0
LINE
  5
111
330
A
100
AcDbEntity
  8
0
 62
     7
100
AcDbLine
 10
143.217615
 20
113.344847
 30
0.0
 11
142.965262
 21
114.558727
 31
0.0
  0
LINE
  5
110
330
A
100
AcDbEntity
  8
0
 62
     7
100
AcDbLine
 10
143.220026
 20
83.78954499999998
 30
0.0
 11
143.217615
 21
113.344847
 31
0.0
  0
LINE
  5
10F
330
A
100
AcDbEntity
  8
0
 62
     7
100
AcDbLine
 10
142.977664
 20
82.536909
 30
0.0
 11
143.220026
 21
83.78954499999998
 31
0.0
  0
LINE
  5
10E
330
A
100
AcDbEntity
  8
0
 62
     7
100
AcDbLine
 10
142.278482
 20
81.39175899999999
 30
0.0
 11
142.977664
 21
82.536909
 31
0.0
  0
LINE
  5
10D
330
A
100
AcDbEntity
  8
0
 62
     7
100
AcDbLine
 10
141.24013
 20
80.620402
 30
0.0
 11
142.278482
 21
81.39175899999999
 31
0.0
  0
LINE
  5
10C
330
A
100
AcDbEntity
  8
0
 62
     7
100
AcDbLine
 10
140.039342
 20
80.342383
 30
0.0
 11
141.24013
 21
80.620402
 31
0.0
  0
LINE
  5
10B
330
A
100
AcDbEntity
  8
0
 62
     7
100
AcDbLine
 10
140.032279
 20
80.342383
 30
0.0
 11
140.039342
 21
80.342383
 31
0.0
  0
LINE
  5
10A
330
A
100
AcDbEntity
  8
0
 62
     7
100
AcDbLine
 10
101.655983
 20
81.39175899999999
 30
0.0
 11
102.694335
 21
80.620402
 31
0.0
  0
LINE
  5
109
330
A
100
AcDbEntity
  8
0
 62
     7
100
AcDbLine
 10
100.956801
 20
82.536909
 30
0.0
 11
101.655983
 21
81.39175899999999
 31
0.0
  0
LINE
  5
108
330
A
100
AcDbEntity
  8
0
 62
     7
100
AcDbLine
 10
100.714438
 20
83.78954499999998
 30
0.0
 11
100.956801
 21
82.536909
 31
0.0
  0
LINE
  5
107
330
A
100
AcDbEntity
  8
0
 62
     7
100
AcDbLine
 10
100.71685
 20
113.343814
 30
0.0
 11
100.714438
 21
83.78954499999998
 31
0.0
  0
LINE
  5
106
330
A
100
AcDbEntity
  8
0
 62
     7
100
AcDbLine
 10
100.969375
 20
114.558727
 30
0.0
 11
100.968169
 21
114.553042
 31
0.0
  0
LINE
  5
105
330
A
100
AcDbEntity
  8
0
 62
     7
100
AcDbLine
 10
101.66649
 20
115.593633
 30
0.0
 11
100.969375
 21
114.558727
 31
0.0
  0
LINE
  5
104
330
A
100
AcDbEntity
  8
0
 62
     7
100
AcDbLine
 10
102.701225
 20
116.290748
 30
0.0
 11
101.66649
 21
115.593633
 31
0.0
  0
LINE
  5
103
330
A
100
AcDbEntity
  8
0
 62
     7
100
AcDbLine
 10
103.915104
 20
116.543102
 30
0.0
 11
102.701225
 21
116.290748
 31
0.0
  0
LINE
  5
102
330
A
100
AcDbEntity
  8
0
 62
     7
100
AcDbLine
 10
140.01936
 20
116.543102
 30
0.0
 11
103.915104
 21
116.543102
 31
0.0
  0
LINE
  5
101
330
A
100
AcDbEntity
  8
0
 62
     7
100
AcDbLine
 10
194.039147
 20
80.342383
 30
0.0
 11
194.032601
 21
80.342383
 31
0.0
  0
LINE
  5
100
330
A
100
AcDbEntity
  8
0
 62
     7
100
AcDbLine
 10
195.240107
 20
80.620402
 30
0.0
 11
194.039147
 21
80.342383
 31
0.0
  0
LINE
  5
FF
330
A
100
AcDbEntity
  8
0
 62
     7
100
AcDbLine
 10
196.278459
 20
81.39175899999999
 30
0.0
 11
195.240107
 21
80.620402
 31
0.0
  0
LINE
  5
FE
330
A
100
AcDbEntity
  8
0
 62
     7
100
AcDbLine
 10
196.977469
 20
82.536909
 30
0.0
 11
196.278459
 21
81.39175899999999
 31
0.0
  0
LINE
  5
FD
330
A
100
AcDbEntity
  8
0
 62
     7
100
AcDbLine
 10
196.982292
 20
82.56102400000001
 30
0.0
 11
196.977469
 21
82.536909
 31
0.0
  0
LINE
  5
FC
330
A
100
AcDbEntity
  8
0
 62
     7
100
AcDbLine
 10
194.019165
 20
116.543102
 30
0.0
 11
194.032256
 21
116.540518
 31
0.0
  0
LINE
  5
FB
330
A
100
AcDbEntity
  8
0
 62
     7
100
AcDbLine
 10
157.915253
 20
116.543102
 30
0.0
 11
194.019165
 21
116.543102
 31
0.0
  0
LINE
  5
FA
330
A
100
AcDbEntity
  8
0
 62
     7
100
AcDbLine
 10
157.903885
 20
116.540862
 30
0.0
 11
157.915253
 21
116.543102
 31
0.0
  0
LINE
  5
F9
330
A
100
AcDbEntity
  8
0
 62
     7
100
AcDbLine
 10
155.666295
 20
115.593461
 30
0.0
 11
155.675941
 21
115.600007
 31
0.0
  0
LINE
  5
F8
330
A
100
AcDbEntity
  8
0
 62
     7
100
AcDbLine
 10
154.969352
 20
114.558554
 30
0.0
 11
155.666295
 21
115.593461
 31
0.0
  0
LINE
  5
F7
330
A
100
AcDbEntity
  8
0
 62
     7
100
AcDbLine
 10
141.239958
 20
80.620402
 30
0.0
 11
140.03917
 21
80.342383
 31
0.0
  0
LINE
  5
F6
330
A
100
AcDbEntity
  8
0
 62
     7
100
AcDbLine
 10
142.278309
 20
81.39175899999999
 30
0.0
 11
141.239958
 21
80.620402
 31
0.0
  0
LINE
  5
F5
330
A
100
AcDbEntity
  8
0
 62
     7
100
AcDbLine
 10
142.294674
 20
81.418286
 30
0.0
 11
142.278309
 21
81.39175899999999
 31
0.0
  0
LINE
  5
F4
330
A
100
AcDbEntity
  8
0
 62
     7
100
AcDbLine
 10
140.019188
 20
116.543102
 30
0.0
 11
140.032107
 21
116.540518
 31
0.0
  0
LINE
  5
F3
330
A
100
AcDbEntity
  8
0
 62
     7
100
AcDbLine
 10
103.903735
 20
116.540862
 30
0.0
 11
103.915104
 21
116.543102
 31
0.0
  0
LINE
  5
F2
330
A
100
AcDbEntity
  8
0
 62
     7
100
AcDbLine
 10
100.969203
 20
114.558554
 30
0.0
 11
101.66649
 21
115.593461
 31
0.0
  0
LINE
  5
F1
330
A
100
AcDbEntity
  8
0
 62
     7
100
AcDbLine
 10
140.03917
 20
80.342383
 30
0.0
 11
140.032624
 21
80.342383
 31
0.0
  0
LINE
  5
F0
330
A
100
AcDbEntity
  8
0
 62
     7
100
AcDbLine
 10
207.737535
 20
128.83882
 30
0.0
 11
89.237619
 21
128.83882
 31
0.0
  0
LINE
  5
EF
330
A
100
AcDbEntity
  8
0
 62
     7
100
AcDbLine
 10
89.237619
 20
128.83882
 30
0.0
 11
88.70741899999998
 21
128.619195
 31
0.0
  0
LINE
  5
EE
330
A
100
AcDbEntity
  8
0
 62
     7
100
AcDbLine
 10
88.70741899999998
 20
128.619195
 30
0.0
 11
88.48762200000001
 21
128.088822
 31
0.0
  0
LINE
  5
ED
330
A
100
AcDbEntity
  8
0
 62
     7
100
AcDbLine
 10
88.48762200000001
 20
79.69677199999999
 30
0.0
 11
88.69794499999999
 21
79.05874
 31
0.0
  0
LINE
  5
EC
330
A
100
AcDbEntity
  8
0
 62
     7
100
AcDbLine
 10
88.69794499999999
 20
79.05874
 30
0.0
 11
89.20523499999999
 21
78.79450099999999
 31
0.0
  0
LINE
  5
EB
330
A
100
AcDbEntity
  8
0
 62
     7
100
AcDbLine
 10
89.20523499999999
 20
78.79450099999999
 30
0.0
 11
88.69794499999999
 21
79.05874
 31
0.0
  0
LINE
  5
EA
330
A
100
AcDbEntity
  8
0
 62
     7
100
AcDbLine
 10
88.69794499999999
 20
79.05874
 30
0.0
 11
88.48762200000001
 21
79.69677199999999
 31
0.0
  0
LINE
  5
E9
330
A
100
AcDbEntity
  8
0
 62
     7
100
AcDbLine
 10
208.487877
 20
79.71227500000001
 30
0.0
 11
208.487877
 21
128.082104
 31
0.0
  0
LINE
  5
E8
330
A
100
AcDbEntity
  8
0
 62
     7
100
AcDbLine
 10
208.487533
 20
79.707796
 30
0.0
 11
208.236041
 21
79.062185
 31
0.0
  0
LINE
  5
E7
330
A
100
AcDbEntity
  8
0
 62
     7
100
AcDbLine
 10
208.236041
 20
79.062185
 30
0.0
 11
207.62867
 21
78.79450099999999
 31
0.0
  0
LINE
  5
E6
330
A
100
AcDbEntity
  8
0
 62
     7
100
AcDbLine
 10
207.62867
 20
78.79450099999999
 30
0.0
 11
208.236041
 21
79.062185
 31
0.0
  0
LINE
  5
E5
330
A
100
AcDbEntity
  8
0
 62
     7
100
AcDbLine
 10
208.236041
 20
79.062185
 30
0.0
 11
208.487533
 21
79.707796
 31
0.0
  0
LINE
  5
E4
330
A
100
AcDbEntity
  8
0
 62
     7
100
AcDbLine
 10
208.487533
 20
128.088822
 30
0.0
 11
208.26808
 21
128.619195
 31
0.0
  0
LINE
  5
E3
330
A
100
AcDbEntity
  8
0
 62
     7
100
AcDbLine
 10
208.26808
 20
128.619195
 30
0.0
 11
207.737535
 21
128.83882
 31
0.0
  0
LINE
  5
E2
330
A
100
AcDbEntity
  8
0
 62
     7
100
AcDbLine
 10
119.029255
 20
128.83882
 30
0.0
 11
104.800149
 21
128.83882
 31
0.0
  0
LINE
  5
E1
330
A
100
AcDbEntity
  8
0
 62
     7
100
AcDbLine
 10
133.258533
 20
128.83882
 30
0.0
 11
119.029255
 21
128.83882
 31
0.0
  0
LINE
  5
E0
330
A
100
AcDbEntity
  8
0
 62
     7
100
AcDbLine
 10
147.4876379999999
 20
128.83882
 30
0.0
 11
133.258533
 21
128.83882
 31
0.0
  0
LINE
  5
DF
330
A
100
AcDbEntity
  8
0
 62
     7
100
AcDbLine
 10
161.716916
 20
128.83882
 30
0.0
 11
147.4876379999999
 21
128.83882
 31
0.0
  0
LINE
  5
DE
330
A
100
AcDbEntity
  8
0
 62
     7
100
AcDbLine
 10
175.94585
 20
128.83882
 30
0.0
 11
161.716916
 21
128.83882
 31
0.0
  0
LINE
  5
DD
330
A
100
AcDbEntity
  8
0
 62
     7
100
AcDbLine
 10
190.175127
 20
128.83882
 30
0.0
 11
175.94585
 21
128.83882
 31
0.0
  0
LINE
  5
DC
330
A
100
AcDbEntity
  8
0
 62
     7
100
AcDbLine
 10
208.487533
 20
128.088822
 30
0.0
 11
208.26808
 21
128.619195
 31
0.0
  0
LINE
  5
DB
330
A
100
AcDbEntity
  8
0
 62
     7
100
AcDbLine
 10
104.800149
 20
128.83882
 30
0.0
 11
89.237619
 21
128.83882
 31
0.0
  0
LINE
  5
DA
330
A
100
AcDbEntity
  8
0
 62
     7
100
AcDbLine
 10
207.737535
 20
128.83882
 30
0.0
 11
190.175127
 21
128.83882
 31
0.0
  0
LINE
  5
D9
330
A
100
AcDbEntity
  8
0
 62
     7
100
AcDbLine
 10
177.073085
 20
116.026165
 30
0.0
 11
176.98868
 21
116.026165
 31
0.0
  0
LINE
  5
D8
330
A
100
AcDbEntity
  8
0
 62
     7
100
AcDbLine
 10
176.98868
 20
116.026165
 30
0.0
 11
176.747868
 21
116.026165
 31
0.0
  0
LINE
  5
D7
330
A
100
AcDbEntity
  8
0
 62
     7
100
AcDbLine
 10
176.747868
 20
116.026165
 30
0.0
 11
176.387511
 21
116.026165
 31
0.0
  0
LINE
  5
D6
330
A
100
AcDbEntity
  8
0
 62
     7
100
AcDbLine
 10
176.387511
 20
116.026165
 30
0.0
 11
175.962731
 21
116.026165
 31
0.0
  0
LINE
  5
D5
330
A
100
AcDbEntity
  8
0
 62
     7
100
AcDbLine
 10
175.962731
 20
116.026165
 30
0.0
 11
175.537606
 21
116.026165
 31
0.0
  0
LINE
  5
D4
330
A
100
AcDbEntity
  8
0
 62
     7
100
AcDbLine
 10
175.537606
 20
116.026165
 30
0.0
 11
175.177593
 21
116.026165
 31
0.0
  0
LINE
  5
D3
330
A
100
AcDbEntity
  8
0
 62
     7
100
AcDbLine
 10
175.177593
 20
116.026165
 30
0.0
 11
174.936781
 21
116.026165
 31
0.0
  0
LINE
  5
D2
330
A
100
AcDbEntity
  8
0
 62
     7
100
AcDbLine
 10
174.936781
 20
116.026165
 30
0.0
 11
174.852376
 21
116.026165
 31
0.0
  0
LINE
  5
D1
330
A
100
AcDbEntity
  8
0
 62
     7
100
AcDbLine
 10
174.852376
 20
116.026165
 30
0.0
 11
174.837218
 21
116.06165
 31
0.0
  0
LINE
  5
D0
330
A
100
AcDbEntity
  8
0
 62
     7
100
AcDbLine
 10
174.888205
 20
116.011523
 30
0.0
 11
174.852376
 21
116.026165
 31
0.0
  0
LINE
  5
CF
330
A
100
AcDbEntity
  8
0
 62
     7
100
AcDbLine
 10
177.087899
 20
116.06165
 30
0.0
 11
177.073085
 21
116.026165
 31
0.0
  0
LINE
  5
CE
330
A
100
AcDbEntity
  8
0
 62
     7
100
AcDbLine
 10
177.073085
 20
116.026165
 30
0.0
 11
177.036911
 21
116.011523
 31
0.0
  0
LINE
  5
CD
330
A
100
AcDbEntity
  8
0
 62
     7
100
AcDbLine
 10
174.837218
 20
116.06165
 30
0.0
 11
174.837218
 21
116.42683
 31
0.0
  0
LINE
  5
CC
330
A
100
AcDbEntity
  8
0
 62
     7
100
AcDbLine
 10
177.087899
 20
116.42683
 30
0.0
 11
177.087899
 21
116.06165
 31
0.0
  0
LINE
  5
CB
330
A
100
AcDbEntity
  8
0
 62
     7
100
AcDbLine
 10
174.970199
 20
116.011523
 30
0.0
 11
174.888205
 21
116.011523
 31
0.0
  0
LINE
  5
CA
330
A
100
AcDbEntity
  8
0
 62
     7
100
AcDbLine
 10
175.203087
 20
116.011523
 30
0.0
 11
174.970199
 21
116.011523
 31
0.0
  0
LINE
  5
C9
330
A
100
AcDbEntity
  8
0
 62
     7
100
AcDbLine
 10
175.551386
 20
116.011523
 30
0.0
 11
175.203087
 21
116.011523
 31
0.0
  0
LINE
  5
C8
330
A
100
AcDbEntity
  8
0
 62
     7
100
AcDbLine
 10
175.962731
 20
116.011523
 30
0.0
 11
175.551386
 21
116.011523
 31
0.0
  0
LINE
  5
C7
330
A
100
AcDbEntity
  8
0
 62
     7
100
AcDbLine
 10
176.37373
 20
116.011523
 30
0.0
 11
175.962731
 21
116.011523
 31
0.0
  0
LINE
  5
C6
330
A
100
AcDbEntity
  8
0
 62
     7
100
AcDbLine
 10
176.722374
 20
116.011523
 30
0.0
 11
176.37373
 21
116.011523
 31
0.0
  0
LINE
  5
C5
330
A
100
AcDbEntity
  8
0
 62
     7
100
AcDbLine
 10
176.955263
 20
116.011523
 30
0.0
 11
176.722374
 21
116.011523
 31
0.0
  0
LINE
  5
C4
330
A
100
AcDbEntity
  8
0
 62
     7
100
AcDbLine
 10
177.036911
 20
116.011523
 30
0.0
 11
176.955263
 21
116.011523
 31
0.0
  0
LINE
  5
C3
330
A
100
AcDbEntity
  8
0
 62
     7
100
AcDbLine
 10
123.073108
 20
116.09679
 30
0.0
 11
122.988531
 21
116.09679
 31
0.0
  0
LINE
  5
C2
330
A
100
AcDbEntity
  8
0
 62
     7
100
AcDbLine
 10
122.988531
 20
116.09679
 30
0.0
 11
122.747891
 21
116.09679
 31
0.0
  0
LINE
  5
C1
330
A
100
AcDbEntity
  8
0
 62
     7
100
AcDbLine
 10
122.747891
 20
116.09679
 30
0.0
 11
122.387534
 21
116.09679
 31
0.0
  0
LINE
  5
C0
330
A
100
AcDbEntity
  8
0
 62
     7
100
AcDbLine
 10
122.387534
 20
116.09679
 30
0.0
 11
121.962754
 21
116.09679
 31
0.0
  0
LINE
  5
BF
330
A
100
AcDbEntity
  8
0
 62
     7
100
AcDbLine
 10
121.962754
 20
116.09679
 30
0.0
 11
121.537801
 21
116.09679
 31
0.0
  0
LINE
  5
BE
330
A
100
AcDbEntity
  8
0
 62
     7
100
AcDbLine
 10
121.537801
 20
116.09679
 30
0.0
 11
121.177444
 21
116.09679
 31
0.0
  0
LINE
  5
BD
330
A
100
AcDbEntity
  8
0
 62
     7
100
AcDbLine
 10
121.177444
 20
116.09679
 30
0.0
 11
120.936804
 21
116.09679
 31
0.0
  0
LINE
  5
BC
330
A
100
AcDbEntity
  8
0
 62
     7
100
AcDbLine
 10
120.936804
 20
116.09679
 30
0.0
 11
120.852227
 21
116.09679
 31
0.0
  0
LINE
  5
BB
330
A
100
AcDbEntity
  8
0
 62
     7
100
AcDbLine
 10
120.852227
 20
116.09679
 30
0.0
 11
120.837413
 21
116.132102
 31
0.0
  0
LINE
  5
BA
330
A
100
AcDbEntity
  8
0
 62
     7
100
AcDbLine
 10
120.888401
 20
116.082148
 30
0.0
 11
120.852227
 21
116.09679
 31
0.0
  0
LINE
  5
B9
330
A
100
AcDbEntity
  8
0
 62
     7
100
AcDbLine
 10
123.087922
 20
116.132102
 30
0.0
 11
123.073108
 21
116.09679
 31
0.0
  0
LINE
  5
B8
330
A
100
AcDbEntity
  8
0
 62
     7
100
AcDbLine
 10
123.073108
 20
116.09679
 30
0.0
 11
123.036934
 21
116.082148
 31
0.0
  0
LINE
  5
B7
330
A
100
AcDbEntity
  8
0
 62
     7
100
AcDbLine
 10
120.837413
 20
116.132102
 30
0.0
 11
120.837413
 21
116.497454
 31
0.0
  0
LINE
  5
B6
330
A
100
AcDbEntity
  8
0
 62
     7
100
AcDbLine
 10
123.087922
 20
116.497454
 30
0.0
 11
123.087922
 21
116.132102
 31
0.0
  0
LINE
  5
B5
330
A
100
AcDbEntity
  8
0
 62
     7
100
AcDbLine
 10
120.970049
 20
116.082148
 30
0.0
 11
120.888401
 21
116.082148
 31
0.0
  0
LINE
  5
B4
330
A
100
AcDbEntity
  8
0
 62
     7
100
AcDbLine
 10
121.202938
 20
116.082148
 30
0.0
 11
120.970049
 21
116.082148
 31
0.0
  0
LINE
  5
B3
330
A
100
AcDbEntity
  8
0
 62
     7
100
AcDbLine
 10
121.551581
 20
116.082148
 30
0.0
 11
121.202938
 21
116.082148
 31
0.0
  0
LINE
  5
B2
330
A
100
AcDbEntity
  8
0
 62
     7
100
AcDbLine
 10
121.962754
 20
116.082148
 30
0.0
 11
121.551581
 21
116.082148
 31
0.0
  0
LINE
  5
B1
330
A
100
AcDbEntity
  8
0
 62
     7
100
AcDbLine
 10
122.373754
 20
116.082148
 30
0.0
 11
121.962754
 21
116.082148
 31
0.0
  0
LINE
  5
B0
330
A
100
AcDbEntity
  8
0
 62
     7
100
AcDbLine
 10
122.722397
 20
116.082148
 30
0.0
 11
122.373754
 21
116.082148
 31
0.0
  0
LINE
  5
AF
330
A
100
AcDbEntity
  8
0
 62
     7
100
AcDbLine
 10
122.955286
 20
116.082148
 30
0.0
 11
122.722397
 21
116.082148
 31
0.0
  0
LINE
  5
AE
330
A
100
AcDbEntity
  8
0
 62
     7
100
AcDbLine
 10
123.036934
 20
116.082148
 30
0.0
 11
122.955286
 21
116.082148
 31
0.0
  0
LINE
  5
AD
330
A
100
AcDbEntity
  8
0
 62
     7
100
AcDbLine
 10
178.474205
 20
107.541928
 30
0.0
 11
178.41116
 21
108.100895
 31
0.0
  0
LINE
  5
AC
330
A
100
AcDbEntity
  8
0
 62
     7
100
AcDbLine
 10
178.41116
 20
108.100895
 30
0.0
 11
178.225469
 21
108.631612
 31
0.0
  0
LINE
  5
AB
330
A
100
AcDbEntity
  8
0
 62
     7
100
AcDbLine
 10
178.225469
 20
108.631612
 30
0.0
 11
177.92609
 21
109.107897
 31
0.0
  0
LINE
  5
AA
330
A
100
AcDbEntity
  8
0
 62
     7
100
AcDbLine
 10
177.92609
 20
109.107897
 30
0.0
 11
177.528526
 21
109.505461
 31
0.0
  0
LINE
  5
A9
330
A
100
AcDbEntity
  8
0
 62
     7
100
AcDbLine
 10
177.528526
 20
109.505461
 30
0.0
 11
177.052414
 21
109.804667
 31
0.0
  0
LINE
  5
A8
330
A
100
AcDbEntity
  8
0
 62
     7
100
AcDbLine
 10
177.052414
 20
109.804667
 30
0.0
 11
176.521525
 21
109.99053
 31
0.0
  0
LINE
  5
A7
330
A
100
AcDbEntity
  8
0
 62
     7
100
AcDbLine
 10
176.521525
 20
109.99053
 30
0.0
 11
175.962731
 21
110.053403
 31
0.0
  0
LINE
  5
A6
330
A
100
AcDbEntity
  8
0
 62
     7
100
AcDbLine
 10
175.962731
 20
110.053403
 30
0.0
 11
175.403936
 21
109.99053
 31
0.0
  0
LINE
  5
A5
330
A
100
AcDbEntity
  8
0
 62
     7
100
AcDbLine
 10
175.403936
 20
109.99053
 30
0.0
 11
174.873047
 21
109.804667
 31
0.0
  0
LINE
  5
A4
330
A
100
AcDbEntity
  8
0
 62
     7
100
AcDbLine
 10
174.873047
 20
109.804667
 30
0.0
 11
174.396935
 21
109.505461
 31
0.0
  0
LINE
  5
A3
330
A
100
AcDbEntity
  8
0
 62
     7
100
AcDbLine
 10
174.396935
 20
109.505461
 30
0.0
 11
173.999026
 21
109.107897
 31
0.0
  0
LINE
  5
A2
330
A
100
AcDbEntity
  8
0
 62
     7
100
AcDbLine
 10
173.999026
 20
109.107897
 30
0.0
 11
173.699992
 21
108.631612
 31
0.0
  0
LINE
  5
A1
330
A
100
AcDbEntity
  8
0
 62
     7
100
AcDbLine
 10
173.699992
 20
108.631612
 30
0.0
 11
173.5143009999999
 21
108.100895
 31
0.0
  0
LINE
  5
A0
330
A
100
AcDbEntity
  8
0
 62
     7
100
AcDbLine
 10
173.5143009999999
 20
108.100895
 30
0.0
 11
173.451256
 21
107.541928
 31
0.0
  0
LINE
  5
9F
330
A
100
AcDbEntity
  8
0
 62
     7
100
AcDbLine
 10
173.451256
 20
107.541928
 30
0.0
 11
173.5143009999999
 21
106.983134
 31
0.0
  0
LINE
  5
9E
330
A
100
AcDbEntity
  8
0
 62
     7
100
AcDbLine
 10
173.5143009999999
 20
106.983134
 30
0.0
 11
173.699992
 21
106.452417
 31
0.0
  0
LINE
  5
9D
330
A
100
AcDbEntity
  8
0
 62
     7
100
AcDbLine
 10
173.699992
 20
106.452417
 30
0.0
 11
173.999026
 21
105.976133
 31
0.0
  0
LINE
  5
9C
330
A
100
AcDbEntity
  8
0
 62
     7
100
AcDbLine
 10
173.999026
 20
105.976133
 30
0.0
 11
174.396935
 21
105.578569
 31
0.0
  0
LINE
  5
9B
330
A
100
AcDbEntity
  8
0
 62
     7
100
AcDbLine
 10
174.396935
 20
105.578569
 30
0.0
 11
174.873047
 21
105.279362
 31
0.0
  0
LINE
  5
9A
330
A
100
AcDbEntity
  8
0
 62
     7
100
AcDbLine
 10
174.873047
 20
105.279362
 30
0.0
 11
175.403936
 21
105.093499
 31
0.0
  0
LINE
  5
99
330
A
100
AcDbEntity
  8
0
 62
     7
100
AcDbLine
 10
175.403936
 20
105.093499
 30
0.0
 11
175.962731
 21
105.030626
 31
0.0
  0
LINE
  5
98
330
A
100
AcDbEntity
  8
0
 62
     7
100
AcDbLine
 10
175.962731
 20
105.030626
 30
0.0
 11
176.521525
 21
105.093499
 31
0.0
  0
LINE
  5
97
330
A
100
AcDbEntity
  8
0
 62
     7
100
AcDbLine
 10
176.521525
 20
105.093499
 30
0.0
 11
177.052414
 21
105.279362
 31
0.0
  0
LINE
  5
96
330
A
100
AcDbEntity
  8
0
 62
     7
100
AcDbLine
 10
177.052414
 20
105.279362
 30
0.0
 11
177.528526
 21
105.578569
 31
0.0
  0
LINE
  5
95
330
A
100
AcDbEntity
  8
0
 62
     7
100
AcDbLine
 10
177.528526
 20
105.578569
 30
0.0
 11
177.92609
 21
105.976133
 31
0.0
  0
LINE
  5
94
330
A
100
AcDbEntity
  8
0
 62
     7
100
AcDbLine
 10
177.92609
 20
105.976133
 30
0.0
 11
178.225469
 21
106.452417
 31
0.0
  0
LINE
  5
93
330
A
100
AcDbEntity
  8
0
 62
     7
100
AcDbLine
 10
178.225469
 20
106.452417
 30
0.0
 11
178.41116
 21
106.983134
 31
0.0
  0
LINE
  5
92
330
A
100
AcDbEntity
  8
0
 62
     7
100
AcDbLine
 10
178.41116
 20
106.983134
 30
0.0
 11
178.474205
 21
107.541928
 31
0.0
  0
LINE
  5
91
330
A
100
AcDbEntity
  8
0
 62
     7
100
AcDbLine
 10
178.425629
 20
108.104168
 30
0.0
 11
178.488675
 21
107.541928
 31
0.0
  0
LINE
  5
90
330
A
100
AcDbEntity
  8
0
 62
     7
100
AcDbLine
 10
178.238561
 20
108.637986
 30
0.0
 11
178.425629
 21
108.104168
 31
0.0
  0
LINE
  5
8F
330
A
100
AcDbEntity
  8
0
 62
     7
100
AcDbLine
 10
177.937804
 20
109.117026
 30
0.0
 11
178.238561
 21
108.637986
 31
0.0
  0
LINE
  5
8E
330
A
100
AcDbEntity
  8
0
 62
     7
100
AcDbLine
 10
177.537828
 20
109.517002
 30
0.0
 11
177.937804
 21
109.117026
 31
0.0
  0
LINE
  5
8D
330
A
100
AcDbEntity
  8
0
 62
     7
100
AcDbLine
 10
177.058615
 20
109.817931
 30
0.0
 11
177.537828
 21
109.517002
 31
0.0
  0
LINE
  5
8C
330
A
100
AcDbEntity
  8
0
 62
     7
100
AcDbLine
 10
176.524626
 20
110.004827
 30
0.0
 11
177.058615
 21
109.817931
 31
0.0
  0
LINE
  5
8B
330
A
100
AcDbEntity
  8
0
 62
     7
100
AcDbLine
 10
175.962731
 20
110.068217
 30
0.0
 11
176.524626
 21
110.004827
 31
0.0
  0
LINE
  5
8A
330
A
100
AcDbEntity
  8
0
 62
     7
100
AcDbLine
 10
175.400491
 20
110.004827
 30
0.0
 11
175.962731
 21
110.068217
 31
0.0
  0
LINE
  5
89
330
A
100
AcDbEntity
  8
0
 62
     7
100
AcDbLine
 10
174.866501
 20
109.817931
 30
0.0
 11
175.400491
 21
110.004827
 31
0.0
  0
LINE
  5
88
330
A
100
AcDbEntity
  8
0
 62
     7
100
AcDbLine
 10
174.387633
 20
109.517002
 30
0.0
 11
174.866501
 21
109.817931
 31
0.0
  0
LINE
  5
87
330
A
100
AcDbEntity
  8
0
 62
     7
100
AcDbLine
 10
173.987657
 20
109.117026
 30
0.0
 11
174.387633
 21
109.517002
 31
0.0
  0
LINE
  5
86
330
A
100
AcDbEntity
  8
0
 62
     7
100
AcDbLine
 10
173.686556
 20
108.637986
 30
0.0
 11
173.987657
 21
109.117026
 31
0.0
  0
LINE
  5
85
330
A
100
AcDbEntity
  8
0
 62
     7
100
AcDbLine
 10
173.499832
 20
108.104168
 30
0.0
 11
173.686556
 21
108.637986
 31
0.0
  0
LINE
  5
84
330
A
100
AcDbEntity
  8
0
 62
     7
100
AcDbLine
 10
173.436442
 20
107.541928
 30
0.0
 11
173.499832
 21
108.104168
 31
0.0
  0
LINE
  5
83
330
A
100
AcDbEntity
  8
0
 62
     7
100
AcDbLine
 10
173.499832
 20
106.979861
 30
0.0
 11
173.436442
 21
107.541928
 31
0.0
  0
LINE
  5
82
330
A
100
AcDbEntity
  8
0
 62
     7
100
AcDbLine
 10
173.686556
 20
106.445871
 30
0.0
 11
173.499832
 21
106.979861
 31
0.0
  0
LINE
  5
81
330
A
100
AcDbEntity
  8
0
 62
     7
100
AcDbLine
 10
173.987657
 20
105.967003
 30
0.0
 11
173.686556
 21
106.445871
 31
0.0
  0
LINE
  5
80
330
A
100
AcDbEntity
  8
0
 62
     7
100
AcDbLine
 10
174.387633
 20
105.567027
 30
0.0
 11
173.987657
 21
105.967003
 31
0.0
  0
LINE
  5
7F
330
A
100
AcDbEntity
  8
0
 62
     7
100
AcDbLine
 10
174.866501
 20
105.266098
 30
0.0
 11
174.387633
 21
105.567027
 31
0.0
  0
LINE
  5
7E
330
A
100
AcDbEntity
  8
0
 62
     7
100
AcDbLine
 10
175.400491
 20
105.079202
 30
0.0
 11
174.866501
 21
105.266098
 31
0.0
  0
LINE
  5
7D
330
A
100
AcDbEntity
  8
0
 62
     7
100
AcDbLine
 10
175.962731
 20
105.015812
 30
0.0
 11
175.400491
 21
105.079202
 31
0.0
  0
LINE
  5
7C
330
A
100
AcDbEntity
  8
0
 62
     7
100
AcDbLine
 10
176.524626
 20
105.079202
 30
0.0
 11
175.962731
 21
105.015812
 31
0.0
  0
LINE
  5
7B
330
A
100
AcDbEntity
  8
0
 62
     7
100
AcDbLine
 10
177.058615
 20
105.266098
 30
0.0
 11
176.524626
 21
105.079202
 31
0.0
  0
LINE
  5
7A
330
A
100
AcDbEntity
  8
0
 62
     7
100
AcDbLine
 10
177.537828
 20
105.567027
 30
0.0
 11
177.058615
 21
105.266098
 31
0.0
  0
LINE
  5
79
330
A
100
AcDbEntity
  8
0
 62
     7
100
AcDbLine
 10
177.937804
 20
105.967003
 30
0.0
 11
177.537828
 21
105.567027
 31
0.0
  0
LINE
  5
78
330
A
100
AcDbEntity
  8
0
 62
     7
100
AcDbLine
 10
178.238561
 20
106.445871
 30
0.0
 11
177.937804
 21
105.967003
 31
0.0
  0
LINE
  5
77
330
A
100
AcDbEntity
  8
0
 62
     7
100
AcDbLine
 10
178.425629
 20
106.979861
 30
0.0
 11
178.238561
 21
106.445871
 31
0.0
  0
LINE
  5
76
330
A
100
AcDbEntity
  8
0
 62
     7
100
AcDbLine
 10
178.488675
 20
107.541928
 30
0.0
 11
178.425629
 21
106.979861
 31
0.0
  0
LINE
  5
75
330
A
100
AcDbEntity
  8
0
 62
     7
100
AcDbLine
 10
124.474056
 20
107.541928
 30
0.0
 11
124.411183
 21
108.100895
 31
0.0
  0
LINE
  5
74
330
A
100
AcDbEntity
  8
0
 62
     7
100
AcDbLine
 10
124.411183
 20
108.100895
 30
0.0
 11
124.22532
 21
108.631612
 31
0.0
  0
LINE
  5
73
330
A
100
AcDbEntity
  8
0
 62
     7
100
AcDbLine
 10
124.22532
 20
108.631612
 30
0.0
 11
123.9261139999999
 21
109.107897
 31
0.0
  0
LINE
  5
72
330
A
100
AcDbEntity
  8
0
 62
     7
100
AcDbLine
 10
123.9261139999999
 20
109.107897
 30
0.0
 11
123.52855
 21
109.505461
 31
0.0
  0
LINE
  5
71
330
A
100
AcDbEntity
  8
0
 62
     7
100
AcDbLine
 10
123.52855
 20
109.505461
 30
0.0
 11
123.052265
 21
109.804667
 31
0.0
  0
LINE
  5
70
330
A
100
AcDbEntity
  8
0
 62
     7
100
AcDbLine
 10
123.052265
 20
109.804667
 30
0.0
 11
122.521548
 21
109.99053
 31
0.0
  0
LINE
  5
6F
330
A
100
AcDbEntity
  8
0
 62
     7
100
AcDbLine
 10
122.521548
 20
109.99053
 30
0.0
 11
121.962754
 21
110.053403
 31
0.0
  0
LINE
  5
6E
330
A
100
AcDbEntity
  8
0
 62
     7
100
AcDbLine
 10
121.962754
 20
110.053403
 30
0.0
 11
121.403787
 21
109.99053
 31
0.0
  0
LINE
  5
6D
330
A
100
AcDbEntity
  8
0
 62
     7
100
AcDbLine
 10
121.403787
 20
109.99053
 30
0.0
 11
120.87307
 21
109.804667
 31
0.0
  0
LINE
  5
6C
330
A
100
AcDbEntity
  8
0
 62
     7
100
AcDbLine
 10
120.87307
 20
109.804667
 30
0.0
 11
120.396785
 21
109.505461
 31
0.0
  0
LINE
  5
6B
330
A
100
AcDbEntity
  8
0
 62
     7
100
AcDbLine
 10
120.396785
 20
109.505461
 30
0.0
 11
119.999221
 21
109.107897
 31
0.0
  0
LINE
  5
6A
330
A
100
AcDbEntity
  8
0
 62
     7
100
AcDbLine
 10
119.999221
 20
109.107897
 30
0.0
 11
119.700015
 21
108.631612
 31
0.0
  0
LINE
  5
69
330
A
100
AcDbEntity
  8
0
 62
     7
100
AcDbLine
 10
119.700015
 20
108.631612
 30
0.0
 11
119.514152
 21
108.100895
 31
0.0
  0
LINE
  5
68
330
A
100
AcDbEntity
  8
0
 62
     7
100
AcDbLine
 10
119.514152
 20
108.100895
 30
0.0
 11
119.451279
 21
107.541928
 31
0.0
  0
LINE
  5
67
330
A
100
AcDbEntity
  8
0
 62
     7
100
AcDbLine
 10
119.451279
 20
107.541928
 30
0.0
 11
119.514152
 21
106.983134
 31
0.0
  0
LINE
  5
66
330
A
100
AcDbEntity
  8
0
 62
     7
100
AcDbLine
 10
119.514152
 20
106.983134
 30
0.0
 11
119.700015
 21
106.452417
 31
0.0
  0
LINE
  5
65
330
A
100
AcDbEntity
  8
0
 62
     7
100
AcDbLine
 10
119.700015
 20
106.452417
 30
0.0
 11
119.999221
 21
105.976133
 31
0.0
  0
LINE
  5
64
330
A
100
AcDbEntity
  8
0
 62
     7
100
AcDbLine
 10
119.999221
 20
105.976133
 30
0.0
 11
120.396785
 21
105.578569
 31
0.0
  0
LINE
  5
63
330
A
100
AcDbEntity
  8
0
 62
     7
100
AcDbLine
 10
120.396785
 20
105.578569
 30
0.0
 11
120.87307
 21
105.279362
 31
0.0
  0
LINE
  5
62
330
A
100
AcDbEntity
  8
0
 62
     7
100
AcDbLine
 10
120.87307
 20
105.279362
 30
0.0
 11
121.403787
 21
105.093499
 31
0.0
  0
LINE
  5
61
330
A
100
AcDbEntity
  8
0
 62
     7
100
AcDbLine
 10
121.403787
 20
105.093499
 30
0.0
 11
121.962754
 21
105.030626
 31
0.0
  0
LINE
  5
60
330
A
100
AcDbEntity
  8
0
 62
     7
100
AcDbLine
 10
121.962754
 20
105.030626
 30
0.0
 11
122.521548
 21
105.093499
 31
0.0
  0
LINE
  5
5F
330
A
100
AcDbEntity
  8
0
 62
     7
100
AcDbLine
 10
122.521548
 20
105.093499
 30
0.0
 11
123.052265
 21
105.279362
 31
0.0
  0
LINE
  5
5E
330
A
100
AcDbEntity
  8
0
 62
     7
100
AcDbLine
 10
123.052265
 20
105.279362
 30
0.0
 11
123.52855
 21
105.578569
 31
0.0
  0
LINE
  5
5D
330
A
100
AcDbEntity
  8
0
 62
     7
100
AcDbLine
 10
123.52855
 20
105.578569
 30
0.0
 11
123.9261139999999
 21
105.976133
 31
0.0
  0
LINE
  5
5C
330
A
100
AcDbEntity
  8
0
 62
     7
100
AcDbLine
 10
123.9261139999999
 20
105.976133
 30
0.0
 11
124.22532
 21
106.452417
 31
0.0
  0
LINE
  5
5B
330
A
100
AcDbEntity
  8
0
 62
     7
100
AcDbLine
 10
124.22532
 20
106.452417
 30
0.0
 11
124.411183
 21
106.983134
 31
0.0
  0
LINE
  5
5A
330
A
100
AcDbEntity
  8
0
 62
     7
100
AcDbLine
 10
124.411183
 20
106.983134
 30
0.0
 11
124.474056
 21
107.541928
 31
0.0
  0
LINE
  5
59
330
A
100
AcDbEntity
  8
0
 62
     7
100
AcDbLine
 10
124.42548
 20
108.104168
 30
0.0
 11
124.48887
 21
107.541928
 31
0.0
  0
LINE
  5
58
330
A
100
AcDbEntity
  8
0
 62
     7
100
AcDbLine
 10
124.238584
 20
108.637986
 30
0.0
 11
124.42548
 21
108.104168
 31
0.0
  0
LINE
  5
57
330
A
100
AcDbEntity
  8
0
 62
     7
100
AcDbLine
 10
123.937655
 20
109.117026
 30
0.0
 11
124.238584
 21
108.637986
 31
0.0
  0
LINE
  5
56
330
A
100
AcDbEntity
  8
0
 62
     7
100
AcDbLine
 10
123.537679
 20
109.517002
 30
0.0
 11
123.937655
 21
109.117026
 31
0.0
  0
LINE
  5
55
330
A
100
AcDbEntity
  8
0
 62
     7
100
AcDbLine
 10
123.058639
 20
109.817931
 30
0.0
 11
123.537679
 21
109.517002
 31
0.0
  0
LINE
  5
54
330
A
100
AcDbEntity
  8
0
 62
     7
100
AcDbLine
 10
122.524821
 20
110.004827
 30
0.0
 11
123.058639
 21
109.817931
 31
0.0
  0
LINE
  5
53
330
A
100
AcDbEntity
  8
0
 62
     7
100
AcDbLine
 10
121.962754
 20
110.068217
 30
0.0
 11
122.524821
 21
110.004827
 31
0.0
  0
LINE
  5
52
330
A
100
AcDbEntity
  8
0
 62
     7
100
AcDbLine
 10
121.400514
 20
110.004827
 30
0.0
 11
121.962754
 21
110.068217
 31
0.0
  0
LINE
  5
51
330
A
100
AcDbEntity
  8
0
 62
     7
100
AcDbLine
 10
120.866697
 20
109.817931
 30
0.0
 11
121.400514
 21
110.004827
 31
0.0
  0
LINE
  5
50
330
A
100
AcDbEntity
  8
0
 62
     7
100
AcDbLine
 10
120.387656
 20
109.517002
 30
0.0
 11
120.866697
 21
109.817931
 31
0.0
  0
LINE
  5
4F
330
A
100
AcDbEntity
  8
0
 62
     7
100
AcDbLine
 10
119.98768
 20
109.117026
 30
0.0
 11
120.387656
 21
109.517002
 31
0.0
  0
LINE
  5
4E
330
A
100
AcDbEntity
  8
0
 62
     7
100
AcDbLine
 10
119.686751
 20
108.637986
 30
0.0
 11
119.98768
 21
109.117026
 31
0.0
  0
LINE
  5
4D
330
A
100
AcDbEntity
  8
0
 62
     7
100
AcDbLine
 10
119.499855
 20
108.104168
 30
0.0
 11
119.686751
 21
108.637986
 31
0.0
  0
LINE
  5
4C
330
A
100
AcDbEntity
  8
0
 62
     7
100
AcDbLine
 10
119.436465
 20
107.541928
 30
0.0
 11
119.499855
 21
108.104168
 31
0.0
  0
LINE
  5
4B
330
A
100
AcDbEntity
  8
0
 62
     7
100
AcDbLine
 10
119.499855
 20
106.979861
 30
0.0
 11
119.436465
 21
107.541928
 31
0.0
  0
LINE
  5
4A
330
A
100
AcDbEntity
  8
0
 62
     7
100
AcDbLine
 10
119.686751
 20
106.445871
 30
0.0
 11
119.499855
 21
106.979861
 31
0.0
  0
LINE
  5
49
330
A
100
AcDbEntity
  8
0
 62
     7
100
AcDbLine
 10
119.98768
 20
105.967003
 30
0.0
 11
119.686751
 21
106.445871
 31
0.0
  0
LINE
  5
48
330
A
100
AcDbEntity
  8
0
 62
     7
100
AcDbLine
 10
120.387656
 20
105.567027
 30
0.0
 11
119.98768
 21
105.967003
 31
0.0
  0
LINE
  5
47
330
A
100
AcDbEntity
  8
0
 62
     7
100
AcDbLine
 10
120.866697
 20
105.266098
 30
0.0
 11
120.387656
 21
105.567027
 31
0.0
  0
LINE
  5
46
330
A
100
AcDbEntity
  8
0
 62
     7
100
AcDbLine
 10
121.400514
 20
105.079202
 30
0.0
 11
120.866697
 21
105.266098
 31
0.0
  0
LINE
  5
45
330
A
100
AcDbEntity
  8
0
 62
     7
100
AcDbLine
 10
121.962754
 20
105.015812
 30
0.0
 11
121.400514
 21
105.079202
 31
0.0
  0
LINE
  5
44
330
A
100
AcDbEntity
  8
0
 62
     7
100
AcDbLine
 10
122.524821
 20
105.079202
 30
0.0
 11
121.962754
 21
105.015812
 31
0.0
  0
LINE
  5
43
330
A
100
AcDbEntity
  8
0
 62
     7
100
AcDbLine
 10
123.058639
 20
105.266098
 30
0.0
 11
122.524821
 21
105.079202
 31
0.0
  0
LINE
  5
42
330
A
100
AcDbEntity
  8
0
 62
     7
100
AcDbLine
 10
123.537679
 20
105.567027
 30
0.0
 11
123.058639
 21
105.266098
 31
0.0
  0
LINE
  5
41
330
A
100
AcDbEntity
  8
0
 62
     7
100
AcDbLine
 10
123.937655
 20
105.967003
 30
0.0
 11
123.537679
 21
105.567027
 31
0.0
  0
LINE
  5
40
330
A
100
AcDbEntity
  8
0
 62
     7
100
AcDbLine
 10
124.238584
 20
106.445871
 30
0.0
 11
123.937655
 21
105.967003
 31
0.0
  0
LINE
  5
3F
330
A
100
AcDbEntity
  8
0
 62
     7
100
AcDbLine
 10
124.42548
 20
106.979861
 30
0.0
 11
124.238584
 21
106.445871
 31
0.0
  0
LINE
  5
3E
330
A
100
AcDbEntity
  8
0
 62
     7
100
AcDbLine
 10
124.48887
 20
107.541928
 30
0.0
 11
124.42548
 21
106.979861
 31
0.0
  0
LINE
  5
3D
330
A
100
AcDbEntity
  8
0
 62
     7
100
AcDbLine
 10
195.225982
 20
116.28403
 30
0.0
 11
194.012275
 21
116.536384
 31
0.0
  0
LINE
  5
3C
330
A
100
AcDbEntity
  8
0
 62
     7
100
AcDbLine
 10
156.699135
 20
116.283858
 30
0.0
 11
155.664572
 21
115.586915
 31
0.0
  0
LINE
  5
3B
330
A
100
AcDbEntity
  8
0
 62
     7
100
AcDbLine
 10
154.96763
 20
114.552181
 30
0.0
 11
154.715104
 21
113.338474
 31
0.0
  0
LINE
  5
3A
330
A
100
AcDbEntity
  8
0
 62
     7
100
AcDbLine
 10
154.715104
 20
113.338474
 30
0.0
 11
154.712693
 21
83.78885600000002
 31
0.0
  0
LINE
  5
39
330
A
100
AcDbEntity
  8
0
 62
     7
100
AcDbLine
 10
156.692244
 20
80.620402
 30
0.0
 11
157.893205
 21
80.342383
 31
0.0
  0
LINE
  5
38
330
A
100
AcDbEntity
  8
0
 62
     7
100
AcDbLine
 10
154.954883
 20
82.536564
 30
0.0
 11
155.654237
 21
81.39141399999999
 31
0.0
  0
LINE
  5
37
330
A
100
AcDbEntity
  8
0
 62
     7
100
AcDbLine
 10
154.712693
 20
83.78885600000002
 30
0.0
 11
154.954883
 21
82.536564
 31
0.0
  0
LINE
  5
36
330
A
100
AcDbEntity
  8
0
 62
     7
100
AcDbLine
 10
175.962731
 20
80.33893799999999
 30
0.0
 11
194.032256
 21
80.342383
 31
0.0
  0
LINE
  5
35
330
A
100
AcDbEntity
  8
0
 62
     7
100
AcDbLine
 10
157.893205
 20
80.342383
 30
0.0
 11
175.962731
 21
80.33893799999999
 31
0.0
  0
LINE
  5
34
330
A
100
AcDbEntity
  8
0
 62
     7
100
AcDbLine
 10
100.96748
 20
114.552181
 30
0.0
 11
100.715127
 21
113.338474
 31
0.0
  0
LINE
  5
33
330
A
100
AcDbEntity
  8
0
 62
     7
100
AcDbLine
 10
100.715127
 20
113.338474
 30
0.0
 11
100.712716
 21
83.78885600000002
 31
0.0
  0
LINE
  5
32
330
A
100
AcDbEntity
  8
0
 62
     7
100
AcDbLine
 10
102.69244
 20
80.620402
 30
0.0
 11
103.893056
 21
80.342383
 31
0.0
  0
LINE
  5
31
330
A
100
AcDbEntity
  8
0
 62
     7
100
AcDbLine
 10
100.954906
 20
82.536564
 30
0.0
 11
101.65426
 21
81.39141399999999
 31
0.0
  0
LINE
  5
30
330
A
100
AcDbEntity
  8
0
 62
     7
100
AcDbLine
 10
100.712716
 20
83.78885600000002
 30
0.0
 11
100.954906
 21
82.536564
 31
0.0
  0
LINE
  5
2F
330
A
100
AcDbEntity
  8
0
 62
     7
100
AcDbLine
 10
121.962754
 20
80.33893799999999
 30
0.0
 11
140.032279
 21
80.342383
 31
0.0
  0
LINE
  5
2E
330
A
100
AcDbEntity
  8
0
 62
     7
100
AcDbLine
 10
103.893056
 20
80.342383
 30
0.0
 11
121.962754
 21
80.33893799999999
 31
0.0
  0
LINE
  5
2D
330
A
100
AcDbEntity
  8
0
 62
     7
100
AcDbLine
 10
154.715793
 20
113.338474
 30
0.0
 11
154.716827
 21
113.343814
 31
0.0
  0
LINE
  5
2C
330
A
100
AcDbEntity
  8
0
 62
     7
100
AcDbLine
 10
154.715793
 20
113.286797
 30
0.0
 11
154.715793
 21
113.338474
 31
0.0
  0
LINE
  5
2B
330
A
100
AcDbEntity
  8
0
 62
     7
100
AcDbLine
 10
154.955227
 20
82.53863100000002
 30
0.0
 11
154.713382
 21
83.78885600000002
 31
0.0
  0
LINE
  5
2A
330
A
100
AcDbEntity
  8
0
 62
     7
100
AcDbLine
 10
100.715816
 20
113.338474
 30
0.0
 11
100.71685
 21
113.343814
 31
0.0
  0
LINE
  5
29
330
A
100
AcDbEntity
  8
0
 62
     7
100
AcDbLine
 10
100.715816
 20
113.286797
 30
0.0
 11
100.715816
 21
113.338474
 31
0.0
  0
DIMENSION
  5
1A5
330
A
100
AcDbEntity
  8
Cotation-JacobDelafon
  6
Continuous
370
     0
100
AcDbDimension
  2
*D1
 10
208.487877
 20
156.5370806849014
 30
0.0
 11
148.486199
 21
158.9687996480665
 31
0.0
 70
    32
 71
     5
 42
120.003356
 73
     0
 74
     0
 75
     0
  3
Cotation-Jacob-Delafon
100
AcDbAlignedDimension
 13
88.48452100000001
 23
128.074525
 33
0.0
 14
208.487877
 24
128.082104
 34
0.0
100
AcDbRotatedDimension
  0
DIMENSION
  5
1B2
330
A
100
AcDbEntity
  8
Cotation-JacobDelafon
  6
Continuous
370
     0
100
AcDbDimension
  2
*D2
 10
69.44749473624909
 20
78.79209
 30
0.0
 11
67.01577577308402
 21
103.815455
 31
0.0
 70
    32
  1
50
 71
     5
 42
50.04673000000001
 73
     0
 74
     0
 75
     0
  3
Cotation-Jacob-Delafon
100
AcDbAlignedDimension
 13
89.237619
 23
128.83882
 33
0.0
 14
89.23761899999998
 24
78.79209
 34
0.0
 50
90.0
100
AcDbRotatedDimension
  0
ENDSEC
  0
SECTION
  2
OBJECTS
  0
DICTIONARY
  5
19
330
0
100
AcDbDictionary
281
     1
  3
ACAD_COLOR
350
166
  3
ACAD_GROUP
350
1A
  3
ACAD_LAYOUT
350
1E
  3
ACAD_MATERIAL
350
13C
  3
ACAD_MLEADERSTYLE
350
17B
  3
ACAD_MLINESTYLE
350
1B
  3
ACAD_PLOTSETTINGS
350
22
  3
ACAD_PLOTSTYLENAME
350
1F
  3
ACAD_SCALELIST
350
169
  3
ACAD_TABLESTYLE
350
167
  3
ACAD_VISUALSTYLE
350
155
  3
ACAD_WIPEOUT_VARS
350
23
  3
ACDB_RECOMPOSE_DATA
350
1CD
  3
AcDbVariableDictionary
350
1CE
  3
AEC_PROPERTY_SET_DEFS
350
197
  0
DICTIONARY
  5
1C8
330
14
100
AcDbDictionary
280
     1
281
     1
  3
ADSK_XREC_LAYER_RECONCILED
360
1C9
  0
DICTIONARY
  5
190
330
18F
100
AcDbDictionary
280
     1
281
     1
  3
ADSK_XREC_LAYER_RECONCILED
360
1CA
  0
DICTIONARY
  5
166
102
{ACAD_REACTORS
330
19
102
}
330
19
100
AcDbDictionary
281
     1
  0
DICTIONARY
  5
1A
102
{ACAD_REACTORS
330
19
102
}
330
19
100
AcDbDictionary
281
     1
  0
DICTIONARY
  5
1E
102
{ACAD_REACTORS
330
19
102
}
330
19
100
AcDbDictionary
281
     1
  3
Layout1
350
21
  3
Model
350
20
  0
DICTIONARY
  5
13C
102
{ACAD_REACTORS
330
19
102
}
330
19
100
AcDbDictionary
281
     1
  3
ByBlock
350
145
  3
ByLayer
350
13D
  3
Global
350
14D
  0
DICTIONARY
  5
17B
102
{ACAD_REACTORS
330
19
102
}
330
19
100
AcDbDictionary
281
     1
  3
Standard
350
17C
  0
DICTIONARY
  5
1B
102
{ACAD_REACTORS
330
19
102
}
330
19
100
AcDbDictionary
281
     1
  3
Standard
350
1C
  0
DICTIONARY
  5
22
102
{ACAD_REACTORS
330
19
102
}
330
19
100
AcDbDictionary
281
     1
  0
ACDBDICTIONARYWDFLT
  5
1F
102
{ACAD_REACTORS
330
19
102
}
330
19
100
AcDbDictionary
281
     1
  3
Normal
350
1D
100
AcDbDictionaryWithDefault
340
1D
  0
DICTIONARY
  5
169
102
{ACAD_REACTORS
330
19
102
}
330
19
100
AcDbDictionary
281
     1
  3
A0
350
16A
  3
A1
350
16B
  3
A2
350
16C
  3
A3
350
16D
  3
A4
350
16E
  3
A5
350
16F
  3
A6
350
170
  3
A7
350
171
  3
A8
350
172
  3
A9
350
173
  3
B0
350
174
  3
B1
350
175
  3
B2
350
176
  3
B3
350
177
  3
B4
350
178
  3
B5
350
179
  3
B6
350
17A
  0
DICTIONARY
  5
167
102
{ACAD_REACTORS
330
19
102
}
330
19
100
AcDbDictionary
281
     1
  3
Standard
350
168
  0
DICTIONARY
  5
155
102
{ACAD_REACTORS
330
19
102
}
330
19
100
AcDbDictionary
281
     1
  3
2dWireframe
350
15B
  3
3D Hidden
350
15D
  3
3dWireframe
350
15C
  3
Basic
350
15A
  3
Brighten
350
161
  3
ColorChange
350
165
  3
Conceptual
350
15E
  3
Dim
350
160
  3
Facepattern
350
164
  3
Flat
350
156
  3
FlatWithEdges
350
157
  3
Gouraud
350
158
  3
GouraudWithEdges
350
159
  3
Linepattern
350
163
  3
Realistic
350
15F
  3
Thicken
350
162
  0
WIPEOUTVARIABLES
  5
23
330
19
100
AcDbWipeoutVariables
 70
     1
  0
XRECORD
  5
1CD
102
{ACAD_REACTORS
330
19
102
}
330
19
100
AcDbXrecord
280
     1
 90
        1
330
168
  0
DICTIONARY
  5
1CE
102
{ACAD_REACTORS
330
19
102
}
330
19
100
AcDbDictionary
281
     1
  3
CANNOSCALE
350
1D2
  3
CMLEADERSTYLE
350
1D0
  3
CTABLESTYLE
350
1CF
  3
LAYEREVAL
350
1D4
  3
LAYERNOTIFY
350
1D5
  3
LIGHTINGUNITS
350
1D3
  3
MSLTSCALE
350
1D1
  0
DICTIONARY
  5
197
102
{ACAD_REACTORS
330
19
102
}
330
19
100
AcDbDictionary
281
     1
  0
XRECORD
  5
1C9
102
{ACAD_REACTORS
330
1C8
102
}
330
1C8
100
AcDbXrecord
280
     1
290
     1
  0
XRECORD
  5
1CA
102
{ACAD_REACTORS
330
190
102
}
330
190
100
AcDbXrecord
280
     1
290
     1
  0
LAYOUT
  5
21
102
{ACAD_REACTORS
330
1E
102
}
330
1E
100
AcDbPlotSettings
  1

  2

  4

  6

 40
0.0
 41
0.0
 42
0.0
 43
0.0
 44
0.0
 45
0.0
 46
0.0
 47
0.0
 48
0.0
 49
0.0
140
0.0
141
0.0
142
1.0
143
1.0
 70
     0
 72
     0
 73
     0
 74
     0
  7

 75
     0
147
1.0
 76
     0
 77
     2
 78
   300
148
0.0
149
0.0
100
AcDbLayout
  1
Layout1
 70
     0
 71
     1
 10
0.0
 20
0.0
 11
12.0
 21
9.0
 12
0.0
 22
0.0
 32
0.0
 14
1.000000000000000E+20
 24
1.000000000000000E+20
 34
1.000000000000000E+20
 15
-1.000000000000000E+20
 25
-1.000000000000000E+20
 35
-1.000000000000000E+20
146
0.0
 13
0.0
 23
0.0
 33
0.0
 16
1.0
 26
0.0
 36
0.0
 17
0.0
 27
1.0
 37
0.0
 76
     0
330
B
  0
LAYOUT
  5
20
102
{ACAD_REACTORS
330
1E
102
}
330
1E
100
AcDbPlotSettings
  1

  2

  4

  6

 40
0.0
 41
0.0
 42
0.0
 43
0.0
 44
0.0
 45
0.0
 46
0.0
 47
0.0
 48
0.0
 49
0.0
140
0.0
141
0.0
142
1.0
143
1.0
 70
  1024
 72
     0
 73
     0
 74
     0
  7

 75
     0
147
1.0
 76
     0
 77
     2
 78
   300
148
0.0
149
0.0
100
AcDbLayout
  1
Model
 70
     0
 71
     0
 10
0.0
 20
0.0
 11
0.0
 21
0.0
 12
0.0
 22
0.0
 32
0.0
 14
0.0
 24
0.0
 34
0.0
 15
0.0
 25
0.0
 35
0.0
146
0.0
 13
0.0
 23
0.0
 33
0.0
 16
0.0
 26
0.0
 36
0.0
 17
0.0
 27
0.0
 37
0.0
 76
     0
330
A
331
15
  0
MATERIAL
  5
145
102
{ACAD_XDICTIONARY
360
146
102
}
102
{ACAD_REACTORS
330
13C
102
}
330
13C
100
AcDbMaterial
  1
ByBlock
 72
     0
 43
0.0208333333333333
 43
0.0
 43
0.0
 43
0.0
 43
0.0
 43
0.0208333333333333
 43
0.0
 43
0.0
 43
0.0
 43
0.0
 43
1.0
 43
0.0
 43
0.0
 43
0.0
 43
0.0
 43
1.0
 77
     0
 47
0.0208333333333333
 47
0.0
 47
0.0
 47
0.0
 47
0.0
 47
0.0208333333333333
 47
0.0
 47
0.0
 47
0.0
 47
0.0
 47
1.0
 47
0.0
 47
0.0
 47
0.0
 47
0.0
 47
1.0
171
     0
 49
0.0208333333333333
 49
0.0
 49
0.0
 49
0.0
 49
0.0
 49
0.0208333333333333
 49
0.0
 49
0.0
 49
0.0
 49
0.0
 49
1.0
 49
0.0
 49
0.0
 49
0.0
 49
0.0
 49
1.0
175
     0
142
0.0208333333333333
142
0.0
142
0.0
142
0.0
142
0.0
142
0.0208333333333333
142
0.0
142
0.0
142
0.0
142
0.0
142
1.0
142
0.0
142
0.0
142
0.0
142
0.0
142
1.0
179
     0
144
0.0208333333333333
144
0.0
144
0.0
144
0.0
144
0.0
144
0.0208333333333333
144
0.0
144
0.0
144
0.0
144
0.0
144
1.0
144
0.0
144
0.0
144
0.0
144
0.0
144
1.0
147
0.0208333333333333
147
0.0
147
0.0
147
0.0
147
0.0
147
0.0208333333333333
147
0.0
147
0.0
147
0.0
147
0.0
147
1.0
147
0.0
147
0.0
147
0.0
147
0.0
147
1.0
  0
MATERIAL
  5
13D
102
{ACAD_XDICTIONARY
360
13E
102
}
102
{ACAD_REACTORS
330
13C
102
}
330
13C
100
AcDbMaterial
  1
ByLayer
 72
     0
 43
0.0208333333333333
 43
0.0
 43
0.0
 43
0.0
 43
0.0
 43
0.0208333333333333
 43
0.0
 43
0.0
 43
0.0
 43
0.0
 43
1.0
 43
0.0
 43
0.0
 43
0.0
 43
0.0
 43
1.0
 77
     0
 47
0.0208333333333333
 47
0.0
 47
0.0
 47
0.0
 47
0.0
 47
0.0208333333333333
 47
0.0
 47
0.0
 47
0.0
 47
0.0
 47
1.0
 47
0.0
 47
0.0
 47
0.0
 47
0.0
 47
1.0
171
     0
 49
0.0208333333333333
 49
0.0
 49
0.0
 49
0.0
 49
0.0
 49
0.0208333333333333
 49
0.0
 49
0.0
 49
0.0
 49
0.0
 49
1.0
 49
0.0
 49
0.0
 49
0.0
 49
0.0
 49
1.0
175
     0
142
0.0208333333333333
142
0.0
142
0.0
142
0.0
142
0.0
142
0.0208333333333333
142
0.0
142
0.0
142
0.0
142
0.0
142
1.0
142
0.0
142
0.0
142
0.0
142
0.0
142
1.0
179
     0
144
0.0208333333333333
144
0.0
144
0.0
144
0.0
144
0.0
144
0.0208333333333333
144
0.0
144
0.0
144
0.0
144
0.0
144
1.0
144
0.0
144
0.0
144
0.0
144
0.0
144
1.0
147
0.0208333333333333
147
0.0
147
0.0
147
0.0
147
0.0
147
0.0208333333333333
147
0.0
147
0.0
147
0.0
147
0.0
147
1.0
147
0.0
147
0.0
147
0.0
147
0.0
147
1.0
  0
MATERIAL
  5
14D
102
{ACAD_XDICTIONARY
360
14E
102
}
102
{ACAD_REACTORS
330
13C
102
}
330
13C
100
AcDbMaterial
  1
Global
 72
     0
 43
0.0208333333333333
 43
0.0
 43
0.0
 43
0.0
 43
0.0
 43
0.0208333333333333
 43
0.0
 43
0.0
 43
0.0
 43
0.0
 43
1.0
 43
0.0
 43
0.0
 43
0.0
 43
0.0
 43
1.0
 77
     0
 47
0.0208333333333333
 47
0.0
 47
0.0
 47
0.0
 47
0.0
 47
0.0208333333333333
 47
0.0
 47
0.0
 47
0.0
 47
0.0
 47
1.0
 47
0.0
 47
0.0
 47
0.0
 47
0.0
 47
1.0
171
     0
 49
0.0208333333333333
 49
0.0
 49
0.0
 49
0.0
 49
0.0
 49
0.0208333333333333
 49
0.0
 49
0.0
 49
0.0
 49
0.0
 49
1.0
 49
0.0
 49
0.0
 49
0.0
 49
0.0
 49
1.0
175
     0
142
0.0208333333333333
142
0.0
142
0.0
142
0.0
142
0.0
142
0.0208333333333333
142
0.0
142
0.0
142
0.0
142
0.0
142
1.0
142
0.0
142
0.0
142
0.0
142
0.0
142
1.0
179
     0
144
0.0208333333333333
144
0.0
144
0.0
144
0.0
144
0.0
144
0.0208333333333333
144
0.0
144
0.0
144
0.0
144
0.0
144
1.0
144
0.0
144
0.0
144
0.0
144
0.0
144
1.0
147
0.0208333333333333
147
0.0
147
0.0
147
0.0
147
0.0
147
0.0208333333333333
147
0.0
147
0.0
147
0.0
147
0.0
147
1.0
147
0.0
147
0.0
147
0.0
147
0.0
147
1.0
  0
MLEADERSTYLE
  5
17C
102
{ACAD_REACTORS
330
17B
102
}
330
17B
100
AcDbMLeaderStyle
170
     2
171
     1
172
     0
 90
        2
 40
0.0
 41
0.0
173
     1
 91
-1056964608
340
11
 92
       -2
290
     1
 42
2.0
291
     1
 43
0.36
  3
Standard
 44
4.0
300

342
17
174
     1
178
     6
175
     1
176
     0
 93
-1056964608
 45
4.0
292
     0
297
     0
 46
4.0
 94
-1056964608
 47
1.0
 49
1.0
140
1.0
293
     1
141
0.0
294
     1
177
     0
142
1.0
295
     0
296
     0
143
0.125
1001
ACAD_MLEADERVER
1070
     2
  0
MLINESTYLE
  5
1C
102
{ACAD_REACTORS
330
1B
102
}
330
1B
100
AcDbMlineStyle
  2
STANDARD
 70
     0
  3

 62
     0
 51
90.0
 52
90.0
 71
     2
 49
0.5
 62
   256
  6
BYLAYER
 49
-0.5
 62
   256
  6
BYLAYER
  0
ACDBPLACEHOLDER
  5
1D
102
{ACAD_REACTORS
330
1F
102
}
330
1F
  0
SCALE
  5
16A
102
{ACAD_REACTORS
330
169
102
}
330
169
100
AcDbScale
 70
     0
300
1:1
140
1.0
141
1.0
290
     1
  0
SCALE
  5
16B
102
{ACAD_REACTORS
330
169
102
}
330
169
100
AcDbScale
 70
     0
300
1:2
140
1.0
141
2.0
290
     0
  0
SCALE
  5
16C
102
{ACAD_REACTORS
330
169
102
}
330
169
100
AcDbScale
 70
     0
300
1:4
140
1.0
141
4.0
290
     0
  0
SCALE
  5
16D
102
{ACAD_REACTORS
330
169
102
}
330
169
100
AcDbScale
 70
     0
300
1:5
140
1.0
141
5.0
290
     0
  0
SCALE
  5
16E
102
{ACAD_REACTORS
330
169
102
}
330
169
100
AcDbScale
 70
     0
300
1:8
140
1.0
141
8.0
290
     0
  0
SCALE
  5
16F
102
{ACAD_REACTORS
330
169
102
}
330
169
100
AcDbScale
 70
     0
300
1:10
140
1.0
141
10.0
290
     0
  0
SCALE
  5
170
102
{ACAD_REACTORS
330
169
102
}
330
169
100
AcDbScale
 70
     0
300
1:16
140
1.0
141
16.0
290
     0
  0
SCALE
  5
171
102
{ACAD_REACTORS
330
169
102
}
330
169
100
AcDbScale
 70
     0
300
1:20
140
1.0
141
20.0
290
     0
  0
SCALE
  5
172
102
{ACAD_REACTORS
330
169
102
}
330
169
100
AcDbScale
 70
     0
300
1:30
140
1.0
141
30.0
290
     0
  0
SCALE
  5
173
102
{ACAD_REACTORS
330
169
102
}
330
169
100
AcDbScale
 70
     0
300
1:40
140
1.0
141
40.0
290
     0
  0
SCALE
  5
174
102
{ACAD_REACTORS
330
169
102
}
330
169
100
AcDbScale
 70
     0
300
1:50
140
1.0
141
50.0
290
     0
  0
SCALE
  5
175
102
{ACAD_REACTORS
330
169
102
}
330
169
100
AcDbScale
 70
     0
300
1:100
140
1.0
141
100.0
290
     0
  0
SCALE
  5
176
102
{ACAD_REACTORS
330
169
102
}
330
169
100
AcDbScale
 70
     0
300
2:1
140
2.0
141
1.0
290
     0
  0
SCALE
  5
177
102
{ACAD_REACTORS
330
169
102
}
330
169
100
AcDbScale
 70
     0
300
4:1
140
4.0
141
1.0
290
     0
  0
SCALE
  5
178
102
{ACAD_REACTORS
330
169
102
}
330
169
100
AcDbScale
 70
     0
300
8:1
140
8.0
141
1.0
290
     0
  0
SCALE
  5
179
102
{ACAD_REACTORS
330
169
102
}
330
169
100
AcDbScale
 70
     0
300
10:1
140
10.0
141
1.0
290
     0
  0
SCALE
  5
17A
102
{ACAD_REACTORS
330
169
102
}
330
169
100
AcDbScale
 70
     0
300
100:1
140
100.0
141
1.0
290
     0
  0
TABLESTYLE
  5
168
102
{ACAD_XDICTIONARY
360
1CB
102
}
102
{ACAD_REACTORS
330
167
102
}
330
167
100
AcDbTableStyle
  3
Standard
 70
     0
 71
     0
 40
1.5
 41
1.5
280
     0
281
     0
  7
Standard
140
4.5
170
     2
 62
     0
 63
     7
283
     0
 90
      512
 91
        0
  1

274
    -2
284
     1
 64
     0
275
    -2
285
     1
 65
     0
276
    -2
286
     1
 66
     0
277
    -2
287
     1
 67
     0
278
    -2
288
     1
 68
     0
279
    -2
289
     1
 69
     0
  7
Standard
140
6.0
170
     5
 62
     0
 63
     7
283
     0
 90
      512
 91
        0
  1

274
    -2
284
     1
 64
     0
275
    -2
285
     1
 65
     0
276
    -2
286
     1
 66
     0
277
    -2
287
     1
 67
     0
278
    -2
288
     1
 68
     0
279
    -2
289
     1
 69
     0
  7
Standard
140
4.5
170
     5
 62
     0
 63
     7
283
     0
 90
      512
 91
        0
  1

274
    -2
284
     1
 64
     0
275
    -2
285
     1
 65
     0
276
    -2
286
     1
 66
     0
277
    -2
287
     1
 67
     0
278
    -2
288
     1
 68
     0
279
    -2
289
     1
 69
     0
  0
VISUALSTYLE
  5
15B
102
{ACAD_REACTORS
330
155
102
}
330
155
100
AcDbVisualStyle
  2
2dWireframe
 70
     4
 71
     0
 72
     2
 73
     0
 90
        0
 40
-0.6
 41
-30.0
 62
     5
 63
     7
421
 16777215
 74
     1
 91
        4
 64
     7
 65
   257
 75
     1
175
     1
 42
1.0
 92
        0
 66
   257
 43
1.0
 76
     1
 77
     6
 78
     2
 67
     7
 79
     5
170
     0
171
     0
290
     0
174
     0
 93
        1
 44
0.0
173
     0
291
     0
 45
0.0
  0
VISUALSTYLE
  5
15D
102
{ACAD_REACTORS
330
155
102
}
330
155
100
AcDbVisualStyle
  2
3D Hidden
 70
     6
 71
     1
 72
     2
 73
     2
 90
        0
 40
-0.6
 41
-30.0
 62
     5
 63
     7
421
 16777215
 74
     2
 91
        2
 64
     7
 65
   257
 75
     2
175
     1
 42
40.0
 92
        0
 66
   257
 43
1.0
 76
     1
 77
     6
 78
     2
 67
     7
 79
     3
170
     0
171
     0
290
     0
174
     0
 93
        1
 44
0.0
173
     0
291
     0
 45
0.0
  0
VISUALSTYLE
  5
15C
102
{ACAD_REACTORS
330
155
102
}
330
155
100
AcDbVisualStyle
  2
3dWireframe
 70
     5
 71
     0
 72
     2
 73
     0
 90
        0
 40
-0.6
 41
-30.0
 62
     5
 63
     7
421
 16777215
 74
     1
 91
        4
 64
     7
 65
   257
 75
     1
175
     1
 42
1.0
 92
        0
 66
   257
 43
1.0
 76
     1
 77
     6
 78
     2
 67
     7
 79
     5
170
     0
171
     0
290
     0
174
     0
 93
        1
 44
0.0
173
     0
291
     0
 45
0.0
  0
VISUALSTYLE
  5
15A
102
{ACAD_REACTORS
330
155
102
}
330
155
100
AcDbVisualStyle
  2
Basic
 70
     7
 71
     1
 72
     0
 73
     1
 90
        0
 40
-0.6
 41
-30.0
 62
     5
 63
     7
421
 16777215
 74
     0
 91
        4
 64
     7
 65
   257
 75
     1
175
     1
 42
1.0
 92
        8
 66
     7
 43
1.0
 76
     1
 77
     6
 78
     2
 67
     7
 79
     5
170
     0
171
     0
290
     0
174
     0
 93
        1
 44
0.0
173
     0
291
     1
 45
0.0
  0
VISUALSTYLE
  5
161
102
{ACAD_REACTORS
330
155
102
}
330
155
100
AcDbVisualStyle
  2
Brighten
 70
    12
 71
     2
 72
     2
 73
     0
 90
        0
 40
-0.6
 41
-30.0
 62
     5
 63
     7
421
 16777215
 74
     1
 91
        4
 64
     7
 65
   257
 75
     1
175
     1
 42
1.0
 92
        8
 66
     7
 43
1.0
 76
     1
 77
     6
 78
     2
 67
     7
 79
     5
170
     0
171
     0
290
     0
174
     0
 93
        1
 44
50.0
173
     0
291
     1
 45
0.0
  0
VISUALSTYLE
  5
165
102
{ACAD_REACTORS
330
155
102
}
330
155
100
AcDbVisualStyle
  2
ColorChange
 70
    16
 71
     2
 72
     2
 73
     3
 90
        0
 40
-0.6
 41
-30.0
 62
     5
 63
     8
421
  8421504
 74
     1
 91
        4
 64
     7
 65
   257
 75
     1
175
     1
 42
1.0
 92
        8
 66
     8
424
  8421504
 43
1.0
 76
     1
 77
     6
 78
     2
 67
     7
 79
     5
170
     0
171
     0
290
     0
174
     0
 93
        1
 44
0.0
173
     0
291
     1
 45
0.0
  0
VISUALSTYLE
  5
15E
102
{ACAD_REACTORS
330
155
102
}
330
155
100
AcDbVisualStyle
  2
Conceptual
 70
     9
 71
     3
 72
     2
 73
     0
 90
        0
 40
-0.6
 41
-30.0
 62
     5
 63
     7
421
 16777215
 74
     2
 91
        2
 64
     7
 65
   257
 75
     1
175
     1
 42
40.0
 92
        8
 66
     7
 43
1.0
 76
     1
 77
     6
 78
     2
 67
     7
 79
     3
170
     0
171
     0
290
     0
174
     0
 93
        1
 44
0.0
173
     0
291
     0
 45
0.0
  0
VISUALSTYLE
  5
160
102
{ACAD_REACTORS
330
155
102
}
330
155
100
AcDbVisualStyle
  2
Dim
 70
    11
 71
     2
 72
     2
 73
     0
 90
        0
 40
-0.6
 41
-30.0
 62
     5
 63
     7
421
 16777215
 74
     1
 91
        4
 64
     7
 65
   257
 75
     1
175
     1
 42
1.0
 92
        8
 66
     7
 43
1.0
 76
     1
 77
     6
 78
     2
 67
     7
 79
     5
170
     0
171
     0
290
     0
174
     0
 93
        1
 44
-50.0
173
     0
291
     1
 45
0.0
  0
VISUALSTYLE
  5
164
102
{ACAD_REACTORS
330
155
102
}
330
155
100
AcDbVisualStyle
  2
Facepattern
 70
    15
 71
     2
 72
     2
 73
     0
 90
        0
 40
-0.6
 41
-30.0
 62
     5
 63
     7
421
 16777215
 74
     1
 91
        4
 64
     7
 65
   257
 75
     1
175
     1
 42
1.0
 92
        8
 66
     7
 43
1.0
 76
     1
 77
     6
 78
     2
 67
     7
 79
     5
170
     0
171
     0
290
     0
174
     0
 93
        1
 44
0.0
173
     0
291
     1
 45
0.0
  0
VISUALSTYLE
  5
156
102
{ACAD_REACTORS
330
155
102
}
330
155
100
AcDbVisualStyle
  2
Flat
 70
     0
 71
     2
 72
     1
 73
     1
 90
        2
 40
-0.6
 41
30.0
 62
     5
 63
     7
421
 16777215
 74
     0
 91
        4
 64
     7
 65
   257
 75
     1
175
     1
 42
1.0
 92
        8
 66
     7
 43
1.0
 76
     1
 77
     6
 78
     2
 67
     7
 79
     5
170
     0
171
     0
290
     0
174
     0
 93
       13
 44
0.0
173
     0
291
     1
 45
0.0
  0
VISUALSTYLE
  5
157
102
{ACAD_REACTORS
330
155
102
}
330
155
100
AcDbVisualStyle
  2
FlatWithEdges
 70
     1
 71
     2
 72
     1
 73
     1
 90
        2
 40
-0.6
 41
30.0
 62
     5
 63
     7
421
 16777215
 74
     1
 91
        4
 64
     7
 65
   257
 75
     1
175
     1
 42
1.0
 92
        0
 66
   257
 43
1.0
 76
     1
 77
     6
 78
     2
 67
     7
 79
     5
170
     0
171
     0
290
     0
174
     0
 93
       13
 44
0.0
173
     0
291
     1
 45
0.0
  0
VISUALSTYLE
  5
158
102
{ACAD_REACTORS
330
155
102
}
330
155
100
AcDbVisualStyle
  2
Gouraud
 70
     2
 71
     2
 72
     2
 73
     1
 90
        2
 40
-0.6
 41
30.0
 62
     5
 63
     7
421
 16777215
 74
     0
 91
        4
 64
     7
 65
   257
 75
     1
175
     1
 42
1.0
 92
        0
 66
     7
 43
1.0
 76
     1
 77
     6
 78
     2
 67
     7
 79
     5
170
     0
171
     0
290
     0
174
     0
 93
       13
 44
0.0
173
     0
291
     1
 45
0.0
  0
VISUALSTYLE
  5
159
102
{ACAD_REACTORS
330
155
102
}
330
155
100
AcDbVisualStyle
  2
GouraudWithEdges
 70
     3
 71
     2
 72
     2
 73
     1
 90
        2
 40
-0.6
 41
30.0
 62
     5
 63
     7
421
 16777215
 74
     1
 91
        4
 64
     7
 65
   257
 75
     1
175
     1
 42
1.0
 92
        0
 66
   257
 43
1.0
 76
     1
 77
     6
 78
     2
 67
     7
 79
     5
170
     0
171
     0
290
     0
174
     0
 93
       13
 44
0.0
173
     0
291
     1
 45
0.0
  0
VISUALSTYLE
  5
163
102
{ACAD_REACTORS
330
155
102
}
330
155
100
AcDbVisualStyle
  2
Linepattern
 70
    14
 71
     2
 72
     2
 73
     0
 90
        0
 40
-0.6
 41
-30.0
 62
     5
 63
     7
421
 16777215
 74
     1
 91
        4
 64
     7
 65
   257
 75
     7
175
     7
 42
1.0
 92
        8
 66
     7
 43
1.0
 76
     1
 77
     6
 78
     2
 67
     7
 79
     5
170
     0
171
     0
290
     0
174
     0
 93
        1
 44
0.0
173
     0
291
     1
 45
0.0
  0
VISUALSTYLE
  5
15F
102
{ACAD_REACTORS
330
155
102
}
330
155
100
AcDbVisualStyle
  2
Realistic
 70
     8
 71
     2
 72
     2
 73
     0
 90
        0
 40
-0.6
 41
-30.0
 62
     5
 63
     7
421
 16777215
 74
     1
 91
        0
 64
     7
 65
   257
 75
     1
175
     1
 42
1.0
 92
        8
 66
     8
424
  7895160
 43
1.0
 76
     1
 77
     6
 78
     2
 67
     7
 79
     5
170
     0
171
     0
290
     0
174
     0
 93
       13
 44
0.0
173
     0
291
     0
 45
0.0
  0
VISUALSTYLE
  5
162
102
{ACAD_REACTORS
330
155
102
}
330
155
100
AcDbVisualStyle
  2
Thicken
 70
    13
 71
     2
 72
     2
 73
     0
 90
        0
 40
-0.6
 41
-30.0
 62
     5
 63
     7
421
 16777215
 74
     1
 91
        4
 64
     7
 65
   257
 75
     1
175
     1
 42
1.0
 92
       12
 66
     7
 43
1.0
 76
     1
 77
     6
 78
     2
 67
     7
 79
     5
170
     0
171
     0
290
     0
174
     0
 93
        1
 44
0.0
173
     0
291
     1
 45
0.0
  0
DICTIONARYVAR
  5
1D2
102
{ACAD_REACTORS
330
1CE
102
}
330
1CE
100
DictionaryVariables
280
     0
  1
1:1
  0
DICTIONARYVAR
  5
1D0
102
{ACAD_REACTORS
330
1CE
102
}
330
1CE
100
DictionaryVariables
280
     0
  1
STANDARD
  0
DICTIONARYVAR
  5
1CF
102
{ACAD_REACTORS
330
1CE
102
}
330
1CE
100
DictionaryVariables
280
     0
  1
STANDARD
  0
DICTIONARYVAR
  5
1D4
102
{ACAD_REACTORS
330
1CE
102
}
330
1CE
100
DictionaryVariables
280
     0
  1
1
  0
DICTIONARYVAR
  5
1D5
102
{ACAD_REACTORS
330
1CE
102
}
330
1CE
100
DictionaryVariables
280
     0
  1
15
  0
DICTIONARYVAR
  5
1D3
102
{ACAD_REACTORS
330
1CE
102
}
330
1CE
100
DictionaryVariables
280
     0
  1
0
  0
DICTIONARYVAR
  5
1D1
102
{ACAD_REACTORS
330
1CE
102
}
330
1CE
100
DictionaryVariables
280
     0
  1
0
  0
DICTIONARY
  5
146
330
145
100
AcDbDictionary
280
     1
281
     1
  3
BUMPTILE
360
148
  3
DIFFUSETILE
360
147
  3
OPACITYTILE
360
14B
  3
REFLECTIONTILE
360
14A
  3
REFRACTIONTILE
360
14C
  3
SPECULARTILE
360
149
  0
DICTIONARY
  5
13E
330
13D
100
AcDbDictionary
280
     1
281
     1
  3
BUMPTILE
360
140
  3
DIFFUSETILE
360
13F
  3
OPACITYTILE
360
143
  3
REFLECTIONTILE
360
142
  3
REFRACTIONTILE
360
144
  3
SPECULARTILE
360
141
  0
DICTIONARY
  5
14E
330
14D
100
AcDbDictionary
280
     1
281
     1
  3
BUMPTILE
360
150
  3
DIFFUSETILE
360
14F
  3
OPACITYTILE
360
153
  3
REFLECTIONTILE
360
152
  3
REFRACTIONTILE
360
154
  3
SPECULARTILE
360
151
  0
DICTIONARY
  5
1CB
330
168
100
AcDbDictionary
280
     1
281
     1
  3
ACAD_ROUNDTRIP_2008_TABLESTYLE_CELLSTYLEMAP
360
1DC
  0
XRECORD
  5
148
102
{ACAD_REACTORS
330
146
102
}
330
146
100
AcDbXrecord
280
     1
270
     1
271
     1
  0
XRECORD
  5
147
102
{ACAD_REACTORS
330
146
102
}
330
146
100
AcDbXrecord
280
     1
270
     1
271
     1
  0
XRECORD
  5
14B
102
{ACAD_REACTORS
330
146
102
}
330
146
100
AcDbXrecord
280
     1
270
     1
271
     1
  0
XRECORD
  5
14A
102
{ACAD_REACTORS
330
146
102
}
330
146
100
AcDbXrecord
280
     1
270
     1
271
     1
  0
XRECORD
  5
14C
102
{ACAD_REACTORS
330
146
102
}
330
146
100
AcDbXrecord
280
     1
270
     1
271
     1
  0
XRECORD
  5
149
102
{ACAD_REACTORS
330
146
102
}
330
146
100
AcDbXrecord
280
     1
270
     1
271
     1
  0
XRECORD
  5
140
102
{ACAD_REACTORS
330
13E
102
}
330
13E
100
AcDbXrecord
280
     1
270
     1
271
     1
  0
XRECORD
  5
13F
102
{ACAD_REACTORS
330
13E
102
}
330
13E
100
AcDbXrecord
280
     1
270
     1
271
     1
  0
XRECORD
  5
143
102
{ACAD_REACTORS
330
13E
102
}
330
13E
100
AcDbXrecord
280
     1
270
     1
271
     1
  0
XRECORD
  5
142
102
{ACAD_REACTORS
330
13E
102
}
330
13E
100
AcDbXrecord
280
     1
270
     1
271
     1
  0
XRECORD
  5
144
102
{ACAD_REACTORS
330
13E
102
}
330
13E
100
AcDbXrecord
280
     1
270
     1
271
     1
  0
XRECORD
  5
141
102
{ACAD_REACTORS
330
13E
102
}
330
13E
100
AcDbXrecord
280
     1
270
     1
271
     1
  0
XRECORD
  5
150
102
{ACAD_REACTORS
330
14E
102
}
330
14E
100
AcDbXrecord
280
     1
270
     1
271
     1
  0
XRECORD
  5
14F
102
{ACAD_REACTORS
330
14E
102
}
330
14E
100
AcDbXrecord
280
     1
270
     1
271
     1
  0
XRECORD
  5
153
102
{ACAD_REACTORS
330
14E
102
}
330
14E
100
AcDbXrecord
280
     1
270
     1
271
     1
  0
XRECORD
  5
152
102
{ACAD_REACTORS
330
14E
102
}
330
14E
100
AcDbXrecord
280
     1
270
     1
271
     1
  0
XRECORD
  5
154
102
{ACAD_REACTORS
330
14E
102
}
330
14E
100
AcDbXrecord
280
     1
270
     1
271
     1
  0
XRECORD
  5
151
102
{ACAD_REACTORS
330
14E
102
}
330
14E
100
AcDbXrecord
280
     1
270
     1
271
     1
  0
CELLSTYLEMAP
  5
1DC
102
{ACAD_REACTORS
330
1CB
102
}
330
1CB
100
AcDbCellStyleMap
 90
        3
300
CELLSTYLE
  1
TABLEFORMAT_BEGIN
 90
        5
170
     1
 91
        0
 92
    32768
 62
   257
 93
        1
300
CONTENTFORMAT
  1
CONTENTFORMAT_BEGIN
 90
        0
 91
        0
 92
      512
 93
        0
300

 40
0.0
140
1.0
 94
        5
 62
     0
340
17
144
6.0
309
CONTENTFORMAT_END
171
     1
301
MARGIN
  1
CELLMARGIN_BEGIN
 40
1.5
 40
1.5
 40
1.5
 40
1.5
 40
4.5
 40
4.5
309
CELLMARGIN_END
 94
        6
 95
        1
302
GRIDFORMAT
  1
GRIDFORMAT_BEGIN
 90
        0
 91
        1
 62
     0
 92
       -2
340
0
 93
        0
 40
1.125
309
GRIDFORMAT_END
 95
        2
302
GRIDFORMAT
  1
GRIDFORMAT_BEGIN
 90
        0
 91
        1
 62
     0
 92
       -2
340
0
 93
        0
 40
1.125
309
GRIDFORMAT_END
 95
        4
302
GRIDFORMAT
  1
GRIDFORMAT_BEGIN
 90
        0
 91
        1
 62
     0
 92
       -2
340
0
 93
        0
 40
1.125
309
GRIDFORMAT_END
 95
        8
302
GRIDFORMAT
  1
GRIDFORMAT_BEGIN
 90
        0
 91
        1
 62
     0
 92
       -2
340
0
 93
        0
 40
1.125
309
GRIDFORMAT_END
 95
       16
302
GRIDFORMAT
  1
GRIDFORMAT_BEGIN
 90
        0
 91
        1
 62
     0
 92
       -2
340
0
 93
        0
 40
1.125
309
GRIDFORMAT_END
 95
       32
302
GRIDFORMAT
  1
GRIDFORMAT_BEGIN
 90
        0
 91
        1
 62
     0
 92
       -2
340
0
 93
        0
 40
1.125
309
GRIDFORMAT_END
309
TABLEFORMAT_END
  1
CELLSTYLE_BEGIN
 90
        1
 91
        1
300
_TITLE
309
CELLSTYLE_END
300
CELLSTYLE
  1
TABLEFORMAT_BEGIN
 90
        5
170
     1
 91
        0
 92
        0
 62
   257
 93
        1
300
CONTENTFORMAT
  1
CONTENTFORMAT_BEGIN
 90
        0
 91
        0
 92
      512
 93
        0
300

 40
0.0
140
1.0
 94
        5
 62
     0
340
17
144
4.5
309
CONTENTFORMAT_END
171
     1
301
MARGIN
  1
CELLMARGIN_BEGIN
 40
1.5
 40
1.5
 40
1.5
 40
1.5
 40
4.5
 40
4.5
309
CELLMARGIN_END
 94
        6
 95
        1
302
GRIDFORMAT
  1
GRIDFORMAT_BEGIN
 90
        0
 91
        1
 62
     0
 92
       -2
340
0
 93
        0
 40
1.125
309
GRIDFORMAT_END
 95
        2
302
GRIDFORMAT
  1
GRIDFORMAT_BEGIN
 90
        0
 91
        1
 62
     0
 92
       -2
340
0
 93
        0
 40
1.125
309
GRIDFORMAT_END
 95
        4
302
GRIDFORMAT
  1
GRIDFORMAT_BEGIN
 90
        0
 91
        1
 62
     0
 92
       -2
340
0
 93
        0
 40
1.125
309
GRIDFORMAT_END
 95
        8
302
GRIDFORMAT
  1
GRIDFORMAT_BEGIN
 90
        0
 91
        1
 62
     0
 92
       -2
340
0
 93
        0
 40
1.125
309
GRIDFORMAT_END
 95
       16
302
GRIDFORMAT
  1
GRIDFORMAT_BEGIN
 90
        0
 91
        1
 62
     0
 92
       -2
340
0
 93
        0
 40
1.125
309
GRIDFORMAT_END
 95
       32
302
GRIDFORMAT
  1
GRIDFORMAT_BEGIN
 90
        0
 91
        1
 62
     0
 92
       -2
340
0
 93
        0
 40
1.125
309
GRIDFORMAT_END
309
TABLEFORMAT_END
  1
CELLSTYLE_BEGIN
 90
        2
 91
        1
300
_HEADER
309
CELLSTYLE_END
300
CELLSTYLE
  1
TABLEFORMAT_BEGIN
 90
        5
170
     1
 91
        0
 92
        0
 62
   257
 93
        1
300
CONTENTFORMAT
  1
CONTENTFORMAT_BEGIN
 90
        0
 91
        0
 92
      512
 93
        0
300

 40
0.0
140
1.0
 94
        2
 62
     0
340
17
144
4.5
309
CONTENTFORMAT_END
171
     1
301
MARGIN
  1
CELLMARGIN_BEGIN
 40
1.5
 40
1.5
 40
1.5
 40
1.5
 40
4.5
 40
4.5
309
CELLMARGIN_END
 94
        6
 95
        1
302
GRIDFORMAT
  1
GRIDFORMAT_BEGIN
 90
        0
 91
        1
 62
     0
 92
       -2
340
0
 93
        0
 40
1.125
309
GRIDFORMAT_END
 95
        2
302
GRIDFORMAT
  1
GRIDFORMAT_BEGIN
 90
        0
 91
        1
 62
     0
 92
       -2
340
0
 93
        0
 40
1.125
309
GRIDFORMAT_END
 95
        4
302
GRIDFORMAT
  1
GRIDFORMAT_BEGIN
 90
        0
 91
        1
 62
     0
 92
       -2
340
0
 93
        0
 40
1.125
309
GRIDFORMAT_END
 95
        8
302
GRIDFORMAT
  1
GRIDFORMAT_BEGIN
 90
        0
 91
        1
 62
     0
 92
       -2
340
0
 93
        0
 40
1.125
309
GRIDFORMAT_END
 95
       16
302
GRIDFORMAT
  1
GRIDFORMAT_BEGIN
 90
        0
 91
        1
 62
     0
 92
       -2
340
0
 93
        0
 40
1.125
309
GRIDFORMAT_END
 95
       32
302
GRIDFORMAT
  1
GRIDFORMAT_BEGIN
 90
        0
 91
        1
 62
     0
 92
       -2
340
0
 93
        0
 40
1.125
309
GRIDFORMAT_END
309
TABLEFORMAT_END
  1
CELLSTYLE_BEGIN
 90
        3
 91
        2
300
_DATA
309
CELLSTYLE_END
  0
ENDSEC
  0
EOF
