  0
SECTION
  2
HEADER
  9
$ACADVER
  1
AC1014
  9
$ACADMAINTVER
 70
     9
  9
$DWGCODEPAGE
  3
ANSI_1252
  9
$INSBASE
 10
0.0
 20
0.0
 30
0.0
  9
$EXTMIN
 10
-11.31389250785382
 20
-29.14675742217472
 30
0.0
  9
$EXTMAX
 10
44.39999999999999
 20
41.63489628155534
 30
0.0
  9
$LIMMIN
 10
0.0
 20
0.0
  9
$LIMMAX
 10
420.0
 20
297.0
  9
$ORTHOMODE
 70
     1
  9
$REGENMODE
 70
     1
  9
$FILLMODE
 70
     1
  9
$QTEXTMODE
 70
     0
  9
$MIRRTEXT
 70
     1
  9
$DRAGMODE
 70
     2
  9
$LTSCALE
 40
1.0
  9
$OSMODE
 70
    35
  9
$ATTMODE
 70
     1
  9
$TEXTSIZE
 40
2.5
  9
$TRACEWID
 40
1.0
  9
$TEXTSTYLE
  7
STANDARD
  9
$CLAYER
  8
0
  9
$CELTYPE
  6
BYLAYER
  9
$CECOLOR
 62
   256
  9
$CELTSCALE
 40
1.0
  9
$DELOBJ
 70
     1
  9
$DISPSILH
 70
     0
  9
$DIMSCALE
 40
1.0
  9
$DIMASZ
 40
2.5
  9
$DIMEXO
 40
0.625
  9
$DIMDLI
 40
3.75
  9
$DIMRND
 40
0.0
  9
$DIMDLE
 40
0.0
  9
$DIMEXE
 40
1.25
  9
$DIMTP
 40
0.0
  9
$DIMTM
 40
0.0
  9
$DIMTXT
 40
2.5
  9
$DIMCEN
 40
2.5
  9
$DIMTSZ
 40
0.0
  9
$DIMTOL
 70
     0
  9
$DIMLIM
 70
     0
  9
$DIMTIH
 70
     0
  9
$DIMTOH
 70
     0
  9
$DIMSE1
 70
     0
  9
$DIMSE2
 70
     0
  9
$DIMTAD
 70
     1
  9
$DIMZIN
 70
     8
  9
$DIMBLK
  1

  9
$DIMASO
 70
     1
  9
$DIMSHO
 70
     1
  9
$DIMPOST
  1

  9
$DIMAPOST
  1

  9
$DIMALT
 70
     0
  9
$DIMALTD
 70
     3
  9
$DIMALTF
 40
0.03937007874016
  9
$DIMLFAC
 40
1.0
  9
$DIMTOFL
 70
     1
  9
$DIMTVP
 40
0.0
  9
$DIMTIX
 70
     0
  9
$DIMSOXD
 70
     0
  9
$DIMSAH
 70
     0
  9
$DIMBLK1
  1

  9
$DIMBLK2
  1

  9
$DIMSTYLE
  2
ISO-25
  9
$DIMCLRD
 70
     0
  9
$DIMCLRE
 70
     0
  9
$DIMCLRT
 70
     0
  9
$DIMTFAC
 40
1.0
  9
$DIMGAP
 40
0.625
  9
$DIMJUST
 70
     0
  9
$DIMSD1
 70
     0
  9
$DIMSD2
 70
     0
  9
$DIMTOLJ
 70
     0
  9
$DIMTZIN
 70
     8
  9
$DIMALTZ
 70
     0
  9
$DIMALTTZ
 70
     0
  9
$DIMFIT
 70
     3
  9
$DIMUPT
 70
     0
  9
$DIMUNIT
 70
     2
  9
$DIMDEC
 70
     2
  9
$DIMTDEC
 70
     2
  9
$DIMALTU
 70
     2
  9
$DIMALTTD
 70
     3
  9
$DIMTXSTY
  7
STANDARD
  9
$DIMAUNIT
 70
     0
  9
$LUNITS
 70
     2
  9
$LUPREC
 70
     8
  9
$SKETCHINC
 40
1.0
  9
$FILLETRAD
 40
10.0
  9
$AUNITS
 70
     0
  9
$AUPREC
 70
     0
  9
$MENU
  1
.
  9
$ELEVATION
 40
0.0
  9
$PELEVATION
 40
0.0
  9
$THICKNESS
 40
0.0
  9
$LIMCHECK
 70
     0
  9
$BLIPMODE
 70
     0
  9
$CHAMFERA
 40
10.0
  9
$CHAMFERB
 40
10.0
  9
$CHAMFERC
 40
20.0
  9
$CHAMFERD
 40
0.0
  9
$SKPOLY
 70
     0
  9
$TDCREATE
 40
2452699.537509641
  9
$TDUPDATE
 40
2452733.655161724
  9
$TDINDWG
 40
0.0160662500
  9
$TDUSRTIMER
 40
0.0160661343
  9
$USRTIMER
 70
     1
  9
$ANGBASE
 50
0.0
  9
$ANGDIR
 70
     0
  9
$PDMODE
 70
     0
  9
$PDSIZE
 40
0.0
  9
$PLINEWID
 40
0.0
  9
$COORDS
 70
     0
  9
$SPLFRAME
 70
     0
  9
$SPLINETYPE
 70
     6
  9
$SPLINESEGS
 70
     8
  9
$ATTDIA
 70
     1
  9
$ATTREQ
 70
     1
  9
$HANDLING
 70
 22529
  9
$HANDSEED
  5
220
  9
$SURFTAB1
 70
     6
  9
$SURFTAB2
 70
     6
  9
$SURFTYPE
 70
     6
  9
$SURFU
 70
     6
  9
$SURFV
 70
     6
  9
$UCSNAME
  2

  9
$UCSORG
 10
0.0
 20
0.0
 30
0.0
  9
$UCSXDIR
 10
1.0
 20
0.0
 30
0.0
  9
$UCSYDIR
 10
0.0
 20
1.0
 30
0.0
  9
$PUCSNAME
  2

  9
$PUCSORG
 10
0.0
 20
0.0
 30
0.0
  9
$PUCSXDIR
 10
1.0
 20
0.0
 30
0.0
  9
$PUCSYDIR
 10
0.0
 20
1.0
 30
0.0
  9
$USERI1
 70
     0
  9
$USERI2
 70
     0
  9
$USERI3
 70
     0
  9
$USERI4
 70
     0
  9
$USERI5
 70
     0
  9
$USERR1
 40
0.0
  9
$USERR2
 40
0.0
  9
$USERR3
 40
0.0
  9
$USERR4
 40
0.0
  9
$USERR5
 40
0.0
  9
$WORLDVIEW
 70
     1
  9
$SHADEDGE
 70
     3
  9
$SHADEDIF
 70
    70
  9
$TILEMODE
 70
     1
  9
$MAXACTVP
 70
    48
  9
$PINSBASE
 10
0.0
 20
0.0
 30
0.0
  9
$PLIMCHECK
 70
     0
  9
$PEXTMIN
 10
1.000000000000000E+20
 20
1.000000000000000E+20
 30
1.000000000000000E+20
  9
$PEXTMAX
 10
-1.000000000000000E+20
 20
-1.000000000000000E+20
 30
-1.000000000000000E+20
  9
$PLIMMIN
 10
0.0
 20
0.0
  9
$PLIMMAX
 10
420.0
 20
297.0
  9
$UNITMODE
 70
     0
  9
$VISRETAIN
 70
     1
  9
$PLINEGEN
 70
     0
  9
$PSLTSCALE
 70
     1
  9
$TREEDEPTH
 70
  3020
  9
$PICKSTYLE
 70
     1
  9
$CMLSTYLE
  2
STANDARD
  9
$CMLJUST
 70
     0
  9
$CMLSCALE
 40
20.0
  9
$PROXYGRAPHICS
 70
     1
  9
$MEASUREMENT
 70
     1
  0
ENDSEC
  0
SECTION
  2
CLASSES
  0
CLASS
  1
ACDBDICTIONARYWDFLT
  2
AcDbDictionaryWithDefault
  3
AutoCAD 2000
 90
        0
280
     0
281
     0
  0
CLASS
  1
ACDBPLACEHOLDER
  2
AcDbPlaceHolder
  3
AutoCAD 2000
 90
        0
280
     0
281
     0
  0
CLASS
  1
LAYOUT
  2
AcDbLayout
  3
AutoCAD 2000
 90
        0
280
     0
281
     0
  0
CLASS
  1
DIMASSOC
  2
AcDbDimAssoc
  3
"AcDbDimAssoc|Product Desc:     AcDim ARX App For Dimension|Company:          Autodesk, Inc.|WEB Address:      www.autodesk.com"
 90
        0
280
     0
281
     0
  0
CLASS
  1
DICTIONARYVAR
  2
AcDbDictionaryVar
  3
AutoCAD 2000
 90
        0
280
     0
281
     0
  0
CLASS
  1
LONG_TRANSACTION
  2
AcDbLongTransaction
  3
AutoCAD 2000
 90
        0
280
     0
281
     0
  0
CLASS
  1
LWPOLYLINE
  2
AcDbPolyline
  3
AutoCAD 2000
 90
        0
280
     0
281
     1
  0
CLASS
  1
HATCH
  2
AcDbHatch
  3
AutoCAD 2000
 90
        0
280
     0
281
     1
  0
CLASS
  1
XRECORD
  2
AcDbXrecord
  3
AutoCAD 2000
 90
        0
280
     0
281
     0
  0
CLASS
  1
LONG_TRANSACTION
  2
AcDbLongTransaction
  3
AutoCAD 2000
 90
        0
280
     0
281
     0
  0
CLASS
  1
LWPOLYLINE
  2
AcDbPolyline
  3
AutoCAD 2000
 90
        0
280
     0
281
     1
  0
CLASS
  1
HATCH
  2
AcDbHatch
  3
AutoCAD 2000
 90
        0
280
     0
281
     1
  0
CLASS
  1
XRECORD
  2
AcDbXrecord
  3
AutoCAD 2000
 90
        0
280
     0
281
     0
  0
CLASS
  1
LONG_TRANSACTION
  2
AcDbLongTransaction
  3
AutoCAD 2000
 90
        0
280
     0
281
     0
  0
CLASS
  1
LWPOLYLINE
  2
AcDbPolyline
  3
AutoCAD 2000
 90
        0
280
     0
281
     1
  0
CLASS
  1
HATCH
  2
AcDbHatch
  3
AutoCAD 2000
 90
        0
280
     0
281
     1
  0
CLASS
  1
XRECORD
  2
AcDbXrecord
  3
AutoCAD 2000
 90
        0
280
     0
281
     0
  0
ENDSEC
  0
SECTION
  2
TABLES
  0
TABLE
  2
VPORT
  5
8
330
0
100
AcDbSymbolTable
 70
     2
  0
VPORT
  5
1FB
330
8
100
AcDbSymbolTableRecord
100
AcDbViewportTableRecord
  2
*ACTIVE
 70
     0
 10
0.0
 20
0.0
 11
1.0
 21
1.0
 12
42.47531548605254
 22
19.22522587593259
 13
0.0
 23
0.0
 14
10.0
 24
10.0
 15
10.0
 25
10.0
 16
0.0
 26
0.0
 36
1.0
 17
0.0
 27
0.0
 37
0.0
 40
97.65232966095753
 41
1.797270955165692
 42
50.0
 43
0.0
 44
0.0
 50
0.0
 51
0.0
 71
     0
 72
   100
 73
     1
 74
     3
 75
     0
 76
     0
 77
     0
 78
     0
  0
ENDTAB
  0
TABLE
  2
LTYPE
  5
5
330
0
100
AcDbSymbolTable
 70
     1
  0
LTYPE
  5
14
330
5
100
AcDbSymbolTableRecord
100
AcDbLinetypeTableRecord
  2
BYBLOCK
 70
     0
  3

 72
    65
 73
     0
 40
0.0
  0
LTYPE
  5
15
330
5
100
AcDbSymbolTableRecord
100
AcDbLinetypeTableRecord
  2
BYLAYER
 70
     0
  3

 72
    65
 73
     0
 40
0.0
  0
LTYPE
  5
16
330
5
100
AcDbSymbolTableRecord
100
AcDbLinetypeTableRecord
  2
CONTINUOUS
 70
     0
  3
Solid line
 72
    65
 73
     0
 40
0.0
  0
ENDTAB
  0
TABLE
  2
LAYER
  5
2
330
0
100
AcDbSymbolTable
 70
     3
  0
LAYER
  5
10
330
2
100
AcDbSymbolTableRecord
100
AcDbLayerTableRecord
  2
0
 70
     0
 62
     7
  6
CONTINUOUS
  0
LAYER
  5
3B
330
2
100
AcDbSymbolTableRecord
100
AcDbLayerTableRecord
  2
DEFPOINTS
 70
     0
 62
     7
  6
CONTINUOUS
1001
ACAECLAYERSTANDARD
1000

  0
LAYER
  5
3C
330
2
100
AcDbSymbolTableRecord
100
AcDbLayerTableRecord
  2
COTATION-JACOBDELAFON
 70
     0
 62
     8
  6
CONTINUOUS
  0
ENDTAB
  0
TABLE
  2
STYLE
  5
3
330
0
100
AcDbSymbolTable
 70
     2
  0
STYLE
  5
11
330
3
100
AcDbSymbolTableRecord
100
AcDbTextStyleTableRecord
  2
STANDARD
 70
     0
 40
0.0
 41
1.0
 50
0.0
 71
     0
 42
2.5
  3
txt
  4

  0
STYLE
  5
3D
330
3
100
AcDbSymbolTableRecord
100
AcDbTextStyleTableRecord
  2
JACOB-DELAFON
 70
     0
 40
0.0
 41
1.0
 50
0.0
 71
     0
 42
2.5
  3
ARIAL.TTF
  4

1001
ACAD
1000
Arial
1071
       34
  0
ENDTAB
  0
TABLE
  2
VIEW
  5
6
330
0
100
AcDbSymbolTable
 70
     0
  0
ENDTAB
  0
TABLE
  2
UCS
  5
7
330
0
100
AcDbSymbolTable
 70
     0
  0
ENDTAB
  0
TABLE
  2
APPID
  5
9
330
0
100
AcDbSymbolTable
 70
     2
  0
APPID
  5
12
330
9
100
AcDbSymbolTableRecord
100
AcDbRegAppTableRecord
  2
ACAD
 70
     0
  0
APPID
  5
3F
330
9
100
AcDbSymbolTableRecord
100
AcDbRegAppTableRecord
  2
ACAECLAYERSTANDARD
 70
     0
  0
ENDTAB
  0
TABLE
  2
DIMSTYLE
  5
A
330
0
100
AcDbSymbolTable
 70
     2
  0
DIMSTYLE
105
27
330
A
100
AcDbSymbolTableRecord
100
AcDbDimStyleTableRecord
  2
ISO-25
 70
     0
  3

  4

  5

  6

  7

 40
1.0
 41
2.5
 42
0.625
 43
3.75
 44
1.25
 45
0.0
 46
0.0
 47
0.0
 48
0.0
140
2.5
141
2.5
142
0.0
143
0.03937007874016
144
1.0
145
0.0
146
1.0
147
0.625
 71
     0
 72
     0
 73
     0
 74
     0
 75
     0
 76
     0
 77
     1
 78
     8
170
     0
171
     3
172
     1
173
     0
174
     0
175
     0
176
     0
177
     0
178
     0
270
     2
271
     2
272
     2
273
     2
274
     3
340
11
275
     0
280
     0
281
     0
282
     0
283
     0
284
     8
285
     0
286
     0
287
     3
288
     0
  0
DIMSTYLE
105
3E
102
{ACAD_REACTORS
330
4C
330
6C
102
}
330
A
100
AcDbSymbolTableRecord
100
AcDbDimStyleTableRecord
  2
COTATION-JACOB-DELAFON
 70
     0
  3

  4

  5
OBLIQUE
  6

  7

 40
1.0
 41
1.8
 42
0.625
 43
3.799999999999999
 44
1.8
 45
0.0
 46
0.0
 47
0.0
 48
0.0
140
3.0
141
0.9
142
0.0
143
25.4
144
1.0
145
0.0
146
1.0
147
0.9
 71
     0
 72
     0
 73
     0
 74
     0
 75
     0
 76
     0
 77
     1
 78
    12
170
     0
171
     2
172
     0
173
     0
174
     0
175
     0
176
     0
177
     0
178
     0
270
     2
271
     2
272
     2
273
     2
274
     2
340
3D
275
     0
280
     0
281
     0
282
     0
283
     1
284
     0
285
     0
286
     0
287
     5
288
     0
  0
ENDTAB
  0
TABLE
  2
BLOCK_RECORD
  5
1
330
0
100
AcDbSymbolTable
 70
     4
  0
BLOCK_RECORD
  5
1F
102
{ACAD_XDICTIONARY
360
165
102
}
330
1
100
AcDbSymbolTableRecord
100
AcDbBlockTableRecord
  2
*MODEL_SPACE
  0
BLOCK_RECORD
  5
1B
102
{ACAD_XDICTIONARY
360
167
102
}
330
1
100
AcDbSymbolTableRecord
100
AcDbBlockTableRecord
  2
*PAPER_SPACE
  0
BLOCK_RECORD
  5
2B
330
1
100
AcDbSymbolTableRecord
100
AcDbBlockTableRecord
  2
_OBLIQUE
  0
BLOCK_RECORD
  5
4E
330
1
100
AcDbSymbolTableRecord
100
AcDbBlockTableRecord
  2
*D2
  0
BLOCK_RECORD
  5
6D
330
1
100
AcDbSymbolTableRecord
100
AcDbBlockTableRecord
  2
*D3
  0
ENDTAB
  0
ENDSEC
  0
SECTION
  2
BLOCKS
  0
BLOCK
  5
20
330
1F
100
AcDbEntity
  8
0
100
AcDbBlockBegin
  2
*MODEL_SPACE
 70
     0
 10
0.0
 20
0.0
 30
0.0
  3
*MODEL_SPACE
  1

  0
ENDBLK
  5
21
330
1F
100
AcDbEntity
  8
0
100
AcDbBlockEnd
  0
BLOCK
  5
1C
330
1B
100
AcDbEntity
 67
     1
  8
0
100
AcDbBlockBegin
  2
*PAPER_SPACE
 70
     0
 10
0.0
 20
0.0
 30
0.0
  3
*PAPER_SPACE
  1

  0
ENDBLK
  5
1D
330
1B
100
AcDbEntity
 67
     1
  8
0
100
AcDbBlockEnd
  0
BLOCK
  5
2D
330
2B
100
AcDbEntity
  8
0
100
AcDbBlockBegin
  2
_OBLIQUE
 70
     0
 10
0.0
 20
0.0
 30
0.0
  3
_OBLIQUE
  1

  0
LINE
  5
2C
330
2B
100
AcDbEntity
  8
0
  6
BYBLOCK
 62
     0
100
AcDbLine
 10
-0.5
 20
-0.5
 30
0.0
 11
0.5
 21
0.5
 31
0.0
  0
ENDBLK
  5
2E
330
2B
100
AcDbEntity
  8
0
100
AcDbBlockEnd
  0
BLOCK
  5
58
330
4E
100
AcDbEntity
  8
0
100
AcDbBlockBegin
  2
*D2
 70
     1
 10
0.0
 20
0.0
 30
0.0
  3
*D2
  1

  0
LINE
  5
E3
330
4E
100
AcDbEntity
  8
COTATION-JACOBDELAFON
 62
     0
100
AcDbLine
 10
21.1249997588091
 20
-28.24675742217473
 30
0.0
 11
-8.362596464197622
 21
-28.24675742217472
 31
0.0
  0
LINE
  5
E4
330
4E
100
AcDbEntity
  8
COTATION-JACOBDELAFON
 62
     0
100
AcDbLine
 10
21.1249997588091
 20
28.25324257782527
 30
0.0
 11
-8.362596464197608
 21
28.25324257782529
 31
0.0
  0
LINE
  5
E5
330
4E
100
AcDbEntity
  8
COTATION-JACOBDELAFON
 62
     0
100
AcDbLine
 10
-6.562596464197621
 20
-28.24675742217472
 30
0.0
 11
-6.562596464197609
 21
28.25324257782528
 31
0.0
  0
INSERT
  5
E6
330
4E
100
AcDbEntity
  8
COTATION-JACOBDELAFON
 62
     0
100
AcDbBlockReference
  2
_OBLIQUE
 10
-6.562596464197621
 20
-28.24675742217472
 30
0.0
 41
1.8
 42
1.8
 43
1.8
 50
270.0
  0
INSERT
  5
E7
330
4E
100
AcDbEntity
  8
COTATION-JACOBDELAFON
 62
     0
100
AcDbBlockReference
  2
_OBLIQUE
 10
-6.562596464197609
 20
28.25324257782528
 30
0.0
 41
1.8
 42
1.8
 43
1.8
 50
90.0
  0
MTEXT
  5
E8
330
4E
100
AcDbEntity
  8
COTATION-JACOBDELAFON
 62
     0
100
AcDbMText
 10
-8.994315427362691
 20
0.0032425778252783
 30
0.0
 40
3.0
 41
0.0
 71
     5
 72
     1
  1
\A1;56.5
  7
JACOB-DELAFON
 11
0.0000000000000001
 21
1.0
 31
0.0
1001
ACAD
1000
MTEXTBEGIN
1070
    73
1070
     1
1070
    44
1040
1.0
1070
    74
1070
     0
1000
MTEXTEND
  0
POINT
  5
E9
330
4E
100
AcDbEntity
  8
DEFPOINTS
 62
     0
100
AcDbPoint
 10
21.7499997588091
 20
-28.24675742217473
 30
0.0
  0
POINT
  5
EA
330
4E
100
AcDbEntity
  8
DEFPOINTS
 62
     0
100
AcDbPoint
 10
21.7499997588091
 20
28.25324257782527
 30
0.0
  0
POINT
  5
EB
330
4E
100
AcDbEntity
  8
DEFPOINTS
 62
     0
100
AcDbPoint
 10
-6.562596464197609
 20
28.25324257782528
 30
0.0
  0
ENDBLK
  5
59
330
4E
100
AcDbEntity
  8
0
100
AcDbBlockEnd
  0
BLOCK
  5
77
330
6D
100
AcDbEntity
  8
0
100
AcDbBlockBegin
  2
*D3
 70
     1
 10
0.0
 20
0.0
 30
0.0
  3
*D3
  1

  0
LINE
  5
155
330
6D
100
AcDbEntity
  8
COTATION-JACOBDELAFON
 62
     0
100
AcDbLine
 10
0.0
 20
0.625
 30
0.0
 11
0.0000000000000024
 21
38.68155385317881
 31
0.0
  0
LINE
  5
156
330
6D
100
AcDbEntity
  8
COTATION-JACOBDELAFON
 62
     0
100
AcDbLine
 10
43.49999999999999
 20
0.6249999999999974
 30
0.0
 11
43.49999999999999
 21
38.68155385317881
 31
0.0
  0
LINE
  5
157
330
6D
100
AcDbEntity
  8
COTATION-JACOBDELAFON
 62
     0
100
AcDbLine
 10
0.0000000000000023
 20
36.88155385317881
 30
0.0
 11
43.49999999999999
 21
36.88155385317881
 31
0.0
  0
INSERT
  5
158
330
6D
100
AcDbEntity
  8
COTATION-JACOBDELAFON
 62
     0
100
AcDbBlockReference
  2
_OBLIQUE
 10
0.0000000000000023
 20
36.88155385317881
 30
0.0
 41
1.8
 42
1.8
 43
1.8
 50
180.0
  0
INSERT
  5
159
330
6D
100
AcDbEntity
  8
COTATION-JACOBDELAFON
 62
     0
100
AcDbBlockReference
  2
_OBLIQUE
 10
43.49999999999999
 20
36.88155385317881
 30
0.0
 41
1.8
 42
1.8
 43
1.8
  0
MTEXT
  5
15A
330
6D
100
AcDbEntity
  8
COTATION-JACOBDELAFON
 62
     0
100
AcDbMText
 10
21.74999999999999
 20
39.31429600870405
 30
0.0
 40
3.0
 41
0.0
 71
     5
 72
     1
  1
\A1;43.5
  7
JACOB-DELAFON
1001
ACAD
1000
MTEXTBEGIN
1070
    73
1070
     1
1070
    44
1040
1.0
1070
    74
1070
     0
1000
MTEXTEND
  0
POINT
  5
15B
330
6D
100
AcDbEntity
  8
DEFPOINTS
 62
     0
100
AcDbPoint
 10
0.0
 20
0.0
 30
0.0
  0
POINT
  5
15C
330
6D
100
AcDbEntity
  8
DEFPOINTS
 62
     0
100
AcDbPoint
 10
43.49999999999999
 20
-0.0000000000000026
 30
0.0
  0
POINT
  5
15D
330
6D
100
AcDbEntity
  8
DEFPOINTS
 62
     0
100
AcDbPoint
 10
43.49999999999999
 20
36.88155385317881
 30
0.0
  0
ENDBLK
  5
78
330
6D
100
AcDbEntity
  8
0
100
AcDbBlockEnd
  0
ENDSEC
  0
SECTION
  2
ENTITIES
  0
DIMENSION
  5
4C
330
1F
100
AcDbEntity
  8
COTATION-JACOBDELAFON
100
AcDbDimension
  2
*D2
 10
-6.562596464197609
 20
28.25324257782528
 30
0.0
 11
-8.994315427362691
 21
0.0032425778252783
 31
0.0
 70
    32
  3
COTATION-JACOB-DELAFON
100
AcDbAlignedDimension
 13
21.7499997588091
 23
-28.24675742217473
 33
0.0
 14
21.7499997588091
 24
28.25324257782527
 34
0.0
 50
90.0
100
AcDbRotatedDimension
  0
DIMENSION
  5
6C
330
1F
100
AcDbEntity
  8
COTATION-JACOBDELAFON
100
AcDbDimension
  2
*D3
 10
43.49999999999999
 20
36.88155385317881
 30
0.0
 11
21.74999999999999
 21
39.31429600870405
 31
0.0
 70
    32
  3
COTATION-JACOB-DELAFON
100
AcDbAlignedDimension
 13
0.0
 23
0.0
 33
0.0
 14
43.49999999999999
 24
-0.0000000000000026
 34
0.0
 50
180.0
100
AcDbRotatedDimension
  0
LINE
  5
EC
330
1F
100
AcDbEntity
  8
0
100
AcDbLine
 10
0.0
 20
0.0
 30
0.0
 11
0.4179220643154406
 21
-5.508059186594827
 31
0.0
  0
LINE
  5
ED
330
1F
100
AcDbEntity
  8
0
100
AcDbLine
 10
0.4179220643154406
 20
-5.508059186594827
 30
0.0
 11
1.655619155528932
 21
-10.8075657742364
 31
0.0
  0
LINE
  5
EE
330
1F
100
AcDbEntity
  8
0
100
AcDbLine
 10
1.655619155528932
 20
-10.8075657742364
 30
0.0
 11
3.686733933382254
 21
-15.68071860074997
 31
0.0
  0
LINE
  5
EF
330
1F
100
AcDbEntity
  8
0
100
AcDbLine
 10
3.686733933382254
 20
-15.68071860074997
 30
0.0
 11
6.370428284933398
 21
-19.97252244608743
 31
0.0
  0
LINE
  5
F0
330
1F
100
AcDbEntity
  8
0
100
AcDbLine
 10
6.370428284933398
 20
-19.97252244608743
 30
0.0
 11
9.666346150775281
 21
-23.48577758244106
 31
0.0
  0
LINE
  5
F1
330
1F
100
AcDbEntity
  8
0
100
AcDbLine
 10
9.666346150775281
 20
-23.48577758244106
 30
0.0
 11
13.42663462217463
 21
-26.09635293483734
 31
0.0
  0
LINE
  5
F2
330
1F
100
AcDbEntity
  8
0
100
AcDbLine
 10
13.42663462217463
 20
-26.09635293483734
 30
0.0
 11
17.50678514325341
 21
-27.70394027233124
 31
0.0
  0
LINE
  5
F3
330
1F
100
AcDbEntity
  8
0
100
AcDbLine
 10
17.50678514325341
 20
-27.70394027233124
 30
0.0
 11
21.7499997588091
 21
-28.24675742217473
 31
0.0
  0
LINE
  5
F4
330
1F
100
AcDbEntity
  8
0
100
AcDbLine
 10
21.7499997588091
 20
-28.24675742217473
 30
0.0
 11
25.9932143743648
 21
-27.70394027233124
 31
0.0
  0
LINE
  5
F5
330
1F
100
AcDbEntity
  8
0
100
AcDbLine
 10
25.9932143743648
 20
-27.70394027233124
 30
0.0
 11
30.0733644130618
 21
-26.09635293483735
 31
0.0
  0
LINE
  5
F6
330
1F
100
AcDbEntity
  8
0
100
AcDbLine
 10
30.0733644130618
 20
-26.09635293483735
 30
0.0
 11
33.8336519196976
 21
-23.48577565806253
 31
0.0
  0
LINE
  5
F7
330
1F
100
AcDbEntity
  8
0
100
AcDbLine
 10
33.8336519196976
 20
-23.48577565806253
 30
0.0
 11
37.12957267983015
 21
-19.97252244608742
 31
0.0
  0
LINE
  5
F8
330
1F
100
AcDbEntity
  8
0
100
AcDbLine
 10
37.12957267983015
 20
-19.97252244608742
 30
0.0
 11
39.83446385139643
 21
-15.69161539418355
 31
0.0
  0
LINE
  5
F9
330
1F
100
AcDbEntity
  8
0
100
AcDbLine
 10
39.83446385139643
 20
-15.69161539418355
 30
0.0
 11
41.84438084447106
 21
-10.80756577423639
 31
0.0
  0
LINE
  5
FA
330
1F
100
AcDbEntity
  8
0
100
AcDbLine
 10
41.84438084447106
 20
-10.80756577423639
 30
0.0
 11
43.08207793568455
 21
-5.50805918659483
 31
0.0
  0
LINE
  5
FB
330
1F
100
AcDbEntity
  8
0
100
AcDbLine
 10
43.08207793568455
 20
-5.50805918659483
 30
0.0
 11
43.49999999999999
 21
-0.0000000000000027
 31
0.0
  0
LINE
  5
FC
330
1F
100
AcDbEntity
  8
0
100
AcDbLine
 10
43.49999999999999
 20
-0.0000000000000027
 30
0.0
 11
43.08207793568455
 21
5.514543861150739
 31
0.0
  0
LINE
  5
FD
330
1F
100
AcDbEntity
  8
0
100
AcDbLine
 10
43.08207793568455
 20
5.514543861150739
 30
0.0
 11
41.84438084447106
 21
10.81404996769768
 31
0.0
  0
LINE
  5
FE
330
1F
100
AcDbEntity
  8
0
100
AcDbLine
 10
41.84438084447106
 20
10.81404996769768
 30
0.0
 11
39.83446385139641
 21
15.69810006873949
 31
0.0
  0
LINE
  5
FF
330
1F
100
AcDbEntity
  8
0
100
AcDbLine
 10
39.83446385139641
 20
15.69810006873949
 30
0.0
 11
37.12957267983014
 21
19.97900856392724
 31
0.0
  0
LINE
  5
100
330
1F
100
AcDbEntity
  8
0
100
AcDbLine
 10
37.12957267983014
 20
19.97900856392724
 30
0.0
 11
35.48161229976387
 21
21.73563468882016
 31
0.0
  0
LINE
  5
101
330
1F
100
AcDbEntity
  8
0
100
AcDbLine
 10
35.48161229976387
 20
21.73563468882016
 30
0.0
 11
33.83365191969758
 21
23.49226081371307
 31
0.0
  0
LINE
  5
102
330
1F
100
AcDbEntity
  8
0
100
AcDbLine
 10
33.83365191969758
 20
23.49226081371307
 30
0.0
 11
30.0733644130618
 21
26.10283809048789
 31
0.0
  0
LINE
  5
103
330
1F
100
AcDbEntity
  8
0
100
AcDbLine
 10
30.0733644130618
 20
26.10283809048789
 30
0.0
 11
25.99321413317391
 21
27.71042542798179
 31
0.0
  0
LINE
  5
104
330
1F
100
AcDbEntity
  8
0
100
AcDbLine
 10
25.99321413317391
 20
27.71042542798179
 30
0.0
 11
21.7499997588091
 21
28.25324257782527
 31
0.0
  0
LINE
  5
105
330
1F
100
AcDbEntity
  8
0
100
AcDbLine
 10
21.7499997588091
 20
28.25324257782527
 30
0.0
 11
17.5067851432534
 21
27.71042542798179
 31
0.0
  0
LINE
  5
106
330
1F
100
AcDbEntity
  8
0
100
AcDbLine
 10
17.5067851432534
 20
27.71042542798179
 30
0.0
 11
13.42663462217464
 21
26.10283809048789
 31
0.0
  0
LINE
  5
107
330
1F
100
AcDbEntity
  8
0
100
AcDbLine
 10
13.42663462217464
 20
26.10283809048789
 30
0.0
 11
9.666346150775281
 21
23.49226273809161
 31
0.0
  0
LINE
  5
108
330
1F
100
AcDbEntity
  8
0
100
AcDbLine
 10
9.666346150775281
 20
23.49226273809161
 30
0.0
 11
6.370428284933392
 21
19.97900856392723
 31
0.0
  0
LINE
  5
109
330
1F
100
AcDbEntity
  8
0
100
AcDbLine
 10
6.370428284933392
 20
19.97900856392723
 30
0.0
 11
3.665534219076467
 21
15.69810006873948
 31
0.0
  0
LINE
  5
10A
330
1F
100
AcDbEntity
  8
0
100
AcDbLine
 10
3.665534219076467
 20
15.69810006873948
 30
0.0
 11
1.655619155528933
 21
10.81404996769768
 31
0.0
  0
LINE
  5
10B
330
1F
100
AcDbEntity
  8
0
100
AcDbLine
 10
1.655619155528933
 20
10.81404996769768
 30
0.0
 11
0.4179220643154414
 21
5.514543861150742
 31
0.0
  0
LINE
  5
10C
330
1F
100
AcDbEntity
  8
0
100
AcDbLine
 10
0.4179220643154414
 20
5.514543861150742
 30
0.0
 11
0.0
 21
0.0
 31
0.0
  0
LINE
  5
10D
330
1F
100
AcDbEntity
  8
0
100
AcDbLine
 10
0.0
 20
0.0
 30
0.0
 11
0.0
 21
0.0
 31
0.0
  0
LINE
  5
10E
330
1F
100
AcDbEntity
  8
0
100
AcDbLine
 10
9.096376385799672
 20
0.0000019243785308
 30
0.0
 11
9.163060360176617
 21
2.205525423799242
 31
0.0
  0
LINE
  5
10F
330
1F
100
AcDbEntity
  8
0
100
AcDbLine
 10
9.163060360176617
 20
2.205525423799242
 30
0.0
 11
9.229744334553561
 21
4.404565691947937
 31
0.0
  0
LINE
  5
110
330
1F
100
AcDbEntity
  8
0
100
AcDbLine
 10
9.229744334553561
 20
4.404565691947937
 30
0.0
 11
9.343913006228067
 21
6.599948678697859
 31
0.0
  0
LINE
  5
111
330
1F
100
AcDbEntity
  8
0
100
AcDbLine
 10
9.343913006228067
 20
6.599948678697859
 30
0.0
 11
9.458081677902574
 21
8.795331665447781
 31
0.0
  0
LINE
  5
112
330
1F
100
AcDbEntity
  8
0
100
AcDbLine
 10
9.458081677902574
 20
8.795331665447781
 30
0.0
 11
9.884631622669306
 21
13.18717529092516
 31
0.0
  0
LINE
  5
113
330
1F
100
AcDbEntity
  8
0
100
AcDbLine
 10
9.884631622669306
 20
13.18717529092516
 30
0.0
 11
10.17131545377332
 21
14.77691690410886
 31
0.0
  0
LINE
  5
114
330
1F
100
AcDbEntity
  8
0
100
AcDbLine
 10
10.17131545377332
 20
14.77691690410886
 30
0.0
 11
10.52145757231601
 21
16.29038000106811
 31
0.0
  0
LINE
  5
115
330
1F
100
AcDbEntity
  8
0
100
AcDbLine
 10
10.52145757231601
 20
16.29038000106811
 30
0.0
 11
11.33723847810612
 21
17.22225838048117
 31
0.0
  0
LINE
  5
116
330
1F
100
AcDbEntity
  8
0
100
AcDbLine
 10
11.33723847810612
 20
17.22225838048117
 30
0.0
 11
12.03641613139662
 21
18.3223351410457
 31
0.0
  0
LINE
  5
117
330
1F
100
AcDbEntity
  8
0
100
AcDbLine
 10
12.03641613139662
 20
18.3223351410457
 30
0.0
 11
14.81742570012114
 21
19.82819405623845
 31
0.0
  0
LINE
  5
118
330
1F
100
AcDbEntity
  8
0
100
AcDbLine
 10
14.81742570012114
 20
19.82819405623845
 30
0.0
 11
18.01205111104388
 21
20.61214930670602
 31
0.0
  0
LINE
  5
119
330
1F
100
AcDbEntity
  8
0
100
AcDbLine
 10
18.01205111104388
 20
20.61214930670602
 30
0.0
 11
21.29018922877865
 21
20.99219867161342
 31
0.0
  0
LINE
  5
11A
330
1F
100
AcDbEntity
  8
0
100
AcDbLine
 10
21.29018922877865
 20
20.99219867161342
 30
0.0
 11
24.39898493262223
 21
20.63249960967473
 31
0.0
  0
LINE
  5
11B
330
1F
100
AcDbEntity
  8
0
100
AcDbLine
 10
24.39898493262223
 20
20.63249960967473
 30
0.0
 11
27.43911949978317
 21
19.54909181594849
 31
0.0
  0
LINE
  5
11C
330
1F
100
AcDbEntity
  8
0
100
AcDbLine
 10
27.43911949978317
 20
19.54909181594849
 30
0.0
 11
30.31464647137841
 21
17.74344936438969
 31
0.0
  0
LINE
  5
11D
330
1F
100
AcDbEntity
  8
0
100
AcDbLine
 10
30.31464647137841
 20
17.74344936438969
 30
0.0
 11
32.89829146584798
 21
15.26157644816807
 31
0.0
  0
LINE
  5
11E
330
1F
100
AcDbEntity
  8
0
100
AcDbLine
 10
32.89829146584798
 20
15.26157644816807
 30
0.0
 11
35.06818748074908
 21
12.16139301231929
 31
0.0
  0
LINE
  5
11F
330
1F
100
AcDbEntity
  8
0
100
AcDbLine
 10
35.06818748074908
 20
12.16139301231929
 30
0.0
 11
36.70624601009279
 21
8.568095275333948
 31
0.0
  0
LINE
  5
120
330
1F
100
AcDbEntity
  8
0
100
AcDbLine
 10
36.70624601009279
 20
8.568095275333948
 30
0.0
 11
37.72507684175357
 21
4.393063681466236
 31
0.0
  0
LINE
  5
121
330
1F
100
AcDbEntity
  8
0
100
AcDbLine
 10
37.72507684175357
 20
4.393063681466236
 30
0.0
 11
38.16823133202485
 21
0.000001924378529
 31
0.0
  0
LINE
  5
122
330
1F
100
AcDbEntity
  8
0
100
AcDbLine
 10
38.16823133202485
 20
0.000001924378529
 30
0.0
 11
37.72507684175357
 21
-4.386576601437163
 31
0.0
  0
LINE
  5
123
330
1F
100
AcDbEntity
  8
0
100
AcDbLine
 10
37.72507684175357
 20
-4.386576601437163
 30
0.0
 11
36.70624601009279
 21
-8.561608195304874
 31
0.0
  0
LINE
  5
124
330
1F
100
AcDbEntity
  8
0
100
AcDbLine
 10
36.70624601009279
 20
-8.561608195304874
 30
0.0
 11
35.06818748074908
 21
-12.15490593229021
 31
0.0
  0
LINE
  5
125
330
1F
100
AcDbEntity
  8
0
100
AcDbLine
 10
35.06818748074908
 20
-12.15490593229021
 30
0.0
 11
32.89829146584798
 21
-15.25508936813899
 31
0.0
  0
LINE
  5
126
330
1F
100
AcDbEntity
  8
0
100
AcDbLine
 10
32.89829146584798
 20
-15.25508936813899
 30
0.0
 11
30.31464647137841
 21
-17.73696228436062
 31
0.0
  0
LINE
  5
127
330
1F
100
AcDbEntity
  8
0
100
AcDbLine
 10
30.31464647137841
 20
-17.73696228436062
 30
0.0
 11
27.43911949978317
 21
-19.54260473591941
 31
0.0
  0
LINE
  5
128
330
1F
100
AcDbEntity
  8
0
100
AcDbLine
 10
27.43911949978317
 20
-19.54260473591941
 30
0.0
 11
24.39898493262223
 21
-20.62601252964565
 31
0.0
  0
LINE
  5
129
330
1F
100
AcDbEntity
  8
0
100
AcDbLine
 10
24.39898493262223
 20
-20.62601252964565
 30
0.0
 11
21.29018922877865
 21
-20.98571159158434
 31
0.0
  0
LINE
  5
12A
330
1F
100
AcDbEntity
  8
0
100
AcDbLine
 10
21.29018922877865
 20
-20.98571159158434
 30
0.0
 11
18.01205111104388
 21
-20.60566222667694
 31
0.0
  0
LINE
  5
12B
330
1F
100
AcDbEntity
  8
0
100
AcDbLine
 10
18.01205111104388
 20
-20.60566222667694
 30
0.0
 11
14.81742570012114
 21
-19.82170697620937
 31
0.0
  0
LINE
  5
12C
330
1F
100
AcDbEntity
  8
0
100
AcDbLine
 10
14.81742570012114
 20
-19.82170697620937
 30
0.0
 11
12.03641613139662
 21
-18.31584806101663
 31
0.0
  0
LINE
  5
12D
330
1F
100
AcDbEntity
  8
0
100
AcDbLine
 10
12.03641613139662
 20
-18.31584806101663
 30
0.0
 11
11.33723847810611
 21
-17.2157713004521
 31
0.0
  0
LINE
  5
12E
330
1F
100
AcDbEntity
  8
0
100
AcDbLine
 10
11.33723847810611
 20
-17.2157713004521
 30
0.0
 11
10.52145757231601
 21
-16.28389292103904
 31
0.0
  0
LINE
  5
12F
330
1F
100
AcDbEntity
  8
0
100
AcDbLine
 10
10.52145757231601
 20
-16.28389292103904
 30
0.0
 11
10.17131545377331
 21
-14.77042982407978
 31
0.0
  0
LINE
  5
130
330
1F
100
AcDbEntity
  8
0
100
AcDbLine
 10
10.17131545377331
 20
-14.77042982407978
 30
0.0
 11
9.884631622669306
 21
-13.18068821089608
 31
0.0
  0
LINE
  5
131
330
1F
100
AcDbEntity
  8
0
100
AcDbLine
 10
9.884631622669306
 20
-13.18068821089608
 30
0.0
 11
9.458081677902574
 21
-8.788844585418702
 31
0.0
  0
LINE
  5
132
330
1F
100
AcDbEntity
  8
0
100
AcDbLine
 10
9.458081677902574
 20
-8.788844585418702
 30
0.0
 11
9.343913006228067
 21
-6.593461598668781
 31
0.0
  0
LINE
  5
133
330
1F
100
AcDbEntity
  8
0
100
AcDbLine
 10
9.343913006228067
 20
-6.593461598668781
 30
0.0
 11
9.229744334553561
 21
-4.398078611918859
 31
0.0
  0
LINE
  5
134
330
1F
100
AcDbEntity
  8
0
100
AcDbLine
 10
9.229744334553561
 20
-4.398078611918859
 30
0.0
 11
9.163060360176617
 21
-2.199038343770164
 31
0.0
  0
LINE
  5
135
330
1F
100
AcDbEntity
  8
0
100
AcDbLine
 10
9.163060360176617
 20
-2.199038343770164
 30
0.0
 11
9.096376385799672
 21
0.0000019243785308
 31
0.0
  0
LINE
  5
136
330
1F
100
AcDbEntity
  8
0
100
AcDbLine
 10
15.14615778590357
 20
-1.03380789927074
 30
0.0
 11
15.71224968377933
 21
-1.878764024802617
 31
0.0
  0
LINE
  5
137
330
1F
100
AcDbEntity
  8
0
100
AcDbLine
 10
15.71224968377933
 20
-1.878764024802617
 30
0.0
 11
16.559465962787
 21
-2.443343971456801
 31
0.0
  0
LINE
  5
138
330
1F
100
AcDbEntity
  8
0
100
AcDbLine
 10
16.559465962787
 20
-2.443343971456801
 30
0.0
 11
17.558824489283
 21
-2.641598258699691
 31
0.0
  0
LINE
  5
139
330
1F
100
AcDbEntity
  8
0
100
AcDbLine
 10
17.558824489283
 20
-2.641598258699691
 30
0.0
 11
18.55818398054255
 21
-2.443343971456802
 31
0.0
  0
LINE
  5
13A
330
1F
100
AcDbEntity
  8
0
100
AcDbLine
 10
18.55818398054255
 20
-2.443343971456802
 30
0.0
 11
19.40539977716844
 21
-1.878764024802618
 31
0.0
  0
LINE
  5
13B
330
1F
100
AcDbEntity
  8
0
100
AcDbLine
 10
19.40539977716844
 20
-1.878764024802618
 30
0.0
 11
19.97149095147154
 21
-1.03380789927074
 31
0.0
  0
LINE
  5
13C
330
1F
100
AcDbEntity
  8
0
100
AcDbLine
 10
19.97149095147154
 20
-1.03380789927074
 30
0.0
 11
20.17027589886687
 21
-0.0371145265442997
 31
0.0
  0
LINE
  5
13D
330
1F
100
AcDbEntity
  8
0
100
AcDbLine
 10
20.17027589886687
 20
-0.0371145265442997
 30
0.0
 11
19.97149095147154
 21
0.9660615963595244
 31
0.0
  0
LINE
  5
13E
330
1F
100
AcDbEntity
  8
0
100
AcDbLine
 10
19.97149095147154
 20
0.9660615963595244
 30
0.0
 11
19.40539977716844
 21
1.811016278607503
 31
0.0
  0
LINE
  5
13F
330
1F
100
AcDbEntity
  8
0
100
AcDbLine
 10
19.40539977716844
 20
1.811016278607503
 30
0.0
 11
18.55818398054255
 21
2.375597668545585
 31
0.0
  0
LINE
  5
140
330
1F
100
AcDbEntity
  8
0
100
AcDbLine
 10
18.55818398054255
 20
2.375597668545585
 30
0.0
 11
17.558824489283
 21
2.573852436883108
 31
0.0
  0
LINE
  5
141
330
1F
100
AcDbEntity
  8
0
100
AcDbLine
 10
17.558824489283
 20
2.573852436883108
 30
0.0
 11
16.559465962787
 21
2.375597668545586
 31
0.0
  0
LINE
  5
142
330
1F
100
AcDbEntity
  8
0
100
AcDbLine
 10
16.559465962787
 20
2.375597668545586
 30
0.0
 11
15.71224968377933
 21
1.811016278607504
 31
0.0
  0
LINE
  5
143
330
1F
100
AcDbEntity
  8
0
100
AcDbLine
 10
15.71224968377933
 20
1.811016278607504
 30
0.0
 11
15.14615778590357
 21
0.9660615963595247
 31
0.0
  0
LINE
  5
144
330
1F
100
AcDbEntity
  8
0
100
AcDbLine
 10
15.14615778590357
 20
0.9660615963595247
 30
0.0
 11
14.99146856263626
 21
-0.0371145265442994
 31
0.0
  0
LINE
  5
145
330
1F
100
AcDbEntity
  8
0
100
AcDbLine
 10
14.99146856263626
 20
-0.0371145265442994
 30
0.0
 11
15.14615778590357
 21
-1.03380789927074
 31
0.0
  0
LINE
  5
146
330
1F
100
AcDbEntity
  8
0
100
AcDbLine
 10
15.14615778590357
 20
-1.03380789927074
 30
0.0
 11
15.14615778590357
 21
-1.03380789927074
 31
0.0
  0
ENDSEC
  0
SECTION
  2
OBJECTS
  0
DICTIONARY
  5
C
330
0
100
AcDbDictionary
  3
ACAD_GROUP
350
D
  3
ACAD_LAYOUT
350
1A
  3
ACAD_MLINESTYLE
350
17
  3
ACAD_PLOTSETTINGS
350
19
  3
ACAD_PLOTSTYLENAME
350
E
  3
ACDBHEADERROUNDTRIPXREC
350
1FC
  3
ACDBVARIABLEDICTIONARY
350
8E
  3
AEC_PROPERTY_SET_DEFS
350
47
  0
DICTIONARY
  5
165
330
1F
100
AcDbDictionary
280
     1
  3
ACAD_LAYOUTSELFREF
360
21E
  0
DICTIONARY
  5
167
330
1B
100
AcDbDictionary
280
     1
  3
ACAD_LAYOUTSELFREF
360
21D
  0
DICTIONARY
  5
D
102
{ACAD_REACTORS
330
C
102
}
330
C
100
AcDbDictionary
  0
DICTIONARY
  5
1A
102
{ACAD_REACTORS
330
C
102
}
330
C
100
AcDbDictionary
  0
DICTIONARY
  5
17
102
{ACAD_REACTORS
330
C
102
}
330
C
100
AcDbDictionary
  3
STANDARD
350
18
  0
DICTIONARY
  5
19
102
{ACAD_REACTORS
330
C
102
}
330
C
100
AcDbDictionary
  0
ACDBDICTIONARYWDFLT
  5
E
102
{ACAD_REACTORS
330
C
102
}
330
C
100
AcDbDictionary
281
     1
  3
Normal
350
F
100
AcDbDictionaryWithDefault
340
F
  0
DICTIONARY
  5
1FC
102
{ACAD_REACTORS
330
C
102
}
330
C
100
AcDbDictionary
  3
CEPSNTYPE
350
206
  3
DIMSTYLEDATA
350
20A
  3
FINGERPRINTGUID
350
207
  3
HYPERLINKBASE
350
1FF
  3
INSUNITS
350
205
  3
LAYOUTDICT
350
201
  3
LWETCUNION
350
204
  3
PLOTSETDICT
350
202
  3
PLOTSTYLNAMDICT
350
203
  3
PSVPSCALE
350
209
  3
PUCSBASE
350
20D
  3
PUCSORGBACK
350
213
  3
PUCSORGBOTTOM
350
20F
  3
PUCSORGFRONT
350
212
  3
PUCSORGLEFT
350
210
  3
PUCSORGRIGHT
350
211
  3
PUCSORGTOP
350
20E
  3
PUCSORTHOREF
350
20B
  3
PUCSORTHOVIEW
350
20C
  3
STYLESHEET
350
200
  3
TSTACKALIGN
350
1FD
  3
TSTACKSIZE
350
1FE
  3
UCSBASE
350
216
  3
UCSORGBACK
350
21C
  3
UCSORGBOTTOM
350
218
  3
UCSORGFRONT
350
21B
  3
UCSORGLEFT
350
219
  3
UCSORGRIGHT
350
21A
  3
UCSORGTOP
350
217
  3
UCSORTHOREF
350
214
  3
UCSORTHOVIEW
350
215
  3
VERSIONGUID
350
208
  0
DICTIONARY
  5
8E
102
{ACAD_REACTORS
330
C
102
}
330
C
100
AcDbDictionary
  3
DIMASSOC
350
90
  3
HIDETEXT
350
8F
  0
DICTIONARY
  5
47
102
{ACAD_REACTORS
330
C
102
}
330
C
100
AcDbDictionary
  0
XRECORD
  5
21E
102
{ACAD_REACTORS
330
165
102
}
330
165
100
AcDbXrecord
340
1F
  0
XRECORD
  5
21D
102
{ACAD_REACTORS
330
167
102
}
330
167
100
AcDbXrecord
340
1B
  0
MLINESTYLE
  5
18
102
{ACAD_REACTORS
330
17
102
}
330
17
100
AcDbMlineStyle
  2
STANDARD
 70
     0
  3

 62
   256
 51
90.0
 52
90.0
 71
     2
 49
0.5
 62
   256
  6
BYLAYER
 49
-0.5
 62
   256
  6
BYLAYER
  0
ACDBPLACEHOLDER
  5
F
102
{ACAD_REACTORS
330
E
102
}
330
E
100
AcDbPlaceHolder
280
     0
  0
XRECORD
  5
206
102
{ACAD_REACTORS
330
1FC
102
}
330
1FC
100
AcDbXrecord
 90
        0
  0
XRECORD
  5
20A
102
{ACAD_REACTORS
330
1FC
102
}
330
1FC
100
AcDbXrecord
1000
DSTYLE
1002
{
1070
   278
 70
    44
1002
}
  0
XRECORD
  5
207
102
{ACAD_REACTORS
330
1FC
102
}
330
1FC
100
AcDbXrecord
  1
{1AD034D8-6289-4E4E-B6F9-AA3ADA080BBF}
  0
XRECORD
  5
1FF
102
{ACAD_REACTORS
330
1FC
102
}
330
1FC
100
AcDbXrecord
  1

  0
XRECORD
  5
205
102
{ACAD_REACTORS
330
1FC
102
}
330
1FC
100
AcDbXrecord
 90
        5
  0
XRECORD
  5
201
102
{ACAD_REACTORS
330
1FC
102
}
330
1FC
100
AcDbXrecord
340
1A
  0
XRECORD
  5
204
102
{ACAD_REACTORS
330
1FC
102
}
330
1FC
100
AcDbXrecord
 90
    10781
  0
XRECORD
  5
202
102
{ACAD_REACTORS
330
1FC
102
}
330
1FC
100
AcDbXrecord
340
19
  0
XRECORD
  5
203
102
{ACAD_REACTORS
330
1FC
102
}
330
1FC
100
AcDbXrecord
340
E
  0
XRECORD
  5
209
102
{ACAD_REACTORS
330
1FC
102
}
330
1FC
100
AcDbXrecord
 40
0.0
  0
XRECORD
  5
20D
102
{ACAD_REACTORS
330
1FC
102
}
330
1FC
100
AcDbXrecord
340
0
  0
XRECORD
  5
213
102
{ACAD_REACTORS
330
1FC
102
}
330
1FC
100
AcDbXrecord
 10
0.0
 20
0.0
 30
0.0
  0
XRECORD
  5
20F
102
{ACAD_REACTORS
330
1FC
102
}
330
1FC
100
AcDbXrecord
 10
0.0
 20
0.0
 30
0.0
  0
XRECORD
  5
212
102
{ACAD_REACTORS
330
1FC
102
}
330
1FC
100
AcDbXrecord
 10
0.0
 20
0.0
 30
0.0
  0
XRECORD
  5
210
102
{ACAD_REACTORS
330
1FC
102
}
330
1FC
100
AcDbXrecord
 10
0.0
 20
0.0
 30
0.0
  0
XRECORD
  5
211
102
{ACAD_REACTORS
330
1FC
102
}
330
1FC
100
AcDbXrecord
 10
0.0
 20
0.0
 30
0.0
  0
XRECORD
  5
20E
102
{ACAD_REACTORS
330
1FC
102
}
330
1FC
100
AcDbXrecord
 10
0.0
 20
0.0
 30
0.0
  0
XRECORD
  5
20B
102
{ACAD_REACTORS
330
1FC
102
}
330
1FC
100
AcDbXrecord
340
0
  0
XRECORD
  5
20C
102
{ACAD_REACTORS
330
1FC
102
}
330
1FC
100
AcDbXrecord
 70
     0
  0
XRECORD
  5
200
102
{ACAD_REACTORS
330
1FC
102
}
330
1FC
100
AcDbXrecord
  1

  0
XRECORD
  5
1FD
102
{ACAD_REACTORS
330
1FC
102
}
330
1FC
100
AcDbXrecord
 90
        1
  0
XRECORD
  5
1FE
102
{ACAD_REACTORS
330
1FC
102
}
330
1FC
100
AcDbXrecord
 90
       70
  0
XRECORD
  5
216
102
{ACAD_REACTORS
330
1FC
102
}
330
1FC
100
AcDbXrecord
340
0
  0
XRECORD
  5
21C
102
{ACAD_REACTORS
330
1FC
102
}
330
1FC
100
AcDbXrecord
 10
0.0
 20
0.0
 30
0.0
  0
XRECORD
  5
218
102
{ACAD_REACTORS
330
1FC
102
}
330
1FC
100
AcDbXrecord
 10
0.0
 20
0.0
 30
0.0
  0
XRECORD
  5
21B
102
{ACAD_REACTORS
330
1FC
102
}
330
1FC
100
AcDbXrecord
 10
0.0
 20
0.0
 30
0.0
  0
XRECORD
  5
219
102
{ACAD_REACTORS
330
1FC
102
}
330
1FC
100
AcDbXrecord
 10
0.0
 20
0.0
 30
0.0
  0
XRECORD
  5
21A
102
{ACAD_REACTORS
330
1FC
102
}
330
1FC
100
AcDbXrecord
 10
0.0
 20
0.0
 30
0.0
  0
XRECORD
  5
217
102
{ACAD_REACTORS
330
1FC
102
}
330
1FC
100
AcDbXrecord
 10
0.0
 20
0.0
 30
0.0
  0
XRECORD
  5
214
102
{ACAD_REACTORS
330
1FC
102
}
330
1FC
100
AcDbXrecord
340
0
  0
XRECORD
  5
215
102
{ACAD_REACTORS
330
1FC
102
}
330
1FC
100
AcDbXrecord
 70
     1
  0
XRECORD
  5
208
102
{ACAD_REACTORS
330
1FC
102
}
330
1FC
100
AcDbXrecord
  1
{D89D7E67-2C25-430D-AE04-26C842DC2C84}
  0
DICTIONARYVAR
  5
90
102
{ACAD_REACTORS
330
8E
102
}
330
8E
100
DictionaryVariables
280
     0
  1
2
  0
DICTIONARYVAR
  5
8F
102
{ACAD_REACTORS
330
8E
102
}
330
8E
100
DictionaryVariables
280
     0
  1
1
  0
ENDSEC
  0
EOF
