  0
SECTION
  2
HEADER
  9
$ACADVER
  1
AC1021
  9
$ACADMAINTVER
 70
    50
  9
$DWGCODEPAGE
  3
ANSI_1252
  9
$LASTSAVEDBY
  1
François
  9
$INSBASE
 10
201.695871
 20
180.550047
 30
0.0
  9
$EXTMIN
 10
155.8325804528293
 20
118.550073
 30
-0.0015258207003583
  9
$EXTMAX
 10
218.385433
 20
206.5993328583881
 30
0.0000000349246037
  9
$LIMMIN
 10
182.502039
 20
119.437671
  9
$LIMMAX
 10
217.497835
 20
180.562622
  9
$ORTHOMODE
 70
     0
  9
$REGENMODE
 70
     1
  9
$FILLMODE
 70
     1
  9
$QTEXTMODE
 70
     0
  9
$MIRRTEXT
 70
     1
  9
$LTSCALE
 40
1.0
  9
$ATTMODE
 70
     1
  9
$TEXTSIZE
 40
0.0
  9
$TRACEWID
 40
0.05
  9
$TEXTSTYLE
  7
Standard
  9
$CLAYER
  8
Cotation-JacobDelafon
  9
$CELTYPE
  6
Continuous
  9
$CECOLOR
 62
   256
  9
$CELTSCALE
 40
1.0
  9
$DISPSILH
 70
     0
  9
$DIMSCALE
 40
1.0
  9
$DIMASZ
 40
1.8
  9
$DIMEXO
 40
0.625
  9
$DIMDLI
 40
3.799999999999998
  9
$DIMRND
 40
0.0
  9
$DIMDLE
 40
0.0
  9
$DIMEXE
 40
1.8
  9
$DIMTP
 40
0.0
  9
$DIMTM
 40
0.0
  9
$DIMTXT
 40
3.0
  9
$DIMCEN
 40
0.9
  9
$DIMTSZ
 40
0.0
  9
$DIMTOL
 70
     0
  9
$DIMLIM
 70
     0
  9
$DIMTIH
 70
     0
  9
$DIMTOH
 70
     0
  9
$DIMSE1
 70
     0
  9
$DIMSE2
 70
     0
  9
$DIMTAD
 70
     1
  9
$DIMZIN
 70
    12
  9
$DIMBLK
  1
Oblique
  9
$DIMASO
 70
     1
  9
$DIMSHO
 70
     1
  9
$DIMPOST
  1

  9
$DIMAPOST
  1

  9
$DIMALT
 70
     0
  9
$DIMALTD
 70
     2
  9
$DIMALTF
 40
25.4
  9
$DIMLFAC
 40
1.0
  9
$DIMTOFL
 70
     0
  9
$DIMTVP
 40
0.0
  9
$DIMTIX
 70
     0
  9
$DIMSOXD
 70
     0
  9
$DIMSAH
 70
     0
  9
$DIMBLK1
  1

  9
$DIMBLK2
  1

  9
$DIMSTYLE
  2
Cotation-Jacob-Delafon
  9
$DIMCLRD
 70
     0
  9
$DIMCLRE
 70
     0
  9
$DIMCLRT
 70
     0
  9
$DIMTFAC
 40
1.0
  9
$DIMGAP
 40
0.9
  9
$DIMJUST
 70
     0
  9
$DIMSD1
 70
     0
  9
$DIMSD2
 70
     0
  9
$DIMTOLJ
 70
     1
  9
$DIMTZIN
 70
     0
  9
$DIMALTZ
 70
     0
  9
$DIMALTTZ
 70
     0
  9
$DIMUPT
 70
     0
  9
$DIMDEC
 70
     2
  9
$DIMTDEC
 70
     2
  9
$DIMALTU
 70
     2
  9
$DIMALTTD
 70
     2
  9
$DIMTXSTY
  7
Jacob-Delafon
  9
$DIMAUNIT
 70
     0
  9
$DIMADEC
 70
     0
  9
$DIMALTRND
 40
0.0
  9
$DIMAZIN
 70
     3
  9
$DIMDSEP
 70
    46
  9
$DIMATFIT
 70
     3
  9
$DIMFRAC
 70
     0
  9
$DIMLDRBLK
  1
Oblique
  9
$DIMLUNIT
 70
     2
  9
$DIMLWD
 70
    -2
  9
$DIMLWE
 70
    -2
  9
$DIMTMOVE
 70
     2
  9
$DIMFXL
 40
1.0
  9
$DIMFXLON
 70
     0
  9
$DIMJOGANG
 40
0.7853981633974483
  9
$DIMTFILL
 70
     0
  9
$DIMTFILLCLR
 70
     0
  9
$DIMARCSYM
 70
     0
  9
$DIMLTYPE
  6

  9
$DIMLTEX1
  6

  9
$DIMLTEX2
  6

  9
$LUNITS
 70
     2
  9
$LUPREC
 70
     4
  9
$SKETCHINC
 40
0.1
  9
$FILLETRAD
 40
0.0
  9
$AUNITS
 70
     0
  9
$AUPREC
 70
     0
  9
$MENU
  1
acad
  9
$ELEVATION
 40
0.0
  9
$PELEVATION
 40
0.0
  9
$THICKNESS
 40
0.0
  9
$LIMCHECK
 70
     0
  9
$CHAMFERA
 40
0.0
  9
$CHAMFERB
 40
0.0
  9
$CHAMFERC
 40
0.0
  9
$CHAMFERD
 40
0.0
  9
$SKPOLY
 70
     0
  9
$TDCREATE
 40
2455398.597659317
  9
$TDUCREATE
 40
2455398.514325984
  9
$TDUPDATE
 40
2455398.598779653
  9
$TDUUPDATE
 40
2455398.515446320
  9
$TDINDWG
 40
0.0011228588
  9
$TDUSRTIMER
 40
0.0011228588
  9
$USRTIMER
 70
     1
  9
$ANGBASE
 50
0.0
  9
$ANGDIR
 70
     0
  9
$PDMODE
 70
     0
  9
$PDSIZE
 40
0.0
  9
$PLINEWID
 40
0.0
  9
$SPLFRAME
 70
     0
  9
$SPLINETYPE
 70
     6
  9
$SPLINESEGS
 70
     8
  9
$HANDSEED
  5
529
  9
$SURFTAB1
 70
     6
  9
$SURFTAB2
 70
     6
  9
$SURFTYPE
 70
     6
  9
$SURFU
 70
     6
  9
$SURFV
 70
     6
  9
$UCSBASE
  2

  9
$UCSNAME
  2

  9
$UCSORG
 10
0.0
 20
0.0
 30
0.0
  9
$UCSXDIR
 10
1.0
 20
0.0
 30
0.0
  9
$UCSYDIR
 10
0.0
 20
1.0
 30
0.0
  9
$UCSORTHOREF
  2

  9
$UCSORTHOVIEW
 70
     0
  9
$UCSORGTOP
 10
0.0
 20
0.0
 30
0.0
  9
$UCSORGBOTTOM
 10
0.0
 20
0.0
 30
0.0
  9
$UCSORGLEFT
 10
0.0
 20
0.0
 30
0.0
  9
$UCSORGRIGHT
 10
0.0
 20
0.0
 30
0.0
  9
$UCSORGFRONT
 10
0.0
 20
0.0
 30
0.0
  9
$UCSORGBACK
 10
0.0
 20
0.0
 30
0.0
  9
$PUCSBASE
  2

  9
$PUCSNAME
  2

  9
$PUCSORG
 10
0.0
 20
0.0
 30
0.0
  9
$PUCSXDIR
 10
1.0
 20
0.0
 30
0.0
  9
$PUCSYDIR
 10
0.0
 20
1.0
 30
0.0
  9
$PUCSORTHOREF
  2

  9
$PUCSORTHOVIEW
 70
     0
  9
$PUCSORGTOP
 10
0.0
 20
0.0
 30
0.0
  9
$PUCSORGBOTTOM
 10
0.0
 20
0.0
 30
0.0
  9
$PUCSORGLEFT
 10
0.0
 20
0.0
 30
0.0
  9
$PUCSORGRIGHT
 10
0.0
 20
0.0
 30
0.0
  9
$PUCSORGFRONT
 10
0.0
 20
0.0
 30
0.0
  9
$PUCSORGBACK
 10
0.0
 20
0.0
 30
0.0
  9
$USERI1
 70
     0
  9
$USERI2
 70
     0
  9
$USERI3
 70
     0
  9
$USERI4
 70
     0
  9
$USERI5
 70
     0
  9
$USERR1
 40
0.0
  9
$USERR2
 40
0.0
  9
$USERR3
 40
0.0
  9
$USERR4
 40
0.0
  9
$USERR5
 40
0.0
  9
$WORLDVIEW
 70
     1
  9
$SHADEDGE
 70
     3
  9
$SHADEDIF
 70
    70
  9
$TILEMODE
 70
     1
  9
$MAXACTVP
 70
    16
  9
$PINSBASE
 10
0.0
 20
0.0
 30
0.0
  9
$PLIMCHECK
 70
     0
  9
$PEXTMIN
 10
1.000000000000000E+20
 20
1.000000000000000E+20
 30
1.000000000000000E+20
  9
$PEXTMAX
 10
-1.000000000000000E+20
 20
-1.000000000000000E+20
 30
-1.000000000000000E+20
  9
$PLIMMIN
 10
0.0
 20
0.0
  9
$PLIMMAX
 10
12.0
 20
9.0
  9
$UNITMODE
 70
     0
  9
$VISRETAIN
 70
     0
  9
$PLINEGEN
 70
     1
  9
$PSLTSCALE
 70
     0
  9
$TREEDEPTH
 70
  3020
  9
$CMLSTYLE
  2
Standard
  9
$CMLJUST
 70
     0
  9
$CMLSCALE
 40
1.0
  9
$PROXYGRAPHICS
 70
     0
  9
$MEASUREMENT
 70
     1
  9
$CELWEIGHT
370
     0
  9
$ENDCAPS
280
     0
  9
$JOINSTYLE
280
     0
  9
$LWDISPLAY
290
     0
  9
$INSUNITS
 70
     0
  9
$HYPERLINKBASE
  1

  9
$STYLESHEET
  1

  9
$XEDIT
290
     1
  9
$CEPSNTYPE
380
     0
  9
$PSTYLEMODE
290
     1
  9
$FINGERPRINTGUID
  2

  9
$VERSIONGUID
  2
{96C69E8A-FF80-4F44-8443-F868FBCA350C}
  9
$EXTNAMES
290
     1
  9
$PSVPSCALE
 40
0.0
  9
$OLESTARTUP
290
     0
  9
$SORTENTS
280
   127
  9
$INDEXCTL
280
     0
  9
$HIDETEXT
280
     0
  9
$XCLIPFRAME
290
     0
  9
$HALOGAP
280
     0
  9
$OBSCOLOR
 70
   257
  9
$OBSLTYPE
280
     0
  9
$INTERSECTIONDISPLAY
280
     0
  9
$INTERSECTIONCOLOR
 70
   257
  9
$DIMASSOC
280
     1
  9
$PROJECTNAME
  1

  9
$CAMERADISPLAY
290
     0
  9
$LENSLENGTH
 40
50.0
  9
$CAMERAHEIGHT
 40
0.0
  9
$STEPSPERSEC
 40
2.0
  9
$STEPSIZE
 40
6.0
  9
$3DDWFPREC
 40
2.0
  9
$PSOLWIDTH
 40
0.25
  9
$PSOLHEIGHT
 40
4.0
  9
$LOFTANG1
 40
1.570796326794896
  9
$LOFTANG2
 40
1.570796326794896
  9
$LOFTMAG1
 40
0.0
  9
$LOFTMAG2
 40
0.0
  9
$LOFTPARAM
 70
     7
  9
$LOFTNORMALS
280
     1
  9
$LATITUDE
 40
37.795
  9
$LONGITUDE
 40
-122.394
  9
$NORTHDIRECTION
 40
0.0
  9
$TIMEZONE
 70
 -8000
  9
$LIGHTGLYPHDISPLAY
280
     1
  9
$TILEMODELIGHTSYNCH
280
     1
  9
$CMATERIAL
347
48F
  9
$SOLIDHIST
280
     1
  9
$SHOWHIST
280
     1
  9
$DWFFRAME
280
     2
  9
$DGNFRAME
280
     0
  9
$REALWORLDSCALE
290
     1
  9
$INTERFERECOLOR
 62
     1
  9
$INTERFEREOBJVS
345
4B1
  9
$INTERFEREVPVS
346
4AE
  9
$CSHADOW
280
     0
  9
$SHADOWPLANELOCATION
 40
0.0
  0
ENDSEC
  0
SECTION
  2
CLASSES
  0
CLASS
  1
IMAGE
  2
AcDbRasterImage
  3
ISM
 90
     2175
 91
        0
280
     0
281
     1
  0
CLASS
  1
DICTIONARYVAR
  2
AcDbDictionaryVar
  3
ObjectDBX Classes
 90
        0
 91
        7
280
     0
281
     0
  0
CLASS
  1
RASTERVARIABLES
  2
AcDbRasterVariables
  3
ISM
 90
        0
 91
        0
280
     0
281
     0
  0
CLASS
  1
IMAGEDEF
  2
AcDbRasterImageDef
  3
ISM
 90
        0
 91
        0
280
     0
281
     0
  0
CLASS
  1
IMAGEDEF_REACTOR
  2
AcDbRasterImageDefReactor
  3
ISM
 90
        1
 91
        0
280
     0
281
     0
  0
CLASS
  1
IDBUFFER
  2
AcDbIdBuffer
  3
ObjectDBX Classes
 90
        0
 91
        0
280
     0
281
     0
  0
CLASS
  1
SPATIAL_FILTER
  2
AcDbSpatialFilter
  3
ObjectDBX Classes
 90
        0
 91
        0
280
     0
281
     0
  0
CLASS
  1
SORTENTSTABLE
  2
AcDbSortentsTable
  3
ObjectDBX Classes
 90
        0
 91
        0
280
     0
281
     0
  0
CLASS
  1
LAYER_INDEX
  2
AcDbLayerIndex
  3
ObjectDBX Classes
 90
        0
 91
        0
280
     0
281
     0
  0
CLASS
  1
SPATIAL_INDEX
  2
AcDbSpatialIndex
  3
ObjectDBX Classes
 90
        0
 91
        0
280
     0
281
     0
  0
CLASS
  1
OBJECT_PTR
  2
CAseDLPNTableRecord
  3
"ASE-LPNTableRecord"
 90
        1
 91
        0
280
     0
281
     0
  0
CLASS
  1
PLOTSETTINGS
  2
AcDbPlotSettings
  3
ObjectDBX Classes
 90
        0
 91
        0
280
     0
281
     0
  0
CLASS
  1
ACDBDICTIONARYWDFLT
  2
AcDbDictionaryWithDefault
  3
ObjectDBX Classes
 90
        0
 91
        1
280
     0
281
     0
  0
CLASS
  1
WIPEOUT
  2
AcDbWipeout
  3
"WipeOut|Product Desc: Object Enabler for WipeOut entity                        |Company: Autodesk, Inc.                        |WEB Address: www.autodesk.com"
 90
     2175
 91
        0
280
     0
281
     1
  0
CLASS
  1
WIPEOUTVARIABLES
  2
AcDbWipeoutVariables
  3
"WipeOut|Product Desc:     WipeOut Dbx Application|Company:          Autodesk, Inc.|WEB Address:      www.autodesk.com"
 90
        0
 91
        1
280
     0
281
     0
  0
CLASS
  1
RTEXT
  2
RText
  3
RText|AutoCAD Express Tool|expresstools@autodesk.com
 90
        0
 91
        0
280
     0
281
     1
  0
CLASS
  1
ARCALIGNEDTEXT
  2
AcDbArcAlignedText
  3
ATEXT|AutoCAD Express Tool|expresstools@autodesk.com
 90
        0
 91
        0
280
     0
281
     1
  0
CLASS
  1
MATERIAL
  2
AcDbMaterial
  3
ObjectDBX Classes
 90
     1153
 91
        3
280
     0
281
     0
  0
CLASS
  1
VISUALSTYLE
  2
AcDbVisualStyle
  3
ObjectDBX Classes
 90
     4095
 91
       16
280
     0
281
     0
  0
CLASS
  1
TABLESTYLE
  2
AcDbTableStyle
  3
ObjectDBX Classes
 90
     4095
 91
        1
280
     0
281
     0
  0
CLASS
  1
SCALE
  2
AcDbScale
  3
ObjectDBX Classes
 90
     1153
 91
       17
280
     0
281
     0
  0
CLASS
  1
MLEADERSTYLE
  2
AcDbMLeaderStyle
  3
ACDB_MLEADERSTYLE_CLASS
 90
     4095
 91
        1
280
     0
281
     0
  0
CLASS
  1
AEC_REFEDIT_STATUS_TRACKER
  2
AecDbRefEditStatusTracker
  3
AecArchBase50|Product Desc: Autodesk Architectural Desktop 2007 |Company: Autodesk,Inc. |WEB Address: www.autodesk.com
 90
      129
 91
        1
280
     0
281
     0
  0
CLASS
  1
NPOCOLLECTION
  2
AcDbImpNonPersistentObjectsCollection
  3
ObjectDBX Classes
 90
     1153
 91
        1
280
     0
281
     0
  0
CLASS
  1
CELLSTYLEMAP
  2
AcDbCellStyleMap
  3
ObjectDBX Classes
 90
     1152
 91
        1
280
     0
281
     0
  0
ENDSEC
  0
SECTION
  2
TABLES
  0
TABLE
  2
VPORT
  5
7
330
0
100
AcDbSymbolTable
 70
     1
  0
VPORT
  5
15
330
7
100
AcDbSymbolTableRecord
100
AcDbViewportTableRecord
  2
*ACTIVE
 70
     0
 10
0.0
 20
0.0
 11
1.0
 21
1.0
 12
196.9874426599769
 22
152.2000393262602
 13
0.0
 23
0.0
 14
1.0
 24
1.0
 15
0.0
 25
0.0
 16
0.0
 26
0.0
 36
1.0
 17
0.0
 27
0.0
 37
0.0
 40
110.7426268721863
 41
1.31063829787234
 42
50.0
 43
0.0
 44
0.0
 50
0.0
 51
0.0
 71
     0
 72
   100
 73
     1
 74
     1
 75
     0
 76
     0
 77
     0
 78
     0
281
     0
 65
     0
110
0.0
120
0.0
130
0.0
111
1.0
121
0.0
131
0.0
112
0.0
122
1.0
132
0.0
 79
     0
146
0.0
348
4AD
 60
     3
 61
     5
292
     1
282
     1
141
0.0
142
0.0
 63
   250
421
  3355443
  0
ENDTAB
  0
TABLE
  2
LTYPE
  5
4
330
0
100
AcDbSymbolTable
 70
     1
  0
LTYPE
  5
11
330
4
100
AcDbSymbolTableRecord
100
AcDbLinetypeTableRecord
  2
ByBlock
 70
     0
  3

 72
    65
 73
     0
 40
0.0
  0
LTYPE
  5
12
330
4
100
AcDbSymbolTableRecord
100
AcDbLinetypeTableRecord
  2
ByLayer
 70
     0
  3

 72
    65
 73
     0
 40
0.0
  0
LTYPE
  5
13
330
4
100
AcDbSymbolTableRecord
100
AcDbLinetypeTableRecord
  2
Continuous
 70
     0
  3
Solid line
 72
    65
 73
     0
 40
0.0
  0
ENDTAB
  0
TABLE
  2
LAYER
  5
2
330
0
100
AcDbSymbolTable
 70
     3
  0
LAYER
  5
14
102
{ACAD_XDICTIONARY
360
51B
102
}
330
2
100
AcDbSymbolTableRecord
100
AcDbLayerTableRecord
  2
0
 70
     0
 62
     7
  6
Continuous
370
    -3
390
1D
347
49F
  0
LAYER
  5
4DA
330
2
100
AcDbSymbolTableRecord
100
AcDbLayerTableRecord
  2
Defpoints
 70
     0
 62
     7
  6
Continuous
290
     0
370
    -3
390
1D
347
49F
  0
LAYER
  5
4E8
102
{ACAD_XDICTIONARY
360
4E9
102
}
330
2
100
AcDbSymbolTableRecord
100
AcDbLayerTableRecord
  2
Cotation-JacobDelafon
 70
     0
 62
     8
  6
Continuous
370
    -3
390
1D
347
49F
  0
ENDTAB
  0
TABLE
  2
STYLE
  5
3
330
0
100
AcDbSymbolTable
 70
     7
  0
STYLE
  5
17
330
3
100
AcDbSymbolTableRecord
100
AcDbTextStyleTableRecord
  2
Standard
 70
     0
 40
0.0
 41
1.0
 50
0.0
 71
     0
 42
0.0
  3
txt
  4

  0
STYLE
  5
24
330
3
100
AcDbSymbolTableRecord
100
AcDbTextStyleTableRecord
  2
STD
 70
     0
 40
0.0
 41
1.0
 50
0.0
 71
     0
 42
0.0
  3
txt
  4

  0
STYLE
  5
25
330
3
100
AcDbSymbolTableRecord
100
AcDbTextStyleTableRecord
  2
TATESTD
 70
     4
 40
0.0
 41
1.0
 50
0.0
 71
     0
 42
0.0
  3
txt
  4

  0
STYLE
  5
26
330
3
100
AcDbSymbolTableRecord
100
AcDbTextStyleTableRecord
  2
KANJISTD
 70
     0
 40
0.0
 41
1.0
 50
0.0
 71
     0
 42
0.0
  3
txt
  4
extfont
  0
STYLE
  5
27
330
3
100
AcDbSymbolTableRecord
100
AcDbTextStyleTableRecord
  2
KANJITATE
 70
     4
 40
0.0
 41
1.0
 50
0.0
 71
     0
 42
0.0
  3
txt
  4
extfont
  0
STYLE
  5
4DB
330
3
100
AcDbSymbolTableRecord
100
AcDbTextStyleTableRecord
  2
Annotative
 70
     0
 40
0.0
 41
1.0
 50
0.0
 71
     0
 42
0.2
  3
txt
  4

1001
AcadAnnotative
1000
AnnotativeData
1002
{
1070
     1
1070
     1
1002
}
  0
STYLE
  5
4DC
330
3
100
AcDbSymbolTableRecord
100
AcDbTextStyleTableRecord
  2
Jacob-Delafon
 70
     0
 40
0.0
 41
1.0
 50
0.0
 71
     0
 42
2.5
  3
ARIAL.TTF
  4

1001
ACAD
1000
Arial
1071
       34
  0
ENDTAB
  0
TABLE
  2
VIEW
  5
5
330
0
100
AcDbSymbolTable
 70
     1
  0
ENDTAB
  0
TABLE
  2
UCS
  5
6
330
0
100
AcDbSymbolTable
 70
     0
  0
ENDTAB
  0
TABLE
  2
APPID
  5
8
330
0
100
AcDbSymbolTable
 70
     3
  0
APPID
  5
16
330
8
100
AcDbSymbolTableRecord
100
AcDbRegAppTableRecord
  2
ACAD
 70
     0
  0
APPID
  5
4CF
330
8
100
AcDbSymbolTableRecord
100
AcDbRegAppTableRecord
  2
ACAD_MLEADERVER
 70
     0
  0
APPID
  5
4DF
330
8
100
AcDbSymbolTableRecord
100
AcDbRegAppTableRecord
  2
AcadAnnotative
 70
     0
  0
ENDTAB
  0
TABLE
  2
DIMSTYLE
  5
9
330
0
100
AcDbSymbolTable
 70
     3
100
AcDbDimStyleTable
 71
     1
340
4DE
  0
DIMSTYLE
105
18
330
9
100
AcDbSymbolTableRecord
100
AcDbDimStyleTableRecord
  2
Standard
 70
     0
340
17
  0
DIMSTYLE
105
4DD
330
9
100
AcDbSymbolTableRecord
100
AcDbDimStyleTableRecord
  2
Annotative
 70
     0
340
17
1001
AcadAnnotative
1000
AnnotativeData
1002
{
1070
     1
1070
     1
1002
}
  0
DIMSTYLE
105
4DE
102
{ACAD_REACTORS
330
4EF
330
4FC
102
}
330
9
100
AcDbSymbolTableRecord
100
AcDbDimStyleTableRecord
  2
Cotation-Jacob-Delafon
 70
     0
 41
1.8
 42
0.625
 43
3.799999999999998
 44
1.8
 73
     0
 74
     0
 77
     1
 78
    12
 79
     3
140
3.0
141
0.9
147
0.9
271
     2
272
     2
279
     2
340
4DC
341
4D6
342
4D6
  0
ENDTAB
  0
TABLE
  2
BLOCK_RECORD
  5
1
330
0
100
AcDbSymbolTable
 70
     5
  0
BLOCK_RECORD
  5
A
330
1
100
AcDbSymbolTableRecord
100
AcDbBlockTableRecord
  2
*MODEL_SPACE
340
20
 70
     0
280
     1
281
     0
  0
BLOCK_RECORD
  5
B
330
1
100
AcDbSymbolTableRecord
100
AcDbBlockTableRecord
  2
*PAPER_SPACE
340
21
 70
     0
280
     1
281
     0
  0
BLOCK_RECORD
  5
4D6
330
1
100
AcDbSymbolTableRecord
100
AcDbBlockTableRecord
  2
_Oblique
340
0
102
{BLKREFS
331
50C
331
50D
331
515
331
516
102
}
 70
     0
280
     1
281
     0
  0
BLOCK_RECORD
  5
4F0
330
1
100
AcDbSymbolTableRecord
100
AcDbBlockTableRecord
  2
*D3
340
0
 70
     0
280
     1
281
     0
  0
BLOCK_RECORD
  5
4FD
330
1
100
AcDbSymbolTableRecord
100
AcDbBlockTableRecord
  2
*D4
340
0
 70
     0
280
     1
281
     0
  0
ENDTAB
  0
ENDSEC
  0
SECTION
  2
BLOCKS
  0
BLOCK
  5
D
330
A
100
AcDbEntity
  8
0
100
AcDbBlockBegin
  2
*MODEL_SPACE
 70
     0
 10
0.0
 20
0.0
 30
0.0
  3
*MODEL_SPACE
  1

  0
ENDBLK
  5
E
330
A
100
AcDbEntity
  8
0
100
AcDbBlockEnd
  0
BLOCK
  5
F
330
B
100
AcDbEntity
 67
     1
  8
0
100
AcDbBlockBegin
  2
*PAPER_SPACE
 70
     0
 10
0.0
 20
0.0
 30
0.0
  3
*PAPER_SPACE
  1

  0
ENDBLK
  5
10
330
B
100
AcDbEntity
 67
     1
  8
0
100
AcDbBlockEnd
  0
BLOCK
  5
4D7
330
4D6
100
AcDbEntity
  8
0
100
AcDbBlockBegin
  2
_Oblique
 70
     0
 10
0.0
 20
0.0
 30
0.0
  3
_Oblique
  1

  0
LINE
  5
4D8
330
4D6
100
AcDbEntity
  8
0
  6
ByBlock
 62
     0
370
    -2
380
     1
100
AcDbLine
 10
-0.5
 20
-0.5
 30
0.0
 11
0.5
 21
0.5
 31
0.0
  0
ENDBLK
  5
4D9
330
4D6
100
AcDbEntity
  8
0
100
AcDbBlockEnd
  0
BLOCK
  5
4F1
330
4F0
100
AcDbEntity
  8
0
370
     0
100
AcDbBlockBegin
  2
*D3
 70
     1
 10
0.0
 20
0.0
 30
0.0
  3
*D3
  1

  0
LINE
  5
509
330
4F0
100
AcDbEntity
  8
Cotation-JacobDelafon
  6
Continuous
 62
     0
370
    -2
100
AcDbLine
 10
183.222064
 20
180.835878
 30
0.0
 11
183.222064
 21
203.6459904300116
 31
0.0
  0
LINE
  5
50A
330
4F0
100
AcDbEntity
  8
Cotation-JacobDelafon
  6
Continuous
 62
     0
370
    -2
100
AcDbLine
 10
217.485433
 20
179.536732
 30
0.0
 11
217.485433
 21
203.6459904300116
 31
0.0
  0
LINE
  5
50B
330
4F0
100
AcDbEntity
  8
Cotation-JacobDelafon
  6
Continuous
 62
     0
370
    -2
100
AcDbLine
 10
183.222064
 20
201.8459904300116
 30
0.0
 11
217.485433
 21
201.8459904300116
 31
0.0
  0
INSERT
  5
50C
330
4F0
100
AcDbEntity
  8
Cotation-JacobDelafon
  6
Continuous
 62
     0
370
    -2
100
AcDbBlockReference
  2
_Oblique
 10
183.222064
 20
201.8459904300116
 30
0.0
 41
1.8
 42
1.8
 43
1.8
 50
180.0
  0
INSERT
  5
50D
330
4F0
100
AcDbEntity
  8
Cotation-JacobDelafon
  6
Continuous
 62
     0
370
    -2
100
AcDbBlockReference
  2
_Oblique
 10
217.485433
 20
201.8459904300116
 30
0.0
 41
1.8
 42
1.8
 43
1.8
  0
MTEXT
  5
50E
330
4F0
100
AcDbEntity
  8
Cotation-JacobDelafon
  6
Continuous
 62
     0
370
     0
100
AcDbMText
 10
200.3537485
 20
204.2787325855368
 30
0.0
 40
3.0
 41
0.0
 46
0.0
 71
     5
 72
     1
  1
\A1;34
  7
Jacob-Delafon
 73
     1
 44
1.0
  0
POINT
  5
50F
330
4F0
100
AcDbEntity
  8
Defpoints
  6
Continuous
 62
     0
370
     0
100
AcDbPoint
 10
183.222064
 20
180.210878
 30
0.0
  0
POINT
  5
510
330
4F0
100
AcDbEntity
  8
Defpoints
  6
Continuous
 62
     0
370
     0
100
AcDbPoint
 10
217.485433
 20
178.911732
 30
0.0
  0
POINT
  5
511
330
4F0
100
AcDbEntity
  8
Defpoints
  6
Continuous
 62
     0
370
     0
100
AcDbPoint
 10
217.485433
 20
201.8459904300116
 30
0.0
  0
ENDBLK
  5
4F2
330
4F0
100
AcDbEntity
  8
0
370
     0
100
AcDbBlockEnd
  0
BLOCK
  5
4FE
330
4FD
100
AcDbEntity
  8
0
370
     0
100
AcDbBlockBegin
  2
*D4
 70
     1
 10
0.0
 20
0.0
 30
0.0
  3
*D4
  1

  0
LINE
  5
512
330
4FD
100
AcDbEntity
  8
Cotation-JacobDelafon
  6
Continuous
 62
     0
370
    -2
100
AcDbLine
 10
187.189548
 20
180.360739
 30
0.0
 11
158.7838764964855
 21
180.360739
 31
0.0
  0
LINE
  5
513
330
4FD
100
AcDbEntity
  8
Cotation-JacobDelafon
  6
Continuous
 62
     0
370
    -2
100
AcDbLine
 10
187.128053
 20
119.450073
 30
0.0
 11
158.7838764964855
 21
119.450073
 31
0.0
  0
LINE
  5
514
330
4FD
100
AcDbEntity
  8
Cotation-JacobDelafon
  6
Continuous
 62
     0
370
    -2
100
AcDbLine
 10
160.5838764964856
 20
180.360739
 30
0.0
 11
160.5838764964856
 21
119.450073
 31
0.0
  0
INSERT
  5
515
330
4FD
100
AcDbEntity
  8
Cotation-JacobDelafon
  6
Continuous
 62
     0
370
    -2
100
AcDbBlockReference
  2
_Oblique
 10
160.5838764964856
 20
180.360739
 30
0.0
 41
1.8
 42
1.8
 43
1.8
 50
90.0
  0
INSERT
  5
516
330
4FD
100
AcDbEntity
  8
Cotation-JacobDelafon
  6
Continuous
 62
     0
370
    -2
100
AcDbBlockReference
  2
_Oblique
 10
160.5838764964856
 20
119.450073
 30
0.0
 41
1.8
 42
1.8
 43
1.8
 50
270.0
  0
MTEXT
  5
517
330
4FD
100
AcDbEntity
  8
Cotation-JacobDelafon
  6
Continuous
 62
     0
370
     0
100
AcDbMText
 10
158.1521575333204
 20
149.905406
 30
0.0
 40
3.0
 41
0.0
 46
0.0
 71
     5
 72
     1
  1
\A1;61
  7
Jacob-Delafon
 11
0.0000000000000001
 21
1.0
 31
0.0
 73
     1
 44
1.0
  0
POINT
  5
518
330
4FD
100
AcDbEntity
  8
Defpoints
  6
Continuous
 62
     0
370
     0
100
AcDbPoint
 10
187.814548
 20
180.360739
 30
0.0
  0
POINT
  5
519
330
4FD
100
AcDbEntity
  8
Defpoints
  6
Continuous
 62
     0
370
     0
100
AcDbPoint
 10
187.753053
 20
119.450073
 30
0.0
  0
POINT
  5
51A
330
4FD
100
AcDbEntity
  8
Defpoints
  6
Continuous
 62
     0
370
     0
100
AcDbPoint
 10
160.5838764964856
 20
119.450073
 30
0.0
  0
ENDBLK
  5
4FF
330
4FD
100
AcDbEntity
  8
0
370
     0
100
AcDbBlockEnd
  0
ENDSEC
  0
SECTION
  2
ENTITIES
  0
LINE
  5
48B
330
A
100
AcDbEntity
  8
0
 62
     7
100
AcDbLine
 10
191.072747
 20
167.901379
 30
0.0
 11
191.367647
 21
167.704148
 31
0.0
  0
LINE
  5
48A
330
A
100
AcDbEntity
  8
0
 62
     7
100
AcDbLine
 10
190.74753
 20
168.387999
 30
0.0
 11
191.072747
 21
167.901379
 31
0.0
  0
LINE
  5
489
330
A
100
AcDbEntity
  8
0
 62
     7
100
AcDbLine
 10
190.633325
 20
168.961952
 30
0.0
 11
190.74753
 21
168.387999
 31
0.0
  0
LINE
  5
488
330
A
100
AcDbEntity
  8
0
 62
     7
100
AcDbLine
 10
190.74753
 20
169.536077
 30
0.0
 11
190.633325
 21
168.961952
 31
0.0
  0
LINE
  5
487
330
A
100
AcDbEntity
  8
0
 62
     7
100
AcDbLine
 10
191.072747
 20
170.022697
 30
0.0
 11
190.74753
 21
169.536077
 31
0.0
  0
LINE
  5
486
330
A
100
AcDbEntity
  8
0
 62
     7
100
AcDbLine
 10
192.707445
 20
170.347742
 30
0.0
 11
192.13332
 21
170.461947
 31
0.0
  0
LINE
  5
485
330
A
100
AcDbEntity
  8
0
 62
     7
100
AcDbLine
 10
193.194065
 20
170.022697
 30
0.0
 11
192.707445
 21
170.347742
 31
0.0
  0
LINE
  5
484
330
A
100
AcDbEntity
  8
0
 62
     7
100
AcDbLine
 10
193.519282
 20
169.535905
 30
0.0
 11
193.194065
 21
170.022697
 31
0.0
  0
LINE
  5
483
330
A
100
AcDbEntity
  8
0
 62
     7
100
AcDbLine
 10
193.633314
 20
168.961952
 30
0.0
 11
193.519282
 21
169.535905
 31
0.0
  0
LINE
  5
482
330
A
100
AcDbEntity
  8
0
 62
     7
100
AcDbLine
 10
193.631247
 20
168.950928
 30
0.0
 11
193.633314
 21
168.961952
 31
0.0
  0
LINE
  5
481
330
A
100
AcDbEntity
  8
0
 62
     7
100
AcDbLine
 10
192.13332
 20
170.461947
 30
0.0
 11
188.008851
 21
170.461947
 31
0.0
  0
LINE
  5
480
330
A
100
AcDbEntity
  8
0
 62
     7
100
AcDbLine
 10
191.089111
 20
170.111925
 30
0.0
 11
188.114616
 21
170.111925
 31
0.0
  0
LINE
  5
47F
330
A
100
AcDbEntity
  8
0
 62
     7
100
AcDbLine
 10
185.812086
 20
170.92669
 30
0.0
 11
185.294116
 21
170.961141
 31
0.0
  0
LINE
  5
47E
330
A
100
AcDbEntity
  8
0
 62
     7
100
AcDbLine
 10
186.498177
 20
170.886555
 30
0.0
 11
187.486575
 21
170.780446
 31
0.0
  0
LINE
  5
47D
330
A
100
AcDbEntity
  8
0
 62
     7
100
AcDbLine
 10
185.812086
 20
170.931341
 30
0.0
 11
186.498177
 21
170.886555
 31
0.0
  0
LINE
  5
47C
330
A
100
AcDbEntity
  8
0
 62
     7
100
AcDbLine
 10
185.294116
 20
170.961141
 30
0.0
 11
184.817143
 21
170.92669
 31
0.0
  0
LINE
  5
47B
330
A
100
AcDbEntity
  8
0
 62
     7
100
AcDbLine
 10
183.142654
 20
170.780446
 30
0.0
 11
184.068696
 21
170.886555
 31
0.0
  0
LINE
  5
47A
330
A
100
AcDbEntity
  8
0
 62
     7
100
AcDbLine
 10
184.068696
 20
170.886555
 30
0.0
 11
184.817143
 21
170.931341
 31
0.0
  0
LINE
  5
479
330
A
100
AcDbEntity
  8
0
 62
     7
100
AcDbLine
 10
182.690485
 20
165.978155
 30
0.0
 11
182.6901409999999
 21
166.826682
 31
0.0
  0
LINE
  5
478
330
A
100
AcDbEntity
  8
0
 62
     7
100
AcDbLine
 10
182.690485
 20
165.978155
 30
0.0
 11
182.825705
 21
165.73028
 31
0.0
  0
LINE
  5
477
330
A
100
AcDbEntity
  8
0
 62
     7
100
AcDbLine
 10
182.6901409999999
 20
166.826682
 30
0.0
 11
182.824672
 21
167.07559
 31
0.0
  0
LINE
  5
476
330
A
100
AcDbEntity
  8
0
 62
     7
100
AcDbLine
 10
182.825705
 20
165.73028
 30
0.0
 11
182.698581
 21
165.79901
 31
0.0
  0
LINE
  5
475
330
A
100
AcDbEntity
  8
0
 62
     7
100
AcDbLine
 10
182.825705
 20
165.73028
 30
0.0
 11
183.172971
 21
165.620898
 31
0.0
  0
LINE
  5
474
330
A
100
AcDbEntity
  8
0
 62
     7
100
AcDbLine
 10
182.824672
 20
167.07559
 30
0.0
 11
183.172626
 21
167.185661
 31
0.0
  0
LINE
  5
473
330
A
100
AcDbEntity
  8
0
 62
     7
100
AcDbLine
 10
182.698581
 20
167.39185
 30
0.0
 11
182.824672
 21
167.07559
 31
0.0
  0
LINE
  5
472
330
A
100
AcDbEntity
  8
0
 62
     7
100
AcDbLine
 10
183.172971
 20
165.620898
 30
0.0
 11
185.314615
 21
165.598505
 31
0.0
  0
LINE
  5
471
330
A
100
AcDbEntity
  8
0
 62
     7
100
AcDbLine
 10
183.172626
 20
167.185661
 30
0.0
 11
185.314615
 21
167.178254
 31
0.0
  0
LINE
  5
470
330
A
100
AcDbEntity
  8
0
 62
     7
100
AcDbLine
 10
185.314615
 20
165.598505
 30
0.0
 11
187.456258
 21
165.620898
 31
0.0
  0
LINE
  5
46F
330
A
100
AcDbEntity
  8
0
 62
     7
100
AcDbLine
 10
185.314615
 20
167.178254
 30
0.0
 11
187.456603
 21
167.185661
 31
0.0
  0
LINE
  5
46E
330
A
100
AcDbEntity
  8
0
 62
     7
100
AcDbLine
 10
187.456258
 20
165.620898
 30
0.0
 11
187.803524
 21
165.730108
 31
0.0
  0
LINE
  5
46D
330
A
100
AcDbEntity
  8
0
 62
     7
100
AcDbLine
 10
187.456603
 20
167.185661
 30
0.0
 11
187.804557
 21
167.07559
 31
0.0
  0
LINE
  5
46C
330
A
100
AcDbEntity
  8
0
 62
     7
100
AcDbLine
 10
187.803524
 20
165.730108
 30
0.0
 11
187.930648
 21
165.79901
 31
0.0
  0
LINE
  5
46B
330
A
100
AcDbEntity
  8
0
 62
     7
100
AcDbLine
 10
187.803524
 20
165.730108
 30
0.0
 11
187.938572
 21
165.978155
 31
0.0
  0
LINE
  5
46A
330
A
100
AcDbEntity
  8
0
 62
     7
100
AcDbLine
 10
187.804557
 20
167.07559
 30
0.0
 11
187.939088
 21
166.826682
 31
0.0
  0
LINE
  5
469
330
A
100
AcDbEntity
  8
0
 62
     7
100
AcDbLine
 10
187.930648
 20
167.39185
 30
0.0
 11
187.804557
 21
167.07559
 31
0.0
  0
LINE
  5
468
330
A
100
AcDbEntity
  8
0
 62
     7
100
AcDbLine
 10
187.938572
 20
165.978155
 30
0.0
 11
187.939088
 21
166.826682
 31
0.0
  0
LINE
  5
467
330
A
100
AcDbEntity
  8
0
 62
     7
100
AcDbLine
 10
188.114616
 20
167.054747
 30
0.0
 11
188.114616
 21
166.13594
 31
0.0
  0
LINE
  5
466
330
A
100
AcDbEntity
  8
0
 62
     7
100
AcDbLine
 10
182.514613
 20
166.13594
 30
0.0
 11
182.514613
 21
167.054747
 31
0.0
  0
LINE
  5
465
330
A
100
AcDbEntity
  8
0
 62
     7
100
AcDbLine
 10
182.514613
 20
170.243872
 30
0.0
 11
182.514613
 21
170.121916
 31
0.0
  0
LINE
  5
464
330
A
100
AcDbEntity
  8
0
 62
     7
100
AcDbLine
 10
182.698581
 20
170.623349
 30
0.0
 11
182.514613
 21
170.243872
 31
0.0
  0
LINE
  5
463
330
A
100
AcDbEntity
  8
0
 62
     7
100
AcDbLine
 10
182.698581
 20
170.623349
 30
0.0
 11
182.698581
 21
170.484167
 31
0.0
  0
LINE
  5
462
330
A
100
AcDbEntity
  8
0
 62
     7
100
AcDbLine
 10
183.142654
 20
170.780446
 30
0.0
 11
182.698581
 21
170.623349
 31
0.0
  0
LINE
  5
461
330
A
100
AcDbEntity
  8
0
 62
     7
100
AcDbLine
 10
187.930648
 20
170.623349
 30
0.0
 11
187.486575
 21
170.780446
 31
0.0
  0
LINE
  5
460
330
A
100
AcDbEntity
  8
0
 62
     7
100
AcDbLine
 10
187.930648
 20
170.623349
 30
0.0
 11
187.930648
 21
170.484167
 31
0.0
  0
LINE
  5
45F
330
A
100
AcDbEntity
  8
0
 62
     7
100
AcDbLine
 10
188.114616
 20
170.243872
 30
0.0
 11
187.930648
 21
170.623349
 31
0.0
  0
LINE
  5
45E
330
A
100
AcDbEntity
  8
0
 62
     7
100
AcDbLine
 10
188.114616
 20
170.121916
 30
0.0
 11
188.114616
 21
170.243872
 31
0.0
  0
LINE
  5
45D
330
A
100
AcDbEntity
  8
0
 62
     7
100
AcDbLine
 10
182.514613
 20
170.121916
 30
0.0
 11
182.514613
 21
169.776717
 31
0.0
  0
LINE
  5
45C
330
A
100
AcDbEntity
  8
0
 62
     7
100
AcDbLine
 10
182.698581
 20
170.484167
 30
0.0
 11
182.698581
 21
170.117609
 31
0.0
  0
LINE
  5
45B
330
A
100
AcDbEntity
  8
0
 62
     7
100
AcDbLine
 10
187.930648
 20
170.484167
 30
0.0
 11
187.930648
 21
170.117609
 31
0.0
  0
LINE
  5
45A
330
A
100
AcDbEntity
  8
0
 62
     7
100
AcDbLine
 10
188.114616
 20
169.776545
 30
0.0
 11
188.114616
 21
170.121916
 31
0.0
  0
LINE
  5
459
330
A
100
AcDbEntity
  8
0
 62
     7
100
AcDbLine
 10
188.114616
 20
166.13594
 30
0.0
 11
187.930648
 21
165.79901
 31
0.0
  0
LINE
  5
458
330
A
100
AcDbEntity
  8
0
 62
     7
100
AcDbLine
 10
182.698581
 20
165.79901
 30
0.0
 11
182.514613
 21
166.13594
 31
0.0
  0
LINE
  5
457
330
A
100
AcDbEntity
  8
0
 62
     7
100
AcDbLine
 10
182.514613
 20
169.776717
 30
0.0
 11
182.514613
 21
167.054747
 31
0.0
  0
LINE
  5
456
330
A
100
AcDbEntity
  8
0
 62
     7
100
AcDbLine
 10
182.698581
 20
170.117609
 30
0.0
 11
182.698581
 21
167.39185
 31
0.0
  0
LINE
  5
455
330
A
100
AcDbEntity
  8
0
 62
     7
100
AcDbLine
 10
187.930648
 20
170.117609
 30
0.0
 11
187.930648
 21
167.39185
 31
0.0
  0
LINE
  5
454
330
A
100
AcDbEntity
  8
0
 62
     7
100
AcDbLine
 10
188.114616
 20
167.054747
 30
0.0
 11
188.114616
 21
169.776545
 31
0.0
  0
LINE
  5
453
330
A
100
AcDbEntity
  8
0
 62
     7
100
AcDbLine
 10
205.209524
 20
172.550019
 30
0.0
 11
205.209524
 21
172.464753
 31
0.0
  0
LINE
  5
452
330
A
100
AcDbEntity
  8
0
 62
     7
100
AcDbLine
 10
204.997651
 20
172.314719
 30
0.0
 11
204.944596
 21
172.314719
 31
0.0
  0
LINE
  5
451
330
A
100
AcDbEntity
  8
0
 62
     7
100
AcDbLine
 10
205.028312
 20
172.314719
 30
0.0
 11
204.997651
 21
172.314719
 31
0.0
  0
LINE
  5
450
330
A
100
AcDbEntity
  8
0
 62
     7
100
AcDbLine
 10
205.048638
 20
172.314719
 30
0.0
 11
205.028312
 21
172.314719
 31
0.0
  0
LINE
  5
44F
330
A
100
AcDbEntity
  8
0
 62
     7
100
AcDbLine
 10
205.059663
 20
172.314719
 30
0.0
 11
205.048638
 21
172.314719
 31
0.0
  0
LINE
  5
44E
330
A
100
AcDbEntity
  8
0
 62
     7
100
AcDbLine
 10
198.208229
 20
172.314719
 30
0.0
 11
198.197549
 21
172.314719
 31
0.0
  0
LINE
  5
44D
330
A
100
AcDbEntity
  8
0
 62
     7
100
AcDbLine
 10
198.228727
 20
172.314719
 30
0.0
 11
198.208229
 21
172.314719
 31
0.0
  0
LINE
  5
44C
330
A
100
AcDbEntity
  8
0
 62
     7
100
AcDbLine
 10
198.259216
 20
172.314719
 30
0.0
 11
198.228727
 21
172.314719
 31
0.0
  0
LINE
  5
44B
330
A
100
AcDbEntity
  8
0
 62
     7
100
AcDbLine
 10
198.312443
 20
172.314719
 30
0.0
 11
198.259216
 21
172.314719
 31
0.0
  0
LINE
  5
44A
330
A
100
AcDbEntity
  8
0
 62
     7
100
AcDbLine
 10
204.944596
 20
172.314719
 30
0.0
 11
203.399127
 21
172.314719
 31
0.0
  0
LINE
  5
449
330
A
100
AcDbEntity
  8
0
 62
     7
100
AcDbLine
 10
203.049105
 20
172.314719
 30
0.0
 11
202.587118
 21
172.314719
 31
0.0
  0
LINE
  5
448
330
A
100
AcDbEntity
  8
0
 62
     7
100
AcDbLine
 10
202.236751
 20
172.314719
 30
0.0
 11
201.777176
 21
172.314719
 31
0.0
  0
LINE
  5
447
330
A
100
AcDbEntity
  8
0
 62
     7
100
AcDbLine
 10
201.426809
 20
172.314719
 30
0.0
 11
200.967234
 21
172.314719
 31
0.0
  0
LINE
  5
446
330
A
100
AcDbEntity
  8
0
 62
     7
100
AcDbLine
 10
200.616867
 20
172.314719
 30
0.0
 11
200.157119
 21
172.314719
 31
0.0
  0
LINE
  5
445
330
A
100
AcDbEntity
  8
0
 62
     7
100
AcDbLine
 10
199.806925
 20
172.314719
 30
0.0
 11
198.312443
 21
172.314719
 31
0.0
  0
LINE
  5
444
330
A
100
AcDbEntity
  8
0
 62
     7
100
AcDbLine
 10
199.806925
 20
172.105946
 30
0.0
 11
199.806925
 21
172.314719
 31
0.0
  0
LINE
  5
443
330
A
100
AcDbEntity
  8
0
 62
     7
100
AcDbLine
 10
199.840343
 20
172.105946
 30
0.0
 11
199.928021
 21
172.105946
 31
0.0
  0
LINE
  5
442
330
A
100
AcDbEntity
  8
0
 62
     7
100
AcDbLine
 10
199.806925
 20
172.105946
 30
0.0
 11
199.840343
 21
172.105946
 31
0.0
  0
LINE
  5
441
330
A
100
AcDbEntity
  8
0
 62
     7
100
AcDbLine
 10
199.840343
 20
172.105946
 30
0.0
 11
199.806925
 21
172.105946
 31
0.0
  0
LINE
  5
440
330
A
100
AcDbEntity
  8
0
 62
     7
100
AcDbLine
 10
199.928021
 20
172.105946
 30
0.0
 11
199.840343
 21
172.105946
 31
0.0
  0
LINE
  5
43F
330
A
100
AcDbEntity
  8
0
 62
     7
100
AcDbLine
 10
200.036197
 20
172.105946
 30
0.0
 11
199.928021
 21
172.105946
 31
0.0
  0
LINE
  5
43E
330
A
100
AcDbEntity
  8
0
 62
     7
100
AcDbLine
 10
200.123702
 20
172.105946
 30
0.0
 11
200.036197
 21
172.105946
 31
0.0
  0
LINE
  5
43D
330
A
100
AcDbEntity
  8
0
 62
     7
100
AcDbLine
 10
200.157119
 20
172.105946
 30
0.0
 11
200.123702
 21
172.105946
 31
0.0
  0
LINE
  5
43C
330
A
100
AcDbEntity
  8
0
 62
     7
100
AcDbLine
 10
200.123702
 20
172.105946
 30
0.0
 11
200.157119
 21
172.105946
 31
0.0
  0
LINE
  5
43B
330
A
100
AcDbEntity
  8
0
 62
     7
100
AcDbLine
 10
200.036197
 20
172.105946
 30
0.0
 11
200.123702
 21
172.105946
 31
0.0
  0
LINE
  5
43A
330
A
100
AcDbEntity
  8
0
 62
     7
100
AcDbLine
 10
199.928021
 20
172.105946
 30
0.0
 11
200.036197
 21
172.105946
 31
0.0
  0
LINE
  5
439
330
A
100
AcDbEntity
  8
0
 62
     7
100
AcDbLine
 10
200.616867
 20
172.105946
 30
0.0
 11
200.616867
 21
172.314719
 31
0.0
  0
LINE
  5
438
330
A
100
AcDbEntity
  8
0
 62
     7
100
AcDbLine
 10
200.967234
 20
172.314719
 30
0.0
 11
200.967234
 21
172.105946
 31
0.0
  0
LINE
  5
437
330
A
100
AcDbEntity
  8
0
 62
     7
100
AcDbLine
 10
200.650285
 20
172.105946
 30
0.0
 11
200.73779
 21
172.105946
 31
0.0
  0
LINE
  5
436
330
A
100
AcDbEntity
  8
0
 62
     7
100
AcDbLine
 10
200.616867
 20
172.105946
 30
0.0
 11
200.650285
 21
172.105946
 31
0.0
  0
LINE
  5
435
330
A
100
AcDbEntity
  8
0
 62
     7
100
AcDbLine
 10
200.650285
 20
172.105946
 30
0.0
 11
200.616867
 21
172.105946
 31
0.0
  0
LINE
  5
434
330
A
100
AcDbEntity
  8
0
 62
     7
100
AcDbLine
 10
200.73779
 20
172.105946
 30
0.0
 11
200.650285
 21
172.105946
 31
0.0
  0
LINE
  5
433
330
A
100
AcDbEntity
  8
0
 62
     7
100
AcDbLine
 10
200.846311
 20
172.105946
 30
0.0
 11
200.73779
 21
172.105946
 31
0.0
  0
LINE
  5
432
330
A
100
AcDbEntity
  8
0
 62
     7
100
AcDbLine
 10
200.933816
 20
172.105946
 30
0.0
 11
200.846311
 21
172.105946
 31
0.0
  0
LINE
  5
431
330
A
100
AcDbEntity
  8
0
 62
     7
100
AcDbLine
 10
200.967234
 20
172.105946
 30
0.0
 11
200.933816
 21
172.105946
 31
0.0
  0
LINE
  5
430
330
A
100
AcDbEntity
  8
0
 62
     7
100
AcDbLine
 10
200.933816
 20
172.105946
 30
0.0
 11
200.967234
 21
172.105946
 31
0.0
  0
LINE
  5
42F
330
A
100
AcDbEntity
  8
0
 62
     7
100
AcDbLine
 10
200.846311
 20
172.105946
 30
0.0
 11
200.933816
 21
172.105946
 31
0.0
  0
LINE
  5
42E
330
A
100
AcDbEntity
  8
0
 62
     7
100
AcDbLine
 10
200.73779
 20
172.105946
 30
0.0
 11
200.846311
 21
172.105946
 31
0.0
  0
LINE
  5
42D
330
A
100
AcDbEntity
  8
0
 62
     7
100
AcDbLine
 10
201.460227
 20
172.105946
 30
0.0
 11
201.548077
 21
172.105946
 31
0.0
  0
LINE
  5
42C
330
A
100
AcDbEntity
  8
0
 62
     7
100
AcDbLine
 10
201.426809
 20
172.105946
 30
0.0
 11
201.460227
 21
172.105946
 31
0.0
  0
LINE
  5
42B
330
A
100
AcDbEntity
  8
0
 62
     7
100
AcDbLine
 10
201.460227
 20
172.105946
 30
0.0
 11
201.426809
 21
172.105946
 31
0.0
  0
LINE
  5
42A
330
A
100
AcDbEntity
  8
0
 62
     7
100
AcDbLine
 10
201.548077
 20
172.105946
 30
0.0
 11
201.460227
 21
172.105946
 31
0.0
  0
LINE
  5
429
330
A
100
AcDbEntity
  8
0
 62
     7
100
AcDbLine
 10
201.656253
 20
172.105946
 30
0.0
 11
201.548077
 21
172.105946
 31
0.0
  0
LINE
  5
428
330
A
100
AcDbEntity
  8
0
 62
     7
100
AcDbLine
 10
201.743758
 20
172.105946
 30
0.0
 11
201.656253
 21
172.105946
 31
0.0
  0
LINE
  5
427
330
A
100
AcDbEntity
  8
0
 62
     7
100
AcDbLine
 10
201.777176
 20
172.105946
 30
0.0
 11
201.743758
 21
172.105946
 31
0.0
  0
LINE
  5
426
330
A
100
AcDbEntity
  8
0
 62
     7
100
AcDbLine
 10
201.743758
 20
172.105946
 30
0.0
 11
201.777176
 21
172.105946
 31
0.0
  0
LINE
  5
425
330
A
100
AcDbEntity
  8
0
 62
     7
100
AcDbLine
 10
201.656253
 20
172.105946
 30
0.0
 11
201.743758
 21
172.105946
 31
0.0
  0
LINE
  5
424
330
A
100
AcDbEntity
  8
0
 62
     7
100
AcDbLine
 10
201.548077
 20
172.105946
 30
0.0
 11
201.656253
 21
172.105946
 31
0.0
  0
LINE
  5
423
330
A
100
AcDbEntity
  8
0
 62
     7
100
AcDbLine
 10
202.236751
 20
172.105946
 30
0.0
 11
202.236751
 21
172.314719
 31
0.0
  0
LINE
  5
422
330
A
100
AcDbEntity
  8
0
 62
     7
100
AcDbLine
 10
202.358019
 20
172.105946
 30
0.0
 11
202.466195
 21
172.105946
 31
0.0
  0
LINE
  5
421
330
A
100
AcDbEntity
  8
0
 62
     7
100
AcDbLine
 10
202.270513
 20
172.105946
 30
0.0
 11
202.358019
 21
172.105946
 31
0.0
  0
LINE
  5
420
330
A
100
AcDbEntity
  8
0
 62
     7
100
AcDbLine
 10
202.236751
 20
172.105946
 30
0.0
 11
202.270513
 21
172.105946
 31
0.0
  0
LINE
  5
41F
330
A
100
AcDbEntity
  8
0
 62
     7
100
AcDbLine
 10
202.270513
 20
172.105946
 30
0.0
 11
202.236751
 21
172.105946
 31
0.0
  0
LINE
  5
41E
330
A
100
AcDbEntity
  8
0
 62
     7
100
AcDbLine
 10
202.358019
 20
172.105946
 30
0.0
 11
202.270513
 21
172.105946
 31
0.0
  0
LINE
  5
41D
330
A
100
AcDbEntity
  8
0
 62
     7
100
AcDbLine
 10
202.466195
 20
172.105946
 30
0.0
 11
202.358019
 21
172.105946
 31
0.0
  0
LINE
  5
41C
330
A
100
AcDbEntity
  8
0
 62
     7
100
AcDbLine
 10
202.5537
 20
172.105946
 30
0.0
 11
202.466195
 21
172.105946
 31
0.0
  0
LINE
  5
41B
330
A
100
AcDbEntity
  8
0
 62
     7
100
AcDbLine
 10
202.587118
 20
172.105946
 30
0.0
 11
202.5537
 21
172.105946
 31
0.0
  0
LINE
  5
41A
330
A
100
AcDbEntity
  8
0
 62
     7
100
AcDbLine
 10
202.5537
 20
172.105946
 30
0.0
 11
202.587118
 21
172.105946
 31
0.0
  0
LINE
  5
419
330
A
100
AcDbEntity
  8
0
 62
     7
100
AcDbLine
 10
202.466195
 20
172.105946
 30
0.0
 11
202.5537
 21
172.105946
 31
0.0
  0
LINE
  5
418
330
A
100
AcDbEntity
  8
0
 62
     7
100
AcDbLine
 10
203.082522
 20
172.105946
 30
0.0
 11
203.170028
 21
172.105946
 31
0.0
  0
LINE
  5
417
330
A
100
AcDbEntity
  8
0
 62
     7
100
AcDbLine
 10
203.049105
 20
172.105946
 30
0.0
 11
203.082522
 21
172.105946
 31
0.0
  0
LINE
  5
416
330
A
100
AcDbEntity
  8
0
 62
     7
100
AcDbLine
 10
203.082522
 20
172.105946
 30
0.0
 11
203.049105
 21
172.105946
 31
0.0
  0
LINE
  5
415
330
A
100
AcDbEntity
  8
0
 62
     7
100
AcDbLine
 10
203.170028
 20
172.105946
 30
0.0
 11
203.082522
 21
172.105946
 31
0.0
  0
LINE
  5
414
330
A
100
AcDbEntity
  8
0
 62
     7
100
AcDbLine
 10
203.278204
 20
172.105946
 30
0.0
 11
203.170028
 21
172.105946
 31
0.0
  0
LINE
  5
413
330
A
100
AcDbEntity
  8
0
 62
     7
100
AcDbLine
 10
203.365709
 20
172.105946
 30
0.0
 11
203.278204
 21
172.105946
 31
0.0
  0
LINE
  5
412
330
A
100
AcDbEntity
  8
0
 62
     7
100
AcDbLine
 10
203.399127
 20
172.105946
 30
0.0
 11
203.365709
 21
172.105946
 31
0.0
  0
LINE
  5
411
330
A
100
AcDbEntity
  8
0
 62
     7
100
AcDbLine
 10
203.365709
 20
172.105946
 30
0.0
 11
203.399127
 21
172.105946
 31
0.0
  0
LINE
  5
410
330
A
100
AcDbEntity
  8
0
 62
     7
100
AcDbLine
 10
203.278204
 20
172.105946
 30
0.0
 11
203.365709
 21
172.105946
 31
0.0
  0
LINE
  5
40F
330
A
100
AcDbEntity
  8
0
 62
     7
100
AcDbLine
 10
203.170028
 20
172.105946
 30
0.0
 11
203.278204
 21
172.105946
 31
0.0
  0
LINE
  5
40E
330
A
100
AcDbEntity
  8
0
 62
     7
100
AcDbLine
 10
199.806925
 20
172.105946
 30
0.0
 11
199.806925
 21
172.314719
 31
0.0
  0
LINE
  5
40D
330
A
100
AcDbEntity
  8
0
 62
     7
100
AcDbLine
 10
199.840343
 20
172.105946
 30
0.0
 11
199.928021
 21
172.105946
 31
0.0
  0
LINE
  5
40C
330
A
100
AcDbEntity
  8
0
 62
     7
100
AcDbLine
 10
199.806925
 20
172.105946
 30
0.0
 11
199.840343
 21
172.105946
 31
0.0
  0
LINE
  5
40B
330
A
100
AcDbEntity
  8
0
 62
     7
100
AcDbLine
 10
199.840343
 20
172.105946
 30
0.0
 11
199.806925
 21
172.105946
 31
0.0
  0
LINE
  5
40A
330
A
100
AcDbEntity
  8
0
 62
     7
100
AcDbLine
 10
199.928021
 20
172.105946
 30
0.0
 11
199.840343
 21
172.105946
 31
0.0
  0
LINE
  5
409
330
A
100
AcDbEntity
  8
0
 62
     7
100
AcDbLine
 10
200.036197
 20
172.105946
 30
0.0
 11
199.928021
 21
172.105946
 31
0.0
  0
LINE
  5
408
330
A
100
AcDbEntity
  8
0
 62
     7
100
AcDbLine
 10
200.123702
 20
172.105946
 30
0.0
 11
200.036197
 21
172.105946
 31
0.0
  0
LINE
  5
407
330
A
100
AcDbEntity
  8
0
 62
     7
100
AcDbLine
 10
200.157119
 20
172.105946
 30
0.0
 11
200.123702
 21
172.105946
 31
0.0
  0
LINE
  5
406
330
A
100
AcDbEntity
  8
0
 62
     7
100
AcDbLine
 10
200.123702
 20
172.105946
 30
0.0
 11
200.157119
 21
172.105946
 31
0.0
  0
LINE
  5
405
330
A
100
AcDbEntity
  8
0
 62
     7
100
AcDbLine
 10
200.036197
 20
172.105946
 30
0.0
 11
200.123702
 21
172.105946
 31
0.0
  0
LINE
  5
404
330
A
100
AcDbEntity
  8
0
 62
     7
100
AcDbLine
 10
199.928021
 20
172.105946
 30
0.0
 11
200.036197
 21
172.105946
 31
0.0
  0
LINE
  5
403
330
A
100
AcDbEntity
  8
0
 62
     7
100
AcDbLine
 10
200.616867
 20
172.105946
 30
0.0
 11
200.616867
 21
172.314719
 31
0.0
  0
LINE
  5
402
330
A
100
AcDbEntity
  8
0
 62
     7
100
AcDbLine
 10
200.967234
 20
172.314719
 30
0.0
 11
200.967234
 21
172.105946
 31
0.0
  0
LINE
  5
401
330
A
100
AcDbEntity
  8
0
 62
     7
100
AcDbLine
 10
200.650285
 20
172.105946
 30
0.0
 11
200.73779
 21
172.105946
 31
0.0
  0
LINE
  5
400
330
A
100
AcDbEntity
  8
0
 62
     7
100
AcDbLine
 10
200.616867
 20
172.105946
 30
0.0
 11
200.650285
 21
172.105946
 31
0.0
  0
LINE
  5
3FF
330
A
100
AcDbEntity
  8
0
 62
     7
100
AcDbLine
 10
200.650285
 20
172.105946
 30
0.0
 11
200.616867
 21
172.105946
 31
0.0
  0
LINE
  5
3FE
330
A
100
AcDbEntity
  8
0
 62
     7
100
AcDbLine
 10
200.73779
 20
172.105946
 30
0.0
 11
200.650285
 21
172.105946
 31
0.0
  0
LINE
  5
3FD
330
A
100
AcDbEntity
  8
0
 62
     7
100
AcDbLine
 10
200.846311
 20
172.105946
 30
0.0
 11
200.73779
 21
172.105946
 31
0.0
  0
LINE
  5
3FC
330
A
100
AcDbEntity
  8
0
 62
     7
100
AcDbLine
 10
200.933816
 20
172.105946
 30
0.0
 11
200.846311
 21
172.105946
 31
0.0
  0
LINE
  5
3FB
330
A
100
AcDbEntity
  8
0
 62
     7
100
AcDbLine
 10
200.967234
 20
172.105946
 30
0.0
 11
200.933816
 21
172.105946
 31
0.0
  0
LINE
  5
3FA
330
A
100
AcDbEntity
  8
0
 62
     7
100
AcDbLine
 10
200.933816
 20
172.105946
 30
0.0
 11
200.967234
 21
172.105946
 31
0.0
  0
LINE
  5
3F9
330
A
100
AcDbEntity
  8
0
 62
     7
100
AcDbLine
 10
200.846311
 20
172.105946
 30
0.0
 11
200.933816
 21
172.105946
 31
0.0
  0
LINE
  5
3F8
330
A
100
AcDbEntity
  8
0
 62
     7
100
AcDbLine
 10
200.73779
 20
172.105946
 30
0.0
 11
200.846311
 21
172.105946
 31
0.0
  0
LINE
  5
3F7
330
A
100
AcDbEntity
  8
0
 62
     7
100
AcDbLine
 10
201.460227
 20
172.105946
 30
0.0
 11
201.548077
 21
172.105946
 31
0.0
  0
LINE
  5
3F6
330
A
100
AcDbEntity
  8
0
 62
     7
100
AcDbLine
 10
201.426809
 20
172.105946
 30
0.0
 11
201.460227
 21
172.105946
 31
0.0
  0
LINE
  5
3F5
330
A
100
AcDbEntity
  8
0
 62
     7
100
AcDbLine
 10
201.460227
 20
172.105946
 30
0.0
 11
201.426809
 21
172.105946
 31
0.0
  0
LINE
  5
3F4
330
A
100
AcDbEntity
  8
0
 62
     7
100
AcDbLine
 10
201.548077
 20
172.105946
 30
0.0
 11
201.460227
 21
172.105946
 31
0.0
  0
LINE
  5
3F3
330
A
100
AcDbEntity
  8
0
 62
     7
100
AcDbLine
 10
201.656253
 20
172.105946
 30
0.0
 11
201.548077
 21
172.105946
 31
0.0
  0
LINE
  5
3F2
330
A
100
AcDbEntity
  8
0
 62
     7
100
AcDbLine
 10
201.743758
 20
172.105946
 30
0.0
 11
201.656253
 21
172.105946
 31
0.0
  0
LINE
  5
3F1
330
A
100
AcDbEntity
  8
0
 62
     7
100
AcDbLine
 10
201.777176
 20
172.105946
 30
0.0
 11
201.743758
 21
172.105946
 31
0.0
  0
LINE
  5
3F0
330
A
100
AcDbEntity
  8
0
 62
     7
100
AcDbLine
 10
201.743758
 20
172.105946
 30
0.0
 11
201.777176
 21
172.105946
 31
0.0
  0
LINE
  5
3EF
330
A
100
AcDbEntity
  8
0
 62
     7
100
AcDbLine
 10
201.656253
 20
172.105946
 30
0.0
 11
201.743758
 21
172.105946
 31
0.0
  0
LINE
  5
3EE
330
A
100
AcDbEntity
  8
0
 62
     7
100
AcDbLine
 10
201.548077
 20
172.105946
 30
0.0
 11
201.656253
 21
172.105946
 31
0.0
  0
LINE
  5
3ED
330
A
100
AcDbEntity
  8
0
 62
     7
100
AcDbLine
 10
202.236751
 20
172.105946
 30
0.0
 11
202.236751
 21
172.314719
 31
0.0
  0
LINE
  5
3EC
330
A
100
AcDbEntity
  8
0
 62
     7
100
AcDbLine
 10
202.358019
 20
172.105946
 30
0.0
 11
202.466195
 21
172.105946
 31
0.0
  0
LINE
  5
3EB
330
A
100
AcDbEntity
  8
0
 62
     7
100
AcDbLine
 10
202.270513
 20
172.105946
 30
0.0
 11
202.358019
 21
172.105946
 31
0.0
  0
LINE
  5
3EA
330
A
100
AcDbEntity
  8
0
 62
     7
100
AcDbLine
 10
202.236751
 20
172.105946
 30
0.0
 11
202.270513
 21
172.105946
 31
0.0
  0
LINE
  5
3E9
330
A
100
AcDbEntity
  8
0
 62
     7
100
AcDbLine
 10
202.270513
 20
172.105946
 30
0.0
 11
202.236751
 21
172.105946
 31
0.0
  0
LINE
  5
3E8
330
A
100
AcDbEntity
  8
0
 62
     7
100
AcDbLine
 10
202.358019
 20
172.105946
 30
0.0
 11
202.270513
 21
172.105946
 31
0.0
  0
LINE
  5
3E7
330
A
100
AcDbEntity
  8
0
 62
     7
100
AcDbLine
 10
202.466195
 20
172.105946
 30
0.0
 11
202.358019
 21
172.105946
 31
0.0
  0
LINE
  5
3E6
330
A
100
AcDbEntity
  8
0
 62
     7
100
AcDbLine
 10
202.5537
 20
172.105946
 30
0.0
 11
202.466195
 21
172.105946
 31
0.0
  0
LINE
  5
3E5
330
A
100
AcDbEntity
  8
0
 62
     7
100
AcDbLine
 10
202.587118
 20
172.105946
 30
0.0
 11
202.5537
 21
172.105946
 31
0.0
  0
LINE
  5
3E4
330
A
100
AcDbEntity
  8
0
 62
     7
100
AcDbLine
 10
202.5537
 20
172.105946
 30
0.0
 11
202.587118
 21
172.105946
 31
0.0
  0
LINE
  5
3E3
330
A
100
AcDbEntity
  8
0
 62
     7
100
AcDbLine
 10
202.466195
 20
172.105946
 30
0.0
 11
202.5537
 21
172.105946
 31
0.0
  0
LINE
  5
3E2
330
A
100
AcDbEntity
  8
0
 62
     7
100
AcDbLine
 10
203.082522
 20
172.105946
 30
0.0
 11
203.170028
 21
172.105946
 31
0.0
  0
LINE
  5
3E1
330
A
100
AcDbEntity
  8
0
 62
     7
100
AcDbLine
 10
203.049105
 20
172.105946
 30
0.0
 11
203.082522
 21
172.105946
 31
0.0
  0
LINE
  5
3E0
330
A
100
AcDbEntity
  8
0
 62
     7
100
AcDbLine
 10
203.082522
 20
172.105946
 30
0.0
 11
203.049105
 21
172.105946
 31
0.0
  0
LINE
  5
3DF
330
A
100
AcDbEntity
  8
0
 62
     7
100
AcDbLine
 10
203.170028
 20
172.105946
 30
0.0
 11
203.082522
 21
172.105946
 31
0.0
  0
LINE
  5
3DE
330
A
100
AcDbEntity
  8
0
 62
     7
100
AcDbLine
 10
203.278204
 20
172.105946
 30
0.0
 11
203.170028
 21
172.105946
 31
0.0
  0
LINE
  5
3DD
330
A
100
AcDbEntity
  8
0
 62
     7
100
AcDbLine
 10
203.365709
 20
172.105946
 30
0.0
 11
203.278204
 21
172.105946
 31
0.0
  0
LINE
  5
3DC
330
A
100
AcDbEntity
  8
0
 62
     7
100
AcDbLine
 10
203.399127
 20
172.105946
 30
0.0
 11
203.365709
 21
172.105946
 31
0.0
  0
LINE
  5
3DB
330
A
100
AcDbEntity
  8
0
 62
     7
100
AcDbLine
 10
203.365709
 20
172.105946
 30
0.0
 11
203.399127
 21
172.105946
 31
0.0
  0
LINE
  5
3DA
330
A
100
AcDbEntity
  8
0
 62
     7
100
AcDbLine
 10
203.278204
 20
172.105946
 30
0.0
 11
203.365709
 21
172.105946
 31
0.0
  0
LINE
  5
3D9
330
A
100
AcDbEntity
  8
0
 62
     7
100
AcDbLine
 10
203.170028
 20
172.105946
 30
0.0
 11
203.278204
 21
172.105946
 31
0.0
  0
LINE
  5
3D8
330
A
100
AcDbEntity
  8
0
 62
     7
100
AcDbLine
 10
199.806925
 20
172.105946
 30
0.0
 11
199.806925
 21
172.314719
 31
0.0
  0
LINE
  5
3D7
330
A
100
AcDbEntity
  8
0
 62
     7
100
AcDbLine
 10
199.840343
 20
172.105946
 30
0.0
 11
199.928021
 21
172.105946
 31
0.0
  0
LINE
  5
3D6
330
A
100
AcDbEntity
  8
0
 62
     7
100
AcDbLine
 10
199.806925
 20
172.105946
 30
0.0
 11
199.840343
 21
172.105946
 31
0.0
  0
LINE
  5
3D5
330
A
100
AcDbEntity
  8
0
 62
     7
100
AcDbLine
 10
199.840343
 20
172.105946
 30
0.0
 11
199.806925
 21
172.105946
 31
0.0
  0
LINE
  5
3D4
330
A
100
AcDbEntity
  8
0
 62
     7
100
AcDbLine
 10
199.928021
 20
172.105946
 30
0.0
 11
199.840343
 21
172.105946
 31
0.0
  0
LINE
  5
3D3
330
A
100
AcDbEntity
  8
0
 62
     7
100
AcDbLine
 10
200.036197
 20
172.105946
 30
0.0
 11
199.928021
 21
172.105946
 31
0.0
  0
LINE
  5
3D2
330
A
100
AcDbEntity
  8
0
 62
     7
100
AcDbLine
 10
200.123702
 20
172.105946
 30
0.0
 11
200.036197
 21
172.105946
 31
0.0
  0
LINE
  5
3D1
330
A
100
AcDbEntity
  8
0
 62
     7
100
AcDbLine
 10
200.157119
 20
172.105946
 30
0.0
 11
200.123702
 21
172.105946
 31
0.0
  0
LINE
  5
3D0
330
A
100
AcDbEntity
  8
0
 62
     7
100
AcDbLine
 10
200.123702
 20
172.105946
 30
0.0
 11
200.157119
 21
172.105946
 31
0.0
  0
LINE
  5
3CF
330
A
100
AcDbEntity
  8
0
 62
     7
100
AcDbLine
 10
200.036197
 20
172.105946
 30
0.0
 11
200.123702
 21
172.105946
 31
0.0
  0
LINE
  5
3CE
330
A
100
AcDbEntity
  8
0
 62
     7
100
AcDbLine
 10
199.928021
 20
172.105946
 30
0.0
 11
200.036197
 21
172.105946
 31
0.0
  0
LINE
  5
3CD
330
A
100
AcDbEntity
  8
0
 62
     7
100
AcDbLine
 10
200.616867
 20
172.105946
 30
0.0
 11
200.616867
 21
172.314719
 31
0.0
  0
LINE
  5
3CC
330
A
100
AcDbEntity
  8
0
 62
     7
100
AcDbLine
 10
200.967234
 20
172.314719
 30
0.0
 11
200.967234
 21
172.105946
 31
0.0
  0
LINE
  5
3CB
330
A
100
AcDbEntity
  8
0
 62
     7
100
AcDbLine
 10
200.650285
 20
172.105946
 30
0.0
 11
200.73779
 21
172.105946
 31
0.0
  0
LINE
  5
3CA
330
A
100
AcDbEntity
  8
0
 62
     7
100
AcDbLine
 10
200.616867
 20
172.105946
 30
0.0
 11
200.650285
 21
172.105946
 31
0.0
  0
LINE
  5
3C9
330
A
100
AcDbEntity
  8
0
 62
     7
100
AcDbLine
 10
200.650285
 20
172.105946
 30
0.0
 11
200.616867
 21
172.105946
 31
0.0
  0
LINE
  5
3C8
330
A
100
AcDbEntity
  8
0
 62
     7
100
AcDbLine
 10
200.73779
 20
172.105946
 30
0.0
 11
200.650285
 21
172.105946
 31
0.0
  0
LINE
  5
3C7
330
A
100
AcDbEntity
  8
0
 62
     7
100
AcDbLine
 10
200.846311
 20
172.105946
 30
0.0
 11
200.73779
 21
172.105946
 31
0.0
  0
LINE
  5
3C6
330
A
100
AcDbEntity
  8
0
 62
     7
100
AcDbLine
 10
200.933816
 20
172.105946
 30
0.0
 11
200.846311
 21
172.105946
 31
0.0
  0
LINE
  5
3C5
330
A
100
AcDbEntity
  8
0
 62
     7
100
AcDbLine
 10
200.967234
 20
172.105946
 30
0.0
 11
200.933816
 21
172.105946
 31
0.0
  0
LINE
  5
3C4
330
A
100
AcDbEntity
  8
0
 62
     7
100
AcDbLine
 10
200.933816
 20
172.105946
 30
0.0
 11
200.967234
 21
172.105946
 31
0.0
  0
LINE
  5
3C3
330
A
100
AcDbEntity
  8
0
 62
     7
100
AcDbLine
 10
200.846311
 20
172.105946
 30
0.0
 11
200.933816
 21
172.105946
 31
0.0
  0
LINE
  5
3C2
330
A
100
AcDbEntity
  8
0
 62
     7
100
AcDbLine
 10
200.73779
 20
172.105946
 30
0.0
 11
200.846311
 21
172.105946
 31
0.0
  0
LINE
  5
3C1
330
A
100
AcDbEntity
  8
0
 62
     7
100
AcDbLine
 10
201.460227
 20
172.105946
 30
0.0
 11
201.548077
 21
172.105946
 31
0.0
  0
LINE
  5
3C0
330
A
100
AcDbEntity
  8
0
 62
     7
100
AcDbLine
 10
201.426809
 20
172.105946
 30
0.0
 11
201.460227
 21
172.105946
 31
0.0
  0
LINE
  5
3BF
330
A
100
AcDbEntity
  8
0
 62
     7
100
AcDbLine
 10
201.460227
 20
172.105946
 30
0.0
 11
201.426809
 21
172.105946
 31
0.0
  0
LINE
  5
3BE
330
A
100
AcDbEntity
  8
0
 62
     7
100
AcDbLine
 10
201.548077
 20
172.105946
 30
0.0
 11
201.460227
 21
172.105946
 31
0.0
  0
LINE
  5
3BD
330
A
100
AcDbEntity
  8
0
 62
     7
100
AcDbLine
 10
201.656253
 20
172.105946
 30
0.0
 11
201.548077
 21
172.105946
 31
0.0
  0
LINE
  5
3BC
330
A
100
AcDbEntity
  8
0
 62
     7
100
AcDbLine
 10
201.743758
 20
172.105946
 30
0.0
 11
201.656253
 21
172.105946
 31
0.0
  0
LINE
  5
3BB
330
A
100
AcDbEntity
  8
0
 62
     7
100
AcDbLine
 10
201.777176
 20
172.105946
 30
0.0
 11
201.743758
 21
172.105946
 31
0.0
  0
LINE
  5
3BA
330
A
100
AcDbEntity
  8
0
 62
     7
100
AcDbLine
 10
201.743758
 20
172.105946
 30
0.0
 11
201.777176
 21
172.105946
 31
0.0
  0
LINE
  5
3B9
330
A
100
AcDbEntity
  8
0
 62
     7
100
AcDbLine
 10
201.656253
 20
172.105946
 30
0.0
 11
201.743758
 21
172.105946
 31
0.0
  0
LINE
  5
3B8
330
A
100
AcDbEntity
  8
0
 62
     7
100
AcDbLine
 10
201.548077
 20
172.105946
 30
0.0
 11
201.656253
 21
172.105946
 31
0.0
  0
LINE
  5
3B7
330
A
100
AcDbEntity
  8
0
 62
     7
100
AcDbLine
 10
202.236751
 20
172.105946
 30
0.0
 11
202.236751
 21
172.314719
 31
0.0
  0
LINE
  5
3B6
330
A
100
AcDbEntity
  8
0
 62
     7
100
AcDbLine
 10
202.358019
 20
172.105946
 30
0.0
 11
202.466195
 21
172.105946
 31
0.0
  0
LINE
  5
3B5
330
A
100
AcDbEntity
  8
0
 62
     7
100
AcDbLine
 10
202.270513
 20
172.105946
 30
0.0
 11
202.358019
 21
172.105946
 31
0.0
  0
LINE
  5
3B4
330
A
100
AcDbEntity
  8
0
 62
     7
100
AcDbLine
 10
202.236751
 20
172.105946
 30
0.0
 11
202.270513
 21
172.105946
 31
0.0
  0
LINE
  5
3B3
330
A
100
AcDbEntity
  8
0
 62
     7
100
AcDbLine
 10
202.270513
 20
172.105946
 30
0.0
 11
202.236751
 21
172.105946
 31
0.0
  0
LINE
  5
3B2
330
A
100
AcDbEntity
  8
0
 62
     7
100
AcDbLine
 10
202.358019
 20
172.105946
 30
0.0
 11
202.270513
 21
172.105946
 31
0.0
  0
LINE
  5
3B1
330
A
100
AcDbEntity
  8
0
 62
     7
100
AcDbLine
 10
202.466195
 20
172.105946
 30
0.0
 11
202.358019
 21
172.105946
 31
0.0
  0
LINE
  5
3B0
330
A
100
AcDbEntity
  8
0
 62
     7
100
AcDbLine
 10
202.5537
 20
172.105946
 30
0.0
 11
202.466195
 21
172.105946
 31
0.0
  0
LINE
  5
3AF
330
A
100
AcDbEntity
  8
0
 62
     7
100
AcDbLine
 10
202.587118
 20
172.105946
 30
0.0
 11
202.5537
 21
172.105946
 31
0.0
  0
LINE
  5
3AE
330
A
100
AcDbEntity
  8
0
 62
     7
100
AcDbLine
 10
202.5537
 20
172.105946
 30
0.0
 11
202.587118
 21
172.105946
 31
0.0
  0
LINE
  5
3AD
330
A
100
AcDbEntity
  8
0
 62
     7
100
AcDbLine
 10
202.466195
 20
172.105946
 30
0.0
 11
202.5537
 21
172.105946
 31
0.0
  0
LINE
  5
3AC
330
A
100
AcDbEntity
  8
0
 62
     7
100
AcDbLine
 10
203.082522
 20
172.105946
 30
0.0
 11
203.170028
 21
172.105946
 31
0.0
  0
LINE
  5
3AB
330
A
100
AcDbEntity
  8
0
 62
     7
100
AcDbLine
 10
203.049105
 20
172.105946
 30
0.0
 11
203.082522
 21
172.105946
 31
0.0
  0
LINE
  5
3AA
330
A
100
AcDbEntity
  8
0
 62
     7
100
AcDbLine
 10
203.082522
 20
172.105946
 30
0.0
 11
203.049105
 21
172.105946
 31
0.0
  0
LINE
  5
3A9
330
A
100
AcDbEntity
  8
0
 62
     7
100
AcDbLine
 10
203.170028
 20
172.105946
 30
0.0
 11
203.082522
 21
172.105946
 31
0.0
  0
LINE
  5
3A8
330
A
100
AcDbEntity
  8
0
 62
     7
100
AcDbLine
 10
203.278204
 20
172.105946
 30
0.0
 11
203.170028
 21
172.105946
 31
0.0
  0
LINE
  5
3A7
330
A
100
AcDbEntity
  8
0
 62
     7
100
AcDbLine
 10
203.365709
 20
172.105946
 30
0.0
 11
203.278204
 21
172.105946
 31
0.0
  0
LINE
  5
3A6
330
A
100
AcDbEntity
  8
0
 62
     7
100
AcDbLine
 10
203.399127
 20
172.105946
 30
0.0
 11
203.365709
 21
172.105946
 31
0.0
  0
LINE
  5
3A5
330
A
100
AcDbEntity
  8
0
 62
     7
100
AcDbLine
 10
203.365709
 20
172.105946
 30
0.0
 11
203.399127
 21
172.105946
 31
0.0
  0
LINE
  5
3A4
330
A
100
AcDbEntity
  8
0
 62
     7
100
AcDbLine
 10
203.278204
 20
172.105946
 30
0.0
 11
203.365709
 21
172.105946
 31
0.0
  0
LINE
  5
3A3
330
A
100
AcDbEntity
  8
0
 62
     7
100
AcDbLine
 10
203.170028
 20
172.105946
 30
0.0
 11
203.278204
 21
172.105946
 31
0.0
  0
LINE
  5
3A2
330
A
100
AcDbEntity
  8
0
 62
     7
100
AcDbLine
 10
199.806925
 20
172.105946
 30
0.0
 11
199.806925
 21
172.314719
 31
0.0
  0
LINE
  5
3A1
330
A
100
AcDbEntity
  8
0
 62
     7
100
AcDbLine
 10
199.840343
 20
172.105946
 30
0.0
 11
199.928021
 21
172.105946
 31
0.0
  0
LINE
  5
3A0
330
A
100
AcDbEntity
  8
0
 62
     7
100
AcDbLine
 10
199.806925
 20
172.105946
 30
0.0
 11
199.840343
 21
172.105946
 31
0.0
  0
LINE
  5
39F
330
A
100
AcDbEntity
  8
0
 62
     7
100
AcDbLine
 10
199.840343
 20
172.105946
 30
0.0
 11
199.806925
 21
172.105946
 31
0.0
  0
LINE
  5
39E
330
A
100
AcDbEntity
  8
0
 62
     7
100
AcDbLine
 10
199.928021
 20
172.105946
 30
0.0
 11
199.840343
 21
172.105946
 31
0.0
  0
LINE
  5
39D
330
A
100
AcDbEntity
  8
0
 62
     7
100
AcDbLine
 10
200.036197
 20
172.105946
 30
0.0
 11
199.928021
 21
172.105946
 31
0.0
  0
LINE
  5
39C
330
A
100
AcDbEntity
  8
0
 62
     7
100
AcDbLine
 10
200.123702
 20
172.105946
 30
0.0
 11
200.036197
 21
172.105946
 31
0.0
  0
LINE
  5
39B
330
A
100
AcDbEntity
  8
0
 62
     7
100
AcDbLine
 10
200.157119
 20
172.105946
 30
0.0
 11
200.123702
 21
172.105946
 31
0.0
  0
LINE
  5
39A
330
A
100
AcDbEntity
  8
0
 62
     7
100
AcDbLine
 10
200.123702
 20
172.105946
 30
0.0
 11
200.157119
 21
172.105946
 31
0.0
  0
LINE
  5
399
330
A
100
AcDbEntity
  8
0
 62
     7
100
AcDbLine
 10
200.036197
 20
172.105946
 30
0.0
 11
200.123702
 21
172.105946
 31
0.0
  0
LINE
  5
398
330
A
100
AcDbEntity
  8
0
 62
     7
100
AcDbLine
 10
199.928021
 20
172.105946
 30
0.0
 11
200.036197
 21
172.105946
 31
0.0
  0
LINE
  5
397
330
A
100
AcDbEntity
  8
0
 62
     7
100
AcDbLine
 10
200.616867
 20
172.105946
 30
0.0
 11
200.616867
 21
172.314719
 31
0.0
  0
LINE
  5
396
330
A
100
AcDbEntity
  8
0
 62
     7
100
AcDbLine
 10
200.967234
 20
172.314719
 30
0.0
 11
200.967234
 21
172.105946
 31
0.0
  0
LINE
  5
395
330
A
100
AcDbEntity
  8
0
 62
     7
100
AcDbLine
 10
200.650285
 20
172.105946
 30
0.0
 11
200.73779
 21
172.105946
 31
0.0
  0
LINE
  5
394
330
A
100
AcDbEntity
  8
0
 62
     7
100
AcDbLine
 10
200.616867
 20
172.105946
 30
0.0
 11
200.650285
 21
172.105946
 31
0.0
  0
LINE
  5
393
330
A
100
AcDbEntity
  8
0
 62
     7
100
AcDbLine
 10
200.650285
 20
172.105946
 30
0.0
 11
200.616867
 21
172.105946
 31
0.0
  0
LINE
  5
392
330
A
100
AcDbEntity
  8
0
 62
     7
100
AcDbLine
 10
200.73779
 20
172.105946
 30
0.0
 11
200.650285
 21
172.105946
 31
0.0
  0
LINE
  5
391
330
A
100
AcDbEntity
  8
0
 62
     7
100
AcDbLine
 10
200.846311
 20
172.105946
 30
0.0
 11
200.73779
 21
172.105946
 31
0.0
  0
LINE
  5
390
330
A
100
AcDbEntity
  8
0
 62
     7
100
AcDbLine
 10
200.933816
 20
172.105946
 30
0.0
 11
200.846311
 21
172.105946
 31
0.0
  0
LINE
  5
38F
330
A
100
AcDbEntity
  8
0
 62
     7
100
AcDbLine
 10
200.967234
 20
172.105946
 30
0.0
 11
200.933816
 21
172.105946
 31
0.0
  0
LINE
  5
38E
330
A
100
AcDbEntity
  8
0
 62
     7
100
AcDbLine
 10
200.933816
 20
172.105946
 30
0.0
 11
200.967234
 21
172.105946
 31
0.0
  0
LINE
  5
38D
330
A
100
AcDbEntity
  8
0
 62
     7
100
AcDbLine
 10
200.846311
 20
172.105946
 30
0.0
 11
200.933816
 21
172.105946
 31
0.0
  0
LINE
  5
38C
330
A
100
AcDbEntity
  8
0
 62
     7
100
AcDbLine
 10
200.73779
 20
172.105946
 30
0.0
 11
200.846311
 21
172.105946
 31
0.0
  0
LINE
  5
38B
330
A
100
AcDbEntity
  8
0
 62
     7
100
AcDbLine
 10
201.460227
 20
172.105946
 30
0.0
 11
201.548077
 21
172.105946
 31
0.0
  0
LINE
  5
38A
330
A
100
AcDbEntity
  8
0
 62
     7
100
AcDbLine
 10
201.426809
 20
172.105946
 30
0.0
 11
201.460227
 21
172.105946
 31
0.0
  0
LINE
  5
389
330
A
100
AcDbEntity
  8
0
 62
     7
100
AcDbLine
 10
201.460227
 20
172.105946
 30
0.0
 11
201.426809
 21
172.105946
 31
0.0
  0
LINE
  5
388
330
A
100
AcDbEntity
  8
0
 62
     7
100
AcDbLine
 10
201.548077
 20
172.105946
 30
0.0
 11
201.460227
 21
172.105946
 31
0.0
  0
LINE
  5
387
330
A
100
AcDbEntity
  8
0
 62
     7
100
AcDbLine
 10
201.656253
 20
172.105946
 30
0.0
 11
201.548077
 21
172.105946
 31
0.0
  0
LINE
  5
386
330
A
100
AcDbEntity
  8
0
 62
     7
100
AcDbLine
 10
201.743758
 20
172.105946
 30
0.0
 11
201.656253
 21
172.105946
 31
0.0
  0
LINE
  5
385
330
A
100
AcDbEntity
  8
0
 62
     7
100
AcDbLine
 10
201.777176
 20
172.105946
 30
0.0
 11
201.743758
 21
172.105946
 31
0.0
  0
LINE
  5
384
330
A
100
AcDbEntity
  8
0
 62
     7
100
AcDbLine
 10
201.743758
 20
172.105946
 30
0.0
 11
201.777176
 21
172.105946
 31
0.0
  0
LINE
  5
383
330
A
100
AcDbEntity
  8
0
 62
     7
100
AcDbLine
 10
201.656253
 20
172.105946
 30
0.0
 11
201.743758
 21
172.105946
 31
0.0
  0
LINE
  5
382
330
A
100
AcDbEntity
  8
0
 62
     7
100
AcDbLine
 10
201.548077
 20
172.105946
 30
0.0
 11
201.656253
 21
172.105946
 31
0.0
  0
LINE
  5
381
330
A
100
AcDbEntity
  8
0
 62
     7
100
AcDbLine
 10
202.236751
 20
172.105946
 30
0.0
 11
202.236751
 21
172.314719
 31
0.0
  0
LINE
  5
380
330
A
100
AcDbEntity
  8
0
 62
     7
100
AcDbLine
 10
202.358019
 20
172.105946
 30
0.0
 11
202.466195
 21
172.105946
 31
0.0
  0
LINE
  5
37F
330
A
100
AcDbEntity
  8
0
 62
     7
100
AcDbLine
 10
202.270513
 20
172.105946
 30
0.0
 11
202.358019
 21
172.105946
 31
0.0
  0
LINE
  5
37E
330
A
100
AcDbEntity
  8
0
 62
     7
100
AcDbLine
 10
202.236751
 20
172.105946
 30
0.0
 11
202.270513
 21
172.105946
 31
0.0
  0
LINE
  5
37D
330
A
100
AcDbEntity
  8
0
 62
     7
100
AcDbLine
 10
202.270513
 20
172.105946
 30
0.0
 11
202.236751
 21
172.105946
 31
0.0
  0
LINE
  5
37C
330
A
100
AcDbEntity
  8
0
 62
     7
100
AcDbLine
 10
202.358019
 20
172.105946
 30
0.0
 11
202.270513
 21
172.105946
 31
0.0
  0
LINE
  5
37B
330
A
100
AcDbEntity
  8
0
 62
     7
100
AcDbLine
 10
202.466195
 20
172.105946
 30
0.0
 11
202.358019
 21
172.105946
 31
0.0
  0
LINE
  5
37A
330
A
100
AcDbEntity
  8
0
 62
     7
100
AcDbLine
 10
202.5537
 20
172.105946
 30
0.0
 11
202.466195
 21
172.105946
 31
0.0
  0
LINE
  5
379
330
A
100
AcDbEntity
  8
0
 62
     7
100
AcDbLine
 10
202.587118
 20
172.105946
 30
0.0
 11
202.5537
 21
172.105946
 31
0.0
  0
LINE
  5
378
330
A
100
AcDbEntity
  8
0
 62
     7
100
AcDbLine
 10
202.5537
 20
172.105946
 30
0.0
 11
202.587118
 21
172.105946
 31
0.0
  0
LINE
  5
377
330
A
100
AcDbEntity
  8
0
 62
     7
100
AcDbLine
 10
202.466195
 20
172.105946
 30
0.0
 11
202.5537
 21
172.105946
 31
0.0
  0
LINE
  5
376
330
A
100
AcDbEntity
  8
0
 62
     7
100
AcDbLine
 10
203.082522
 20
172.105946
 30
0.0
 11
203.170028
 21
172.105946
 31
0.0
  0
LINE
  5
375
330
A
100
AcDbEntity
  8
0
 62
     7
100
AcDbLine
 10
203.049105
 20
172.105946
 30
0.0
 11
203.082522
 21
172.105946
 31
0.0
  0
LINE
  5
374
330
A
100
AcDbEntity
  8
0
 62
     7
100
AcDbLine
 10
203.082522
 20
172.105946
 30
0.0
 11
203.049105
 21
172.105946
 31
0.0
  0
LINE
  5
373
330
A
100
AcDbEntity
  8
0
 62
     7
100
AcDbLine
 10
203.170028
 20
172.105946
 30
0.0
 11
203.082522
 21
172.105946
 31
0.0
  0
LINE
  5
372
330
A
100
AcDbEntity
  8
0
 62
     7
100
AcDbLine
 10
203.278204
 20
172.105946
 30
0.0
 11
203.170028
 21
172.105946
 31
0.0
  0
LINE
  5
371
330
A
100
AcDbEntity
  8
0
 62
     7
100
AcDbLine
 10
203.365709
 20
172.105946
 30
0.0
 11
203.278204
 21
172.105946
 31
0.0
  0
LINE
  5
370
330
A
100
AcDbEntity
  8
0
 62
     7
100
AcDbLine
 10
203.399127
 20
172.105946
 30
0.0
 11
203.365709
 21
172.105946
 31
0.0
  0
LINE
  5
36F
330
A
100
AcDbEntity
  8
0
 62
     7
100
AcDbLine
 10
203.365709
 20
172.105946
 30
0.0
 11
203.399127
 21
172.105946
 31
0.0
  0
LINE
  5
36E
330
A
100
AcDbEntity
  8
0
 62
     7
100
AcDbLine
 10
203.278204
 20
172.105946
 30
0.0
 11
203.365709
 21
172.105946
 31
0.0
  0
LINE
  5
36D
330
A
100
AcDbEntity
  8
0
 62
     7
100
AcDbLine
 10
203.170028
 20
172.105946
 30
0.0
 11
203.278204
 21
172.105946
 31
0.0
  0
LINE
  5
36C
330
A
100
AcDbEntity
  8
0
 62
     7
100
AcDbLine
 10
199.806925
 20
172.105946
 30
0.0
 11
199.806925
 21
172.314719
 31
0.0
  0
LINE
  5
36B
330
A
100
AcDbEntity
  8
0
 62
     7
100
AcDbLine
 10
199.840343
 20
172.105946
 30
0.0
 11
199.928021
 21
172.105946
 31
0.0
  0
LINE
  5
36A
330
A
100
AcDbEntity
  8
0
 62
     7
100
AcDbLine
 10
199.806925
 20
172.105946
 30
0.0
 11
199.840343
 21
172.105946
 31
0.0
  0
LINE
  5
369
330
A
100
AcDbEntity
  8
0
 62
     7
100
AcDbLine
 10
199.840343
 20
172.105946
 30
0.0
 11
199.806925
 21
172.105946
 31
0.0
  0
LINE
  5
368
330
A
100
AcDbEntity
  8
0
 62
     7
100
AcDbLine
 10
199.928021
 20
172.105946
 30
0.0
 11
199.840343
 21
172.105946
 31
0.0
  0
LINE
  5
367
330
A
100
AcDbEntity
  8
0
 62
     7
100
AcDbLine
 10
200.036197
 20
172.105946
 30
0.0
 11
199.928021
 21
172.105946
 31
0.0
  0
LINE
  5
366
330
A
100
AcDbEntity
  8
0
 62
     7
100
AcDbLine
 10
200.123702
 20
172.105946
 30
0.0
 11
200.036197
 21
172.105946
 31
0.0
  0
LINE
  5
365
330
A
100
AcDbEntity
  8
0
 62
     7
100
AcDbLine
 10
200.157119
 20
172.105946
 30
0.0
 11
200.123702
 21
172.105946
 31
0.0
  0
LINE
  5
364
330
A
100
AcDbEntity
  8
0
 62
     7
100
AcDbLine
 10
200.123702
 20
172.105946
 30
0.0
 11
200.157119
 21
172.105946
 31
0.0
  0
LINE
  5
363
330
A
100
AcDbEntity
  8
0
 62
     7
100
AcDbLine
 10
200.036197
 20
172.105946
 30
0.0
 11
200.123702
 21
172.105946
 31
0.0
  0
LINE
  5
362
330
A
100
AcDbEntity
  8
0
 62
     7
100
AcDbLine
 10
199.928021
 20
172.105946
 30
0.0
 11
200.036197
 21
172.105946
 31
0.0
  0
LINE
  5
361
330
A
100
AcDbEntity
  8
0
 62
     7
100
AcDbLine
 10
200.616867
 20
172.105946
 30
0.0
 11
200.616867
 21
172.314719
 31
0.0
  0
LINE
  5
360
330
A
100
AcDbEntity
  8
0
 62
     7
100
AcDbLine
 10
200.967234
 20
172.314719
 30
0.0
 11
200.967234
 21
172.105946
 31
0.0
  0
LINE
  5
35F
330
A
100
AcDbEntity
  8
0
 62
     7
100
AcDbLine
 10
200.650285
 20
172.105946
 30
0.0
 11
200.73779
 21
172.105946
 31
0.0
  0
LINE
  5
35E
330
A
100
AcDbEntity
  8
0
 62
     7
100
AcDbLine
 10
200.616867
 20
172.105946
 30
0.0
 11
200.650285
 21
172.105946
 31
0.0
  0
LINE
  5
35D
330
A
100
AcDbEntity
  8
0
 62
     7
100
AcDbLine
 10
200.650285
 20
172.105946
 30
0.0
 11
200.616867
 21
172.105946
 31
0.0
  0
LINE
  5
35C
330
A
100
AcDbEntity
  8
0
 62
     7
100
AcDbLine
 10
200.73779
 20
172.105946
 30
0.0
 11
200.650285
 21
172.105946
 31
0.0
  0
LINE
  5
35B
330
A
100
AcDbEntity
  8
0
 62
     7
100
AcDbLine
 10
200.846311
 20
172.105946
 30
0.0
 11
200.73779
 21
172.105946
 31
0.0
  0
LINE
  5
35A
330
A
100
AcDbEntity
  8
0
 62
     7
100
AcDbLine
 10
200.933816
 20
172.105946
 30
0.0
 11
200.846311
 21
172.105946
 31
0.0
  0
LINE
  5
359
330
A
100
AcDbEntity
  8
0
 62
     7
100
AcDbLine
 10
200.967234
 20
172.105946
 30
0.0
 11
200.933816
 21
172.105946
 31
0.0
  0
LINE
  5
358
330
A
100
AcDbEntity
  8
0
 62
     7
100
AcDbLine
 10
200.933816
 20
172.105946
 30
0.0
 11
200.967234
 21
172.105946
 31
0.0
  0
LINE
  5
357
330
A
100
AcDbEntity
  8
0
 62
     7
100
AcDbLine
 10
200.846311
 20
172.105946
 30
0.0
 11
200.933816
 21
172.105946
 31
0.0
  0
LINE
  5
356
330
A
100
AcDbEntity
  8
0
 62
     7
100
AcDbLine
 10
200.73779
 20
172.105946
 30
0.0
 11
200.846311
 21
172.105946
 31
0.0
  0
LINE
  5
355
330
A
100
AcDbEntity
  8
0
 62
     7
100
AcDbLine
 10
201.460227
 20
172.105946
 30
0.0
 11
201.548077
 21
172.105946
 31
0.0
  0
LINE
  5
354
330
A
100
AcDbEntity
  8
0
 62
     7
100
AcDbLine
 10
201.426809
 20
172.105946
 30
0.0
 11
201.460227
 21
172.105946
 31
0.0
  0
LINE
  5
353
330
A
100
AcDbEntity
  8
0
 62
     7
100
AcDbLine
 10
201.460227
 20
172.105946
 30
0.0
 11
201.426809
 21
172.105946
 31
0.0
  0
LINE
  5
352
330
A
100
AcDbEntity
  8
0
 62
     7
100
AcDbLine
 10
201.548077
 20
172.105946
 30
0.0
 11
201.460227
 21
172.105946
 31
0.0
  0
LINE
  5
351
330
A
100
AcDbEntity
  8
0
 62
     7
100
AcDbLine
 10
201.656253
 20
172.105946
 30
0.0
 11
201.548077
 21
172.105946
 31
0.0
  0
LINE
  5
350
330
A
100
AcDbEntity
  8
0
 62
     7
100
AcDbLine
 10
201.743758
 20
172.105946
 30
0.0
 11
201.656253
 21
172.105946
 31
0.0
  0
LINE
  5
34F
330
A
100
AcDbEntity
  8
0
 62
     7
100
AcDbLine
 10
201.777176
 20
172.105946
 30
0.0
 11
201.743758
 21
172.105946
 31
0.0
  0
LINE
  5
34E
330
A
100
AcDbEntity
  8
0
 62
     7
100
AcDbLine
 10
201.743758
 20
172.105946
 30
0.0
 11
201.777176
 21
172.105946
 31
0.0
  0
LINE
  5
34D
330
A
100
AcDbEntity
  8
0
 62
     7
100
AcDbLine
 10
201.656253
 20
172.105946
 30
0.0
 11
201.743758
 21
172.105946
 31
0.0
  0
LINE
  5
34C
330
A
100
AcDbEntity
  8
0
 62
     7
100
AcDbLine
 10
201.548077
 20
172.105946
 30
0.0
 11
201.656253
 21
172.105946
 31
0.0
  0
LINE
  5
34B
330
A
100
AcDbEntity
  8
0
 62
     7
100
AcDbLine
 10
202.236751
 20
172.105946
 30
0.0
 11
202.236751
 21
172.314719
 31
0.0
  0
LINE
  5
34A
330
A
100
AcDbEntity
  8
0
 62
     7
100
AcDbLine
 10
202.358019
 20
172.105946
 30
0.0
 11
202.466195
 21
172.105946
 31
0.0
  0
LINE
  5
349
330
A
100
AcDbEntity
  8
0
 62
     7
100
AcDbLine
 10
202.270513
 20
172.105946
 30
0.0
 11
202.358019
 21
172.105946
 31
0.0
  0
LINE
  5
348
330
A
100
AcDbEntity
  8
0
 62
     7
100
AcDbLine
 10
202.236751
 20
172.105946
 30
0.0
 11
202.270513
 21
172.105946
 31
0.0
  0
LINE
  5
347
330
A
100
AcDbEntity
  8
0
 62
     7
100
AcDbLine
 10
202.270513
 20
172.105946
 30
0.0
 11
202.236751
 21
172.105946
 31
0.0
  0
LINE
  5
346
330
A
100
AcDbEntity
  8
0
 62
     7
100
AcDbLine
 10
202.358019
 20
172.105946
 30
0.0
 11
202.270513
 21
172.105946
 31
0.0
  0
LINE
  5
345
330
A
100
AcDbEntity
  8
0
 62
     7
100
AcDbLine
 10
202.466195
 20
172.105946
 30
0.0
 11
202.358019
 21
172.105946
 31
0.0
  0
LINE
  5
344
330
A
100
AcDbEntity
  8
0
 62
     7
100
AcDbLine
 10
202.5537
 20
172.105946
 30
0.0
 11
202.466195
 21
172.105946
 31
0.0
  0
LINE
  5
343
330
A
100
AcDbEntity
  8
0
 62
     7
100
AcDbLine
 10
202.587118
 20
172.105946
 30
0.0
 11
202.5537
 21
172.105946
 31
0.0
  0
LINE
  5
342
330
A
100
AcDbEntity
  8
0
 62
     7
100
AcDbLine
 10
202.5537
 20
172.105946
 30
0.0
 11
202.587118
 21
172.105946
 31
0.0
  0
LINE
  5
341
330
A
100
AcDbEntity
  8
0
 62
     7
100
AcDbLine
 10
202.466195
 20
172.105946
 30
0.0
 11
202.5537
 21
172.105946
 31
0.0
  0
LINE
  5
340
330
A
100
AcDbEntity
  8
0
 62
     7
100
AcDbLine
 10
203.082522
 20
172.105946
 30
0.0
 11
203.170028
 21
172.105946
 31
0.0
  0
LINE
  5
33F
330
A
100
AcDbEntity
  8
0
 62
     7
100
AcDbLine
 10
203.049105
 20
172.105946
 30
0.0
 11
203.082522
 21
172.105946
 31
0.0
  0
LINE
  5
33E
330
A
100
AcDbEntity
  8
0
 62
     7
100
AcDbLine
 10
203.082522
 20
172.105946
 30
0.0
 11
203.049105
 21
172.105946
 31
0.0
  0
LINE
  5
33D
330
A
100
AcDbEntity
  8
0
 62
     7
100
AcDbLine
 10
203.170028
 20
172.105946
 30
0.0
 11
203.082522
 21
172.105946
 31
0.0
  0
LINE
  5
33C
330
A
100
AcDbEntity
  8
0
 62
     7
100
AcDbLine
 10
203.278204
 20
172.105946
 30
0.0
 11
203.170028
 21
172.105946
 31
0.0
  0
LINE
  5
33B
330
A
100
AcDbEntity
  8
0
 62
     7
100
AcDbLine
 10
203.365709
 20
172.105946
 30
0.0
 11
203.278204
 21
172.105946
 31
0.0
  0
LINE
  5
33A
330
A
100
AcDbEntity
  8
0
 62
     7
100
AcDbLine
 10
203.399127
 20
172.105946
 30
0.0
 11
203.365709
 21
172.105946
 31
0.0
  0
LINE
  5
339
330
A
100
AcDbEntity
  8
0
 62
     7
100
AcDbLine
 10
203.365709
 20
172.105946
 30
0.0
 11
203.399127
 21
172.105946
 31
0.0
  0
LINE
  5
338
330
A
100
AcDbEntity
  8
0
 62
     7
100
AcDbLine
 10
203.278204
 20
172.105946
 30
0.0
 11
203.365709
 21
172.105946
 31
0.0
  0
LINE
  5
337
330
A
100
AcDbEntity
  8
0
 62
     7
100
AcDbLine
 10
203.170028
 20
172.105946
 30
0.0
 11
203.278204
 21
172.105946
 31
0.0
  0
LINE
  5
336
330
A
100
AcDbEntity
  8
0
 62
     7
100
AcDbLine
 10
198.0914399999999
 20
172.358644
 30
0.0
 11
198.108493
 21
172.358644
 31
0.0
  0
LINE
  5
335
330
A
100
AcDbEntity
  8
0
 62
     7
100
AcDbLine
 10
205.148546
 20
172.358644
 30
0.0
 11
205.165771
 21
172.358644
 31
0.0
  0
LINE
  5
334
330
A
100
AcDbEntity
  8
0
 62
     7
100
AcDbLine
 10
205.165771
 20
172.358644
 30
0.0
 11
205.059663
 21
172.314719
 31
0.0
  0
LINE
  5
333
330
A
100
AcDbEntity
  8
0
 62
     7
100
AcDbLine
 10
205.209524
 20
172.464753
 30
0.0
 11
205.165771
 21
172.358644
 31
0.0
  0
LINE
  5
332
330
A
100
AcDbEntity
  8
0
 62
     7
100
AcDbLine
 10
198.197549
 20
172.314719
 30
0.0
 11
198.0914399999999
 21
172.358644
 31
0.0
  0
LINE
  5
331
330
A
100
AcDbEntity
  8
0
 62
     7
100
AcDbLine
 10
198.0914399999999
 20
172.358644
 30
0.0
 11
198.047515
 21
172.464753
 31
0.0
  0
LINE
  5
330
330
A
100
AcDbEntity
  8
0
 62
     7
100
AcDbLine
 10
205.209524
 20
172.550019
 30
0.0
 11
205.209524
 21
172.464753
 31
0.0
  0
LINE
  5
32F
330
A
100
AcDbEntity
  8
0
 62
     7
100
AcDbLine
 10
198.047515
 20
172.464753
 30
0.0
 11
198.047515
 21
172.550019
 31
0.0
  0
LINE
  5
32E
330
A
100
AcDbEntity
  8
0
 62
     7
100
AcDbLine
 10
204.997651
 20
172.314719
 30
0.0
 11
204.944596
 21
172.314719
 31
0.0
  0
LINE
  5
32D
330
A
100
AcDbEntity
  8
0
 62
     7
100
AcDbLine
 10
205.028312
 20
172.314719
 30
0.0
 11
204.997651
 21
172.314719
 31
0.0
  0
LINE
  5
32C
330
A
100
AcDbEntity
  8
0
 62
     7
100
AcDbLine
 10
205.048638
 20
172.314719
 30
0.0
 11
205.028312
 21
172.314719
 31
0.0
  0
LINE
  5
32B
330
A
100
AcDbEntity
  8
0
 62
     7
100
AcDbLine
 10
205.059663
 20
172.314719
 30
0.0
 11
205.048638
 21
172.314719
 31
0.0
  0
LINE
  5
32A
330
A
100
AcDbEntity
  8
0
 62
     7
100
AcDbLine
 10
198.208229
 20
172.314719
 30
0.0
 11
198.197549
 21
172.314719
 31
0.0
  0
LINE
  5
329
330
A
100
AcDbEntity
  8
0
 62
     7
100
AcDbLine
 10
198.228727
 20
172.314719
 30
0.0
 11
198.208229
 21
172.314719
 31
0.0
  0
LINE
  5
328
330
A
100
AcDbEntity
  8
0
 62
     7
100
AcDbLine
 10
198.259216
 20
172.314719
 30
0.0
 11
198.228727
 21
172.314719
 31
0.0
  0
LINE
  5
327
330
A
100
AcDbEntity
  8
0
 62
     7
100
AcDbLine
 10
198.312443
 20
172.314719
 30
0.0
 11
198.259216
 21
172.314719
 31
0.0
  0
LINE
  5
326
330
A
100
AcDbEntity
  8
0
 62
     7
100
AcDbLine
 10
204.944596
 20
172.314719
 30
0.0
 11
198.312443
 21
172.314719
 31
0.0
  0
LINE
  5
325
330
A
100
AcDbEntity
  8
0
 62
     7
100
AcDbLine
 10
199.806925
 20
172.105946
 30
0.0
 11
199.806925
 21
172.314719
 31
0.0
  0
LINE
  5
324
330
A
100
AcDbEntity
  8
0
 62
     7
100
AcDbLine
 10
200.157119
 20
172.314719
 30
0.0
 11
200.157119
 21
172.105946
 31
0.0
  0
LINE
  5
323
330
A
100
AcDbEntity
  8
0
 62
     7
100
AcDbLine
 10
199.840343
 20
172.105946
 30
0.0
 11
199.928021
 21
172.105946
 31
0.0
  0
LINE
  5
322
330
A
100
AcDbEntity
  8
0
 62
     7
100
AcDbLine
 10
199.806925
 20
172.105946
 30
0.0
 11
199.840343
 21
172.105946
 31
0.0
  0
LINE
  5
321
330
A
100
AcDbEntity
  8
0
 62
     7
100
AcDbLine
 10
199.840343
 20
172.105946
 30
0.0
 11
199.806925
 21
172.105946
 31
0.0
  0
LINE
  5
320
330
A
100
AcDbEntity
  8
0
 62
     7
100
AcDbLine
 10
199.928021
 20
172.105946
 30
0.0
 11
199.840343
 21
172.105946
 31
0.0
  0
LINE
  5
31F
330
A
100
AcDbEntity
  8
0
 62
     7
100
AcDbLine
 10
200.036197
 20
172.105946
 30
0.0
 11
199.928021
 21
172.105946
 31
0.0
  0
LINE
  5
31E
330
A
100
AcDbEntity
  8
0
 62
     7
100
AcDbLine
 10
200.123702
 20
172.105946
 30
0.0
 11
200.036197
 21
172.105946
 31
0.0
  0
LINE
  5
31D
330
A
100
AcDbEntity
  8
0
 62
     7
100
AcDbLine
 10
200.157119
 20
172.105946
 30
0.0
 11
200.123702
 21
172.105946
 31
0.0
  0
LINE
  5
31C
330
A
100
AcDbEntity
  8
0
 62
     7
100
AcDbLine
 10
200.123702
 20
172.105946
 30
0.0
 11
200.157119
 21
172.105946
 31
0.0
  0
LINE
  5
31B
330
A
100
AcDbEntity
  8
0
 62
     7
100
AcDbLine
 10
200.036197
 20
172.105946
 30
0.0
 11
200.123702
 21
172.105946
 31
0.0
  0
LINE
  5
31A
330
A
100
AcDbEntity
  8
0
 62
     7
100
AcDbLine
 10
199.928021
 20
172.105946
 30
0.0
 11
200.036197
 21
172.105946
 31
0.0
  0
LINE
  5
319
330
A
100
AcDbEntity
  8
0
 62
     7
100
AcDbLine
 10
200.616867
 20
172.105946
 30
0.0
 11
200.616867
 21
172.314719
 31
0.0
  0
LINE
  5
318
330
A
100
AcDbEntity
  8
0
 62
     7
100
AcDbLine
 10
200.967234
 20
172.314719
 30
0.0
 11
200.967234
 21
172.105946
 31
0.0
  0
LINE
  5
317
330
A
100
AcDbEntity
  8
0
 62
     7
100
AcDbLine
 10
200.650285
 20
172.105946
 30
0.0
 11
200.73779
 21
172.105946
 31
0.0
  0
LINE
  5
316
330
A
100
AcDbEntity
  8
0
 62
     7
100
AcDbLine
 10
200.616867
 20
172.105946
 30
0.0
 11
200.650285
 21
172.105946
 31
0.0
  0
LINE
  5
315
330
A
100
AcDbEntity
  8
0
 62
     7
100
AcDbLine
 10
200.650285
 20
172.105946
 30
0.0
 11
200.616867
 21
172.105946
 31
0.0
  0
LINE
  5
314
330
A
100
AcDbEntity
  8
0
 62
     7
100
AcDbLine
 10
200.73779
 20
172.105946
 30
0.0
 11
200.650285
 21
172.105946
 31
0.0
  0
LINE
  5
313
330
A
100
AcDbEntity
  8
0
 62
     7
100
AcDbLine
 10
200.846311
 20
172.105946
 30
0.0
 11
200.73779
 21
172.105946
 31
0.0
  0
LINE
  5
312
330
A
100
AcDbEntity
  8
0
 62
     7
100
AcDbLine
 10
200.933816
 20
172.105946
 30
0.0
 11
200.846311
 21
172.105946
 31
0.0
  0
LINE
  5
311
330
A
100
AcDbEntity
  8
0
 62
     7
100
AcDbLine
 10
200.967234
 20
172.105946
 30
0.0
 11
200.933816
 21
172.105946
 31
0.0
  0
LINE
  5
310
330
A
100
AcDbEntity
  8
0
 62
     7
100
AcDbLine
 10
200.933816
 20
172.105946
 30
0.0
 11
200.967234
 21
172.105946
 31
0.0
  0
LINE
  5
30F
330
A
100
AcDbEntity
  8
0
 62
     7
100
AcDbLine
 10
200.846311
 20
172.105946
 30
0.0
 11
200.933816
 21
172.105946
 31
0.0
  0
LINE
  5
30E
330
A
100
AcDbEntity
  8
0
 62
     7
100
AcDbLine
 10
200.73779
 20
172.105946
 30
0.0
 11
200.846311
 21
172.105946
 31
0.0
  0
LINE
  5
30D
330
A
100
AcDbEntity
  8
0
 62
     7
100
AcDbLine
 10
201.426809
 20
172.105946
 30
0.0
 11
201.426809
 21
172.314719
 31
0.0
  0
LINE
  5
30C
330
A
100
AcDbEntity
  8
0
 62
     7
100
AcDbLine
 10
201.777176
 20
172.314719
 30
0.0
 11
201.777176
 21
172.105946
 31
0.0
  0
LINE
  5
30B
330
A
100
AcDbEntity
  8
0
 62
     7
100
AcDbLine
 10
201.460227
 20
172.105946
 30
0.0
 11
201.548077
 21
172.105946
 31
0.0
  0
LINE
  5
30A
330
A
100
AcDbEntity
  8
0
 62
     7
100
AcDbLine
 10
201.426809
 20
172.105946
 30
0.0
 11
201.460227
 21
172.105946
 31
0.0
  0
LINE
  5
309
330
A
100
AcDbEntity
  8
0
 62
     7
100
AcDbLine
 10
201.460227
 20
172.105946
 30
0.0
 11
201.426809
 21
172.105946
 31
0.0
  0
LINE
  5
308
330
A
100
AcDbEntity
  8
0
 62
     7
100
AcDbLine
 10
201.548077
 20
172.105946
 30
0.0
 11
201.460227
 21
172.105946
 31
0.0
  0
LINE
  5
307
330
A
100
AcDbEntity
  8
0
 62
     7
100
AcDbLine
 10
201.656253
 20
172.105946
 30
0.0
 11
201.548077
 21
172.105946
 31
0.0
  0
LINE
  5
306
330
A
100
AcDbEntity
  8
0
 62
     7
100
AcDbLine
 10
201.743758
 20
172.105946
 30
0.0
 11
201.656253
 21
172.105946
 31
0.0
  0
LINE
  5
305
330
A
100
AcDbEntity
  8
0
 62
     7
100
AcDbLine
 10
201.777176
 20
172.105946
 30
0.0
 11
201.743758
 21
172.105946
 31
0.0
  0
LINE
  5
304
330
A
100
AcDbEntity
  8
0
 62
     7
100
AcDbLine
 10
201.743758
 20
172.105946
 30
0.0
 11
201.777176
 21
172.105946
 31
0.0
  0
LINE
  5
303
330
A
100
AcDbEntity
  8
0
 62
     7
100
AcDbLine
 10
201.656253
 20
172.105946
 30
0.0
 11
201.743758
 21
172.105946
 31
0.0
  0
LINE
  5
302
330
A
100
AcDbEntity
  8
0
 62
     7
100
AcDbLine
 10
201.548077
 20
172.105946
 30
0.0
 11
201.656253
 21
172.105946
 31
0.0
  0
LINE
  5
301
330
A
100
AcDbEntity
  8
0
 62
     7
100
AcDbLine
 10
202.236751
 20
172.105946
 30
0.0
 11
202.236751
 21
172.314719
 31
0.0
  0
LINE
  5
300
330
A
100
AcDbEntity
  8
0
 62
     7
100
AcDbLine
 10
202.587118
 20
172.314719
 30
0.0
 11
202.587118
 21
172.105946
 31
0.0
  0
LINE
  5
2FF
330
A
100
AcDbEntity
  8
0
 62
     7
100
AcDbLine
 10
202.358019
 20
172.105946
 30
0.0
 11
202.466195
 21
172.105946
 31
0.0
  0
LINE
  5
2FE
330
A
100
AcDbEntity
  8
0
 62
     7
100
AcDbLine
 10
202.270513
 20
172.105946
 30
0.0
 11
202.358019
 21
172.105946
 31
0.0
  0
LINE
  5
2FD
330
A
100
AcDbEntity
  8
0
 62
     7
100
AcDbLine
 10
202.236751
 20
172.105946
 30
0.0
 11
202.270513
 21
172.105946
 31
0.0
  0
LINE
  5
2FC
330
A
100
AcDbEntity
  8
0
 62
     7
100
AcDbLine
 10
202.270513
 20
172.105946
 30
0.0
 11
202.236751
 21
172.105946
 31
0.0
  0
LINE
  5
2FB
330
A
100
AcDbEntity
  8
0
 62
     7
100
AcDbLine
 10
202.358019
 20
172.105946
 30
0.0
 11
202.270513
 21
172.105946
 31
0.0
  0
LINE
  5
2FA
330
A
100
AcDbEntity
  8
0
 62
     7
100
AcDbLine
 10
202.466195
 20
172.105946
 30
0.0
 11
202.358019
 21
172.105946
 31
0.0
  0
LINE
  5
2F9
330
A
100
AcDbEntity
  8
0
 62
     7
100
AcDbLine
 10
202.5537
 20
172.105946
 30
0.0
 11
202.466195
 21
172.105946
 31
0.0
  0
LINE
  5
2F8
330
A
100
AcDbEntity
  8
0
 62
     7
100
AcDbLine
 10
202.587118
 20
172.105946
 30
0.0
 11
202.5537
 21
172.105946
 31
0.0
  0
LINE
  5
2F7
330
A
100
AcDbEntity
  8
0
 62
     7
100
AcDbLine
 10
202.5537
 20
172.105946
 30
0.0
 11
202.587118
 21
172.105946
 31
0.0
  0
LINE
  5
2F6
330
A
100
AcDbEntity
  8
0
 62
     7
100
AcDbLine
 10
202.466195
 20
172.105946
 30
0.0
 11
202.5537
 21
172.105946
 31
0.0
  0
LINE
  5
2F5
330
A
100
AcDbEntity
  8
0
 62
     7
100
AcDbLine
 10
203.049105
 20
172.105946
 30
0.0
 11
203.049105
 21
172.314719
 31
0.0
  0
LINE
  5
2F4
330
A
100
AcDbEntity
  8
0
 62
     7
100
AcDbLine
 10
203.399127
 20
172.314719
 30
0.0
 11
203.399127
 21
172.105946
 31
0.0
  0
LINE
  5
2F3
330
A
100
AcDbEntity
  8
0
 62
     7
100
AcDbLine
 10
203.082522
 20
172.105946
 30
0.0
 11
203.170028
 21
172.105946
 31
0.0
  0
LINE
  5
2F2
330
A
100
AcDbEntity
  8
0
 62
     7
100
AcDbLine
 10
203.049105
 20
172.105946
 30
0.0
 11
203.082522
 21
172.105946
 31
0.0
  0
LINE
  5
2F1
330
A
100
AcDbEntity
  8
0
 62
     7
100
AcDbLine
 10
203.082522
 20
172.105946
 30
0.0
 11
203.049105
 21
172.105946
 31
0.0
  0
LINE
  5
2F0
330
A
100
AcDbEntity
  8
0
 62
     7
100
AcDbLine
 10
203.170028
 20
172.105946
 30
0.0
 11
203.082522
 21
172.105946
 31
0.0
  0
LINE
  5
2EF
330
A
100
AcDbEntity
  8
0
 62
     7
100
AcDbLine
 10
203.278204
 20
172.105946
 30
0.0
 11
203.170028
 21
172.105946
 31
0.0
  0
LINE
  5
2EE
330
A
100
AcDbEntity
  8
0
 62
     7
100
AcDbLine
 10
203.365709
 20
172.105946
 30
0.0
 11
203.278204
 21
172.105946
 31
0.0
  0
LINE
  5
2ED
330
A
100
AcDbEntity
  8
0
 62
     7
100
AcDbLine
 10
203.399127
 20
172.105946
 30
0.0
 11
203.365709
 21
172.105946
 31
0.0
  0
LINE
  5
2EC
330
A
100
AcDbEntity
  8
0
 62
     7
100
AcDbLine
 10
203.365709
 20
172.105946
 30
0.0
 11
203.399127
 21
172.105946
 31
0.0
  0
LINE
  5
2EB
330
A
100
AcDbEntity
  8
0
 62
     7
100
AcDbLine
 10
203.278204
 20
172.105946
 30
0.0
 11
203.365709
 21
172.105946
 31
0.0
  0
LINE
  5
2EA
330
A
100
AcDbEntity
  8
0
 62
     7
100
AcDbLine
 10
203.170028
 20
172.105946
 30
0.0
 11
203.278204
 21
172.105946
 31
0.0
  0
LINE
  5
2E9
330
A
100
AcDbEntity
  8
0
 62
     7
100
AcDbLine
 10
199.806925
 20
172.105946
 30
0.0
 11
199.806925
 21
172.314719
 31
0.0
  0
LINE
  5
2E8
330
A
100
AcDbEntity
  8
0
 62
     7
100
AcDbLine
 10
199.840343
 20
172.105946
 30
0.0
 11
199.928021
 21
172.105946
 31
0.0
  0
LINE
  5
2E7
330
A
100
AcDbEntity
  8
0
 62
     7
100
AcDbLine
 10
199.806925
 20
172.105946
 30
0.0
 11
199.840343
 21
172.105946
 31
0.0
  0
LINE
  5
2E6
330
A
100
AcDbEntity
  8
0
 62
     7
100
AcDbLine
 10
199.840343
 20
172.105946
 30
0.0
 11
199.806925
 21
172.105946
 31
0.0
  0
LINE
  5
2E5
330
A
100
AcDbEntity
  8
0
 62
     7
100
AcDbLine
 10
199.928021
 20
172.105946
 30
0.0
 11
199.840343
 21
172.105946
 31
0.0
  0
LINE
  5
2E4
330
A
100
AcDbEntity
  8
0
 62
     7
100
AcDbLine
 10
200.036197
 20
172.105946
 30
0.0
 11
199.928021
 21
172.105946
 31
0.0
  0
LINE
  5
2E3
330
A
100
AcDbEntity
  8
0
 62
     7
100
AcDbLine
 10
200.123702
 20
172.105946
 30
0.0
 11
200.036197
 21
172.105946
 31
0.0
  0
LINE
  5
2E2
330
A
100
AcDbEntity
  8
0
 62
     7
100
AcDbLine
 10
200.157119
 20
172.105946
 30
0.0
 11
200.123702
 21
172.105946
 31
0.0
  0
LINE
  5
2E1
330
A
100
AcDbEntity
  8
0
 62
     7
100
AcDbLine
 10
200.123702
 20
172.105946
 30
0.0
 11
200.157119
 21
172.105946
 31
0.0
  0
LINE
  5
2E0
330
A
100
AcDbEntity
  8
0
 62
     7
100
AcDbLine
 10
200.036197
 20
172.105946
 30
0.0
 11
200.123702
 21
172.105946
 31
0.0
  0
LINE
  5
2DF
330
A
100
AcDbEntity
  8
0
 62
     7
100
AcDbLine
 10
199.928021
 20
172.105946
 30
0.0
 11
200.036197
 21
172.105946
 31
0.0
  0
LINE
  5
2DE
330
A
100
AcDbEntity
  8
0
 62
     7
100
AcDbLine
 10
200.616867
 20
172.105946
 30
0.0
 11
200.616867
 21
172.314719
 31
0.0
  0
LINE
  5
2DD
330
A
100
AcDbEntity
  8
0
 62
     7
100
AcDbLine
 10
200.967234
 20
172.314719
 30
0.0
 11
200.967234
 21
172.105946
 31
0.0
  0
LINE
  5
2DC
330
A
100
AcDbEntity
  8
0
 62
     7
100
AcDbLine
 10
200.650285
 20
172.105946
 30
0.0
 11
200.73779
 21
172.105946
 31
0.0
  0
LINE
  5
2DB
330
A
100
AcDbEntity
  8
0
 62
     7
100
AcDbLine
 10
200.616867
 20
172.105946
 30
0.0
 11
200.650285
 21
172.105946
 31
0.0
  0
LINE
  5
2DA
330
A
100
AcDbEntity
  8
0
 62
     7
100
AcDbLine
 10
200.650285
 20
172.105946
 30
0.0
 11
200.616867
 21
172.105946
 31
0.0
  0
LINE
  5
2D9
330
A
100
AcDbEntity
  8
0
 62
     7
100
AcDbLine
 10
200.73779
 20
172.105946
 30
0.0
 11
200.650285
 21
172.105946
 31
0.0
  0
LINE
  5
2D8
330
A
100
AcDbEntity
  8
0
 62
     7
100
AcDbLine
 10
200.846311
 20
172.105946
 30
0.0
 11
200.73779
 21
172.105946
 31
0.0
  0
LINE
  5
2D7
330
A
100
AcDbEntity
  8
0
 62
     7
100
AcDbLine
 10
200.933816
 20
172.105946
 30
0.0
 11
200.846311
 21
172.105946
 31
0.0
  0
LINE
  5
2D6
330
A
100
AcDbEntity
  8
0
 62
     7
100
AcDbLine
 10
200.967234
 20
172.105946
 30
0.0
 11
200.933816
 21
172.105946
 31
0.0
  0
LINE
  5
2D5
330
A
100
AcDbEntity
  8
0
 62
     7
100
AcDbLine
 10
200.933816
 20
172.105946
 30
0.0
 11
200.967234
 21
172.105946
 31
0.0
  0
LINE
  5
2D4
330
A
100
AcDbEntity
  8
0
 62
     7
100
AcDbLine
 10
200.846311
 20
172.105946
 30
0.0
 11
200.933816
 21
172.105946
 31
0.0
  0
LINE
  5
2D3
330
A
100
AcDbEntity
  8
0
 62
     7
100
AcDbLine
 10
200.73779
 20
172.105946
 30
0.0
 11
200.846311
 21
172.105946
 31
0.0
  0
LINE
  5
2D2
330
A
100
AcDbEntity
  8
0
 62
     7
100
AcDbLine
 10
201.460227
 20
172.105946
 30
0.0
 11
201.548077
 21
172.105946
 31
0.0
  0
LINE
  5
2D1
330
A
100
AcDbEntity
  8
0
 62
     7
100
AcDbLine
 10
201.426809
 20
172.105946
 30
0.0
 11
201.460227
 21
172.105946
 31
0.0
  0
LINE
  5
2D0
330
A
100
AcDbEntity
  8
0
 62
     7
100
AcDbLine
 10
201.460227
 20
172.105946
 30
0.0
 11
201.426809
 21
172.105946
 31
0.0
  0
LINE
  5
2CF
330
A
100
AcDbEntity
  8
0
 62
     7
100
AcDbLine
 10
201.548077
 20
172.105946
 30
0.0
 11
201.460227
 21
172.105946
 31
0.0
  0
LINE
  5
2CE
330
A
100
AcDbEntity
  8
0
 62
     7
100
AcDbLine
 10
201.656253
 20
172.105946
 30
0.0
 11
201.548077
 21
172.105946
 31
0.0
  0
LINE
  5
2CD
330
A
100
AcDbEntity
  8
0
 62
     7
100
AcDbLine
 10
201.743758
 20
172.105946
 30
0.0
 11
201.656253
 21
172.105946
 31
0.0
  0
LINE
  5
2CC
330
A
100
AcDbEntity
  8
0
 62
     7
100
AcDbLine
 10
201.777176
 20
172.105946
 30
0.0
 11
201.743758
 21
172.105946
 31
0.0
  0
LINE
  5
2CB
330
A
100
AcDbEntity
  8
0
 62
     7
100
AcDbLine
 10
201.743758
 20
172.105946
 30
0.0
 11
201.777176
 21
172.105946
 31
0.0
  0
LINE
  5
2CA
330
A
100
AcDbEntity
  8
0
 62
     7
100
AcDbLine
 10
201.656253
 20
172.105946
 30
0.0
 11
201.743758
 21
172.105946
 31
0.0
  0
LINE
  5
2C9
330
A
100
AcDbEntity
  8
0
 62
     7
100
AcDbLine
 10
201.548077
 20
172.105946
 30
0.0
 11
201.656253
 21
172.105946
 31
0.0
  0
LINE
  5
2C8
330
A
100
AcDbEntity
  8
0
 62
     7
100
AcDbLine
 10
202.236751
 20
172.105946
 30
0.0
 11
202.236751
 21
172.314719
 31
0.0
  0
LINE
  5
2C7
330
A
100
AcDbEntity
  8
0
 62
     7
100
AcDbLine
 10
202.358019
 20
172.105946
 30
0.0
 11
202.466195
 21
172.105946
 31
0.0
  0
LINE
  5
2C6
330
A
100
AcDbEntity
  8
0
 62
     7
100
AcDbLine
 10
202.270513
 20
172.105946
 30
0.0
 11
202.358019
 21
172.105946
 31
0.0
  0
LINE
  5
2C5
330
A
100
AcDbEntity
  8
0
 62
     7
100
AcDbLine
 10
202.236751
 20
172.105946
 30
0.0
 11
202.270513
 21
172.105946
 31
0.0
  0
LINE
  5
2C4
330
A
100
AcDbEntity
  8
0
 62
     7
100
AcDbLine
 10
202.270513
 20
172.105946
 30
0.0
 11
202.236751
 21
172.105946
 31
0.0
  0
LINE
  5
2C3
330
A
100
AcDbEntity
  8
0
 62
     7
100
AcDbLine
 10
202.358019
 20
172.105946
 30
0.0
 11
202.270513
 21
172.105946
 31
0.0
  0
LINE
  5
2C2
330
A
100
AcDbEntity
  8
0
 62
     7
100
AcDbLine
 10
202.466195
 20
172.105946
 30
0.0
 11
202.358019
 21
172.105946
 31
0.0
  0
LINE
  5
2C1
330
A
100
AcDbEntity
  8
0
 62
     7
100
AcDbLine
 10
202.5537
 20
172.105946
 30
0.0
 11
202.466195
 21
172.105946
 31
0.0
  0
LINE
  5
2C0
330
A
100
AcDbEntity
  8
0
 62
     7
100
AcDbLine
 10
202.587118
 20
172.105946
 30
0.0
 11
202.5537
 21
172.105946
 31
0.0
  0
LINE
  5
2BF
330
A
100
AcDbEntity
  8
0
 62
     7
100
AcDbLine
 10
202.5537
 20
172.105946
 30
0.0
 11
202.587118
 21
172.105946
 31
0.0
  0
LINE
  5
2BE
330
A
100
AcDbEntity
  8
0
 62
     7
100
AcDbLine
 10
202.466195
 20
172.105946
 30
0.0
 11
202.5537
 21
172.105946
 31
0.0
  0
LINE
  5
2BD
330
A
100
AcDbEntity
  8
0
 62
     7
100
AcDbLine
 10
203.082522
 20
172.105946
 30
0.0
 11
203.170028
 21
172.105946
 31
0.0
  0
LINE
  5
2BC
330
A
100
AcDbEntity
  8
0
 62
     7
100
AcDbLine
 10
203.049105
 20
172.105946
 30
0.0
 11
203.082522
 21
172.105946
 31
0.0
  0
LINE
  5
2BB
330
A
100
AcDbEntity
  8
0
 62
     7
100
AcDbLine
 10
203.082522
 20
172.105946
 30
0.0
 11
203.049105
 21
172.105946
 31
0.0
  0
LINE
  5
2BA
330
A
100
AcDbEntity
  8
0
 62
     7
100
AcDbLine
 10
203.170028
 20
172.105946
 30
0.0
 11
203.082522
 21
172.105946
 31
0.0
  0
LINE
  5
2B9
330
A
100
AcDbEntity
  8
0
 62
     7
100
AcDbLine
 10
203.278204
 20
172.105946
 30
0.0
 11
203.170028
 21
172.105946
 31
0.0
  0
LINE
  5
2B8
330
A
100
AcDbEntity
  8
0
 62
     7
100
AcDbLine
 10
203.365709
 20
172.105946
 30
0.0
 11
203.278204
 21
172.105946
 31
0.0
  0
LINE
  5
2B7
330
A
100
AcDbEntity
  8
0
 62
     7
100
AcDbLine
 10
203.399127
 20
172.105946
 30
0.0
 11
203.365709
 21
172.105946
 31
0.0
  0
LINE
  5
2B6
330
A
100
AcDbEntity
  8
0
 62
     7
100
AcDbLine
 10
203.365709
 20
172.105946
 30
0.0
 11
203.399127
 21
172.105946
 31
0.0
  0
LINE
  5
2B5
330
A
100
AcDbEntity
  8
0
 62
     7
100
AcDbLine
 10
203.278204
 20
172.105946
 30
0.0
 11
203.365709
 21
172.105946
 31
0.0
  0
LINE
  5
2B4
330
A
100
AcDbEntity
  8
0
 62
     7
100
AcDbLine
 10
203.170028
 20
172.105946
 30
0.0
 11
203.278204
 21
172.105946
 31
0.0
  0
LINE
  5
2B3
330
A
100
AcDbEntity
  8
0
 62
     7
100
AcDbLine
 10
199.806925
 20
172.105946
 30
0.0
 11
199.806925
 21
172.314719
 31
0.0
  0
LINE
  5
2B2
330
A
100
AcDbEntity
  8
0
 62
     7
100
AcDbLine
 10
199.840343
 20
172.105946
 30
0.0
 11
199.928021
 21
172.105946
 31
0.0
  0
LINE
  5
2B1
330
A
100
AcDbEntity
  8
0
 62
     7
100
AcDbLine
 10
199.806925
 20
172.105946
 30
0.0
 11
199.840343
 21
172.105946
 31
0.0
  0
LINE
  5
2B0
330
A
100
AcDbEntity
  8
0
 62
     7
100
AcDbLine
 10
199.840343
 20
172.105946
 30
0.0
 11
199.806925
 21
172.105946
 31
0.0
  0
LINE
  5
2AF
330
A
100
AcDbEntity
  8
0
 62
     7
100
AcDbLine
 10
199.928021
 20
172.105946
 30
0.0
 11
199.840343
 21
172.105946
 31
0.0
  0
LINE
  5
2AE
330
A
100
AcDbEntity
  8
0
 62
     7
100
AcDbLine
 10
200.036197
 20
172.105946
 30
0.0
 11
199.928021
 21
172.105946
 31
0.0
  0
LINE
  5
2AD
330
A
100
AcDbEntity
  8
0
 62
     7
100
AcDbLine
 10
200.123702
 20
172.105946
 30
0.0
 11
200.036197
 21
172.105946
 31
0.0
  0
LINE
  5
2AC
330
A
100
AcDbEntity
  8
0
 62
     7
100
AcDbLine
 10
200.157119
 20
172.105946
 30
0.0
 11
200.123702
 21
172.105946
 31
0.0
  0
LINE
  5
2AB
330
A
100
AcDbEntity
  8
0
 62
     7
100
AcDbLine
 10
200.123702
 20
172.105946
 30
0.0
 11
200.157119
 21
172.105946
 31
0.0
  0
LINE
  5
2AA
330
A
100
AcDbEntity
  8
0
 62
     7
100
AcDbLine
 10
200.036197
 20
172.105946
 30
0.0
 11
200.123702
 21
172.105946
 31
0.0
  0
LINE
  5
2A9
330
A
100
AcDbEntity
  8
0
 62
     7
100
AcDbLine
 10
199.928021
 20
172.105946
 30
0.0
 11
200.036197
 21
172.105946
 31
0.0
  0
LINE
  5
2A8
330
A
100
AcDbEntity
  8
0
 62
     7
100
AcDbLine
 10
200.616867
 20
172.105946
 30
0.0
 11
200.616867
 21
172.314719
 31
0.0
  0
LINE
  5
2A7
330
A
100
AcDbEntity
  8
0
 62
     7
100
AcDbLine
 10
200.967234
 20
172.314719
 30
0.0
 11
200.967234
 21
172.105946
 31
0.0
  0
LINE
  5
2A6
330
A
100
AcDbEntity
  8
0
 62
     7
100
AcDbLine
 10
200.650285
 20
172.105946
 30
0.0
 11
200.73779
 21
172.105946
 31
0.0
  0
LINE
  5
2A5
330
A
100
AcDbEntity
  8
0
 62
     7
100
AcDbLine
 10
200.616867
 20
172.105946
 30
0.0
 11
200.650285
 21
172.105946
 31
0.0
  0
LINE
  5
2A4
330
A
100
AcDbEntity
  8
0
 62
     7
100
AcDbLine
 10
200.650285
 20
172.105946
 30
0.0
 11
200.616867
 21
172.105946
 31
0.0
  0
LINE
  5
2A3
330
A
100
AcDbEntity
  8
0
 62
     7
100
AcDbLine
 10
200.73779
 20
172.105946
 30
0.0
 11
200.650285
 21
172.105946
 31
0.0
  0
LINE
  5
2A2
330
A
100
AcDbEntity
  8
0
 62
     7
100
AcDbLine
 10
200.846311
 20
172.105946
 30
0.0
 11
200.73779
 21
172.105946
 31
0.0
  0
LINE
  5
2A1
330
A
100
AcDbEntity
  8
0
 62
     7
100
AcDbLine
 10
200.933816
 20
172.105946
 30
0.0
 11
200.846311
 21
172.105946
 31
0.0
  0
LINE
  5
2A0
330
A
100
AcDbEntity
  8
0
 62
     7
100
AcDbLine
 10
200.967234
 20
172.105946
 30
0.0
 11
200.933816
 21
172.105946
 31
0.0
  0
LINE
  5
29F
330
A
100
AcDbEntity
  8
0
 62
     7
100
AcDbLine
 10
200.933816
 20
172.105946
 30
0.0
 11
200.967234
 21
172.105946
 31
0.0
  0
LINE
  5
29E
330
A
100
AcDbEntity
  8
0
 62
     7
100
AcDbLine
 10
200.846311
 20
172.105946
 30
0.0
 11
200.933816
 21
172.105946
 31
0.0
  0
LINE
  5
29D
330
A
100
AcDbEntity
  8
0
 62
     7
100
AcDbLine
 10
200.73779
 20
172.105946
 30
0.0
 11
200.846311
 21
172.105946
 31
0.0
  0
LINE
  5
29C
330
A
100
AcDbEntity
  8
0
 62
     7
100
AcDbLine
 10
201.460227
 20
172.105946
 30
0.0
 11
201.548077
 21
172.105946
 31
0.0
  0
LINE
  5
29B
330
A
100
AcDbEntity
  8
0
 62
     7
100
AcDbLine
 10
201.426809
 20
172.105946
 30
0.0
 11
201.460227
 21
172.105946
 31
0.0
  0
LINE
  5
29A
330
A
100
AcDbEntity
  8
0
 62
     7
100
AcDbLine
 10
201.460227
 20
172.105946
 30
0.0
 11
201.426809
 21
172.105946
 31
0.0
  0
LINE
  5
299
330
A
100
AcDbEntity
  8
0
 62
     7
100
AcDbLine
 10
201.548077
 20
172.105946
 30
0.0
 11
201.460227
 21
172.105946
 31
0.0
  0
LINE
  5
298
330
A
100
AcDbEntity
  8
0
 62
     7
100
AcDbLine
 10
201.656253
 20
172.105946
 30
0.0
 11
201.548077
 21
172.105946
 31
0.0
  0
LINE
  5
297
330
A
100
AcDbEntity
  8
0
 62
     7
100
AcDbLine
 10
201.743758
 20
172.105946
 30
0.0
 11
201.656253
 21
172.105946
 31
0.0
  0
LINE
  5
296
330
A
100
AcDbEntity
  8
0
 62
     7
100
AcDbLine
 10
201.777176
 20
172.105946
 30
0.0
 11
201.743758
 21
172.105946
 31
0.0
  0
LINE
  5
295
330
A
100
AcDbEntity
  8
0
 62
     7
100
AcDbLine
 10
201.743758
 20
172.105946
 30
0.0
 11
201.777176
 21
172.105946
 31
0.0
  0
LINE
  5
294
330
A
100
AcDbEntity
  8
0
 62
     7
100
AcDbLine
 10
201.656253
 20
172.105946
 30
0.0
 11
201.743758
 21
172.105946
 31
0.0
  0
LINE
  5
293
330
A
100
AcDbEntity
  8
0
 62
     7
100
AcDbLine
 10
201.548077
 20
172.105946
 30
0.0
 11
201.656253
 21
172.105946
 31
0.0
  0
LINE
  5
292
330
A
100
AcDbEntity
  8
0
 62
     7
100
AcDbLine
 10
202.236751
 20
172.105946
 30
0.0
 11
202.236751
 21
172.314719
 31
0.0
  0
LINE
  5
291
330
A
100
AcDbEntity
  8
0
 62
     7
100
AcDbLine
 10
202.358019
 20
172.105946
 30
0.0
 11
202.466195
 21
172.105946
 31
0.0
  0
LINE
  5
290
330
A
100
AcDbEntity
  8
0
 62
     7
100
AcDbLine
 10
202.270513
 20
172.105946
 30
0.0
 11
202.358019
 21
172.105946
 31
0.0
  0
LINE
  5
28F
330
A
100
AcDbEntity
  8
0
 62
     7
100
AcDbLine
 10
202.236751
 20
172.105946
 30
0.0
 11
202.270513
 21
172.105946
 31
0.0
  0
LINE
  5
28E
330
A
100
AcDbEntity
  8
0
 62
     7
100
AcDbLine
 10
202.270513
 20
172.105946
 30
0.0
 11
202.236751
 21
172.105946
 31
0.0
  0
LINE
  5
28D
330
A
100
AcDbEntity
  8
0
 62
     7
100
AcDbLine
 10
202.358019
 20
172.105946
 30
0.0
 11
202.270513
 21
172.105946
 31
0.0
  0
LINE
  5
28C
330
A
100
AcDbEntity
  8
0
 62
     7
100
AcDbLine
 10
202.466195
 20
172.105946
 30
0.0
 11
202.358019
 21
172.105946
 31
0.0
  0
LINE
  5
28B
330
A
100
AcDbEntity
  8
0
 62
     7
100
AcDbLine
 10
202.5537
 20
172.105946
 30
0.0
 11
202.466195
 21
172.105946
 31
0.0
  0
LINE
  5
28A
330
A
100
AcDbEntity
  8
0
 62
     7
100
AcDbLine
 10
202.587118
 20
172.105946
 30
0.0
 11
202.5537
 21
172.105946
 31
0.0
  0
LINE
  5
289
330
A
100
AcDbEntity
  8
0
 62
     7
100
AcDbLine
 10
202.5537
 20
172.105946
 30
0.0
 11
202.587118
 21
172.105946
 31
0.0
  0
LINE
  5
288
330
A
100
AcDbEntity
  8
0
 62
     7
100
AcDbLine
 10
202.466195
 20
172.105946
 30
0.0
 11
202.5537
 21
172.105946
 31
0.0
  0
LINE
  5
287
330
A
100
AcDbEntity
  8
0
 62
     7
100
AcDbLine
 10
203.082522
 20
172.105946
 30
0.0
 11
203.170028
 21
172.105946
 31
0.0
  0
LINE
  5
286
330
A
100
AcDbEntity
  8
0
 62
     7
100
AcDbLine
 10
203.049105
 20
172.105946
 30
0.0
 11
203.082522
 21
172.105946
 31
0.0
  0
LINE
  5
285
330
A
100
AcDbEntity
  8
0
 62
     7
100
AcDbLine
 10
203.082522
 20
172.105946
 30
0.0
 11
203.049105
 21
172.105946
 31
0.0
  0
LINE
  5
284
330
A
100
AcDbEntity
  8
0
 62
     7
100
AcDbLine
 10
203.170028
 20
172.105946
 30
0.0
 11
203.082522
 21
172.105946
 31
0.0
  0
LINE
  5
283
330
A
100
AcDbEntity
  8
0
 62
     7
100
AcDbLine
 10
203.278204
 20
172.105946
 30
0.0
 11
203.170028
 21
172.105946
 31
0.0
  0
LINE
  5
282
330
A
100
AcDbEntity
  8
0
 62
     7
100
AcDbLine
 10
203.365709
 20
172.105946
 30
0.0
 11
203.278204
 21
172.105946
 31
0.0
  0
LINE
  5
281
330
A
100
AcDbEntity
  8
0
 62
     7
100
AcDbLine
 10
203.399127
 20
172.105946
 30
0.0
 11
203.365709
 21
172.105946
 31
0.0
  0
LINE
  5
280
330
A
100
AcDbEntity
  8
0
 62
     7
100
AcDbLine
 10
203.365709
 20
172.105946
 30
0.0
 11
203.399127
 21
172.105946
 31
0.0
  0
LINE
  5
27F
330
A
100
AcDbEntity
  8
0
 62
     7
100
AcDbLine
 10
203.278204
 20
172.105946
 30
0.0
 11
203.365709
 21
172.105946
 31
0.0
  0
LINE
  5
27E
330
A
100
AcDbEntity
  8
0
 62
     7
100
AcDbLine
 10
203.170028
 20
172.105946
 30
0.0
 11
203.278204
 21
172.105946
 31
0.0
  0
LINE
  5
27D
330
A
100
AcDbEntity
  8
0
 62
     7
100
AcDbLine
 10
199.806925
 20
172.105946
 30
0.0
 11
199.806925
 21
172.314719
 31
0.0
  0
LINE
  5
27C
330
A
100
AcDbEntity
  8
0
 62
     7
100
AcDbLine
 10
199.840343
 20
172.105946
 30
0.0
 11
199.928021
 21
172.105946
 31
0.0
  0
LINE
  5
27B
330
A
100
AcDbEntity
  8
0
 62
     7
100
AcDbLine
 10
199.806925
 20
172.105946
 30
0.0
 11
199.840343
 21
172.105946
 31
0.0
  0
LINE
  5
27A
330
A
100
AcDbEntity
  8
0
 62
     7
100
AcDbLine
 10
199.840343
 20
172.105946
 30
0.0
 11
199.806925
 21
172.105946
 31
0.0
  0
LINE
  5
279
330
A
100
AcDbEntity
  8
0
 62
     7
100
AcDbLine
 10
199.928021
 20
172.105946
 30
0.0
 11
199.840343
 21
172.105946
 31
0.0
  0
LINE
  5
278
330
A
100
AcDbEntity
  8
0
 62
     7
100
AcDbLine
 10
200.036197
 20
172.105946
 30
0.0
 11
199.928021
 21
172.105946
 31
0.0
  0
LINE
  5
277
330
A
100
AcDbEntity
  8
0
 62
     7
100
AcDbLine
 10
200.123702
 20
172.105946
 30
0.0
 11
200.036197
 21
172.105946
 31
0.0
  0
LINE
  5
276
330
A
100
AcDbEntity
  8
0
 62
     7
100
AcDbLine
 10
200.157119
 20
172.105946
 30
0.0
 11
200.123702
 21
172.105946
 31
0.0
  0
LINE
  5
275
330
A
100
AcDbEntity
  8
0
 62
     7
100
AcDbLine
 10
200.123702
 20
172.105946
 30
0.0
 11
200.157119
 21
172.105946
 31
0.0
  0
LINE
  5
274
330
A
100
AcDbEntity
  8
0
 62
     7
100
AcDbLine
 10
200.036197
 20
172.105946
 30
0.0
 11
200.123702
 21
172.105946
 31
0.0
  0
LINE
  5
273
330
A
100
AcDbEntity
  8
0
 62
     7
100
AcDbLine
 10
199.928021
 20
172.105946
 30
0.0
 11
200.036197
 21
172.105946
 31
0.0
  0
LINE
  5
272
330
A
100
AcDbEntity
  8
0
 62
     7
100
AcDbLine
 10
200.616867
 20
172.105946
 30
0.0
 11
200.616867
 21
172.314719
 31
0.0
  0
LINE
  5
271
330
A
100
AcDbEntity
  8
0
 62
     7
100
AcDbLine
 10
200.967234
 20
172.314719
 30
0.0
 11
200.967234
 21
172.105946
 31
0.0
  0
LINE
  5
270
330
A
100
AcDbEntity
  8
0
 62
     7
100
AcDbLine
 10
200.650285
 20
172.105946
 30
0.0
 11
200.73779
 21
172.105946
 31
0.0
  0
LINE
  5
26F
330
A
100
AcDbEntity
  8
0
 62
     7
100
AcDbLine
 10
200.616867
 20
172.105946
 30
0.0
 11
200.650285
 21
172.105946
 31
0.0
  0
LINE
  5
26E
330
A
100
AcDbEntity
  8
0
 62
     7
100
AcDbLine
 10
200.650285
 20
172.105946
 30
0.0
 11
200.616867
 21
172.105946
 31
0.0
  0
LINE
  5
26D
330
A
100
AcDbEntity
  8
0
 62
     7
100
AcDbLine
 10
200.73779
 20
172.105946
 30
0.0
 11
200.650285
 21
172.105946
 31
0.0
  0
LINE
  5
26C
330
A
100
AcDbEntity
  8
0
 62
     7
100
AcDbLine
 10
200.846311
 20
172.105946
 30
0.0
 11
200.73779
 21
172.105946
 31
0.0
  0
LINE
  5
26B
330
A
100
AcDbEntity
  8
0
 62
     7
100
AcDbLine
 10
200.933816
 20
172.105946
 30
0.0
 11
200.846311
 21
172.105946
 31
0.0
  0
LINE
  5
26A
330
A
100
AcDbEntity
  8
0
 62
     7
100
AcDbLine
 10
200.967234
 20
172.105946
 30
0.0
 11
200.933816
 21
172.105946
 31
0.0
  0
LINE
  5
269
330
A
100
AcDbEntity
  8
0
 62
     7
100
AcDbLine
 10
200.933816
 20
172.105946
 30
0.0
 11
200.967234
 21
172.105946
 31
0.0
  0
LINE
  5
268
330
A
100
AcDbEntity
  8
0
 62
     7
100
AcDbLine
 10
200.846311
 20
172.105946
 30
0.0
 11
200.933816
 21
172.105946
 31
0.0
  0
LINE
  5
267
330
A
100
AcDbEntity
  8
0
 62
     7
100
AcDbLine
 10
200.73779
 20
172.105946
 30
0.0
 11
200.846311
 21
172.105946
 31
0.0
  0
LINE
  5
266
330
A
100
AcDbEntity
  8
0
 62
     7
100
AcDbLine
 10
201.460227
 20
172.105946
 30
0.0
 11
201.548077
 21
172.105946
 31
0.0
  0
LINE
  5
265
330
A
100
AcDbEntity
  8
0
 62
     7
100
AcDbLine
 10
201.426809
 20
172.105946
 30
0.0
 11
201.460227
 21
172.105946
 31
0.0
  0
LINE
  5
264
330
A
100
AcDbEntity
  8
0
 62
     7
100
AcDbLine
 10
201.460227
 20
172.105946
 30
0.0
 11
201.426809
 21
172.105946
 31
0.0
  0
LINE
  5
263
330
A
100
AcDbEntity
  8
0
 62
     7
100
AcDbLine
 10
201.548077
 20
172.105946
 30
0.0
 11
201.460227
 21
172.105946
 31
0.0
  0
LINE
  5
262
330
A
100
AcDbEntity
  8
0
 62
     7
100
AcDbLine
 10
201.656253
 20
172.105946
 30
0.0
 11
201.548077
 21
172.105946
 31
0.0
  0
LINE
  5
261
330
A
100
AcDbEntity
  8
0
 62
     7
100
AcDbLine
 10
201.743758
 20
172.105946
 30
0.0
 11
201.656253
 21
172.105946
 31
0.0
  0
LINE
  5
260
330
A
100
AcDbEntity
  8
0
 62
     7
100
AcDbLine
 10
201.777176
 20
172.105946
 30
0.0
 11
201.743758
 21
172.105946
 31
0.0
  0
LINE
  5
25F
330
A
100
AcDbEntity
  8
0
 62
     7
100
AcDbLine
 10
201.743758
 20
172.105946
 30
0.0
 11
201.777176
 21
172.105946
 31
0.0
  0
LINE
  5
25E
330
A
100
AcDbEntity
  8
0
 62
     7
100
AcDbLine
 10
201.656253
 20
172.105946
 30
0.0
 11
201.743758
 21
172.105946
 31
0.0
  0
LINE
  5
25D
330
A
100
AcDbEntity
  8
0
 62
     7
100
AcDbLine
 10
201.548077
 20
172.105946
 30
0.0
 11
201.656253
 21
172.105946
 31
0.0
  0
LINE
  5
25C
330
A
100
AcDbEntity
  8
0
 62
     7
100
AcDbLine
 10
202.236751
 20
172.105946
 30
0.0
 11
202.236751
 21
172.314719
 31
0.0
  0
LINE
  5
25B
330
A
100
AcDbEntity
  8
0
 62
     7
100
AcDbLine
 10
202.358019
 20
172.105946
 30
0.0
 11
202.466195
 21
172.105946
 31
0.0
  0
LINE
  5
25A
330
A
100
AcDbEntity
  8
0
 62
     7
100
AcDbLine
 10
202.270513
 20
172.105946
 30
0.0
 11
202.358019
 21
172.105946
 31
0.0
  0
LINE
  5
259
330
A
100
AcDbEntity
  8
0
 62
     7
100
AcDbLine
 10
202.236751
 20
172.105946
 30
0.0
 11
202.270513
 21
172.105946
 31
0.0
  0
LINE
  5
258
330
A
100
AcDbEntity
  8
0
 62
     7
100
AcDbLine
 10
202.270513
 20
172.105946
 30
0.0
 11
202.236751
 21
172.105946
 31
0.0
  0
LINE
  5
257
330
A
100
AcDbEntity
  8
0
 62
     7
100
AcDbLine
 10
202.358019
 20
172.105946
 30
0.0
 11
202.270513
 21
172.105946
 31
0.0
  0
LINE
  5
256
330
A
100
AcDbEntity
  8
0
 62
     7
100
AcDbLine
 10
202.466195
 20
172.105946
 30
0.0
 11
202.358019
 21
172.105946
 31
0.0
  0
LINE
  5
255
330
A
100
AcDbEntity
  8
0
 62
     7
100
AcDbLine
 10
202.5537
 20
172.105946
 30
0.0
 11
202.466195
 21
172.105946
 31
0.0
  0
LINE
  5
254
330
A
100
AcDbEntity
  8
0
 62
     7
100
AcDbLine
 10
202.587118
 20
172.105946
 30
0.0
 11
202.5537
 21
172.105946
 31
0.0
  0
LINE
  5
253
330
A
100
AcDbEntity
  8
0
 62
     7
100
AcDbLine
 10
202.5537
 20
172.105946
 30
0.0
 11
202.587118
 21
172.105946
 31
0.0
  0
LINE
  5
252
330
A
100
AcDbEntity
  8
0
 62
     7
100
AcDbLine
 10
202.466195
 20
172.105946
 30
0.0
 11
202.5537
 21
172.105946
 31
0.0
  0
LINE
  5
251
330
A
100
AcDbEntity
  8
0
 62
     7
100
AcDbLine
 10
203.082522
 20
172.105946
 30
0.0
 11
203.170028
 21
172.105946
 31
0.0
  0
LINE
  5
250
330
A
100
AcDbEntity
  8
0
 62
     7
100
AcDbLine
 10
203.049105
 20
172.105946
 30
0.0
 11
203.082522
 21
172.105946
 31
0.0
  0
LINE
  5
24F
330
A
100
AcDbEntity
  8
0
 62
     7
100
AcDbLine
 10
203.082522
 20
172.105946
 30
0.0
 11
203.049105
 21
172.105946
 31
0.0
  0
LINE
  5
24E
330
A
100
AcDbEntity
  8
0
 62
     7
100
AcDbLine
 10
203.170028
 20
172.105946
 30
0.0
 11
203.082522
 21
172.105946
 31
0.0
  0
LINE
  5
24D
330
A
100
AcDbEntity
  8
0
 62
     7
100
AcDbLine
 10
203.278204
 20
172.105946
 30
0.0
 11
203.170028
 21
172.105946
 31
0.0
  0
LINE
  5
24C
330
A
100
AcDbEntity
  8
0
 62
     7
100
AcDbLine
 10
203.365709
 20
172.105946
 30
0.0
 11
203.278204
 21
172.105946
 31
0.0
  0
LINE
  5
24B
330
A
100
AcDbEntity
  8
0
 62
     7
100
AcDbLine
 10
203.399127
 20
172.105946
 30
0.0
 11
203.365709
 21
172.105946
 31
0.0
  0
LINE
  5
24A
330
A
100
AcDbEntity
  8
0
 62
     7
100
AcDbLine
 10
203.365709
 20
172.105946
 30
0.0
 11
203.399127
 21
172.105946
 31
0.0
  0
LINE
  5
249
330
A
100
AcDbEntity
  8
0
 62
     7
100
AcDbLine
 10
203.278204
 20
172.105946
 30
0.0
 11
203.365709
 21
172.105946
 31
0.0
  0
LINE
  5
248
330
A
100
AcDbEntity
  8
0
 62
     7
100
AcDbLine
 10
203.170028
 20
172.105946
 30
0.0
 11
203.278204
 21
172.105946
 31
0.0
  0
LINE
  5
247
330
A
100
AcDbEntity
  8
0
 62
     7
100
AcDbLine
 10
199.806925
 20
172.105946
 30
0.0
 11
199.806925
 21
172.314719
 31
0.0
  0
LINE
  5
246
330
A
100
AcDbEntity
  8
0
 62
     7
100
AcDbLine
 10
199.840343
 20
172.105946
 30
0.0
 11
199.928021
 21
172.105946
 31
0.0
  0
LINE
  5
245
330
A
100
AcDbEntity
  8
0
 62
     7
100
AcDbLine
 10
199.806925
 20
172.105946
 30
0.0
 11
199.840343
 21
172.105946
 31
0.0
  0
LINE
  5
244
330
A
100
AcDbEntity
  8
0
 62
     7
100
AcDbLine
 10
199.840343
 20
172.105946
 30
0.0
 11
199.806925
 21
172.105946
 31
0.0
  0
LINE
  5
243
330
A
100
AcDbEntity
  8
0
 62
     7
100
AcDbLine
 10
199.928021
 20
172.105946
 30
0.0
 11
199.840343
 21
172.105946
 31
0.0
  0
LINE
  5
242
330
A
100
AcDbEntity
  8
0
 62
     7
100
AcDbLine
 10
200.036197
 20
172.105946
 30
0.0
 11
199.928021
 21
172.105946
 31
0.0
  0
LINE
  5
241
330
A
100
AcDbEntity
  8
0
 62
     7
100
AcDbLine
 10
200.123702
 20
172.105946
 30
0.0
 11
200.036197
 21
172.105946
 31
0.0
  0
LINE
  5
240
330
A
100
AcDbEntity
  8
0
 62
     7
100
AcDbLine
 10
200.157119
 20
172.105946
 30
0.0
 11
200.123702
 21
172.105946
 31
0.0
  0
LINE
  5
23F
330
A
100
AcDbEntity
  8
0
 62
     7
100
AcDbLine
 10
200.123702
 20
172.105946
 30
0.0
 11
200.157119
 21
172.105946
 31
0.0
  0
LINE
  5
23E
330
A
100
AcDbEntity
  8
0
 62
     7
100
AcDbLine
 10
200.036197
 20
172.105946
 30
0.0
 11
200.123702
 21
172.105946
 31
0.0
  0
LINE
  5
23D
330
A
100
AcDbEntity
  8
0
 62
     7
100
AcDbLine
 10
199.928021
 20
172.105946
 30
0.0
 11
200.036197
 21
172.105946
 31
0.0
  0
LINE
  5
23C
330
A
100
AcDbEntity
  8
0
 62
     7
100
AcDbLine
 10
200.616867
 20
172.105946
 30
0.0
 11
200.616867
 21
172.314719
 31
0.0
  0
LINE
  5
23B
330
A
100
AcDbEntity
  8
0
 62
     7
100
AcDbLine
 10
200.967234
 20
172.314719
 30
0.0
 11
200.967234
 21
172.105946
 31
0.0
  0
LINE
  5
23A
330
A
100
AcDbEntity
  8
0
 62
     7
100
AcDbLine
 10
200.650285
 20
172.105946
 30
0.0
 11
200.73779
 21
172.105946
 31
0.0
  0
LINE
  5
239
330
A
100
AcDbEntity
  8
0
 62
     7
100
AcDbLine
 10
200.616867
 20
172.105946
 30
0.0
 11
200.650285
 21
172.105946
 31
0.0
  0
LINE
  5
238
330
A
100
AcDbEntity
  8
0
 62
     7
100
AcDbLine
 10
200.650285
 20
172.105946
 30
0.0
 11
200.616867
 21
172.105946
 31
0.0
  0
LINE
  5
237
330
A
100
AcDbEntity
  8
0
 62
     7
100
AcDbLine
 10
200.73779
 20
172.105946
 30
0.0
 11
200.650285
 21
172.105946
 31
0.0
  0
LINE
  5
236
330
A
100
AcDbEntity
  8
0
 62
     7
100
AcDbLine
 10
200.846311
 20
172.105946
 30
0.0
 11
200.73779
 21
172.105946
 31
0.0
  0
LINE
  5
235
330
A
100
AcDbEntity
  8
0
 62
     7
100
AcDbLine
 10
200.933816
 20
172.105946
 30
0.0
 11
200.846311
 21
172.105946
 31
0.0
  0
LINE
  5
234
330
A
100
AcDbEntity
  8
0
 62
     7
100
AcDbLine
 10
200.967234
 20
172.105946
 30
0.0
 11
200.933816
 21
172.105946
 31
0.0
  0
LINE
  5
233
330
A
100
AcDbEntity
  8
0
 62
     7
100
AcDbLine
 10
200.933816
 20
172.105946
 30
0.0
 11
200.967234
 21
172.105946
 31
0.0
  0
LINE
  5
232
330
A
100
AcDbEntity
  8
0
 62
     7
100
AcDbLine
 10
200.846311
 20
172.105946
 30
0.0
 11
200.933816
 21
172.105946
 31
0.0
  0
LINE
  5
231
330
A
100
AcDbEntity
  8
0
 62
     7
100
AcDbLine
 10
200.73779
 20
172.105946
 30
0.0
 11
200.846311
 21
172.105946
 31
0.0
  0
LINE
  5
230
330
A
100
AcDbEntity
  8
0
 62
     7
100
AcDbLine
 10
201.460227
 20
172.105946
 30
0.0
 11
201.548077
 21
172.105946
 31
0.0
  0
LINE
  5
22F
330
A
100
AcDbEntity
  8
0
 62
     7
100
AcDbLine
 10
201.426809
 20
172.105946
 30
0.0
 11
201.460227
 21
172.105946
 31
0.0
  0
LINE
  5
22E
330
A
100
AcDbEntity
  8
0
 62
     7
100
AcDbLine
 10
201.460227
 20
172.105946
 30
0.0
 11
201.426809
 21
172.105946
 31
0.0
  0
LINE
  5
22D
330
A
100
AcDbEntity
  8
0
 62
     7
100
AcDbLine
 10
201.548077
 20
172.105946
 30
0.0
 11
201.460227
 21
172.105946
 31
0.0
  0
LINE
  5
22C
330
A
100
AcDbEntity
  8
0
 62
     7
100
AcDbLine
 10
201.656253
 20
172.105946
 30
0.0
 11
201.548077
 21
172.105946
 31
0.0
  0
LINE
  5
22B
330
A
100
AcDbEntity
  8
0
 62
     7
100
AcDbLine
 10
201.743758
 20
172.105946
 30
0.0
 11
201.656253
 21
172.105946
 31
0.0
  0
LINE
  5
22A
330
A
100
AcDbEntity
  8
0
 62
     7
100
AcDbLine
 10
201.777176
 20
172.105946
 30
0.0
 11
201.743758
 21
172.105946
 31
0.0
  0
LINE
  5
229
330
A
100
AcDbEntity
  8
0
 62
     7
100
AcDbLine
 10
201.743758
 20
172.105946
 30
0.0
 11
201.777176
 21
172.105946
 31
0.0
  0
LINE
  5
228
330
A
100
AcDbEntity
  8
0
 62
     7
100
AcDbLine
 10
201.656253
 20
172.105946
 30
0.0
 11
201.743758
 21
172.105946
 31
0.0
  0
LINE
  5
227
330
A
100
AcDbEntity
  8
0
 62
     7
100
AcDbLine
 10
201.548077
 20
172.105946
 30
0.0
 11
201.656253
 21
172.105946
 31
0.0
  0
LINE
  5
226
330
A
100
AcDbEntity
  8
0
 62
     7
100
AcDbLine
 10
202.236751
 20
172.105946
 30
0.0
 11
202.236751
 21
172.314719
 31
0.0
  0
LINE
  5
225
330
A
100
AcDbEntity
  8
0
 62
     7
100
AcDbLine
 10
202.358019
 20
172.105946
 30
0.0
 11
202.466195
 21
172.105946
 31
0.0
  0
LINE
  5
224
330
A
100
AcDbEntity
  8
0
 62
     7
100
AcDbLine
 10
202.270513
 20
172.105946
 30
0.0
 11
202.358019
 21
172.105946
 31
0.0
  0
LINE
  5
223
330
A
100
AcDbEntity
  8
0
 62
     7
100
AcDbLine
 10
202.236751
 20
172.105946
 30
0.0
 11
202.270513
 21
172.105946
 31
0.0
  0
LINE
  5
222
330
A
100
AcDbEntity
  8
0
 62
     7
100
AcDbLine
 10
202.270513
 20
172.105946
 30
0.0
 11
202.236751
 21
172.105946
 31
0.0
  0
LINE
  5
221
330
A
100
AcDbEntity
  8
0
 62
     7
100
AcDbLine
 10
202.358019
 20
172.105946
 30
0.0
 11
202.270513
 21
172.105946
 31
0.0
  0
LINE
  5
220
330
A
100
AcDbEntity
  8
0
 62
     7
100
AcDbLine
 10
202.466195
 20
172.105946
 30
0.0
 11
202.358019
 21
172.105946
 31
0.0
  0
LINE
  5
21F
330
A
100
AcDbEntity
  8
0
 62
     7
100
AcDbLine
 10
202.5537
 20
172.105946
 30
0.0
 11
202.466195
 21
172.105946
 31
0.0
  0
LINE
  5
21E
330
A
100
AcDbEntity
  8
0
 62
     7
100
AcDbLine
 10
202.587118
 20
172.105946
 30
0.0
 11
202.5537
 21
172.105946
 31
0.0
  0
LINE
  5
21D
330
A
100
AcDbEntity
  8
0
 62
     7
100
AcDbLine
 10
202.5537
 20
172.105946
 30
0.0
 11
202.587118
 21
172.105946
 31
0.0
  0
LINE
  5
21C
330
A
100
AcDbEntity
  8
0
 62
     7
100
AcDbLine
 10
202.466195
 20
172.105946
 30
0.0
 11
202.5537
 21
172.105946
 31
0.0
  0
LINE
  5
21B
330
A
100
AcDbEntity
  8
0
 62
     7
100
AcDbLine
 10
203.082522
 20
172.105946
 30
0.0
 11
203.170028
 21
172.105946
 31
0.0
  0
LINE
  5
21A
330
A
100
AcDbEntity
  8
0
 62
     7
100
AcDbLine
 10
203.049105
 20
172.105946
 30
0.0
 11
203.082522
 21
172.105946
 31
0.0
  0
LINE
  5
219
330
A
100
AcDbEntity
  8
0
 62
     7
100
AcDbLine
 10
203.082522
 20
172.105946
 30
0.0
 11
203.049105
 21
172.105946
 31
0.0
  0
LINE
  5
218
330
A
100
AcDbEntity
  8
0
 62
     7
100
AcDbLine
 10
203.170028
 20
172.105946
 30
0.0
 11
203.082522
 21
172.105946
 31
0.0
  0
LINE
  5
217
330
A
100
AcDbEntity
  8
0
 62
     7
100
AcDbLine
 10
203.278204
 20
172.105946
 30
0.0
 11
203.170028
 21
172.105946
 31
0.0
  0
LINE
  5
216
330
A
100
AcDbEntity
  8
0
 62
     7
100
AcDbLine
 10
203.365709
 20
172.105946
 30
0.0
 11
203.278204
 21
172.105946
 31
0.0
  0
LINE
  5
215
330
A
100
AcDbEntity
  8
0
 62
     7
100
AcDbLine
 10
203.399127
 20
172.105946
 30
0.0
 11
203.365709
 21
172.105946
 31
0.0
  0
LINE
  5
214
330
A
100
AcDbEntity
  8
0
 62
     7
100
AcDbLine
 10
203.365709
 20
172.105946
 30
0.0
 11
203.399127
 21
172.105946
 31
0.0
  0
LINE
  5
213
330
A
100
AcDbEntity
  8
0
 62
     7
100
AcDbLine
 10
203.278204
 20
172.105946
 30
0.0
 11
203.365709
 21
172.105946
 31
0.0
  0
LINE
  5
212
330
A
100
AcDbEntity
  8
0
 62
     7
100
AcDbLine
 10
203.170028
 20
172.105946
 30
0.0
 11
203.278204
 21
172.105946
 31
0.0
  0
LINE
  5
211
330
A
100
AcDbEntity
  8
0
 62
     7
100
AcDbLine
 10
205.209524
 20
172.550019
 30
0.0
 11
205.209524
 21
172.464753
 31
0.0
  0
LINE
  5
210
330
A
100
AcDbEntity
  8
0
 62
     7
100
AcDbLine
 10
204.997651
 20
172.314719
 30
0.0
 11
204.944596
 21
172.314719
 31
0.0
  0
LINE
  5
20F
330
A
100
AcDbEntity
  8
0
 62
     7
100
AcDbLine
 10
205.028312
 20
172.314719
 30
0.0
 11
204.997651
 21
172.314719
 31
0.0
  0
LINE
  5
20E
330
A
100
AcDbEntity
  8
0
 62
     7
100
AcDbLine
 10
205.048638
 20
172.314719
 30
0.0
 11
205.028312
 21
172.314719
 31
0.0
  0
LINE
  5
20D
330
A
100
AcDbEntity
  8
0
 62
     7
100
AcDbLine
 10
205.059663
 20
172.314719
 30
0.0
 11
205.048638
 21
172.314719
 31
0.0
  0
LINE
  5
20C
330
A
100
AcDbEntity
  8
0
 62
     7
100
AcDbLine
 10
198.208229
 20
172.314719
 30
0.0
 11
198.197549
 21
172.314719
 31
0.0
  0
LINE
  5
20B
330
A
100
AcDbEntity
  8
0
 62
     7
100
AcDbLine
 10
198.228727
 20
172.314719
 30
0.0
 11
198.208229
 21
172.314719
 31
0.0
  0
LINE
  5
20A
330
A
100
AcDbEntity
  8
0
 62
     7
100
AcDbLine
 10
198.259216
 20
172.314719
 30
0.0
 11
198.228727
 21
172.314719
 31
0.0
  0
LINE
  5
209
330
A
100
AcDbEntity
  8
0
 62
     7
100
AcDbLine
 10
198.312443
 20
172.314719
 30
0.0
 11
198.259216
 21
172.314719
 31
0.0
  0
LINE
  5
208
330
A
100
AcDbEntity
  8
0
 62
     7
100
AcDbLine
 10
204.944596
 20
172.314719
 30
0.0
 11
203.399127
 21
172.314719
 31
0.0
  0
LINE
  5
207
330
A
100
AcDbEntity
  8
0
 62
     7
100
AcDbLine
 10
203.049105
 20
172.314719
 30
0.0
 11
202.587118
 21
172.314719
 31
0.0
  0
LINE
  5
206
330
A
100
AcDbEntity
  8
0
 62
     7
100
AcDbLine
 10
202.236751
 20
172.314719
 30
0.0
 11
201.777176
 21
172.314719
 31
0.0
  0
LINE
  5
205
330
A
100
AcDbEntity
  8
0
 62
     7
100
AcDbLine
 10
201.426809
 20
172.314719
 30
0.0
 11
200.967234
 21
172.314719
 31
0.0
  0
LINE
  5
204
330
A
100
AcDbEntity
  8
0
 62
     7
100
AcDbLine
 10
200.616867
 20
172.314719
 30
0.0
 11
200.157119
 21
172.314719
 31
0.0
  0
LINE
  5
203
330
A
100
AcDbEntity
  8
0
 62
     7
100
AcDbLine
 10
199.806925
 20
172.314719
 30
0.0
 11
198.312443
 21
172.314719
 31
0.0
  0
LINE
  5
202
330
A
100
AcDbEntity
  8
0
 62
     7
100
AcDbLine
 10
199.806925
 20
172.105946
 30
0.0
 11
199.806925
 21
172.314719
 31
0.0
  0
LINE
  5
201
330
A
100
AcDbEntity
  8
0
 62
     7
100
AcDbLine
 10
199.840343
 20
172.105946
 30
0.0
 11
199.928021
 21
172.105946
 31
0.0
  0
LINE
  5
200
330
A
100
AcDbEntity
  8
0
 62
     7
100
AcDbLine
 10
199.806925
 20
172.105946
 30
0.0
 11
199.840343
 21
172.105946
 31
0.0
  0
LINE
  5
1FF
330
A
100
AcDbEntity
  8
0
 62
     7
100
AcDbLine
 10
199.840343
 20
172.105946
 30
0.0
 11
199.806925
 21
172.105946
 31
0.0
  0
LINE
  5
1FE
330
A
100
AcDbEntity
  8
0
 62
     7
100
AcDbLine
 10
199.928021
 20
172.105946
 30
0.0
 11
199.840343
 21
172.105946
 31
0.0
  0
LINE
  5
1FD
330
A
100
AcDbEntity
  8
0
 62
     7
100
AcDbLine
 10
200.036197
 20
172.105946
 30
0.0
 11
199.928021
 21
172.105946
 31
0.0
  0
LINE
  5
1FC
330
A
100
AcDbEntity
  8
0
 62
     7
100
AcDbLine
 10
200.123702
 20
172.105946
 30
0.0
 11
200.036197
 21
172.105946
 31
0.0
  0
LINE
  5
1FB
330
A
100
AcDbEntity
  8
0
 62
     7
100
AcDbLine
 10
200.157119
 20
172.105946
 30
0.0
 11
200.123702
 21
172.105946
 31
0.0
  0
LINE
  5
1FA
330
A
100
AcDbEntity
  8
0
 62
     7
100
AcDbLine
 10
200.123702
 20
172.105946
 30
0.0
 11
200.157119
 21
172.105946
 31
0.0
  0
LINE
  5
1F9
330
A
100
AcDbEntity
  8
0
 62
     7
100
AcDbLine
 10
200.036197
 20
172.105946
 30
0.0
 11
200.123702
 21
172.105946
 31
0.0
  0
LINE
  5
1F8
330
A
100
AcDbEntity
  8
0
 62
     7
100
AcDbLine
 10
199.928021
 20
172.105946
 30
0.0
 11
200.036197
 21
172.105946
 31
0.0
  0
LINE
  5
1F7
330
A
100
AcDbEntity
  8
0
 62
     7
100
AcDbLine
 10
200.616867
 20
172.105946
 30
0.0
 11
200.616867
 21
172.314719
 31
0.0
  0
LINE
  5
1F6
330
A
100
AcDbEntity
  8
0
 62
     7
100
AcDbLine
 10
200.967234
 20
172.314719
 30
0.0
 11
200.967234
 21
172.105946
 31
0.0
  0
LINE
  5
1F5
330
A
100
AcDbEntity
  8
0
 62
     7
100
AcDbLine
 10
200.650285
 20
172.105946
 30
0.0
 11
200.73779
 21
172.105946
 31
0.0
  0
LINE
  5
1F4
330
A
100
AcDbEntity
  8
0
 62
     7
100
AcDbLine
 10
200.616867
 20
172.105946
 30
0.0
 11
200.650285
 21
172.105946
 31
0.0
  0
LINE
  5
1F3
330
A
100
AcDbEntity
  8
0
 62
     7
100
AcDbLine
 10
200.650285
 20
172.105946
 30
0.0
 11
200.616867
 21
172.105946
 31
0.0
  0
LINE
  5
1F2
330
A
100
AcDbEntity
  8
0
 62
     7
100
AcDbLine
 10
200.73779
 20
172.105946
 30
0.0
 11
200.650285
 21
172.105946
 31
0.0
  0
LINE
  5
1F1
330
A
100
AcDbEntity
  8
0
 62
     7
100
AcDbLine
 10
200.846311
 20
172.105946
 30
0.0
 11
200.73779
 21
172.105946
 31
0.0
  0
LINE
  5
1F0
330
A
100
AcDbEntity
  8
0
 62
     7
100
AcDbLine
 10
200.933816
 20
172.105946
 30
0.0
 11
200.846311
 21
172.105946
 31
0.0
  0
LINE
  5
1EF
330
A
100
AcDbEntity
  8
0
 62
     7
100
AcDbLine
 10
200.967234
 20
172.105946
 30
0.0
 11
200.933816
 21
172.105946
 31
0.0
  0
LINE
  5
1EE
330
A
100
AcDbEntity
  8
0
 62
     7
100
AcDbLine
 10
200.933816
 20
172.105946
 30
0.0
 11
200.967234
 21
172.105946
 31
0.0
  0
LINE
  5
1ED
330
A
100
AcDbEntity
  8
0
 62
     7
100
AcDbLine
 10
200.846311
 20
172.105946
 30
0.0
 11
200.933816
 21
172.105946
 31
0.0
  0
LINE
  5
1EC
330
A
100
AcDbEntity
  8
0
 62
     7
100
AcDbLine
 10
200.73779
 20
172.105946
 30
0.0
 11
200.846311
 21
172.105946
 31
0.0
  0
LINE
  5
1EB
330
A
100
AcDbEntity
  8
0
 62
     7
100
AcDbLine
 10
201.460227
 20
172.105946
 30
0.0
 11
201.548077
 21
172.105946
 31
0.0
  0
LINE
  5
1EA
330
A
100
AcDbEntity
  8
0
 62
     7
100
AcDbLine
 10
201.426809
 20
172.105946
 30
0.0
 11
201.460227
 21
172.105946
 31
0.0
  0
LINE
  5
1E9
330
A
100
AcDbEntity
  8
0
 62
     7
100
AcDbLine
 10
201.460227
 20
172.105946
 30
0.0
 11
201.426809
 21
172.105946
 31
0.0
  0
LINE
  5
1E8
330
A
100
AcDbEntity
  8
0
 62
     7
100
AcDbLine
 10
201.548077
 20
172.105946
 30
0.0
 11
201.460227
 21
172.105946
 31
0.0
  0
LINE
  5
1E7
330
A
100
AcDbEntity
  8
0
 62
     7
100
AcDbLine
 10
201.656253
 20
172.105946
 30
0.0
 11
201.548077
 21
172.105946
 31
0.0
  0
LINE
  5
1E6
330
A
100
AcDbEntity
  8
0
 62
     7
100
AcDbLine
 10
201.743758
 20
172.105946
 30
0.0
 11
201.656253
 21
172.105946
 31
0.0
  0
LINE
  5
1E5
330
A
100
AcDbEntity
  8
0
 62
     7
100
AcDbLine
 10
201.777176
 20
172.105946
 30
0.0
 11
201.743758
 21
172.105946
 31
0.0
  0
LINE
  5
1E4
330
A
100
AcDbEntity
  8
0
 62
     7
100
AcDbLine
 10
201.743758
 20
172.105946
 30
0.0
 11
201.777176
 21
172.105946
 31
0.0
  0
LINE
  5
1E3
330
A
100
AcDbEntity
  8
0
 62
     7
100
AcDbLine
 10
201.656253
 20
172.105946
 30
0.0
 11
201.743758
 21
172.105946
 31
0.0
  0
LINE
  5
1E2
330
A
100
AcDbEntity
  8
0
 62
     7
100
AcDbLine
 10
201.548077
 20
172.105946
 30
0.0
 11
201.656253
 21
172.105946
 31
0.0
  0
LINE
  5
1E1
330
A
100
AcDbEntity
  8
0
 62
     7
100
AcDbLine
 10
202.236751
 20
172.105946
 30
0.0
 11
202.236751
 21
172.314719
 31
0.0
  0
LINE
  5
1E0
330
A
100
AcDbEntity
  8
0
 62
     7
100
AcDbLine
 10
202.358019
 20
172.105946
 30
0.0
 11
202.466195
 21
172.105946
 31
0.0
  0
LINE
  5
1DF
330
A
100
AcDbEntity
  8
0
 62
     7
100
AcDbLine
 10
202.270513
 20
172.105946
 30
0.0
 11
202.358019
 21
172.105946
 31
0.0
  0
LINE
  5
1DE
330
A
100
AcDbEntity
  8
0
 62
     7
100
AcDbLine
 10
202.236751
 20
172.105946
 30
0.0
 11
202.270513
 21
172.105946
 31
0.0
  0
LINE
  5
1DD
330
A
100
AcDbEntity
  8
0
 62
     7
100
AcDbLine
 10
202.270513
 20
172.105946
 30
0.0
 11
202.236751
 21
172.105946
 31
0.0
  0
LINE
  5
1DC
330
A
100
AcDbEntity
  8
0
 62
     7
100
AcDbLine
 10
202.358019
 20
172.105946
 30
0.0
 11
202.270513
 21
172.105946
 31
0.0
  0
LINE
  5
1DB
330
A
100
AcDbEntity
  8
0
 62
     7
100
AcDbLine
 10
202.466195
 20
172.105946
 30
0.0
 11
202.358019
 21
172.105946
 31
0.0
  0
LINE
  5
1DA
330
A
100
AcDbEntity
  8
0
 62
     7
100
AcDbLine
 10
202.5537
 20
172.105946
 30
0.0
 11
202.466195
 21
172.105946
 31
0.0
  0
LINE
  5
1D9
330
A
100
AcDbEntity
  8
0
 62
     7
100
AcDbLine
 10
202.587118
 20
172.105946
 30
0.0
 11
202.5537
 21
172.105946
 31
0.0
  0
LINE
  5
1D8
330
A
100
AcDbEntity
  8
0
 62
     7
100
AcDbLine
 10
202.5537
 20
172.105946
 30
0.0
 11
202.587118
 21
172.105946
 31
0.0
  0
LINE
  5
1D7
330
A
100
AcDbEntity
  8
0
 62
     7
100
AcDbLine
 10
202.466195
 20
172.105946
 30
0.0
 11
202.5537
 21
172.105946
 31
0.0
  0
LINE
  5
1D6
330
A
100
AcDbEntity
  8
0
 62
     7
100
AcDbLine
 10
203.082522
 20
172.105946
 30
0.0
 11
203.170028
 21
172.105946
 31
0.0
  0
LINE
  5
1D5
330
A
100
AcDbEntity
  8
0
 62
     7
100
AcDbLine
 10
203.049105
 20
172.105946
 30
0.0
 11
203.082522
 21
172.105946
 31
0.0
  0
LINE
  5
1D4
330
A
100
AcDbEntity
  8
0
 62
     7
100
AcDbLine
 10
203.082522
 20
172.105946
 30
0.0
 11
203.049105
 21
172.105946
 31
0.0
  0
LINE
  5
1D3
330
A
100
AcDbEntity
  8
0
 62
     7
100
AcDbLine
 10
203.170028
 20
172.105946
 30
0.0
 11
203.082522
 21
172.105946
 31
0.0
  0
LINE
  5
1D2
330
A
100
AcDbEntity
  8
0
 62
     7
100
AcDbLine
 10
203.278204
 20
172.105946
 30
0.0
 11
203.170028
 21
172.105946
 31
0.0
  0
LINE
  5
1D1
330
A
100
AcDbEntity
  8
0
 62
     7
100
AcDbLine
 10
203.365709
 20
172.105946
 30
0.0
 11
203.278204
 21
172.105946
 31
0.0
  0
LINE
  5
1D0
330
A
100
AcDbEntity
  8
0
 62
     7
100
AcDbLine
 10
203.399127
 20
172.105946
 30
0.0
 11
203.365709
 21
172.105946
 31
0.0
  0
LINE
  5
1CF
330
A
100
AcDbEntity
  8
0
 62
     7
100
AcDbLine
 10
203.365709
 20
172.105946
 30
0.0
 11
203.399127
 21
172.105946
 31
0.0
  0
LINE
  5
1CE
330
A
100
AcDbEntity
  8
0
 62
     7
100
AcDbLine
 10
203.278204
 20
172.105946
 30
0.0
 11
203.365709
 21
172.105946
 31
0.0
  0
LINE
  5
1CD
330
A
100
AcDbEntity
  8
0
 62
     7
100
AcDbLine
 10
203.170028
 20
172.105946
 30
0.0
 11
203.278204
 21
172.105946
 31
0.0
  0
LINE
  5
1CC
330
A
100
AcDbEntity
  8
0
 62
     7
100
AcDbLine
 10
199.806925
 20
172.105946
 30
0.0
 11
199.806925
 21
172.314719
 31
0.0
  0
LINE
  5
1CB
330
A
100
AcDbEntity
  8
0
 62
     7
100
AcDbLine
 10
199.840343
 20
172.105946
 30
0.0
 11
199.928021
 21
172.105946
 31
0.0
  0
LINE
  5
1CA
330
A
100
AcDbEntity
  8
0
 62
     7
100
AcDbLine
 10
199.806925
 20
172.105946
 30
0.0
 11
199.840343
 21
172.105946
 31
0.0
  0
LINE
  5
1C9
330
A
100
AcDbEntity
  8
0
 62
     7
100
AcDbLine
 10
199.840343
 20
172.105946
 30
0.0
 11
199.806925
 21
172.105946
 31
0.0
  0
LINE
  5
1C8
330
A
100
AcDbEntity
  8
0
 62
     7
100
AcDbLine
 10
199.928021
 20
172.105946
 30
0.0
 11
199.840343
 21
172.105946
 31
0.0
  0
LINE
  5
1C7
330
A
100
AcDbEntity
  8
0
 62
     7
100
AcDbLine
 10
200.036197
 20
172.105946
 30
0.0
 11
199.928021
 21
172.105946
 31
0.0
  0
LINE
  5
1C6
330
A
100
AcDbEntity
  8
0
 62
     7
100
AcDbLine
 10
200.123702
 20
172.105946
 30
0.0
 11
200.036197
 21
172.105946
 31
0.0
  0
LINE
  5
1C5
330
A
100
AcDbEntity
  8
0
 62
     7
100
AcDbLine
 10
200.157119
 20
172.105946
 30
0.0
 11
200.123702
 21
172.105946
 31
0.0
  0
LINE
  5
1C4
330
A
100
AcDbEntity
  8
0
 62
     7
100
AcDbLine
 10
200.123702
 20
172.105946
 30
0.0
 11
200.157119
 21
172.105946
 31
0.0
  0
LINE
  5
1C3
330
A
100
AcDbEntity
  8
0
 62
     7
100
AcDbLine
 10
200.036197
 20
172.105946
 30
0.0
 11
200.123702
 21
172.105946
 31
0.0
  0
LINE
  5
1C2
330
A
100
AcDbEntity
  8
0
 62
     7
100
AcDbLine
 10
199.928021
 20
172.105946
 30
0.0
 11
200.036197
 21
172.105946
 31
0.0
  0
LINE
  5
1C1
330
A
100
AcDbEntity
  8
0
 62
     7
100
AcDbLine
 10
200.616867
 20
172.105946
 30
0.0
 11
200.616867
 21
172.314719
 31
0.0
  0
LINE
  5
1C0
330
A
100
AcDbEntity
  8
0
 62
     7
100
AcDbLine
 10
200.967234
 20
172.314719
 30
0.0
 11
200.967234
 21
172.105946
 31
0.0
  0
LINE
  5
1BF
330
A
100
AcDbEntity
  8
0
 62
     7
100
AcDbLine
 10
200.650285
 20
172.105946
 30
0.0
 11
200.73779
 21
172.105946
 31
0.0
  0
LINE
  5
1BE
330
A
100
AcDbEntity
  8
0
 62
     7
100
AcDbLine
 10
200.616867
 20
172.105946
 30
0.0
 11
200.650285
 21
172.105946
 31
0.0
  0
LINE
  5
1BD
330
A
100
AcDbEntity
  8
0
 62
     7
100
AcDbLine
 10
200.650285
 20
172.105946
 30
0.0
 11
200.616867
 21
172.105946
 31
0.0
  0
LINE
  5
1BC
330
A
100
AcDbEntity
  8
0
 62
     7
100
AcDbLine
 10
200.73779
 20
172.105946
 30
0.0
 11
200.650285
 21
172.105946
 31
0.0
  0
LINE
  5
1BB
330
A
100
AcDbEntity
  8
0
 62
     7
100
AcDbLine
 10
200.846311
 20
172.105946
 30
0.0
 11
200.73779
 21
172.105946
 31
0.0
  0
LINE
  5
1BA
330
A
100
AcDbEntity
  8
0
 62
     7
100
AcDbLine
 10
200.933816
 20
172.105946
 30
0.0
 11
200.846311
 21
172.105946
 31
0.0
  0
LINE
  5
1B9
330
A
100
AcDbEntity
  8
0
 62
     7
100
AcDbLine
 10
200.967234
 20
172.105946
 30
0.0
 11
200.933816
 21
172.105946
 31
0.0
  0
LINE
  5
1B8
330
A
100
AcDbEntity
  8
0
 62
     7
100
AcDbLine
 10
200.933816
 20
172.105946
 30
0.0
 11
200.967234
 21
172.105946
 31
0.0
  0
LINE
  5
1B7
330
A
100
AcDbEntity
  8
0
 62
     7
100
AcDbLine
 10
200.846311
 20
172.105946
 30
0.0
 11
200.933816
 21
172.105946
 31
0.0
  0
LINE
  5
1B6
330
A
100
AcDbEntity
  8
0
 62
     7
100
AcDbLine
 10
200.73779
 20
172.105946
 30
0.0
 11
200.846311
 21
172.105946
 31
0.0
  0
LINE
  5
1B5
330
A
100
AcDbEntity
  8
0
 62
     7
100
AcDbLine
 10
201.460227
 20
172.105946
 30
0.0
 11
201.548077
 21
172.105946
 31
0.0
  0
LINE
  5
1B4
330
A
100
AcDbEntity
  8
0
 62
     7
100
AcDbLine
 10
201.426809
 20
172.105946
 30
0.0
 11
201.460227
 21
172.105946
 31
0.0
  0
LINE
  5
1B3
330
A
100
AcDbEntity
  8
0
 62
     7
100
AcDbLine
 10
201.460227
 20
172.105946
 30
0.0
 11
201.426809
 21
172.105946
 31
0.0
  0
LINE
  5
1B2
330
A
100
AcDbEntity
  8
0
 62
     7
100
AcDbLine
 10
201.548077
 20
172.105946
 30
0.0
 11
201.460227
 21
172.105946
 31
0.0
  0
LINE
  5
1B1
330
A
100
AcDbEntity
  8
0
 62
     7
100
AcDbLine
 10
201.656253
 20
172.105946
 30
0.0
 11
201.548077
 21
172.105946
 31
0.0
  0
LINE
  5
1B0
330
A
100
AcDbEntity
  8
0
 62
     7
100
AcDbLine
 10
201.743758
 20
172.105946
 30
0.0
 11
201.656253
 21
172.105946
 31
0.0
  0
LINE
  5
1AF
330
A
100
AcDbEntity
  8
0
 62
     7
100
AcDbLine
 10
201.777176
 20
172.105946
 30
0.0
 11
201.743758
 21
172.105946
 31
0.0
  0
LINE
  5
1AE
330
A
100
AcDbEntity
  8
0
 62
     7
100
AcDbLine
 10
201.743758
 20
172.105946
 30
0.0
 11
201.777176
 21
172.105946
 31
0.0
  0
LINE
  5
1AD
330
A
100
AcDbEntity
  8
0
 62
     7
100
AcDbLine
 10
201.656253
 20
172.105946
 30
0.0
 11
201.743758
 21
172.105946
 31
0.0
  0
LINE
  5
1AC
330
A
100
AcDbEntity
  8
0
 62
     7
100
AcDbLine
 10
201.548077
 20
172.105946
 30
0.0
 11
201.656253
 21
172.105946
 31
0.0
  0
LINE
  5
1AB
330
A
100
AcDbEntity
  8
0
 62
     7
100
AcDbLine
 10
202.236751
 20
172.105946
 30
0.0
 11
202.236751
 21
172.314719
 31
0.0
  0
LINE
  5
1AA
330
A
100
AcDbEntity
  8
0
 62
     7
100
AcDbLine
 10
202.358019
 20
172.105946
 30
0.0
 11
202.466195
 21
172.105946
 31
0.0
  0
LINE
  5
1A9
330
A
100
AcDbEntity
  8
0
 62
     7
100
AcDbLine
 10
202.270513
 20
172.105946
 30
0.0
 11
202.358019
 21
172.105946
 31
0.0
  0
LINE
  5
1A8
330
A
100
AcDbEntity
  8
0
 62
     7
100
AcDbLine
 10
202.236751
 20
172.105946
 30
0.0
 11
202.270513
 21
172.105946
 31
0.0
  0
LINE
  5
1A7
330
A
100
AcDbEntity
  8
0
 62
     7
100
AcDbLine
 10
202.270513
 20
172.105946
 30
0.0
 11
202.236751
 21
172.105946
 31
0.0
  0
LINE
  5
1A6
330
A
100
AcDbEntity
  8
0
 62
     7
100
AcDbLine
 10
202.358019
 20
172.105946
 30
0.0
 11
202.270513
 21
172.105946
 31
0.0
  0
LINE
  5
1A5
330
A
100
AcDbEntity
  8
0
 62
     7
100
AcDbLine
 10
202.466195
 20
172.105946
 30
0.0
 11
202.358019
 21
172.105946
 31
0.0
  0
LINE
  5
1A4
330
A
100
AcDbEntity
  8
0
 62
     7
100
AcDbLine
 10
202.5537
 20
172.105946
 30
0.0
 11
202.466195
 21
172.105946
 31
0.0
  0
LINE
  5
1A3
330
A
100
AcDbEntity
  8
0
 62
     7
100
AcDbLine
 10
202.587118
 20
172.105946
 30
0.0
 11
202.5537
 21
172.105946
 31
0.0
  0
LINE
  5
1A2
330
A
100
AcDbEntity
  8
0
 62
     7
100
AcDbLine
 10
202.5537
 20
172.105946
 30
0.0
 11
202.587118
 21
172.105946
 31
0.0
  0
LINE
  5
1A1
330
A
100
AcDbEntity
  8
0
 62
     7
100
AcDbLine
 10
202.466195
 20
172.105946
 30
0.0
 11
202.5537
 21
172.105946
 31
0.0
  0
LINE
  5
1A0
330
A
100
AcDbEntity
  8
0
 62
     7
100
AcDbLine
 10
203.082522
 20
172.105946
 30
0.0
 11
203.170028
 21
172.105946
 31
0.0
  0
LINE
  5
19F
330
A
100
AcDbEntity
  8
0
 62
     7
100
AcDbLine
 10
203.049105
 20
172.105946
 30
0.0
 11
203.082522
 21
172.105946
 31
0.0
  0
LINE
  5
19E
330
A
100
AcDbEntity
  8
0
 62
     7
100
AcDbLine
 10
203.082522
 20
172.105946
 30
0.0
 11
203.049105
 21
172.105946
 31
0.0
  0
LINE
  5
19D
330
A
100
AcDbEntity
  8
0
 62
     7
100
AcDbLine
 10
203.170028
 20
172.105946
 30
0.0
 11
203.082522
 21
172.105946
 31
0.0
  0
LINE
  5
19C
330
A
100
AcDbEntity
  8
0
 62
     7
100
AcDbLine
 10
203.278204
 20
172.105946
 30
0.0
 11
203.170028
 21
172.105946
 31
0.0
  0
LINE
  5
19B
330
A
100
AcDbEntity
  8
0
 62
     7
100
AcDbLine
 10
203.365709
 20
172.105946
 30
0.0
 11
203.278204
 21
172.105946
 31
0.0
  0
LINE
  5
19A
330
A
100
AcDbEntity
  8
0
 62
     7
100
AcDbLine
 10
203.399127
 20
172.105946
 30
0.0
 11
203.365709
 21
172.105946
 31
0.0
  0
LINE
  5
199
330
A
100
AcDbEntity
  8
0
 62
     7
100
AcDbLine
 10
203.365709
 20
172.105946
 30
0.0
 11
203.399127
 21
172.105946
 31
0.0
  0
LINE
  5
198
330
A
100
AcDbEntity
  8
0
 62
     7
100
AcDbLine
 10
203.278204
 20
172.105946
 30
0.0
 11
203.365709
 21
172.105946
 31
0.0
  0
LINE
  5
197
330
A
100
AcDbEntity
  8
0
 62
     7
100
AcDbLine
 10
203.170028
 20
172.105946
 30
0.0
 11
203.278204
 21
172.105946
 31
0.0
  0
LINE
  5
196
330
A
100
AcDbEntity
  8
0
 62
     7
100
AcDbLine
 10
199.806925
 20
172.105946
 30
0.0
 11
199.806925
 21
172.314719
 31
0.0
  0
LINE
  5
195
330
A
100
AcDbEntity
  8
0
 62
     7
100
AcDbLine
 10
199.840343
 20
172.105946
 30
0.0
 11
199.928021
 21
172.105946
 31
0.0
  0
LINE
  5
194
330
A
100
AcDbEntity
  8
0
 62
     7
100
AcDbLine
 10
199.806925
 20
172.105946
 30
0.0
 11
199.840343
 21
172.105946
 31
0.0
  0
LINE
  5
193
330
A
100
AcDbEntity
  8
0
 62
     7
100
AcDbLine
 10
199.840343
 20
172.105946
 30
0.0
 11
199.806925
 21
172.105946
 31
0.0
  0
LINE
  5
192
330
A
100
AcDbEntity
  8
0
 62
     7
100
AcDbLine
 10
199.928021
 20
172.105946
 30
0.0
 11
199.840343
 21
172.105946
 31
0.0
  0
LINE
  5
191
330
A
100
AcDbEntity
  8
0
 62
     7
100
AcDbLine
 10
200.036197
 20
172.105946
 30
0.0
 11
199.928021
 21
172.105946
 31
0.0
  0
LINE
  5
190
330
A
100
AcDbEntity
  8
0
 62
     7
100
AcDbLine
 10
200.123702
 20
172.105946
 30
0.0
 11
200.036197
 21
172.105946
 31
0.0
  0
LINE
  5
18F
330
A
100
AcDbEntity
  8
0
 62
     7
100
AcDbLine
 10
200.157119
 20
172.105946
 30
0.0
 11
200.123702
 21
172.105946
 31
0.0
  0
LINE
  5
18E
330
A
100
AcDbEntity
  8
0
 62
     7
100
AcDbLine
 10
200.123702
 20
172.105946
 30
0.0
 11
200.157119
 21
172.105946
 31
0.0
  0
LINE
  5
18D
330
A
100
AcDbEntity
  8
0
 62
     7
100
AcDbLine
 10
200.036197
 20
172.105946
 30
0.0
 11
200.123702
 21
172.105946
 31
0.0
  0
LINE
  5
18C
330
A
100
AcDbEntity
  8
0
 62
     7
100
AcDbLine
 10
199.928021
 20
172.105946
 30
0.0
 11
200.036197
 21
172.105946
 31
0.0
  0
LINE
  5
18B
330
A
100
AcDbEntity
  8
0
 62
     7
100
AcDbLine
 10
200.616867
 20
172.105946
 30
0.0
 11
200.616867
 21
172.314719
 31
0.0
  0
LINE
  5
18A
330
A
100
AcDbEntity
  8
0
 62
     7
100
AcDbLine
 10
200.967234
 20
172.314719
 30
0.0
 11
200.967234
 21
172.105946
 31
0.0
  0
LINE
  5
189
330
A
100
AcDbEntity
  8
0
 62
     7
100
AcDbLine
 10
200.650285
 20
172.105946
 30
0.0
 11
200.73779
 21
172.105946
 31
0.0
  0
LINE
  5
188
330
A
100
AcDbEntity
  8
0
 62
     7
100
AcDbLine
 10
200.616867
 20
172.105946
 30
0.0
 11
200.650285
 21
172.105946
 31
0.0
  0
LINE
  5
187
330
A
100
AcDbEntity
  8
0
 62
     7
100
AcDbLine
 10
200.650285
 20
172.105946
 30
0.0
 11
200.616867
 21
172.105946
 31
0.0
  0
LINE
  5
186
330
A
100
AcDbEntity
  8
0
 62
     7
100
AcDbLine
 10
200.73779
 20
172.105946
 30
0.0
 11
200.650285
 21
172.105946
 31
0.0
  0
LINE
  5
185
330
A
100
AcDbEntity
  8
0
 62
     7
100
AcDbLine
 10
200.846311
 20
172.105946
 30
0.0
 11
200.73779
 21
172.105946
 31
0.0
  0
LINE
  5
184
330
A
100
AcDbEntity
  8
0
 62
     7
100
AcDbLine
 10
200.933816
 20
172.105946
 30
0.0
 11
200.846311
 21
172.105946
 31
0.0
  0
LINE
  5
183
330
A
100
AcDbEntity
  8
0
 62
     7
100
AcDbLine
 10
200.967234
 20
172.105946
 30
0.0
 11
200.933816
 21
172.105946
 31
0.0
  0
LINE
  5
182
330
A
100
AcDbEntity
  8
0
 62
     7
100
AcDbLine
 10
200.933816
 20
172.105946
 30
0.0
 11
200.967234
 21
172.105946
 31
0.0
  0
LINE
  5
181
330
A
100
AcDbEntity
  8
0
 62
     7
100
AcDbLine
 10
200.846311
 20
172.105946
 30
0.0
 11
200.933816
 21
172.105946
 31
0.0
  0
LINE
  5
180
330
A
100
AcDbEntity
  8
0
 62
     7
100
AcDbLine
 10
200.73779
 20
172.105946
 30
0.0
 11
200.846311
 21
172.105946
 31
0.0
  0
LINE
  5
17F
330
A
100
AcDbEntity
  8
0
 62
     7
100
AcDbLine
 10
201.460227
 20
172.105946
 30
0.0
 11
201.548077
 21
172.105946
 31
0.0
  0
LINE
  5
17E
330
A
100
AcDbEntity
  8
0
 62
     7
100
AcDbLine
 10
201.426809
 20
172.105946
 30
0.0
 11
201.460227
 21
172.105946
 31
0.0
  0
LINE
  5
17D
330
A
100
AcDbEntity
  8
0
 62
     7
100
AcDbLine
 10
201.460227
 20
172.105946
 30
0.0
 11
201.426809
 21
172.105946
 31
0.0
  0
LINE
  5
17C
330
A
100
AcDbEntity
  8
0
 62
     7
100
AcDbLine
 10
201.548077
 20
172.105946
 30
0.0
 11
201.460227
 21
172.105946
 31
0.0
  0
LINE
  5
17B
330
A
100
AcDbEntity
  8
0
 62
     7
100
AcDbLine
 10
201.656253
 20
172.105946
 30
0.0
 11
201.548077
 21
172.105946
 31
0.0
  0
LINE
  5
17A
330
A
100
AcDbEntity
  8
0
 62
     7
100
AcDbLine
 10
201.743758
 20
172.105946
 30
0.0
 11
201.656253
 21
172.105946
 31
0.0
  0
LINE
  5
179
330
A
100
AcDbEntity
  8
0
 62
     7
100
AcDbLine
 10
201.777176
 20
172.105946
 30
0.0
 11
201.743758
 21
172.105946
 31
0.0
  0
LINE
  5
178
330
A
100
AcDbEntity
  8
0
 62
     7
100
AcDbLine
 10
201.743758
 20
172.105946
 30
0.0
 11
201.777176
 21
172.105946
 31
0.0
  0
LINE
  5
177
330
A
100
AcDbEntity
  8
0
 62
     7
100
AcDbLine
 10
201.656253
 20
172.105946
 30
0.0
 11
201.743758
 21
172.105946
 31
0.0
  0
LINE
  5
176
330
A
100
AcDbEntity
  8
0
 62
     7
100
AcDbLine
 10
201.548077
 20
172.105946
 30
0.0
 11
201.656253
 21
172.105946
 31
0.0
  0
LINE
  5
175
330
A
100
AcDbEntity
  8
0
 62
     7
100
AcDbLine
 10
202.236751
 20
172.105946
 30
0.0
 11
202.236751
 21
172.314719
 31
0.0
  0
LINE
  5
174
330
A
100
AcDbEntity
  8
0
 62
     7
100
AcDbLine
 10
202.358019
 20
172.105946
 30
0.0
 11
202.466195
 21
172.105946
 31
0.0
  0
LINE
  5
173
330
A
100
AcDbEntity
  8
0
 62
     7
100
AcDbLine
 10
202.270513
 20
172.105946
 30
0.0
 11
202.358019
 21
172.105946
 31
0.0
  0
LINE
  5
172
330
A
100
AcDbEntity
  8
0
 62
     7
100
AcDbLine
 10
202.236751
 20
172.105946
 30
0.0
 11
202.270513
 21
172.105946
 31
0.0
  0
LINE
  5
171
330
A
100
AcDbEntity
  8
0
 62
     7
100
AcDbLine
 10
202.270513
 20
172.105946
 30
0.0
 11
202.236751
 21
172.105946
 31
0.0
  0
LINE
  5
170
330
A
100
AcDbEntity
  8
0
 62
     7
100
AcDbLine
 10
202.358019
 20
172.105946
 30
0.0
 11
202.270513
 21
172.105946
 31
0.0
  0
LINE
  5
16F
330
A
100
AcDbEntity
  8
0
 62
     7
100
AcDbLine
 10
202.466195
 20
172.105946
 30
0.0
 11
202.358019
 21
172.105946
 31
0.0
  0
LINE
  5
16E
330
A
100
AcDbEntity
  8
0
 62
     7
100
AcDbLine
 10
202.5537
 20
172.105946
 30
0.0
 11
202.466195
 21
172.105946
 31
0.0
  0
LINE
  5
16D
330
A
100
AcDbEntity
  8
0
 62
     7
100
AcDbLine
 10
202.587118
 20
172.105946
 30
0.0
 11
202.5537
 21
172.105946
 31
0.0
  0
LINE
  5
16C
330
A
100
AcDbEntity
  8
0
 62
     7
100
AcDbLine
 10
202.5537
 20
172.105946
 30
0.0
 11
202.587118
 21
172.105946
 31
0.0
  0
LINE
  5
16B
330
A
100
AcDbEntity
  8
0
 62
     7
100
AcDbLine
 10
202.466195
 20
172.105946
 30
0.0
 11
202.5537
 21
172.105946
 31
0.0
  0
LINE
  5
16A
330
A
100
AcDbEntity
  8
0
 62
     7
100
AcDbLine
 10
203.082522
 20
172.105946
 30
0.0
 11
203.170028
 21
172.105946
 31
0.0
  0
LINE
  5
169
330
A
100
AcDbEntity
  8
0
 62
     7
100
AcDbLine
 10
203.049105
 20
172.105946
 30
0.0
 11
203.082522
 21
172.105946
 31
0.0
  0
LINE
  5
168
330
A
100
AcDbEntity
  8
0
 62
     7
100
AcDbLine
 10
203.082522
 20
172.105946
 30
0.0
 11
203.049105
 21
172.105946
 31
0.0
  0
LINE
  5
167
330
A
100
AcDbEntity
  8
0
 62
     7
100
AcDbLine
 10
203.170028
 20
172.105946
 30
0.0
 11
203.082522
 21
172.105946
 31
0.0
  0
LINE
  5
166
330
A
100
AcDbEntity
  8
0
 62
     7
100
AcDbLine
 10
203.278204
 20
172.105946
 30
0.0
 11
203.170028
 21
172.105946
 31
0.0
  0
LINE
  5
165
330
A
100
AcDbEntity
  8
0
 62
     7
100
AcDbLine
 10
203.365709
 20
172.105946
 30
0.0
 11
203.278204
 21
172.105946
 31
0.0
  0
LINE
  5
164
330
A
100
AcDbEntity
  8
0
 62
     7
100
AcDbLine
 10
203.399127
 20
172.105946
 30
0.0
 11
203.365709
 21
172.105946
 31
0.0
  0
LINE
  5
163
330
A
100
AcDbEntity
  8
0
 62
     7
100
AcDbLine
 10
203.365709
 20
172.105946
 30
0.0
 11
203.399127
 21
172.105946
 31
0.0
  0
LINE
  5
162
330
A
100
AcDbEntity
  8
0
 62
     7
100
AcDbLine
 10
203.278204
 20
172.105946
 30
0.0
 11
203.365709
 21
172.105946
 31
0.0
  0
LINE
  5
161
330
A
100
AcDbEntity
  8
0
 62
     7
100
AcDbLine
 10
203.170028
 20
172.105946
 30
0.0
 11
203.278204
 21
172.105946
 31
0.0
  0
LINE
  5
160
330
A
100
AcDbEntity
  8
0
 62
     7
100
AcDbLine
 10
199.806925
 20
172.105946
 30
0.0
 11
199.806925
 21
172.314719
 31
0.0
  0
LINE
  5
15F
330
A
100
AcDbEntity
  8
0
 62
     7
100
AcDbLine
 10
199.840343
 20
172.105946
 30
0.0
 11
199.928021
 21
172.105946
 31
0.0
  0
LINE
  5
15E
330
A
100
AcDbEntity
  8
0
 62
     7
100
AcDbLine
 10
199.806925
 20
172.105946
 30
0.0
 11
199.840343
 21
172.105946
 31
0.0
  0
LINE
  5
15D
330
A
100
AcDbEntity
  8
0
 62
     7
100
AcDbLine
 10
199.840343
 20
172.105946
 30
0.0
 11
199.806925
 21
172.105946
 31
0.0
  0
LINE
  5
15C
330
A
100
AcDbEntity
  8
0
 62
     7
100
AcDbLine
 10
199.928021
 20
172.105946
 30
0.0
 11
199.840343
 21
172.105946
 31
0.0
  0
LINE
  5
15B
330
A
100
AcDbEntity
  8
0
 62
     7
100
AcDbLine
 10
200.036197
 20
172.105946
 30
0.0
 11
199.928021
 21
172.105946
 31
0.0
  0
LINE
  5
15A
330
A
100
AcDbEntity
  8
0
 62
     7
100
AcDbLine
 10
200.123702
 20
172.105946
 30
0.0
 11
200.036197
 21
172.105946
 31
0.0
  0
LINE
  5
159
330
A
100
AcDbEntity
  8
0
 62
     7
100
AcDbLine
 10
200.157119
 20
172.105946
 30
0.0
 11
200.123702
 21
172.105946
 31
0.0
  0
LINE
  5
158
330
A
100
AcDbEntity
  8
0
 62
     7
100
AcDbLine
 10
200.123702
 20
172.105946
 30
0.0
 11
200.157119
 21
172.105946
 31
0.0
  0
LINE
  5
157
330
A
100
AcDbEntity
  8
0
 62
     7
100
AcDbLine
 10
200.036197
 20
172.105946
 30
0.0
 11
200.123702
 21
172.105946
 31
0.0
  0
LINE
  5
156
330
A
100
AcDbEntity
  8
0
 62
     7
100
AcDbLine
 10
199.928021
 20
172.105946
 30
0.0
 11
200.036197
 21
172.105946
 31
0.0
  0
LINE
  5
155
330
A
100
AcDbEntity
  8
0
 62
     7
100
AcDbLine
 10
200.616867
 20
172.105946
 30
0.0
 11
200.616867
 21
172.314719
 31
0.0
  0
LINE
  5
154
330
A
100
AcDbEntity
  8
0
 62
     7
100
AcDbLine
 10
200.967234
 20
172.314719
 30
0.0
 11
200.967234
 21
172.105946
 31
0.0
  0
LINE
  5
153
330
A
100
AcDbEntity
  8
0
 62
     7
100
AcDbLine
 10
200.650285
 20
172.105946
 30
0.0
 11
200.73779
 21
172.105946
 31
0.0
  0
LINE
  5
152
330
A
100
AcDbEntity
  8
0
 62
     7
100
AcDbLine
 10
200.616867
 20
172.105946
 30
0.0
 11
200.650285
 21
172.105946
 31
0.0
  0
LINE
  5
151
330
A
100
AcDbEntity
  8
0
 62
     7
100
AcDbLine
 10
200.650285
 20
172.105946
 30
0.0
 11
200.616867
 21
172.105946
 31
0.0
  0
LINE
  5
150
330
A
100
AcDbEntity
  8
0
 62
     7
100
AcDbLine
 10
200.73779
 20
172.105946
 30
0.0
 11
200.650285
 21
172.105946
 31
0.0
  0
LINE
  5
14F
330
A
100
AcDbEntity
  8
0
 62
     7
100
AcDbLine
 10
200.846311
 20
172.105946
 30
0.0
 11
200.73779
 21
172.105946
 31
0.0
  0
LINE
  5
14E
330
A
100
AcDbEntity
  8
0
 62
     7
100
AcDbLine
 10
200.933816
 20
172.105946
 30
0.0
 11
200.846311
 21
172.105946
 31
0.0
  0
LINE
  5
14D
330
A
100
AcDbEntity
  8
0
 62
     7
100
AcDbLine
 10
200.967234
 20
172.105946
 30
0.0
 11
200.933816
 21
172.105946
 31
0.0
  0
LINE
  5
14C
330
A
100
AcDbEntity
  8
0
 62
     7
100
AcDbLine
 10
200.933816
 20
172.105946
 30
0.0
 11
200.967234
 21
172.105946
 31
0.0
  0
LINE
  5
14B
330
A
100
AcDbEntity
  8
0
 62
     7
100
AcDbLine
 10
200.846311
 20
172.105946
 30
0.0
 11
200.933816
 21
172.105946
 31
0.0
  0
LINE
  5
14A
330
A
100
AcDbEntity
  8
0
 62
     7
100
AcDbLine
 10
200.73779
 20
172.105946
 30
0.0
 11
200.846311
 21
172.105946
 31
0.0
  0
LINE
  5
149
330
A
100
AcDbEntity
  8
0
 62
     7
100
AcDbLine
 10
201.460227
 20
172.105946
 30
0.0
 11
201.548077
 21
172.105946
 31
0.0
  0
LINE
  5
148
330
A
100
AcDbEntity
  8
0
 62
     7
100
AcDbLine
 10
201.426809
 20
172.105946
 30
0.0
 11
201.460227
 21
172.105946
 31
0.0
  0
LINE
  5
147
330
A
100
AcDbEntity
  8
0
 62
     7
100
AcDbLine
 10
201.460227
 20
172.105946
 30
0.0
 11
201.426809
 21
172.105946
 31
0.0
  0
LINE
  5
146
330
A
100
AcDbEntity
  8
0
 62
     7
100
AcDbLine
 10
201.548077
 20
172.105946
 30
0.0
 11
201.460227
 21
172.105946
 31
0.0
  0
LINE
  5
145
330
A
100
AcDbEntity
  8
0
 62
     7
100
AcDbLine
 10
201.656253
 20
172.105946
 30
0.0
 11
201.548077
 21
172.105946
 31
0.0
  0
LINE
  5
144
330
A
100
AcDbEntity
  8
0
 62
     7
100
AcDbLine
 10
201.743758
 20
172.105946
 30
0.0
 11
201.656253
 21
172.105946
 31
0.0
  0
LINE
  5
143
330
A
100
AcDbEntity
  8
0
 62
     7
100
AcDbLine
 10
201.777176
 20
172.105946
 30
0.0
 11
201.743758
 21
172.105946
 31
0.0
  0
LINE
  5
142
330
A
100
AcDbEntity
  8
0
 62
     7
100
AcDbLine
 10
201.743758
 20
172.105946
 30
0.0
 11
201.777176
 21
172.105946
 31
0.0
  0
LINE
  5
141
330
A
100
AcDbEntity
  8
0
 62
     7
100
AcDbLine
 10
201.656253
 20
172.105946
 30
0.0
 11
201.743758
 21
172.105946
 31
0.0
  0
LINE
  5
140
330
A
100
AcDbEntity
  8
0
 62
     7
100
AcDbLine
 10
201.548077
 20
172.105946
 30
0.0
 11
201.656253
 21
172.105946
 31
0.0
  0
LINE
  5
13F
330
A
100
AcDbEntity
  8
0
 62
     7
100
AcDbLine
 10
202.236751
 20
172.105946
 30
0.0
 11
202.236751
 21
172.314719
 31
0.0
  0
LINE
  5
13E
330
A
100
AcDbEntity
  8
0
 62
     7
100
AcDbLine
 10
202.358019
 20
172.105946
 30
0.0
 11
202.466195
 21
172.105946
 31
0.0
  0
LINE
  5
13D
330
A
100
AcDbEntity
  8
0
 62
     7
100
AcDbLine
 10
202.270513
 20
172.105946
 30
0.0
 11
202.358019
 21
172.105946
 31
0.0
  0
LINE
  5
13C
330
A
100
AcDbEntity
  8
0
 62
     7
100
AcDbLine
 10
202.236751
 20
172.105946
 30
0.0
 11
202.270513
 21
172.105946
 31
0.0
  0
LINE
  5
13B
330
A
100
AcDbEntity
  8
0
 62
     7
100
AcDbLine
 10
202.270513
 20
172.105946
 30
0.0
 11
202.236751
 21
172.105946
 31
0.0
  0
LINE
  5
13A
330
A
100
AcDbEntity
  8
0
 62
     7
100
AcDbLine
 10
202.358019
 20
172.105946
 30
0.0
 11
202.270513
 21
172.105946
 31
0.0
  0
LINE
  5
139
330
A
100
AcDbEntity
  8
0
 62
     7
100
AcDbLine
 10
202.466195
 20
172.105946
 30
0.0
 11
202.358019
 21
172.105946
 31
0.0
  0
LINE
  5
138
330
A
100
AcDbEntity
  8
0
 62
     7
100
AcDbLine
 10
202.5537
 20
172.105946
 30
0.0
 11
202.466195
 21
172.105946
 31
0.0
  0
LINE
  5
137
330
A
100
AcDbEntity
  8
0
 62
     7
100
AcDbLine
 10
202.587118
 20
172.105946
 30
0.0
 11
202.5537
 21
172.105946
 31
0.0
  0
LINE
  5
136
330
A
100
AcDbEntity
  8
0
 62
     7
100
AcDbLine
 10
202.5537
 20
172.105946
 30
0.0
 11
202.587118
 21
172.105946
 31
0.0
  0
LINE
  5
135
330
A
100
AcDbEntity
  8
0
 62
     7
100
AcDbLine
 10
202.466195
 20
172.105946
 30
0.0
 11
202.5537
 21
172.105946
 31
0.0
  0
LINE
  5
134
330
A
100
AcDbEntity
  8
0
 62
     7
100
AcDbLine
 10
203.082522
 20
172.105946
 30
0.0
 11
203.170028
 21
172.105946
 31
0.0
  0
LINE
  5
133
330
A
100
AcDbEntity
  8
0
 62
     7
100
AcDbLine
 10
203.049105
 20
172.105946
 30
0.0
 11
203.082522
 21
172.105946
 31
0.0
  0
LINE
  5
132
330
A
100
AcDbEntity
  8
0
 62
     7
100
AcDbLine
 10
203.082522
 20
172.105946
 30
0.0
 11
203.049105
 21
172.105946
 31
0.0
  0
LINE
  5
131
330
A
100
AcDbEntity
  8
0
 62
     7
100
AcDbLine
 10
203.170028
 20
172.105946
 30
0.0
 11
203.082522
 21
172.105946
 31
0.0
  0
LINE
  5
130
330
A
100
AcDbEntity
  8
0
 62
     7
100
AcDbLine
 10
203.278204
 20
172.105946
 30
0.0
 11
203.170028
 21
172.105946
 31
0.0
  0
LINE
  5
12F
330
A
100
AcDbEntity
  8
0
 62
     7
100
AcDbLine
 10
203.365709
 20
172.105946
 30
0.0
 11
203.278204
 21
172.105946
 31
0.0
  0
LINE
  5
12E
330
A
100
AcDbEntity
  8
0
 62
     7
100
AcDbLine
 10
203.399127
 20
172.105946
 30
0.0
 11
203.365709
 21
172.105946
 31
0.0
  0
LINE
  5
12D
330
A
100
AcDbEntity
  8
0
 62
     7
100
AcDbLine
 10
203.365709
 20
172.105946
 30
0.0
 11
203.399127
 21
172.105946
 31
0.0
  0
LINE
  5
12C
330
A
100
AcDbEntity
  8
0
 62
     7
100
AcDbLine
 10
203.278204
 20
172.105946
 30
0.0
 11
203.365709
 21
172.105946
 31
0.0
  0
LINE
  5
12B
330
A
100
AcDbEntity
  8
0
 62
     7
100
AcDbLine
 10
203.170028
 20
172.105946
 30
0.0
 11
203.278204
 21
172.105946
 31
0.0
  0
LINE
  5
12A
330
A
100
AcDbEntity
  8
0
 62
     7
100
AcDbLine
 10
199.806925
 20
172.105946
 30
0.0
 11
199.806925
 21
172.314719
 31
0.0
  0
LINE
  5
129
330
A
100
AcDbEntity
  8
0
 62
     7
100
AcDbLine
 10
199.840343
 20
172.105946
 30
0.0
 11
199.928021
 21
172.105946
 31
0.0
  0
LINE
  5
128
330
A
100
AcDbEntity
  8
0
 62
     7
100
AcDbLine
 10
199.806925
 20
172.105946
 30
0.0
 11
199.840343
 21
172.105946
 31
0.0
  0
LINE
  5
127
330
A
100
AcDbEntity
  8
0
 62
     7
100
AcDbLine
 10
199.840343
 20
172.105946
 30
0.0
 11
199.806925
 21
172.105946
 31
0.0
  0
LINE
  5
126
330
A
100
AcDbEntity
  8
0
 62
     7
100
AcDbLine
 10
199.928021
 20
172.105946
 30
0.0
 11
199.840343
 21
172.105946
 31
0.0
  0
LINE
  5
125
330
A
100
AcDbEntity
  8
0
 62
     7
100
AcDbLine
 10
200.036197
 20
172.105946
 30
0.0
 11
199.928021
 21
172.105946
 31
0.0
  0
LINE
  5
124
330
A
100
AcDbEntity
  8
0
 62
     7
100
AcDbLine
 10
200.123702
 20
172.105946
 30
0.0
 11
200.036197
 21
172.105946
 31
0.0
  0
LINE
  5
123
330
A
100
AcDbEntity
  8
0
 62
     7
100
AcDbLine
 10
200.157119
 20
172.105946
 30
0.0
 11
200.123702
 21
172.105946
 31
0.0
  0
LINE
  5
122
330
A
100
AcDbEntity
  8
0
 62
     7
100
AcDbLine
 10
200.123702
 20
172.105946
 30
0.0
 11
200.157119
 21
172.105946
 31
0.0
  0
LINE
  5
121
330
A
100
AcDbEntity
  8
0
 62
     7
100
AcDbLine
 10
200.036197
 20
172.105946
 30
0.0
 11
200.123702
 21
172.105946
 31
0.0
  0
LINE
  5
120
330
A
100
AcDbEntity
  8
0
 62
     7
100
AcDbLine
 10
199.928021
 20
172.105946
 30
0.0
 11
200.036197
 21
172.105946
 31
0.0
  0
LINE
  5
11F
330
A
100
AcDbEntity
  8
0
 62
     7
100
AcDbLine
 10
200.616867
 20
172.105946
 30
0.0
 11
200.616867
 21
172.314719
 31
0.0
  0
LINE
  5
11E
330
A
100
AcDbEntity
  8
0
 62
     7
100
AcDbLine
 10
200.967234
 20
172.314719
 30
0.0
 11
200.967234
 21
172.105946
 31
0.0
  0
LINE
  5
11D
330
A
100
AcDbEntity
  8
0
 62
     7
100
AcDbLine
 10
200.650285
 20
172.105946
 30
0.0
 11
200.73779
 21
172.105946
 31
0.0
  0
LINE
  5
11C
330
A
100
AcDbEntity
  8
0
 62
     7
100
AcDbLine
 10
200.616867
 20
172.105946
 30
0.0
 11
200.650285
 21
172.105946
 31
0.0
  0
LINE
  5
11B
330
A
100
AcDbEntity
  8
0
 62
     7
100
AcDbLine
 10
200.650285
 20
172.105946
 30
0.0
 11
200.616867
 21
172.105946
 31
0.0
  0
LINE
  5
11A
330
A
100
AcDbEntity
  8
0
 62
     7
100
AcDbLine
 10
200.73779
 20
172.105946
 30
0.0
 11
200.650285
 21
172.105946
 31
0.0
  0
LINE
  5
119
330
A
100
AcDbEntity
  8
0
 62
     7
100
AcDbLine
 10
200.846311
 20
172.105946
 30
0.0
 11
200.73779
 21
172.105946
 31
0.0
  0
LINE
  5
118
330
A
100
AcDbEntity
  8
0
 62
     7
100
AcDbLine
 10
200.933816
 20
172.105946
 30
0.0
 11
200.846311
 21
172.105946
 31
0.0
  0
LINE
  5
117
330
A
100
AcDbEntity
  8
0
 62
     7
100
AcDbLine
 10
200.967234
 20
172.105946
 30
0.0
 11
200.933816
 21
172.105946
 31
0.0
  0
LINE
  5
116
330
A
100
AcDbEntity
  8
0
 62
     7
100
AcDbLine
 10
200.933816
 20
172.105946
 30
0.0
 11
200.967234
 21
172.105946
 31
0.0
  0
LINE
  5
115
330
A
100
AcDbEntity
  8
0
 62
     7
100
AcDbLine
 10
200.846311
 20
172.105946
 30
0.0
 11
200.933816
 21
172.105946
 31
0.0
  0
LINE
  5
114
330
A
100
AcDbEntity
  8
0
 62
     7
100
AcDbLine
 10
200.73779
 20
172.105946
 30
0.0
 11
200.846311
 21
172.105946
 31
0.0
  0
LINE
  5
113
330
A
100
AcDbEntity
  8
0
 62
     7
100
AcDbLine
 10
201.460227
 20
172.105946
 30
0.0
 11
201.548077
 21
172.105946
 31
0.0
  0
LINE
  5
112
330
A
100
AcDbEntity
  8
0
 62
     7
100
AcDbLine
 10
201.426809
 20
172.105946
 30
0.0
 11
201.460227
 21
172.105946
 31
0.0
  0
LINE
  5
111
330
A
100
AcDbEntity
  8
0
 62
     7
100
AcDbLine
 10
201.460227
 20
172.105946
 30
0.0
 11
201.426809
 21
172.105946
 31
0.0
  0
LINE
  5
110
330
A
100
AcDbEntity
  8
0
 62
     7
100
AcDbLine
 10
201.548077
 20
172.105946
 30
0.0
 11
201.460227
 21
172.105946
 31
0.0
  0
LINE
  5
10F
330
A
100
AcDbEntity
  8
0
 62
     7
100
AcDbLine
 10
201.656253
 20
172.105946
 30
0.0
 11
201.548077
 21
172.105946
 31
0.0
  0
LINE
  5
10E
330
A
100
AcDbEntity
  8
0
 62
     7
100
AcDbLine
 10
201.743758
 20
172.105946
 30
0.0
 11
201.656253
 21
172.105946
 31
0.0
  0
LINE
  5
10D
330
A
100
AcDbEntity
  8
0
 62
     7
100
AcDbLine
 10
201.777176
 20
172.105946
 30
0.0
 11
201.743758
 21
172.105946
 31
0.0
  0
LINE
  5
10C
330
A
100
AcDbEntity
  8
0
 62
     7
100
AcDbLine
 10
201.743758
 20
172.105946
 30
0.0
 11
201.777176
 21
172.105946
 31
0.0
  0
LINE
  5
10B
330
A
100
AcDbEntity
  8
0
 62
     7
100
AcDbLine
 10
201.656253
 20
172.105946
 30
0.0
 11
201.743758
 21
172.105946
 31
0.0
  0
LINE
  5
10A
330
A
100
AcDbEntity
  8
0
 62
     7
100
AcDbLine
 10
201.548077
 20
172.105946
 30
0.0
 11
201.656253
 21
172.105946
 31
0.0
  0
LINE
  5
109
330
A
100
AcDbEntity
  8
0
 62
     7
100
AcDbLine
 10
202.236751
 20
172.105946
 30
0.0
 11
202.236751
 21
172.314719
 31
0.0
  0
LINE
  5
108
330
A
100
AcDbEntity
  8
0
 62
     7
100
AcDbLine
 10
202.358019
 20
172.105946
 30
0.0
 11
202.466195
 21
172.105946
 31
0.0
  0
LINE
  5
107
330
A
100
AcDbEntity
  8
0
 62
     7
100
AcDbLine
 10
202.270513
 20
172.105946
 30
0.0
 11
202.358019
 21
172.105946
 31
0.0
  0
LINE
  5
106
330
A
100
AcDbEntity
  8
0
 62
     7
100
AcDbLine
 10
202.236751
 20
172.105946
 30
0.0
 11
202.270513
 21
172.105946
 31
0.0
  0
LINE
  5
105
330
A
100
AcDbEntity
  8
0
 62
     7
100
AcDbLine
 10
202.270513
 20
172.105946
 30
0.0
 11
202.236751
 21
172.105946
 31
0.0
  0
LINE
  5
104
330
A
100
AcDbEntity
  8
0
 62
     7
100
AcDbLine
 10
202.358019
 20
172.105946
 30
0.0
 11
202.270513
 21
172.105946
 31
0.0
  0
LINE
  5
103
330
A
100
AcDbEntity
  8
0
 62
     7
100
AcDbLine
 10
202.466195
 20
172.105946
 30
0.0
 11
202.358019
 21
172.105946
 31
0.0
  0
LINE
  5
102
330
A
100
AcDbEntity
  8
0
 62
     7
100
AcDbLine
 10
202.5537
 20
172.105946
 30
0.0
 11
202.466195
 21
172.105946
 31
0.0
  0
LINE
  5
101
330
A
100
AcDbEntity
  8
0
 62
     7
100
AcDbLine
 10
202.587118
 20
172.105946
 30
0.0
 11
202.5537
 21
172.105946
 31
0.0
  0
LINE
  5
100
330
A
100
AcDbEntity
  8
0
 62
     7
100
AcDbLine
 10
202.5537
 20
172.105946
 30
0.0
 11
202.587118
 21
172.105946
 31
0.0
  0
LINE
  5
FF
330
A
100
AcDbEntity
  8
0
 62
     7
100
AcDbLine
 10
202.466195
 20
172.105946
 30
0.0
 11
202.5537
 21
172.105946
 31
0.0
  0
LINE
  5
FE
330
A
100
AcDbEntity
  8
0
 62
     7
100
AcDbLine
 10
203.082522
 20
172.105946
 30
0.0
 11
203.170028
 21
172.105946
 31
0.0
  0
LINE
  5
FD
330
A
100
AcDbEntity
  8
0
 62
     7
100
AcDbLine
 10
203.049105
 20
172.105946
 30
0.0
 11
203.082522
 21
172.105946
 31
0.0
  0
LINE
  5
FC
330
A
100
AcDbEntity
  8
0
 62
     7
100
AcDbLine
 10
203.082522
 20
172.105946
 30
0.0
 11
203.049105
 21
172.105946
 31
0.0
  0
LINE
  5
FB
330
A
100
AcDbEntity
  8
0
 62
     7
100
AcDbLine
 10
203.170028
 20
172.105946
 30
0.0
 11
203.082522
 21
172.105946
 31
0.0
  0
LINE
  5
FA
330
A
100
AcDbEntity
  8
0
 62
     7
100
AcDbLine
 10
203.278204
 20
172.105946
 30
0.0
 11
203.170028
 21
172.105946
 31
0.0
  0
LINE
  5
F9
330
A
100
AcDbEntity
  8
0
 62
     7
100
AcDbLine
 10
203.365709
 20
172.105946
 30
0.0
 11
203.278204
 21
172.105946
 31
0.0
  0
LINE
  5
F8
330
A
100
AcDbEntity
  8
0
 62
     7
100
AcDbLine
 10
203.399127
 20
172.105946
 30
0.0
 11
203.365709
 21
172.105946
 31
0.0
  0
LINE
  5
F7
330
A
100
AcDbEntity
  8
0
 62
     7
100
AcDbLine
 10
203.365709
 20
172.105946
 30
0.0
 11
203.399127
 21
172.105946
 31
0.0
  0
LINE
  5
F6
330
A
100
AcDbEntity
  8
0
 62
     7
100
AcDbLine
 10
203.278204
 20
172.105946
 30
0.0
 11
203.365709
 21
172.105946
 31
0.0
  0
LINE
  5
F5
330
A
100
AcDbEntity
  8
0
 62
     7
100
AcDbLine
 10
203.170028
 20
172.105946
 30
0.0
 11
203.278204
 21
172.105946
 31
0.0
  0
LINE
  5
F4
330
A
100
AcDbEntity
  8
0
 62
     7
100
AcDbLine
 10
215.597865
 20
147.414947
 30
0.0
 11
215.513116
 21
147.450087
 31
0.0
  0
LINE
  5
F3
330
A
100
AcDbEntity
  8
0
 62
     7
100
AcDbLine
 10
215.633005
 20
147.329853
 30
0.0
 11
215.597865
 21
147.414947
 31
0.0
  0
LINE
  5
F2
330
A
100
AcDbEntity
  8
0
 62
     7
100
AcDbLine
 10
215.633005
 20
119.569963
 30
0.0
 11
215.633005
 21
147.329853
 31
0.0
  0
LINE
  5
F1
330
A
100
AcDbEntity
  8
0
 62
     7
100
AcDbLine
 10
215.597865
 20
119.485213
 30
0.0
 11
215.633005
 21
119.569963
 31
0.0
  0
LINE
  5
F0
330
A
100
AcDbEntity
  8
0
 62
     7
100
AcDbLine
 10
215.513116
 20
119.450073
 30
0.0
 11
215.597865
 21
119.485213
 31
0.0
  0
LINE
  5
EF
330
A
100
AcDbEntity
  8
0
 62
     7
100
AcDbLine
 10
187.753053
 20
119.450073
 30
0.0
 11
215.513116
 21
119.450073
 31
0.0
  0
LINE
  5
EE
330
A
100
AcDbEntity
  8
0
 62
     7
100
AcDbLine
 10
187.668132
 20
119.485213
 30
0.0
 11
187.753053
 21
119.450073
 31
0.0
  0
LINE
  5
ED
330
A
100
AcDbEntity
  8
0
 62
     7
100
AcDbLine
 10
187.632992
 20
119.569963
 30
0.0
 11
187.668132
 21
119.485213
 31
0.0
  0
LINE
  5
EC
330
A
100
AcDbEntity
  8
0
 62
     7
100
AcDbLine
 10
187.632992
 20
147.329853
 30
0.0
 11
187.632992
 21
119.569963
 31
0.0
  0
LINE
  5
EB
330
A
100
AcDbEntity
  8
0
 62
     7
100
AcDbLine
 10
187.668132
 20
147.414947
 30
0.0
 11
187.632992
 21
147.329853
 31
0.0
  0
LINE
  5
EA
330
A
100
AcDbEntity
  8
0
 62
     7
100
AcDbLine
 10
187.753053
 20
147.450087
 30
0.0
 11
187.668132
 21
147.414947
 31
0.0
  0
LINE
  5
E9
330
A
100
AcDbEntity
  8
0
 62
     7
100
AcDbLine
 10
215.513116
 20
147.450087
 30
0.0
 11
199.564907
 21
147.450087
 31
0.0
  0
LINE
  5
E8
330
A
100
AcDbEntity
  8
0
 62
     7
100
AcDbLine
 10
196.957487
 20
147.450087
 30
0.0
 11
187.753053
 21
147.450087
 31
0.0
  0
LINE
  5
E7
330
A
100
AcDbEntity
  8
0
 62
     7
100
AcDbLine
 10
202.794168
 20
134.79384
 30
0.0
 11
202.844811
 21
135.047399
 31
0.0
  0
LINE
  5
E6
330
A
100
AcDbEntity
  8
0
 62
     7
100
AcDbLine
 10
202.865826
 20
135.153507
 30
0.0
 11
202.889941
 21
135.274775
 31
0.0
  0
LINE
  5
E5
330
A
100
AcDbEntity
  8
0
 62
     7
100
AcDbLine
 10
202.522005
 20
134.3859399999999
 30
0.0
 11
202.653263
 21
134.582655
 31
0.0
  0
LINE
  5
E4
330
A
100
AcDbEntity
  8
0
 62
     7
100
AcDbLine
 10
202.728022
 20
134.694276
 30
0.0
 11
202.794168
 21
134.79384
 31
0.0
  0
LINE
  5
E3
330
A
100
AcDbEntity
  8
0
 62
     7
100
AcDbLine
 10
202.114106
 20
134.113778
 30
0.0
 11
202.283949
 21
134.227121
 31
0.0
  0
LINE
  5
E2
330
A
100
AcDbEntity
  8
0
 62
     7
100
AcDbLine
 10
202.431055
 20
134.325307
 30
0.0
 11
202.522005
 21
134.3859399999999
 31
0.0
  0
LINE
  5
E1
330
A
100
AcDbEntity
  8
0
 62
     7
100
AcDbLine
 10
201.633171
 20
134.018004
 30
0.0
 11
201.797157
 21
134.050388
 31
0.0
  0
LINE
  5
E0
330
A
100
AcDbEntity
  8
0
 62
     7
100
AcDbLine
 10
202.021088
 20
134.095174
 30
0.0
 11
202.114106
 21
134.113778
 31
0.0
  0
LINE
  5
DF
330
A
100
AcDbEntity
  8
0
 62
     7
100
AcDbLine
 10
201.151891
 20
134.113778
 30
0.0
 11
201.280048
 21
134.088284
 31
0.0
  0
LINE
  5
DE
330
A
100
AcDbEntity
  8
0
 62
     7
100
AcDbLine
 10
201.557034
 20
134.033162
 30
0.0
 11
201.633171
 21
134.018004
 31
0.0
  0
LINE
  5
DD
330
A
100
AcDbEntity
  8
0
 62
     7
100
AcDbLine
 10
200.743991
 20
134.3859399999999
 30
0.0
 11
200.827707
 21
134.330474
 31
0.0
  0
LINE
  5
DC
330
A
100
AcDbEntity
  8
0
 62
     7
100
AcDbLine
 10
201.101592
 20
134.147195
 30
0.0
 11
201.151891
 21
134.113778
 31
0.0
  0
LINE
  5
DB
330
A
100
AcDbEntity
  8
0
 62
     7
100
AcDbLine
 10
200.471484
 20
134.79384
 30
0.0
 11
200.516271
 21
134.727005
 31
0.0
  0
LINE
  5
DA
330
A
100
AcDbEntity
  8
0
 62
     7
100
AcDbLine
 10
200.718498
 20
134.424525
 30
0.0
 11
200.743991
 21
134.3859399999999
 31
0.0
  0
LINE
  5
D9
330
A
100
AcDbEntity
  8
0
 62
     7
100
AcDbLine
 10
200.46425
 20
134.830358
 30
0.0
 11
200.471484
 21
134.79384
 31
0.0
  0
LINE
  5
D8
330
A
100
AcDbEntity
  8
0
 62
     7
100
AcDbLine
 10
202.794168
 20
135.756055
 30
0.0
 11
202.790723
 21
135.761222
 31
0.0
  0
LINE
  5
D7
330
A
100
AcDbEntity
  8
0
 62
     7
100
AcDbLine
 10
202.889941
 20
135.274775
 30
0.0
 11
202.838265
 21
135.535224
 31
0.0
  0
LINE
  5
D6
330
A
100
AcDbEntity
  8
0
 62
     7
100
AcDbLine
 10
202.79968
 20
135.728838
 30
0.0
 11
202.794168
 21
135.756055
 31
0.0
  0
LINE
  5
D5
330
A
100
AcDbEntity
  8
0
 62
     7
100
AcDbLine
 10
203.3192
 20
134.576454
 30
0.0
 11
203.458038
 21
135.274775
 31
0.0
  0
LINE
  5
D4
330
A
100
AcDbEntity
  8
0
 62
     7
100
AcDbLine
 10
202.923359
 20
133.984587
 30
0.0
 11
203.3192
 21
134.576454
 31
0.0
  0
LINE
  5
D3
330
A
100
AcDbEntity
  8
0
 62
     7
100
AcDbLine
 10
202.331491
 20
133.588745
 30
0.0
 11
202.923359
 21
133.984587
 31
0.0
  0
LINE
  5
D2
330
A
100
AcDbEntity
  8
0
 62
     7
100
AcDbLine
 10
201.633171
 20
133.449908
 30
0.0
 11
202.331491
 21
133.588745
 31
0.0
  0
LINE
  5
D1
330
A
100
AcDbEntity
  8
0
 62
     7
100
AcDbLine
 10
200.934505
 20
133.588745
 30
0.0
 11
201.633171
 21
133.449908
 31
0.0
  0
LINE
  5
D0
330
A
100
AcDbEntity
  8
0
 62
     7
100
AcDbLine
 10
200.342638
 20
133.984587
 30
0.0
 11
200.934505
 21
133.588745
 31
0.0
  0
LINE
  5
CF
330
A
100
AcDbEntity
  8
0
 62
     7
100
AcDbLine
 10
199.946969
 20
134.576454
 30
0.0
 11
200.342638
 21
133.984587
 31
0.0
  0
LINE
  5
CE
330
A
100
AcDbEntity
  8
0
 62
     7
100
AcDbLine
 10
199.807959
 20
135.274775
 30
0.0
 11
199.946969
 21
134.576454
 31
0.0
  0
LINE
  5
CD
330
A
100
AcDbEntity
  8
0
 62
     7
100
AcDbLine
 10
199.946969
 20
135.97344
 30
0.0
 11
199.807959
 21
135.274775
 31
0.0
  0
LINE
  5
CC
330
A
100
AcDbEntity
  8
0
 62
     7
100
AcDbLine
 10
200.072715
 20
136.161542
 30
0.0
 11
199.946969
 21
135.97344
 31
0.0
  0
LINE
  5
CB
330
A
100
AcDbEntity
  8
0
 62
     7
100
AcDbLine
 10
202.923359
 20
136.565308
 30
0.0
 11
202.488588
 21
136.855729
 31
0.0
  0
LINE
  5
CA
330
A
100
AcDbEntity
  8
0
 62
     7
100
AcDbLine
 10
203.3192
 20
135.97344
 30
0.0
 11
202.923359
 21
136.565308
 31
0.0
  0
LINE
  5
C9
330
A
100
AcDbEntity
  8
0
 62
     7
100
AcDbLine
 10
203.458038
 20
135.274775
 30
0.0
 11
203.3192
 21
135.97344
 31
0.0
  0
LINE
  5
C8
330
A
100
AcDbEntity
  8
0
 62
     7
100
AcDbLine
 10
201.152235
 20
134.113778
 30
0.0
 11
201.102626
 21
134.146851
 31
0.0
  0
LINE
  5
C7
330
A
100
AcDbEntity
  8
0
 62
     7
100
AcDbLine
 10
200.825985
 20
134.331508
 30
0.0
 11
200.744336
 21
134.386285
 31
0.0
  0
LINE
  5
C6
330
A
100
AcDbEntity
  8
0
 62
     7
100
AcDbLine
 10
201.633171
 20
134.018004
 30
0.0
 11
201.558067
 21
134.033162
 31
0.0
  0
LINE
  5
C5
330
A
100
AcDbEntity
  8
0
 62
     7
100
AcDbLine
 10
201.278326
 20
134.088628
 30
0.0
 11
201.152235
 21
134.113778
 31
0.0
  0
LINE
  5
C4
330
A
100
AcDbEntity
  8
0
 62
     7
100
AcDbLine
 10
202.114106
 20
134.113778
 30
0.0
 11
202.022122
 21
134.095519
 31
0.0
  0
LINE
  5
C3
330
A
100
AcDbEntity
  8
0
 62
     7
100
AcDbLine
 10
201.79509
 20
134.050388
 30
0.0
 11
201.633171
 21
134.018004
 31
0.0
  0
LINE
  5
C2
330
A
100
AcDbEntity
  8
0
 62
     7
100
AcDbLine
 10
202.521661
 20
134.386285
 30
0.0
 11
202.431399
 21
134.325996
 31
0.0
  0
LINE
  5
C1
330
A
100
AcDbEntity
  8
0
 62
     7
100
AcDbLine
 10
202.282227
 20
134.226432
 30
0.0
 11
202.114106
 21
134.113778
 31
0.0
  0
LINE
  5
C0
330
A
100
AcDbEntity
  8
0
 62
     7
100
AcDbLine
 10
202.794168
 20
134.79384
 30
0.0
 11
202.728022
 21
134.69531
 31
0.0
  0
LINE
  5
BF
330
A
100
AcDbEntity
  8
0
 62
     7
100
AcDbLine
 10
202.651885
 20
134.581277
 30
0.0
 11
202.521661
 21
134.386285
 31
0.0
  0
LINE
  5
BE
330
A
100
AcDbEntity
  8
0
 62
     7
100
AcDbLine
 10
202.889941
 20
135.274775
 30
0.0
 11
202.865826
 21
135.154541
 31
0.0
  0
LINE
  5
BD
330
A
100
AcDbEntity
  8
0
 62
     7
100
AcDbLine
 10
202.844122
 20
135.045676
 30
0.0
 11
202.794168
 21
134.79384
 31
0.0
  0
LINE
  5
BC
330
A
100
AcDbEntity
  8
0
 62
     7
100
AcDbLine
 10
202.794168
 20
135.756055
 30
0.0
 11
202.798991
 21
135.732284
 31
0.0
  0
LINE
  5
BB
330
A
100
AcDbEntity
  8
0
 62
     7
100
AcDbLine
 10
202.838265
 20
135.533502
 30
0.0
 11
202.889941
 21
135.274775
 31
0.0
  0
LINE
  5
BA
330
A
100
AcDbEntity
  8
0
 62
     7
100
AcDbLine
 10
202.791067
 20
135.760533
 30
0.0
 11
202.794168
 21
135.756055
 31
0.0
  0
LINE
  5
B9
330
A
100
AcDbEntity
  8
0
 62
     7
100
AcDbLine
 10
200.471829
 20
134.79384
 30
0.0
 11
200.464594
 21
134.829669
 31
0.0
  0
LINE
  5
B8
330
A
100
AcDbEntity
  8
0
 62
     7
100
AcDbLine
 10
200.744336
 20
134.386285
 30
0.0
 11
200.719187
 21
134.424181
 31
0.0
  0
LINE
  5
B7
330
A
100
AcDbEntity
  8
0
 62
     7
100
AcDbLine
 10
200.515582
 20
134.728727
 30
0.0
 11
200.471829
 21
134.79384
 31
0.0
  0
LINE
  5
B6
330
A
100
AcDbEntity
  8
0
 62
     7
100
AcDbLine
 10
202.868582
 20
135.119057
 30
0.0
 11
202.865826
 21
135.153507
 31
0.0
  0
LINE
  5
B5
330
A
100
AcDbEntity
  8
0
 62
     7
100
AcDbLine
 10
200.409817
 20
134.939223
 30
0.0
 11
200.46425
 21
134.830358
 31
0.0
  0
LINE
  5
B4
330
A
100
AcDbEntity
  8
0
 62
     7
100
AcDbLine
 10
200.516271
 20
134.727005
 30
0.0
 11
200.629959
 21
134.501006
 31
0.0
  0
LINE
  5
B3
330
A
100
AcDbEntity
  8
0
 62
     7
100
AcDbLine
 10
200.629959
 20
134.501006
 30
0.0
 11
200.718498
 21
134.424525
 31
0.0
  0
LINE
  5
B2
330
A
100
AcDbEntity
  8
0
 62
     7
100
AcDbLine
 10
200.827707
 20
134.330474
 30
0.0
 11
201.000996
 21
134.180613
 31
0.0
  0
LINE
  5
B1
330
A
100
AcDbEntity
  8
0
 62
     7
100
AcDbLine
 10
201.000996
 20
134.180613
 30
0.0
 11
201.101592
 21
134.147195
 31
0.0
  0
LINE
  5
B0
330
A
100
AcDbEntity
  8
0
 62
     7
100
AcDbLine
 10
201.280048
 20
134.088284
 30
0.0
 11
201.466428
 21
134.026272
 31
0.0
  0
LINE
  5
AF
330
A
100
AcDbEntity
  8
0
 62
     7
100
AcDbLine
 10
201.466428
 20
134.026272
 30
0.0
 11
201.557034
 21
134.033162
 31
0.0
  0
LINE
  5
AE
330
A
100
AcDbEntity
  8
0
 62
     7
100
AcDbLine
 10
201.797157
 20
134.050388
 30
0.0
 11
201.955632
 21
134.062101
 31
0.0
  0
LINE
  5
AD
330
A
100
AcDbEntity
  8
0
 62
     7
100
AcDbLine
 10
201.955632
 20
134.062101
 30
0.0
 11
202.021088
 21
134.095174
 31
0.0
  0
LINE
  5
AC
330
A
100
AcDbEntity
  8
0
 62
     7
100
AcDbLine
 10
202.283949
 20
134.227121
 30
0.0
 11
202.393848
 21
134.282243
 31
0.0
  0
LINE
  5
AB
330
A
100
AcDbEntity
  8
0
 62
     7
100
AcDbLine
 10
202.393848
 20
134.282243
 30
0.0
 11
202.431055
 21
134.325307
 31
0.0
  0
LINE
  5
AA
330
A
100
AcDbEntity
  8
0
 62
     7
100
AcDbLine
 10
202.653263
 20
134.582655
 30
0.0
 11
202.714242
 21
134.65328
 31
0.0
  0
LINE
  5
A9
330
A
100
AcDbEntity
  8
0
 62
     7
100
AcDbLine
 10
202.714242
 20
134.65328
 30
0.0
 11
202.728022
 21
134.694276
 31
0.0
  0
LINE
  5
A8
330
A
100
AcDbEntity
  8
0
 62
     7
100
AcDbLine
 10
202.844811
 20
135.047399
 30
0.0
 11
202.868582
 21
135.119057
 31
0.0
  0
LINE
  5
A7
330
A
100
AcDbEntity
  8
0
 62
     7
100
AcDbLine
 10
202.868237
 20
135.121124
 30
0.0
 11
202.832753
 21
135.608605
 31
0.0
  0
LINE
  5
A6
330
A
100
AcDbEntity
  8
0
 62
     7
100
AcDbLine
 10
202.763506
 20
135.860441
 30
0.0
 11
202.832753
 21
135.608605
 31
0.0
  0
LINE
  5
A5
330
A
100
AcDbEntity
  8
0
 62
     7
100
AcDbLine
 10
200.340398
 20
135.191748
 30
0.0
 11
200.409817
 21
134.939912
 31
0.0
  0
LINE
  5
A4
330
A
100
AcDbEntity
  8
0
 62
     7
100
AcDbLine
 10
202.57506
 20
136.543259
 30
0.0
 11
202.763506
 21
135.860441
 31
0.0
  0
LINE
  5
A3
330
A
100
AcDbEntity
  8
0
 62
     7
100
AcDbLine
 10
200.151952
 20
135.874566
 30
0.0
 11
200.340398
 21
135.191748
 31
0.0
  0
LINE
  5
A2
330
A
100
AcDbEntity
  8
0
 62
     7
100
AcDbLine
 10
202.287739
 20
137.584367
 30
0.0
 11
202.57506
 21
136.543259
 31
0.0
  0
LINE
  5
A1
330
A
100
AcDbEntity
  8
0
 62
     7
100
AcDbLine
 10
199.864631
 20
136.915674
 30
0.0
 11
200.151952
 21
135.874566
 31
0.0
  0
LINE
  5
A0
330
A
100
AcDbEntity
  8
0
 62
     7
100
AcDbLine
 10
201.923937
 20
138.902805
 30
0.0
 11
202.287739
 21
137.584367
 31
0.0
  0
LINE
  5
9F
330
A
100
AcDbEntity
  8
0
 62
     7
100
AcDbLine
 10
199.500829
 20
138.234112
 30
0.0
 11
199.864631
 21
136.915674
 31
0.0
  0
LINE
  5
9E
330
A
100
AcDbEntity
  8
0
 62
     7
100
AcDbLine
 10
201.476074
 20
140.524756
 30
0.0
 11
201.923937
 21
138.902805
 31
0.0
  0
LINE
  5
9D
330
A
100
AcDbEntity
  8
0
 62
     7
100
AcDbLine
 10
199.053139
 20
139.8560629999999
 30
0.0
 11
199.500829
 21
138.234112
 31
0.0
  0
LINE
  5
9C
330
A
100
AcDbEntity
  8
0
 62
     7
100
AcDbLine
 10
194.878889
 20
164.429584
 30
0.0
 11
201.476074
 21
140.524756
 31
0.0
  0
LINE
  5
9B
330
A
100
AcDbEntity
  8
0
 62
     7
100
AcDbLine
 10
192.455953
 20
163.760891
 30
0.0
 11
199.053139
 21
139.8560629999999
 31
0.0
  0
LINE
  5
9A
330
A
100
AcDbEntity
  8
0
 62
     7
100
AcDbLine
 10
194.431371
 20
166.051535
 30
0.0
 11
194.878889
 21
164.429584
 31
0.0
  0
LINE
  5
99
330
A
100
AcDbEntity
  8
0
 62
     7
100
AcDbLine
 10
192.008263
 20
165.382842
 30
0.0
 11
192.455953
 21
163.760891
 31
0.0
  0
LINE
  5
98
330
A
100
AcDbEntity
  8
0
 62
     7
100
AcDbLine
 10
194.067396
 20
167.370318
 30
0.0
 11
194.431371
 21
166.051535
 31
0.0
  0
LINE
  5
97
330
A
100
AcDbEntity
  8
0
 62
     7
100
AcDbLine
 10
191.644461
 20
166.701625
 30
0.0
 11
192.008263
 21
165.382842
 31
0.0
  0
LINE
  5
96
330
A
100
AcDbEntity
  8
0
 62
     7
100
AcDbLine
 10
193.779903
 20
168.4119429999999
 30
0.0
 11
194.067396
 21
167.370318
 31
0.0
  0
LINE
  5
95
330
A
100
AcDbEntity
  8
0
 62
     7
100
AcDbLine
 10
191.356795
 20
167.74325
 30
0.0
 11
191.644461
 21
166.701625
 31
0.0
  0
LINE
  5
94
330
A
100
AcDbEntity
  8
0
 62
     7
100
AcDbLine
 10
193.591456
 20
169.094933
 30
0.0
 11
193.779903
 21
168.4119429999999
 31
0.0
  0
LINE
  5
93
330
A
100
AcDbEntity
  8
0
 62
     7
100
AcDbLine
 10
191.168349
 20
168.4262399999999
 30
0.0
 11
191.356795
 21
167.74325
 31
0.0
  0
LINE
  5
92
330
A
100
AcDbEntity
  8
0
 62
     7
100
AcDbLine
 10
193.522382
 20
169.345047
 30
0.0
 11
193.591456
 21
169.094933
 31
0.0
  0
LINE
  5
91
330
A
100
AcDbEntity
  8
0
 62
     7
100
AcDbLine
 10
191.099447
 20
168.676354
 30
0.0
 11
191.168349
 21
168.4262399999999
 31
0.0
  0
LINE
  5
90
330
A
100
AcDbEntity
  8
0
 62
     7
100
AcDbLine
 10
193.302585
 20
169.781713
 30
0.0
 11
193.522382
 21
169.345047
 31
0.0
  0
LINE
  5
8F
330
A
100
AcDbEntity
  8
0
 62
     7
100
AcDbLine
 10
191.099447
 20
168.676354
 30
0.0
 11
191.064134
 21
169.164007
 31
0.0
  0
LINE
  5
8E
330
A
100
AcDbEntity
  8
0
 62
     7
100
AcDbLine
 10
191.064134
 20
169.164007
 30
0.0
 11
191.218647
 21
169.628234
 31
0.0
  0
LINE
  5
8D
330
A
100
AcDbEntity
  8
0
 62
     7
100
AcDbLine
 10
191.218647
 20
169.628234
 30
0.0
 11
191.539385
 21
169.998581
 31
0.0
  0
LINE
  5
8C
330
A
100
AcDbEntity
  8
0
 62
     7
100
AcDbLine
 10
191.539385
 20
169.998581
 30
0.0
 11
191.9776009999999
 21
170.218378
 31
0.0
  0
LINE
  5
8B
330
A
100
AcDbEntity
  8
0
 62
     7
100
AcDbLine
 10
191.9776009999999
 20
170.218378
 30
0.0
 11
192.466633
 21
170.25438
 31
0.0
  0
LINE
  5
8A
330
A
100
AcDbEntity
  8
0
 62
     7
100
AcDbLine
 10
192.466633
 20
170.25438
 30
0.0
 11
192.931893
 21
170.101073
 31
0.0
  0
LINE
  5
89
330
A
100
AcDbEntity
  8
0
 62
     7
100
AcDbLine
 10
192.931893
 20
170.101073
 30
0.0
 11
193.302585
 21
169.781713
 31
0.0
  0
LINE
  5
88
330
A
100
AcDbEntity
  8
0
 62
     7
100
AcDbLine
 10
187.904465
 20
172.608586
 30
0.0
 11
187.845898
 21
172.750007
 31
0.0
  0
LINE
  5
87
330
A
100
AcDbEntity
  8
0
 62
     7
100
AcDbLine
 10
188.045886
 20
172.549847
 30
0.0
 11
187.904465
 21
172.608586
 31
0.0
  0
LINE
  5
86
330
A
100
AcDbEntity
  8
0
 62
     7
100
AcDbLine
 10
191.06689
 20
172.549847
 30
0.0
 11
188.045886
 21
172.549847
 31
0.0
  0
LINE
  5
85
330
A
100
AcDbEntity
  8
0
 62
     7
100
AcDbLine
 10
191.089973
 20
170.034066
 30
0.0
 11
191.089111
 21
170.111925
 31
0.0
  0
LINE
  5
84
330
A
100
AcDbEntity
  8
0
 62
     7
100
AcDbLine
 10
191.086011
 20
170.461947
 30
0.0
 11
191.06689
 21
172.549847
 31
0.0
  0
LINE
  5
83
330
A
100
AcDbEntity
  8
0
 62
     7
100
AcDbLine
 10
193.525827
 20
172.549847
 30
0.0
 11
193.556316
 21
169.349009
 31
0.0
  0
LINE
  5
82
330
A
100
AcDbEntity
  8
0
 62
     7
100
AcDbLine
 10
215.345684
 20
172.549847
 30
0.0
 11
205.209524
 21
172.549847
 31
0.0
  0
LINE
  5
81
330
A
100
AcDbEntity
  8
0
 62
     7
100
AcDbLine
 10
198.047515
 20
172.549847
 30
0.0
 11
193.525827
 21
172.549847
 31
0.0
  0
LINE
  5
80
330
A
100
AcDbEntity
  8
0
 62
     7
100
AcDbLine
 10
215.487278
 20
172.608586
 30
0.0
 11
215.345684
 21
172.549847
 31
0.0
  0
LINE
  5
7F
330
A
100
AcDbEntity
  8
0
 62
     7
100
AcDbLine
 10
215.545844
 20
172.750007
 30
0.0
 11
215.487278
 21
172.608586
 31
0.0
  0
LINE
  5
7E
330
A
100
AcDbEntity
  8
0
 62
     7
100
AcDbLine
 10
215.545844
 20
180.550047
 30
0.0
 11
215.545844
 21
179.064695
 31
0.0
  0
LINE
  5
7D
330
A
100
AcDbEntity
  8
0
 62
     7
100
AcDbLine
 10
215.545844
 20
174.23536
 30
0.0
 11
215.545844
 21
172.750007
 31
0.0
  0
LINE
  5
7C
330
A
100
AcDbEntity
  8
0
 62
     7
100
AcDbLine
 10
217.441336
 20
174.280146
 30
0.0
 11
217.335571
 21
174.23536
 31
0.0
  0
LINE
  5
7B
330
A
100
AcDbEntity
  8
0
 62
     7
100
AcDbLine
 10
217.485433
 20
174.388322
 30
0.0
 11
217.441336
 21
174.280146
 31
0.0
  0
LINE
  5
7A
330
A
100
AcDbEntity
  8
0
 62
     7
100
AcDbLine
 10
217.441336
 20
179.019908
 30
0.0
 11
217.335571
 21
179.064695
 31
0.0
  0
LINE
  5
79
330
A
100
AcDbEntity
  8
0
 62
     7
100
AcDbLine
 10
217.485433
 20
178.911732
 30
0.0
 11
217.441336
 21
179.019908
 31
0.0
  0
LINE
  5
78
330
A
100
AcDbEntity
  8
0
 62
     7
100
AcDbLine
 10
217.335571
 20
174.23536
 30
0.0
 11
216.001286
 21
174.23536
 31
0.0
  0
LINE
  5
77
330
A
100
AcDbEntity
  8
0
 62
     7
100
AcDbLine
 10
217.335571
 20
179.064695
 30
0.0
 11
215.545844
 21
179.064695
 31
0.0
  0
LINE
  5
76
330
A
100
AcDbEntity
  8
0
 62
     7
100
AcDbLine
 10
215.545844
 20
178.357416
 30
0.0
 11
215.545844
 21
178.880726
 31
0.0
  0
LINE
  5
75
330
A
100
AcDbEntity
  8
0
 62
     7
100
AcDbLine
 10
215.545844
 20
177.995165
 30
0.0
 11
215.545844
 21
178.357416
 31
0.0
  0
LINE
  5
74
330
A
100
AcDbEntity
  8
0
 62
     7
100
AcDbLine
 10
215.545844
 20
178.880726
 30
0.0
 11
215.545844
 21
179.064695
 31
0.0
  0
LINE
  5
73
330
A
100
AcDbEntity
  8
0
 62
     7
100
AcDbLine
 10
217.485433
 20
175.050814
 30
0.0
 11
217.485433
 21
174.560404
 31
0.0
  0
LINE
  5
72
330
A
100
AcDbEntity
  8
0
 62
     7
100
AcDbLine
 10
217.485433
 20
175.784447
 30
0.0
 11
217.485433
 21
175.050814
 31
0.0
  0
LINE
  5
71
330
A
100
AcDbEntity
  8
0
 62
     7
100
AcDbLine
 10
217.485433
 20
176.650027
 30
0.0
 11
217.485433
 21
175.784447
 31
0.0
  0
LINE
  5
70
330
A
100
AcDbEntity
  8
0
 62
     7
100
AcDbLine
 10
217.485433
 20
177.515435
 30
0.0
 11
217.485433
 21
176.650027
 31
0.0
  0
LINE
  5
6F
330
A
100
AcDbEntity
  8
0
 62
     7
100
AcDbLine
 10
217.485433
 20
178.24924
 30
0.0
 11
217.485433
 21
177.515435
 31
0.0
  0
LINE
  5
6E
330
A
100
AcDbEntity
  8
0
 62
     7
100
AcDbLine
 10
217.485433
 20
178.739478
 30
0.0
 11
217.485433
 21
178.24924
 31
0.0
  0
LINE
  5
6D
330
A
100
AcDbEntity
  8
0
 62
     7
100
AcDbLine
 10
217.485433
 20
178.911732
 30
0.0
 11
217.485433
 21
178.739478
 31
0.0
  0
LINE
  5
6C
330
A
100
AcDbEntity
  8
0
 62
     7
100
AcDbLine
 10
217.485433
 20
174.560404
 30
0.0
 11
217.485433
 21
174.388322
 31
0.0
  0
LINE
  5
6B
330
A
100
AcDbEntity
  8
0
 62
     7
100
AcDbLine
 10
216.001286
 20
177.995165
 30
0.0
 11
215.545844
 21
177.995165
 31
0.0
  0
LINE
  5
6A
330
A
100
AcDbEntity
  8
0
 62
     7
100
AcDbLine
 10
216.001286
 20
177.995165
 30
0.0
 11
215.545844
 21
177.995165
 31
0.0
  0
LINE
  5
69
330
A
100
AcDbEntity
  8
0
 62
     7
100
AcDbLine
 10
216.083624
 20
174.270327
 30
0.0
 11
216.001286
 21
174.23536
 31
0.0
  0
LINE
  5
68
330
A
100
AcDbEntity
  8
0
 62
     7
100
AcDbLine
 10
216.11773
 20
174.354388
 30
0.0
 11
216.083624
 21
174.270327
 31
0.0
  0
LINE
  5
67
330
A
100
AcDbEntity
  8
0
 62
     7
100
AcDbLine
 10
216.083624
 20
177.960369
 30
0.0
 11
216.001286
 21
177.995165
 31
0.0
  0
LINE
  5
66
330
A
100
AcDbEntity
  8
0
 62
     7
100
AcDbLine
 10
216.11773
 20
177.876137
 30
0.0
 11
216.083624
 21
177.960369
 31
0.0
  0
LINE
  5
65
330
A
100
AcDbEntity
  8
0
 62
     7
100
AcDbLine
 10
216.001286
 20
174.23536
 30
0.0
 11
215.545844
 21
174.23536
 31
0.0
  0
LINE
  5
64
330
A
100
AcDbEntity
  8
0
 62
     7
100
AcDbLine
 10
216.001286
 20
177.995165
 30
0.0
 11
215.545844
 21
177.995165
 31
0.0
  0
LINE
  5
63
330
A
100
AcDbEntity
  8
0
 62
     7
100
AcDbLine
 10
215.545844
 20
174.23536
 30
0.0
 11
215.545844
 21
174.378503
 31
0.0
  0
LINE
  5
62
330
A
100
AcDbEntity
  8
0
 62
     7
100
AcDbLine
 10
215.545844
 20
177.852021
 30
0.0
 11
215.545844
 21
177.995165
 31
0.0
  0
LINE
  5
61
330
A
100
AcDbEntity
  8
0
 62
     7
100
AcDbLine
 10
215.545844
 20
177.444638
 30
0.0
 11
215.545844
 21
177.852021
 31
0.0
  0
LINE
  5
60
330
A
100
AcDbEntity
  8
0
 62
     7
100
AcDbLine
 10
215.545844
 20
176.834684
 30
0.0
 11
215.545844
 21
177.444638
 31
0.0
  0
LINE
  5
5F
330
A
100
AcDbEntity
  8
0
 62
     7
100
AcDbLine
 10
215.545844
 20
176.115348
 30
0.0
 11
215.545844
 21
176.834684
 31
0.0
  0
LINE
  5
5E
330
A
100
AcDbEntity
  8
0
 62
     7
100
AcDbLine
 10
215.545844
 20
175.39584
 30
0.0
 11
215.545844
 21
176.115348
 31
0.0
  0
LINE
  5
5D
330
A
100
AcDbEntity
  8
0
 62
     7
100
AcDbLine
 10
215.545844
 20
174.786058
 30
0.0
 11
215.545844
 21
175.39584
 31
0.0
  0
LINE
  5
5C
330
A
100
AcDbEntity
  8
0
 62
     7
100
AcDbLine
 10
215.545844
 20
174.378503
 30
0.0
 11
215.545844
 21
174.786058
 31
0.0
  0
LINE
  5
5B
330
A
100
AcDbEntity
  8
0
 62
     7
100
AcDbLine
 10
216.11773
 20
177.876137
 30
0.0
 11
216.11773
 21
177.742122
 31
0.0
  0
LINE
  5
5A
330
A
100
AcDbEntity
  8
0
 62
     7
100
AcDbLine
 10
216.11773
 20
174.488574
 30
0.0
 11
216.11773
 21
174.354388
 31
0.0
  0
LINE
  5
59
330
A
100
AcDbEntity
  8
0
 62
     7
100
AcDbLine
 10
216.11773
 20
174.870119
 30
0.0
 11
216.11773
 21
174.488574
 31
0.0
  0
LINE
  5
58
330
A
100
AcDbEntity
  8
0
 62
     7
100
AcDbLine
 10
216.11773
 20
175.441488
 30
0.0
 11
216.11773
 21
174.870119
 31
0.0
  0
LINE
  5
57
330
A
100
AcDbEntity
  8
0
 62
     7
100
AcDbLine
 10
216.11773
 20
176.115348
 30
0.0
 11
216.11773
 21
175.441488
 31
0.0
  0
LINE
  5
56
330
A
100
AcDbEntity
  8
0
 62
     7
100
AcDbLine
 10
216.11773
 20
176.789037
 30
0.0
 11
216.11773
 21
176.115348
 31
0.0
  0
LINE
  5
55
330
A
100
AcDbEntity
  8
0
 62
     7
100
AcDbLine
 10
216.11773
 20
177.360406
 30
0.0
 11
216.11773
 21
176.789037
 31
0.0
  0
LINE
  5
54
330
A
100
AcDbEntity
  8
0
 62
     7
100
AcDbLine
 10
216.11773
 20
177.742122
 30
0.0
 11
216.11773
 21
177.360406
 31
0.0
  0
LINE
  5
53
330
A
100
AcDbEntity
  8
0
 62
     7
100
AcDbLine
 10
195.421491
 20
172.559665
 30
0.0
 11
193.529789
 21
172.135402
 31
0.0
  0
LINE
  5
52
330
A
100
AcDbEntity
  8
0
 62
     7
100
AcDbLine
 10
191.073781
 20
171.790203
 30
0.0
 11
189.405665
 21
171.555764
 31
0.0
  0
LINE
  5
51
330
A
100
AcDbEntity
  8
0
 62
     7
100
AcDbLine
 10
186.295433
 20
173.321204
 30
0.0
 11
187.845898
 21
173.333089
 31
0.0
  0
LINE
  5
50
330
A
100
AcDbEntity
  8
0
 62
     7
100
AcDbLine
 10
189.405665
 20
171.555764
 30
0.0
 11
186.484397
 21
171.531304
 31
0.0
  0
LINE
  5
4F
330
A
100
AcDbEntity
  8
0
 62
     7
100
AcDbLine
 10
185.229004
 20
173.381321
 30
0.0
 11
186.295433
 21
173.321204
 31
0.0
  0
LINE
  5
4E
330
A
100
AcDbEntity
  8
0
 62
     7
100
AcDbLine
 10
186.484397
 20
171.531304
 30
0.0
 11
186.201382
 21
171.546979
 31
0.0
  0
LINE
  5
4D
330
A
100
AcDbEntity
  8
0
 62
     7
100
AcDbLine
 10
186.201382
 20
170.90533
 30
0.0
 11
186.201382
 21
172.297321
 31
0.0
  0
LINE
  5
4C
330
A
100
AcDbEntity
  8
0
 62
     7
100
AcDbLine
 10
185.229004
 20
173.381321
 30
0.0
 11
184.720508
 21
173.156011
 31
0.0
  0
LINE
  5
4B
330
A
100
AcDbEntity
  8
0
 62
     7
100
AcDbLine
 10
184.720508
 20
173.156011
 30
0.0
 11
184.441455
 21
172.674731
 31
0.0
  0
LINE
  5
4A
330
A
100
AcDbEntity
  8
0
 62
     7
100
AcDbLine
 10
184.441455
 20
170.916355
 30
0.0
 11
184.441455
 21
172.674731
 31
0.0
  0
LINE
  5
49
330
A
100
AcDbEntity
  8
0
 62
     7
100
AcDbLine
 10
183.265988
 20
174.8766639999999
 30
0.0
 11
183.372097
 21
174.832739
 31
0.0
  0
LINE
  5
48
330
A
100
AcDbEntity
  8
0
 62
     7
100
AcDbLine
 10
183.222064
 20
174.982773
 30
0.0
 11
183.265988
 21
174.8766639999999
 31
0.0
  0
LINE
  5
47
330
A
100
AcDbEntity
  8
0
 62
     7
100
AcDbLine
 10
183.265988
 20
180.316815
 30
0.0
 11
183.222064
 21
180.210878
 31
0.0
  0
LINE
  5
46
330
A
100
AcDbEntity
  8
0
 62
     7
100
AcDbLine
 10
183.372097
 20
180.360739
 30
0.0
 11
183.265988
 21
180.316815
 31
0.0
  0
LINE
  5
45
330
A
100
AcDbEntity
  8
0
 62
     7
100
AcDbLine
 10
187.814548
 20
174.832739
 30
0.0
 11
183.372097
 21
174.832739
 31
0.0
  0
LINE
  5
44
330
A
100
AcDbEntity
  8
0
 62
     7
100
AcDbLine
 10
183.372097
 20
180.360739
 30
0.0
 11
187.814548
 21
180.360739
 31
0.0
  0
LINE
  5
43
330
A
100
AcDbEntity
  8
0
 62
     7
100
AcDbLine
 10
183.222064
 20
174.982773
 30
0.0
 11
183.222064
 21
180.210878
 31
0.0
  0
LINE
  5
42
330
A
100
AcDbEntity
  8
0
 62
     7
100
AcDbLine
 10
187.904465
 20
172.608586
 30
0.0
 11
188.045886
 21
172.550019
 31
0.0
  0
LINE
  5
41
330
A
100
AcDbEntity
  8
0
 62
     7
100
AcDbLine
 10
187.845898
 20
172.750007
 30
0.0
 11
187.904465
 21
172.608586
 31
0.0
  0
LINE
  5
40
330
A
100
AcDbEntity
  8
0
 62
     7
100
AcDbLine
 10
187.845898
 20
180.550047
 30
0.0
 11
187.845898
 21
172.750007
 31
0.0
  0
LINE
  5
3F
330
A
100
AcDbEntity
  8
0
 62
     7
100
AcDbLine
 10
215.545844
 20
180.550047
 30
0.0
 11
187.845898
 21
180.550047
 31
0.0
  0
LINE
  5
3E
330
A
100
AcDbEntity
  8
0
 62
     7
100
AcDbLine
 10
215.545844
 20
172.750007
 30
0.0
 11
215.545844
 21
180.550047
 31
0.0
  0
LINE
  5
3D
330
A
100
AcDbEntity
  8
0
 62
     7
100
AcDbLine
 10
215.487278
 20
172.608586
 30
0.0
 11
215.545844
 21
172.750007
 31
0.0
  0
LINE
  5
3C
330
A
100
AcDbEntity
  8
0
 62
     7
100
AcDbLine
 10
215.345684
 20
172.550019
 30
0.0
 11
215.487278
 21
172.608586
 31
0.0
  0
LINE
  5
3B
330
A
100
AcDbEntity
  8
0
 62
     7
100
AcDbLine
 10
215.545844
 20
180.550047
 30
0.0
 11
215.545844
 21
179.064695
 31
0.0
  0
LINE
  5
3A
330
A
100
AcDbEntity
  8
0
 62
     7
100
AcDbLine
 10
215.545844
 20
174.23536
 30
0.0
 11
215.545844
 21
172.750007
 31
0.0
  0
LINE
  5
39
330
A
100
AcDbEntity
  8
0
 62
     7
100
AcDbLine
 10
197.817211
 20
172.550019
 30
0.0
 11
197.870782
 21
172.550019
 31
0.0
  0
LINE
  5
38
330
A
100
AcDbEntity
  8
0
 62
     7
100
AcDbLine
 10
197.797574
 20
172.550019
 30
0.0
 11
197.817211
 21
172.550019
 31
0.0
  0
LINE
  5
37
330
A
100
AcDbEntity
  8
0
 62
     7
100
AcDbLine
 10
197.817211
 20
172.550019
 30
0.0
 11
197.797574
 21
172.550019
 31
0.0
  0
LINE
  5
36
330
A
100
AcDbEntity
  8
0
 62
     7
100
AcDbLine
 10
197.870782
 20
172.550019
 30
0.0
 11
197.817211
 21
172.550019
 31
0.0
  0
LINE
  5
35
330
A
100
AcDbEntity
  8
0
 62
     7
100
AcDbLine
 10
197.950191
 20
172.550019
 30
0.0
 11
197.870782
 21
172.550019
 31
0.0
  0
LINE
  5
34
330
A
100
AcDbEntity
  8
0
 62
     7
100
AcDbLine
 10
198.047515
 20
172.550019
 30
0.0
 11
197.950191
 21
172.550019
 31
0.0
  0
LINE
  5
33
330
A
100
AcDbEntity
  8
0
 62
     7
100
AcDbLine
 10
188.045886
 20
172.550019
 30
0.0
 11
198.047515
 21
172.550019
 31
0.0
  0
LINE
  5
32
330
A
100
AcDbEntity
  8
0
 62
     7
100
AcDbLine
 10
205.209524
 20
172.550019
 30
0.0
 11
215.345684
 21
172.550019
 31
0.0
  0
LINE
  5
31
330
A
100
AcDbEntity
  8
0
 62
     7
100
AcDbLine
 10
215.345684
 20
172.550019
 30
0.0
 11
188.045886
 21
172.550019
 31
0.0
  0
LINE
  5
30
330
A
100
AcDbEntity
  8
0
 62
     7
100
AcDbLine
 10
205.440001
 20
172.550019
 30
0.0
 11
215.345684
 21
172.550019
 31
0.0
  0
LINE
  5
2F
330
A
100
AcDbEntity
  8
0
 62
     7
100
AcDbLine
 10
205.459638
 20
172.550019
 30
0.0
 11
205.440001
 21
172.550019
 31
0.0
  0
LINE
  5
2E
330
A
100
AcDbEntity
  8
0
 62
     7
100
AcDbLine
 10
205.440001
 20
172.550019
 30
0.0
 11
205.459638
 21
172.550019
 31
0.0
  0
LINE
  5
2D
330
A
100
AcDbEntity
  8
0
 62
     7
100
AcDbLine
 10
205.386258
 20
172.550019
 30
0.0
 11
205.440001
 21
172.550019
 31
0.0
  0
LINE
  5
2C
330
A
100
AcDbEntity
  8
0
 62
     7
100
AcDbLine
 10
205.440001
 20
172.550019
 30
0.0
 11
205.386258
 21
172.550019
 31
0.0
  0
LINE
  5
2B
330
A
100
AcDbEntity
  8
0
 62
     7
100
AcDbLine
 10
205.459638
 20
172.550019
 30
0.0
 11
205.440001
 21
172.550019
 31
0.0
  0
LINE
  5
2A
330
A
100
AcDbEntity
  8
0
 62
     7
100
AcDbLine
 10
205.440001
 20
172.550019
 30
0.0
 11
205.459638
 21
172.550019
 31
0.0
  0
LINE
  5
29
330
A
100
AcDbEntity
  8
0
 62
     7
100
AcDbLine
 10
205.386258
 20
172.550019
 30
0.0
 11
205.440001
 21
172.550019
 31
0.0
  0
DIMENSION
  5
4EF
330
A
100
AcDbEntity
  8
Cotation-JacobDelafon
  6
Continuous
370
     0
100
AcDbDimension
  2
*D3
 10
217.485433
 20
201.8459904300116
 30
0.0
 11
200.3537485
 21
204.2787325855368
 31
0.0
 70
    32
  1
34
 71
     5
 42
34.26336900000001
 73
     0
 74
     0
 75
     0
  3
Cotation-Jacob-Delafon
100
AcDbAlignedDimension
 13
183.222064
 23
180.210878
 33
0.0
 14
217.485433
 24
178.911732
 34
0.0
100
AcDbRotatedDimension
  0
DIMENSION
  5
4FC
330
A
100
AcDbEntity
  8
Cotation-JacobDelafon
  6
Continuous
370
     0
100
AcDbDimension
  2
*D4
 10
160.5838764964856
 20
119.450073
 30
0.0
 11
158.1521575333204
 21
149.905406
 31
0.0
 70
    32
  1
61
 71
     5
 42
60.91066599999997
 73
     0
 74
     0
 75
     0
  3
Cotation-Jacob-Delafon
100
AcDbAlignedDimension
 13
187.814548
 23
180.360739
 33
0.0
 14
187.753053
 24
119.450073
 34
0.0
 50
90.0
100
AcDbRotatedDimension
  0
ENDSEC
  0
SECTION
  2
OBJECTS
  0
DICTIONARY
  5
19
330
0
100
AcDbDictionary
281
     1
  3
ACAD_COLOR
350
4B8
  3
ACAD_GROUP
350
1A
  3
ACAD_LAYOUT
350
1E
  3
ACAD_MATERIAL
350
48E
  3
ACAD_MLEADERSTYLE
350
4CD
  3
ACAD_MLINESTYLE
350
1B
  3
ACAD_PLOTSETTINGS
350
22
  3
ACAD_PLOTSTYLENAME
350
1F
  3
ACAD_SCALELIST
350
4BB
  3
ACAD_TABLESTYLE
350
4B9
  3
ACAD_VISUALSTYLE
350
4A7
  3
ACAD_WIPEOUT_VARS
350
23
  3
ACDB_RECOMPOSE_DATA
350
528
  3
AcDbVariableDictionary
350
51E
  3
AEC_PROPERTY_SET_DEFS
350
4E3
  0
DICTIONARY
  5
51B
330
14
100
AcDbDictionary
280
     1
281
     1
  3
ADSK_XREC_LAYER_RECONCILED
360
51C
  0
DICTIONARY
  5
4E9
330
4E8
100
AcDbDictionary
280
     1
281
     1
  3
ADSK_XREC_LAYER_RECONCILED
360
51D
  0
DICTIONARY
  5
4B8
102
{ACAD_REACTORS
330
19
102
}
330
19
100
AcDbDictionary
281
     1
  0
DICTIONARY
  5
1A
102
{ACAD_REACTORS
330
19
102
}
330
19
100
AcDbDictionary
281
     1
  0
DICTIONARY
  5
1E
102
{ACAD_REACTORS
330
19
102
}
330
19
100
AcDbDictionary
281
     1
  3
Layout1
350
21
  3
Model
350
20
  0
DICTIONARY
  5
48E
102
{ACAD_REACTORS
330
19
102
}
330
19
100
AcDbDictionary
281
     1
  3
ByBlock
350
497
  3
ByLayer
350
48F
  3
Global
350
49F
  0
DICTIONARY
  5
4CD
102
{ACAD_REACTORS
330
19
102
}
330
19
100
AcDbDictionary
281
     1
  3
Standard
350
4CE
  0
DICTIONARY
  5
1B
102
{ACAD_REACTORS
330
19
102
}
330
19
100
AcDbDictionary
281
     1
  3
Standard
350
1C
  0
DICTIONARY
  5
22
102
{ACAD_REACTORS
330
19
102
}
330
19
100
AcDbDictionary
281
     1
  0
ACDBDICTIONARYWDFLT
  5
1F
102
{ACAD_REACTORS
330
19
102
}
330
19
100
AcDbDictionary
281
     1
  3
Normal
350
1D
100
AcDbDictionaryWithDefault
340
1D
  0
DICTIONARY
  5
4BB
102
{ACAD_REACTORS
330
19
102
}
330
19
100
AcDbDictionary
281
     1
  3
A0
350
4BC
  3
A1
350
4BD
  3
A2
350
4BE
  3
A3
350
4BF
  3
A4
350
4C0
  3
A5
350
4C1
  3
A6
350
4C2
  3
A7
350
4C3
  3
A8
350
4C4
  3
A9
350
4C5
  3
B0
350
4C6
  3
B1
350
4C7
  3
B2
350
4C8
  3
B3
350
4C9
  3
B4
350
4CA
  3
B5
350
4CB
  3
B6
350
4CC
  0
DICTIONARY
  5
4B9
102
{ACAD_REACTORS
330
19
102
}
330
19
100
AcDbDictionary
281
     1
  3
Standard
350
4BA
  0
DICTIONARY
  5
4A7
102
{ACAD_REACTORS
330
19
102
}
330
19
100
AcDbDictionary
281
     1
  3
2dWireframe
350
4AD
  3
3D Hidden
350
4AF
  3
3dWireframe
350
4AE
  3
Basic
350
4AC
  3
Brighten
350
4B3
  3
ColorChange
350
4B7
  3
Conceptual
350
4B0
  3
Dim
350
4B2
  3
Facepattern
350
4B6
  3
Flat
350
4A8
  3
FlatWithEdges
350
4A9
  3
Gouraud
350
4AA
  3
GouraudWithEdges
350
4AB
  3
Linepattern
350
4B5
  3
Realistic
350
4B1
  3
Thicken
350
4B4
  0
WIPEOUTVARIABLES
  5
23
330
19
100
AcDbWipeoutVariables
 70
     1
  0
XRECORD
  5
528
102
{ACAD_REACTORS
330
19
102
}
330
19
100
AcDbXrecord
280
     1
 90
        1
330
4BA
  0
DICTIONARY
  5
51E
102
{ACAD_REACTORS
330
19
102
}
330
19
100
AcDbDictionary
281
     1
  3
CANNOSCALE
350
522
  3
CMLEADERSTYLE
350
520
  3
CTABLESTYLE
350
51F
  3
LAYEREVAL
350
524
  3
LAYERNOTIFY
350
525
  3
LIGHTINGUNITS
350
523
  3
MSLTSCALE
350
521
  0
DICTIONARY
  5
4E3
102
{ACAD_REACTORS
330
19
102
}
330
19
100
AcDbDictionary
281
     1
  0
XRECORD
  5
51C
102
{ACAD_REACTORS
330
51B
102
}
330
51B
100
AcDbXrecord
280
     1
290
     1
  0
XRECORD
  5
51D
102
{ACAD_REACTORS
330
4E9
102
}
330
4E9
100
AcDbXrecord
280
     1
290
     1
  0
LAYOUT
  5
21
102
{ACAD_REACTORS
330
1E
102
}
330
1E
100
AcDbPlotSettings
  1

  2

  4

  6

 40
0.0
 41
0.0
 42
0.0
 43
0.0
 44
0.0
 45
0.0
 46
0.0
 47
0.0
 48
0.0
 49
0.0
140
0.0
141
0.0
142
1.0
143
1.0
 70
     0
 72
     0
 73
     0
 74
     0
  7

 75
     0
147
1.0
 76
     0
 77
     2
 78
   300
148
0.0
149
0.0
100
AcDbLayout
  1
Layout1
 70
     0
 71
     1
 10
0.0
 20
0.0
 11
12.0
 21
9.0
 12
0.0
 22
0.0
 32
0.0
 14
1.000000000000000E+20
 24
1.000000000000000E+20
 34
1.000000000000000E+20
 15
-1.000000000000000E+20
 25
-1.000000000000000E+20
 35
-1.000000000000000E+20
146
0.0
 13
0.0
 23
0.0
 33
0.0
 16
1.0
 26
0.0
 36
0.0
 17
0.0
 27
1.0
 37
0.0
 76
     0
330
B
  0
LAYOUT
  5
20
102
{ACAD_REACTORS
330
1E
102
}
330
1E
100
AcDbPlotSettings
  1

  2

  4

  6

 40
0.0
 41
0.0
 42
0.0
 43
0.0
 44
0.0
 45
0.0
 46
0.0
 47
0.0
 48
0.0
 49
0.0
140
0.0
141
0.0
142
1.0
143
1.0
 70
  1024
 72
     0
 73
     0
 74
     0
  7

 75
     0
147
1.0
 76
     0
 77
     2
 78
   300
148
0.0
149
0.0
100
AcDbLayout
  1
Model
 70
     0
 71
     0
 10
0.0
 20
0.0
 11
0.0
 21
0.0
 12
0.0
 22
0.0
 32
0.0
 14
0.0
 24
0.0
 34
0.0
 15
0.0
 25
0.0
 35
0.0
146
0.0
 13
0.0
 23
0.0
 33
0.0
 16
0.0
 26
0.0
 36
0.0
 17
0.0
 27
0.0
 37
0.0
 76
     0
330
A
331
15
  0
MATERIAL
  5
497
102
{ACAD_XDICTIONARY
360
498
102
}
102
{ACAD_REACTORS
330
48E
102
}
330
48E
100
AcDbMaterial
  1
ByBlock
 72
     0
 43
0.0208333333333333
 43
0.0
 43
0.0
 43
0.0
 43
0.0
 43
0.0208333333333333
 43
0.0
 43
0.0
 43
0.0
 43
0.0
 43
1.0
 43
0.0
 43
0.0
 43
0.0
 43
0.0
 43
1.0
 77
     0
 47
0.0208333333333333
 47
0.0
 47
0.0
 47
0.0
 47
0.0
 47
0.0208333333333333
 47
0.0
 47
0.0
 47
0.0
 47
0.0
 47
1.0
 47
0.0
 47
0.0
 47
0.0
 47
0.0
 47
1.0
171
     0
 49
0.0208333333333333
 49
0.0
 49
0.0
 49
0.0
 49
0.0
 49
0.0208333333333333
 49
0.0
 49
0.0
 49
0.0
 49
0.0
 49
1.0
 49
0.0
 49
0.0
 49
0.0
 49
0.0
 49
1.0
175
     0
142
0.0208333333333333
142
0.0
142
0.0
142
0.0
142
0.0
142
0.0208333333333333
142
0.0
142
0.0
142
0.0
142
0.0
142
1.0
142
0.0
142
0.0
142
0.0
142
0.0
142
1.0
179
     0
144
0.0208333333333333
144
0.0
144
0.0
144
0.0
144
0.0
144
0.0208333333333333
144
0.0
144
0.0
144
0.0
144
0.0
144
1.0
144
0.0
144
0.0
144
0.0
144
0.0
144
1.0
147
0.0208333333333333
147
0.0
147
0.0
147
0.0
147
0.0
147
0.0208333333333333
147
0.0
147
0.0
147
0.0
147
0.0
147
1.0
147
0.0
147
0.0
147
0.0
147
0.0
147
1.0
  0
MATERIAL
  5
48F
102
{ACAD_XDICTIONARY
360
490
102
}
102
{ACAD_REACTORS
330
48E
102
}
330
48E
100
AcDbMaterial
  1
ByLayer
 72
     0
 43
0.0208333333333333
 43
0.0
 43
0.0
 43
0.0
 43
0.0
 43
0.0208333333333333
 43
0.0
 43
0.0
 43
0.0
 43
0.0
 43
1.0
 43
0.0
 43
0.0
 43
0.0
 43
0.0
 43
1.0
 77
     0
 47
0.0208333333333333
 47
0.0
 47
0.0
 47
0.0
 47
0.0
 47
0.0208333333333333
 47
0.0
 47
0.0
 47
0.0
 47
0.0
 47
1.0
 47
0.0
 47
0.0
 47
0.0
 47
0.0
 47
1.0
171
     0
 49
0.0208333333333333
 49
0.0
 49
0.0
 49
0.0
 49
0.0
 49
0.0208333333333333
 49
0.0
 49
0.0
 49
0.0
 49
0.0
 49
1.0
 49
0.0
 49
0.0
 49
0.0
 49
0.0
 49
1.0
175
     0
142
0.0208333333333333
142
0.0
142
0.0
142
0.0
142
0.0
142
0.0208333333333333
142
0.0
142
0.0
142
0.0
142
0.0
142
1.0
142
0.0
142
0.0
142
0.0
142
0.0
142
1.0
179
     0
144
0.0208333333333333
144
0.0
144
0.0
144
0.0
144
0.0
144
0.0208333333333333
144
0.0
144
0.0
144
0.0
144
0.0
144
1.0
144
0.0
144
0.0
144
0.0
144
0.0
144
1.0
147
0.0208333333333333
147
0.0
147
0.0
147
0.0
147
0.0
147
0.0208333333333333
147
0.0
147
0.0
147
0.0
147
0.0
147
1.0
147
0.0
147
0.0
147
0.0
147
0.0
147
1.0
  0
MATERIAL
  5
49F
102
{ACAD_XDICTIONARY
360
4A0
102
}
102
{ACAD_REACTORS
330
48E
102
}
330
48E
100
AcDbMaterial
  1
Global
 72
     0
 43
0.0208333333333333
 43
0.0
 43
0.0
 43
0.0
 43
0.0
 43
0.0208333333333333
 43
0.0
 43
0.0
 43
0.0
 43
0.0
 43
1.0
 43
0.0
 43
0.0
 43
0.0
 43
0.0
 43
1.0
 77
     0
 47
0.0208333333333333
 47
0.0
 47
0.0
 47
0.0
 47
0.0
 47
0.0208333333333333
 47
0.0
 47
0.0
 47
0.0
 47
0.0
 47
1.0
 47
0.0
 47
0.0
 47
0.0
 47
0.0
 47
1.0
171
     0
 49
0.0208333333333333
 49
0.0
 49
0.0
 49
0.0
 49
0.0
 49
0.0208333333333333
 49
0.0
 49
0.0
 49
0.0
 49
0.0
 49
1.0
 49
0.0
 49
0.0
 49
0.0
 49
0.0
 49
1.0
175
     0
142
0.0208333333333333
142
0.0
142
0.0
142
0.0
142
0.0
142
0.0208333333333333
142
0.0
142
0.0
142
0.0
142
0.0
142
1.0
142
0.0
142
0.0
142
0.0
142
0.0
142
1.0
179
     0
144
0.0208333333333333
144
0.0
144
0.0
144
0.0
144
0.0
144
0.0208333333333333
144
0.0
144
0.0
144
0.0
144
0.0
144
1.0
144
0.0
144
0.0
144
0.0
144
0.0
144
1.0
147
0.0208333333333333
147
0.0
147
0.0
147
0.0
147
0.0
147
0.0208333333333333
147
0.0
147
0.0
147
0.0
147
0.0
147
1.0
147
0.0
147
0.0
147
0.0
147
0.0
147
1.0
  0
MLEADERSTYLE
  5
4CE
102
{ACAD_REACTORS
330
4CD
102
}
330
4CD
100
AcDbMLeaderStyle
170
     2
171
     1
172
     0
 90
        2
 40
0.0
 41
0.0
173
     1
 91
-1056964608
340
11
 92
       -2
290
     1
 42
2.0
291
     1
 43
0.36
  3
Standard
 44
4.0
300

342
17
174
     1
178
     6
175
     1
176
     0
 93
-1056964608
 45
4.0
292
     0
297
     0
 46
4.0
 94
-1056964608
 47
1.0
 49
1.0
140
1.0
293
     1
141
0.0
294
     1
177
     0
142
1.0
295
     0
296
     0
143
0.125
1001
ACAD_MLEADERVER
1070
     2
  0
MLINESTYLE
  5
1C
102
{ACAD_REACTORS
330
1B
102
}
330
1B
100
AcDbMlineStyle
  2
STANDARD
 70
     0
  3

 62
     0
 51
90.0
 52
90.0
 71
     2
 49
0.5
 62
   256
  6
BYLAYER
 49
-0.5
 62
   256
  6
BYLAYER
  0
ACDBPLACEHOLDER
  5
1D
102
{ACAD_REACTORS
330
1F
102
}
330
1F
  0
SCALE
  5
4BC
102
{ACAD_REACTORS
330
4BB
102
}
330
4BB
100
AcDbScale
 70
     0
300
1:1
140
1.0
141
1.0
290
     1
  0
SCALE
  5
4BD
102
{ACAD_REACTORS
330
4BB
102
}
330
4BB
100
AcDbScale
 70
     0
300
1:2
140
1.0
141
2.0
290
     0
  0
SCALE
  5
4BE
102
{ACAD_REACTORS
330
4BB
102
}
330
4BB
100
AcDbScale
 70
     0
300
1:4
140
1.0
141
4.0
290
     0
  0
SCALE
  5
4BF
102
{ACAD_REACTORS
330
4BB
102
}
330
4BB
100
AcDbScale
 70
     0
300
1:5
140
1.0
141
5.0
290
     0
  0
SCALE
  5
4C0
102
{ACAD_REACTORS
330
4BB
102
}
330
4BB
100
AcDbScale
 70
     0
300
1:8
140
1.0
141
8.0
290
     0
  0
SCALE
  5
4C1
102
{ACAD_REACTORS
330
4BB
102
}
330
4BB
100
AcDbScale
 70
     0
300
1:10
140
1.0
141
10.0
290
     0
  0
SCALE
  5
4C2
102
{ACAD_REACTORS
330
4BB
102
}
330
4BB
100
AcDbScale
 70
     0
300
1:16
140
1.0
141
16.0
290
     0
  0
SCALE
  5
4C3
102
{ACAD_REACTORS
330
4BB
102
}
330
4BB
100
AcDbScale
 70
     0
300
1:20
140
1.0
141
20.0
290
     0
  0
SCALE
  5
4C4
102
{ACAD_REACTORS
330
4BB
102
}
330
4BB
100
AcDbScale
 70
     0
300
1:30
140
1.0
141
30.0
290
     0
  0
SCALE
  5
4C5
102
{ACAD_REACTORS
330
4BB
102
}
330
4BB
100
AcDbScale
 70
     0
300
1:40
140
1.0
141
40.0
290
     0
  0
SCALE
  5
4C6
102
{ACAD_REACTORS
330
4BB
102
}
330
4BB
100
AcDbScale
 70
     0
300
1:50
140
1.0
141
50.0
290
     0
  0
SCALE
  5
4C7
102
{ACAD_REACTORS
330
4BB
102
}
330
4BB
100
AcDbScale
 70
     0
300
1:100
140
1.0
141
100.0
290
     0
  0
SCALE
  5
4C8
102
{ACAD_REACTORS
330
4BB
102
}
330
4BB
100
AcDbScale
 70
     0
300
2:1
140
2.0
141
1.0
290
     0
  0
SCALE
  5
4C9
102
{ACAD_REACTORS
330
4BB
102
}
330
4BB
100
AcDbScale
 70
     0
300
4:1
140
4.0
141
1.0
290
     0
  0
SCALE
  5
4CA
102
{ACAD_REACTORS
330
4BB
102
}
330
4BB
100
AcDbScale
 70
     0
300
8:1
140
8.0
141
1.0
290
     0
  0
SCALE
  5
4CB
102
{ACAD_REACTORS
330
4BB
102
}
330
4BB
100
AcDbScale
 70
     0
300
10:1
140
10.0
141
1.0
290
     0
  0
SCALE
  5
4CC
102
{ACAD_REACTORS
330
4BB
102
}
330
4BB
100
AcDbScale
 70
     0
300
100:1
140
100.0
141
1.0
290
     0
  0
TABLESTYLE
  5
4BA
102
{ACAD_XDICTIONARY
360
526
102
}
102
{ACAD_REACTORS
330
4B9
102
}
330
4B9
100
AcDbTableStyle
  3
Standard
 70
     0
 71
     0
 40
1.5
 41
1.5
280
     0
281
     0
  7
Standard
140
4.5
170
     2
 62
     0
 63
     7
283
     0
 90
      512
 91
        0
  1

274
    -2
284
     1
 64
     0
275
    -2
285
     1
 65
     0
276
    -2
286
     1
 66
     0
277
    -2
287
     1
 67
     0
278
    -2
288
     1
 68
     0
279
    -2
289
     1
 69
     0
  7
Standard
140
6.0
170
     5
 62
     0
 63
     7
283
     0
 90
      512
 91
        0
  1

274
    -2
284
     1
 64
     0
275
    -2
285
     1
 65
     0
276
    -2
286
     1
 66
     0
277
    -2
287
     1
 67
     0
278
    -2
288
     1
 68
     0
279
    -2
289
     1
 69
     0
  7
Standard
140
4.5
170
     5
 62
     0
 63
     7
283
     0
 90
      512
 91
        0
  1

274
    -2
284
     1
 64
     0
275
    -2
285
     1
 65
     0
276
    -2
286
     1
 66
     0
277
    -2
287
     1
 67
     0
278
    -2
288
     1
 68
     0
279
    -2
289
     1
 69
     0
  0
VISUALSTYLE
  5
4AD
102
{ACAD_REACTORS
330
4A7
102
}
330
4A7
100
AcDbVisualStyle
  2
2dWireframe
 70
     4
 71
     0
 72
     2
 73
     0
 90
        0
 40
-0.6
 41
-30.0
 62
     5
 63
     7
421
 16777215
 74
     1
 91
        4
 64
     7
 65
   257
 75
     1
175
     1
 42
1.0
 92
        0
 66
   257
 43
1.0
 76
     1
 77
     6
 78
     2
 67
     7
 79
     5
170
     0
171
     0
290
     0
174
     0
 93
        1
 44
0.0
173
     0
291
     0
 45
0.0
  0
VISUALSTYLE
  5
4AF
102
{ACAD_REACTORS
330
4A7
102
}
330
4A7
100
AcDbVisualStyle
  2
3D Hidden
 70
     6
 71
     1
 72
     2
 73
     2
 90
        0
 40
-0.6
 41
-30.0
 62
     5
 63
     7
421
 16777215
 74
     2
 91
        2
 64
     7
 65
   257
 75
     2
175
     1
 42
40.0
 92
        0
 66
   257
 43
1.0
 76
     1
 77
     6
 78
     2
 67
     7
 79
     3
170
     0
171
     0
290
     0
174
     0
 93
        1
 44
0.0
173
     0
291
     0
 45
0.0
  0
VISUALSTYLE
  5
4AE
102
{ACAD_REACTORS
330
4A7
102
}
330
4A7
100
AcDbVisualStyle
  2
3dWireframe
 70
     5
 71
     0
 72
     2
 73
     0
 90
        0
 40
-0.6
 41
-30.0
 62
     5
 63
     7
421
 16777215
 74
     1
 91
        4
 64
     7
 65
   257
 75
     1
175
     1
 42
1.0
 92
        0
 66
   257
 43
1.0
 76
     1
 77
     6
 78
     2
 67
     7
 79
     5
170
     0
171
     0
290
     0
174
     0
 93
        1
 44
0.0
173
     0
291
     0
 45
0.0
  0
VISUALSTYLE
  5
4AC
102
{ACAD_REACTORS
330
4A7
102
}
330
4A7
100
AcDbVisualStyle
  2
Basic
 70
     7
 71
     1
 72
     0
 73
     1
 90
        0
 40
-0.6
 41
-30.0
 62
     5
 63
     7
421
 16777215
 74
     0
 91
        4
 64
     7
 65
   257
 75
     1
175
     1
 42
1.0
 92
        8
 66
     7
 43
1.0
 76
     1
 77
     6
 78
     2
 67
     7
 79
     5
170
     0
171
     0
290
     0
174
     0
 93
        1
 44
0.0
173
     0
291
     1
 45
0.0
  0
VISUALSTYLE
  5
4B3
102
{ACAD_REACTORS
330
4A7
102
}
330
4A7
100
AcDbVisualStyle
  2
Brighten
 70
    12
 71
     2
 72
     2
 73
     0
 90
        0
 40
-0.6
 41
-30.0
 62
     5
 63
     7
421
 16777215
 74
     1
 91
        4
 64
     7
 65
   257
 75
     1
175
     1
 42
1.0
 92
        8
 66
     7
 43
1.0
 76
     1
 77
     6
 78
     2
 67
     7
 79
     5
170
     0
171
     0
290
     0
174
     0
 93
        1
 44
50.0
173
     0
291
     1
 45
0.0
  0
VISUALSTYLE
  5
4B7
102
{ACAD_REACTORS
330
4A7
102
}
330
4A7
100
AcDbVisualStyle
  2
ColorChange
 70
    16
 71
     2
 72
     2
 73
     3
 90
        0
 40
-0.6
 41
-30.0
 62
     5
 63
     8
421
  8421504
 74
     1
 91
        4
 64
     7
 65
   257
 75
     1
175
     1
 42
1.0
 92
        8
 66
     8
424
  8421504
 43
1.0
 76
     1
 77
     6
 78
     2
 67
     7
 79
     5
170
     0
171
     0
290
     0
174
     0
 93
        1
 44
0.0
173
     0
291
     1
 45
0.0
  0
VISUALSTYLE
  5
4B0
102
{ACAD_REACTORS
330
4A7
102
}
330
4A7
100
AcDbVisualStyle
  2
Conceptual
 70
     9
 71
     3
 72
     2
 73
     0
 90
        0
 40
-0.6
 41
-30.0
 62
     5
 63
     7
421
 16777215
 74
     2
 91
        2
 64
     7
 65
   257
 75
     1
175
     1
 42
40.0
 92
        8
 66
     7
 43
1.0
 76
     1
 77
     6
 78
     2
 67
     7
 79
     3
170
     0
171
     0
290
     0
174
     0
 93
        1
 44
0.0
173
     0
291
     0
 45
0.0
  0
VISUALSTYLE
  5
4B2
102
{ACAD_REACTORS
330
4A7
102
}
330
4A7
100
AcDbVisualStyle
  2
Dim
 70
    11
 71
     2
 72
     2
 73
     0
 90
        0
 40
-0.6
 41
-30.0
 62
     5
 63
     7
421
 16777215
 74
     1
 91
        4
 64
     7
 65
   257
 75
     1
175
     1
 42
1.0
 92
        8
 66
     7
 43
1.0
 76
     1
 77
     6
 78
     2
 67
     7
 79
     5
170
     0
171
     0
290
     0
174
     0
 93
        1
 44
-50.0
173
     0
291
     1
 45
0.0
  0
VISUALSTYLE
  5
4B6
102
{ACAD_REACTORS
330
4A7
102
}
330
4A7
100
AcDbVisualStyle
  2
Facepattern
 70
    15
 71
     2
 72
     2
 73
     0
 90
        0
 40
-0.6
 41
-30.0
 62
     5
 63
     7
421
 16777215
 74
     1
 91
        4
 64
     7
 65
   257
 75
     1
175
     1
 42
1.0
 92
        8
 66
     7
 43
1.0
 76
     1
 77
     6
 78
     2
 67
     7
 79
     5
170
     0
171
     0
290
     0
174
     0
 93
        1
 44
0.0
173
     0
291
     1
 45
0.0
  0
VISUALSTYLE
  5
4A8
102
{ACAD_REACTORS
330
4A7
102
}
330
4A7
100
AcDbVisualStyle
  2
Flat
 70
     0
 71
     2
 72
     1
 73
     1
 90
        2
 40
-0.6
 41
30.0
 62
     5
 63
     7
421
 16777215
 74
     0
 91
        4
 64
     7
 65
   257
 75
     1
175
     1
 42
1.0
 92
        8
 66
     7
 43
1.0
 76
     1
 77
     6
 78
     2
 67
     7
 79
     5
170
     0
171
     0
290
     0
174
     0
 93
       13
 44
0.0
173
     0
291
     1
 45
0.0
  0
VISUALSTYLE
  5
4A9
102
{ACAD_REACTORS
330
4A7
102
}
330
4A7
100
AcDbVisualStyle
  2
FlatWithEdges
 70
     1
 71
     2
 72
     1
 73
     1
 90
        2
 40
-0.6
 41
30.0
 62
     5
 63
     7
421
 16777215
 74
     1
 91
        4
 64
     7
 65
   257
 75
     1
175
     1
 42
1.0
 92
        0
 66
   257
 43
1.0
 76
     1
 77
     6
 78
     2
 67
     7
 79
     5
170
     0
171
     0
290
     0
174
     0
 93
       13
 44
0.0
173
     0
291
     1
 45
0.0
  0
VISUALSTYLE
  5
4AA
102
{ACAD_REACTORS
330
4A7
102
}
330
4A7
100
AcDbVisualStyle
  2
Gouraud
 70
     2
 71
     2
 72
     2
 73
     1
 90
        2
 40
-0.6
 41
30.0
 62
     5
 63
     7
421
 16777215
 74
     0
 91
        4
 64
     7
 65
   257
 75
     1
175
     1
 42
1.0
 92
        0
 66
     7
 43
1.0
 76
     1
 77
     6
 78
     2
 67
     7
 79
     5
170
     0
171
     0
290
     0
174
     0
 93
       13
 44
0.0
173
     0
291
     1
 45
0.0
  0
VISUALSTYLE
  5
4AB
102
{ACAD_REACTORS
330
4A7
102
}
330
4A7
100
AcDbVisualStyle
  2
GouraudWithEdges
 70
     3
 71
     2
 72
     2
 73
     1
 90
        2
 40
-0.6
 41
30.0
 62
     5
 63
     7
421
 16777215
 74
     1
 91
        4
 64
     7
 65
   257
 75
     1
175
     1
 42
1.0
 92
        0
 66
   257
 43
1.0
 76
     1
 77
     6
 78
     2
 67
     7
 79
     5
170
     0
171
     0
290
     0
174
     0
 93
       13
 44
0.0
173
     0
291
     1
 45
0.0
  0
VISUALSTYLE
  5
4B5
102
{ACAD_REACTORS
330
4A7
102
}
330
4A7
100
AcDbVisualStyle
  2
Linepattern
 70
    14
 71
     2
 72
     2
 73
     0
 90
        0
 40
-0.6
 41
-30.0
 62
     5
 63
     7
421
 16777215
 74
     1
 91
        4
 64
     7
 65
   257
 75
     7
175
     7
 42
1.0
 92
        8
 66
     7
 43
1.0
 76
     1
 77
     6
 78
     2
 67
     7
 79
     5
170
     0
171
     0
290
     0
174
     0
 93
        1
 44
0.0
173
     0
291
     1
 45
0.0
  0
VISUALSTYLE
  5
4B1
102
{ACAD_REACTORS
330
4A7
102
}
330
4A7
100
AcDbVisualStyle
  2
Realistic
 70
     8
 71
     2
 72
     2
 73
     0
 90
        0
 40
-0.6
 41
-30.0
 62
     5
 63
     7
421
 16777215
 74
     1
 91
        0
 64
     7
 65
   257
 75
     1
175
     1
 42
1.0
 92
        8
 66
     8
424
  7895160
 43
1.0
 76
     1
 77
     6
 78
     2
 67
     7
 79
     5
170
     0
171
     0
290
     0
174
     0
 93
       13
 44
0.0
173
     0
291
     0
 45
0.0
  0
VISUALSTYLE
  5
4B4
102
{ACAD_REACTORS
330
4A7
102
}
330
4A7
100
AcDbVisualStyle
  2
Thicken
 70
    13
 71
     2
 72
     2
 73
     0
 90
        0
 40
-0.6
 41
-30.0
 62
     5
 63
     7
421
 16777215
 74
     1
 91
        4
 64
     7
 65
   257
 75
     1
175
     1
 42
1.0
 92
       12
 66
     7
 43
1.0
 76
     1
 77
     6
 78
     2
 67
     7
 79
     5
170
     0
171
     0
290
     0
174
     0
 93
        1
 44
0.0
173
     0
291
     1
 45
0.0
  0
DICTIONARYVAR
  5
522
102
{ACAD_REACTORS
330
51E
102
}
330
51E
100
DictionaryVariables
280
     0
  1
1:1
  0
DICTIONARYVAR
  5
520
102
{ACAD_REACTORS
330
51E
102
}
330
51E
100
DictionaryVariables
280
     0
  1
STANDARD
  0
DICTIONARYVAR
  5
51F
102
{ACAD_REACTORS
330
51E
102
}
330
51E
100
DictionaryVariables
280
     0
  1
STANDARD
  0
DICTIONARYVAR
  5
524
102
{ACAD_REACTORS
330
51E
102
}
330
51E
100
DictionaryVariables
280
     0
  1
1
  0
DICTIONARYVAR
  5
525
102
{ACAD_REACTORS
330
51E
102
}
330
51E
100
DictionaryVariables
280
     0
  1
15
  0
DICTIONARYVAR
  5
523
102
{ACAD_REACTORS
330
51E
102
}
330
51E
100
DictionaryVariables
280
     0
  1
0
  0
DICTIONARYVAR
  5
521
102
{ACAD_REACTORS
330
51E
102
}
330
51E
100
DictionaryVariables
280
     0
  1
0
  0
DICTIONARY
  5
498
330
497
100
AcDbDictionary
280
     1
281
     1
  3
BUMPTILE
360
49A
  3
DIFFUSETILE
360
499
  3
OPACITYTILE
360
49D
  3
REFLECTIONTILE
360
49C
  3
REFRACTIONTILE
360
49E
  3
SPECULARTILE
360
49B
  0
DICTIONARY
  5
490
330
48F
100
AcDbDictionary
280
     1
281
     1
  3
BUMPTILE
360
492
  3
DIFFUSETILE
360
491
  3
OPACITYTILE
360
495
  3
REFLECTIONTILE
360
494
  3
REFRACTIONTILE
360
496
  3
SPECULARTILE
360
493
  0
DICTIONARY
  5
4A0
330
49F
100
AcDbDictionary
280
     1
281
     1
  3
BUMPTILE
360
4A2
  3
DIFFUSETILE
360
4A1
  3
OPACITYTILE
360
4A5
  3
REFLECTIONTILE
360
4A4
  3
REFRACTIONTILE
360
4A6
  3
SPECULARTILE
360
4A3
  0
DICTIONARY
  5
526
330
4BA
100
AcDbDictionary
280
     1
281
     1
  3
ACAD_ROUNDTRIP_2008_TABLESTYLE_CELLSTYLEMAP
360
527
  0
XRECORD
  5
49A
102
{ACAD_REACTORS
330
498
102
}
330
498
100
AcDbXrecord
280
     1
270
     1
271
     1
  0
XRECORD
  5
499
102
{ACAD_REACTORS
330
498
102
}
330
498
100
AcDbXrecord
280
     1
270
     1
271
     1
  0
XRECORD
  5
49D
102
{ACAD_REACTORS
330
498
102
}
330
498
100
AcDbXrecord
280
     1
270
     1
271
     1
  0
XRECORD
  5
49C
102
{ACAD_REACTORS
330
498
102
}
330
498
100
AcDbXrecord
280
     1
270
     1
271
     1
  0
XRECORD
  5
49E
102
{ACAD_REACTORS
330
498
102
}
330
498
100
AcDbXrecord
280
     1
270
     1
271
     1
  0
XRECORD
  5
49B
102
{ACAD_REACTORS
330
498
102
}
330
498
100
AcDbXrecord
280
     1
270
     1
271
     1
  0
XRECORD
  5
492
102
{ACAD_REACTORS
330
490
102
}
330
490
100
AcDbXrecord
280
     1
270
     1
271
     1
  0
XRECORD
  5
491
102
{ACAD_REACTORS
330
490
102
}
330
490
100
AcDbXrecord
280
     1
270
     1
271
     1
  0
XRECORD
  5
495
102
{ACAD_REACTORS
330
490
102
}
330
490
100
AcDbXrecord
280
     1
270
     1
271
     1
  0
XRECORD
  5
494
102
{ACAD_REACTORS
330
490
102
}
330
490
100
AcDbXrecord
280
     1
270
     1
271
     1
  0
XRECORD
  5
496
102
{ACAD_REACTORS
330
490
102
}
330
490
100
AcDbXrecord
280
     1
270
     1
271
     1
  0
XRECORD
  5
493
102
{ACAD_REACTORS
330
490
102
}
330
490
100
AcDbXrecord
280
     1
270
     1
271
     1
  0
XRECORD
  5
4A2
102
{ACAD_REACTORS
330
4A0
102
}
330
4A0
100
AcDbXrecord
280
     1
270
     1
271
     1
  0
XRECORD
  5
4A1
102
{ACAD_REACTORS
330
4A0
102
}
330
4A0
100
AcDbXrecord
280
     1
270
     1
271
     1
  0
XRECORD
  5
4A5
102
{ACAD_REACTORS
330
4A0
102
}
330
4A0
100
AcDbXrecord
280
     1
270
     1
271
     1
  0
XRECORD
  5
4A4
102
{ACAD_REACTORS
330
4A0
102
}
330
4A0
100
AcDbXrecord
280
     1
270
     1
271
     1
  0
XRECORD
  5
4A6
102
{ACAD_REACTORS
330
4A0
102
}
330
4A0
100
AcDbXrecord
280
     1
270
     1
271
     1
  0
XRECORD
  5
4A3
102
{ACAD_REACTORS
330
4A0
102
}
330
4A0
100
AcDbXrecord
280
     1
270
     1
271
     1
  0
CELLSTYLEMAP
  5
527
102
{ACAD_REACTORS
330
526
102
}
330
526
100
AcDbCellStyleMap
 90
        3
300
CELLSTYLE
  1
TABLEFORMAT_BEGIN
 90
        5
170
     1
 91
        0
 92
    32768
 62
   257
 93
        1
300
CONTENTFORMAT
  1
CONTENTFORMAT_BEGIN
 90
        0
 91
        0
 92
      512
 93
        0
300

 40
0.0
140
1.0
 94
        5
 62
     0
340
17
144
6.0
309
CONTENTFORMAT_END
171
     1
301
MARGIN
  1
CELLMARGIN_BEGIN
 40
1.5
 40
1.5
 40
1.5
 40
1.5
 40
4.5
 40
4.5
309
CELLMARGIN_END
 94
        6
 95
        1
302
GRIDFORMAT
  1
GRIDFORMAT_BEGIN
 90
        0
 91
        1
 62
     0
 92
       -2
340
0
 93
        0
 40
1.125
309
GRIDFORMAT_END
 95
        2
302
GRIDFORMAT
  1
GRIDFORMAT_BEGIN
 90
        0
 91
        1
 62
     0
 92
       -2
340
0
 93
        0
 40
1.125
309
GRIDFORMAT_END
 95
        4
302
GRIDFORMAT
  1
GRIDFORMAT_BEGIN
 90
        0
 91
        1
 62
     0
 92
       -2
340
0
 93
        0
 40
1.125
309
GRIDFORMAT_END
 95
        8
302
GRIDFORMAT
  1
GRIDFORMAT_BEGIN
 90
        0
 91
        1
 62
     0
 92
       -2
340
0
 93
        0
 40
1.125
309
GRIDFORMAT_END
 95
       16
302
GRIDFORMAT
  1
GRIDFORMAT_BEGIN
 90
        0
 91
        1
 62
     0
 92
       -2
340
0
 93
        0
 40
1.125
309
GRIDFORMAT_END
 95
       32
302
GRIDFORMAT
  1
GRIDFORMAT_BEGIN
 90
        0
 91
        1
 62
     0
 92
       -2
340
0
 93
        0
 40
1.125
309
GRIDFORMAT_END
309
TABLEFORMAT_END
  1
CELLSTYLE_BEGIN
 90
        1
 91
        1
300
_TITLE
309
CELLSTYLE_END
300
CELLSTYLE
  1
TABLEFORMAT_BEGIN
 90
        5
170
     1
 91
        0
 92
        0
 62
   257
 93
        1
300
CONTENTFORMAT
  1
CONTENTFORMAT_BEGIN
 90
        0
 91
        0
 92
      512
 93
        0
300

 40
0.0
140
1.0
 94
        5
 62
     0
340
17
144
4.5
309
CONTENTFORMAT_END
171
     1
301
MARGIN
  1
CELLMARGIN_BEGIN
 40
1.5
 40
1.5
 40
1.5
 40
1.5
 40
4.5
 40
4.5
309
CELLMARGIN_END
 94
        6
 95
        1
302
GRIDFORMAT
  1
GRIDFORMAT_BEGIN
 90
        0
 91
        1
 62
     0
 92
       -2
340
0
 93
        0
 40
1.125
309
GRIDFORMAT_END
 95
        2
302
GRIDFORMAT
  1
GRIDFORMAT_BEGIN
 90
        0
 91
        1
 62
     0
 92
       -2
340
0
 93
        0
 40
1.125
309
GRIDFORMAT_END
 95
        4
302
GRIDFORMAT
  1
GRIDFORMAT_BEGIN
 90
        0
 91
        1
 62
     0
 92
       -2
340
0
 93
        0
 40
1.125
309
GRIDFORMAT_END
 95
        8
302
GRIDFORMAT
  1
GRIDFORMAT_BEGIN
 90
        0
 91
        1
 62
     0
 92
       -2
340
0
 93
        0
 40
1.125
309
GRIDFORMAT_END
 95
       16
302
GRIDFORMAT
  1
GRIDFORMAT_BEGIN
 90
        0
 91
        1
 62
     0
 92
       -2
340
0
 93
        0
 40
1.125
309
GRIDFORMAT_END
 95
       32
302
GRIDFORMAT
  1
GRIDFORMAT_BEGIN
 90
        0
 91
        1
 62
     0
 92
       -2
340
0
 93
        0
 40
1.125
309
GRIDFORMAT_END
309
TABLEFORMAT_END
  1
CELLSTYLE_BEGIN
 90
        2
 91
        1
300
_HEADER
309
CELLSTYLE_END
300
CELLSTYLE
  1
TABLEFORMAT_BEGIN
 90
        5
170
     1
 91
        0
 92
        0
 62
   257
 93
        1
300
CONTENTFORMAT
  1
CONTENTFORMAT_BEGIN
 90
        0
 91
        0
 92
      512
 93
        0
300

 40
0.0
140
1.0
 94
        2
 62
     0
340
17
144
4.5
309
CONTENTFORMAT_END
171
     1
301
MARGIN
  1
CELLMARGIN_BEGIN
 40
1.5
 40
1.5
 40
1.5
 40
1.5
 40
4.5
 40
4.5
309
CELLMARGIN_END
 94
        6
 95
        1
302
GRIDFORMAT
  1
GRIDFORMAT_BEGIN
 90
        0
 91
        1
 62
     0
 92
       -2
340
0
 93
        0
 40
1.125
309
GRIDFORMAT_END
 95
        2
302
GRIDFORMAT
  1
GRIDFORMAT_BEGIN
 90
        0
 91
        1
 62
     0
 92
       -2
340
0
 93
        0
 40
1.125
309
GRIDFORMAT_END
 95
        4
302
GRIDFORMAT
  1
GRIDFORMAT_BEGIN
 90
        0
 91
        1
 62
     0
 92
       -2
340
0
 93
        0
 40
1.125
309
GRIDFORMAT_END
 95
        8
302
GRIDFORMAT
  1
GRIDFORMAT_BEGIN
 90
        0
 91
        1
 62
     0
 92
       -2
340
0
 93
        0
 40
1.125
309
GRIDFORMAT_END
 95
       16
302
GRIDFORMAT
  1
GRIDFORMAT_BEGIN
 90
        0
 91
        1
 62
     0
 92
       -2
340
0
 93
        0
 40
1.125
309
GRIDFORMAT_END
 95
       32
302
GRIDFORMAT
  1
GRIDFORMAT_BEGIN
 90
        0
 91
        1
 62
     0
 92
       -2
340
0
 93
        0
 40
1.125
309
GRIDFORMAT_END
309
TABLEFORMAT_END
  1
CELLSTYLE_BEGIN
 90
        3
 91
        2
300
_DATA
309
CELLSTYLE_END
  0
ENDSEC
  0
EOF
