  0
SECTION
  2
HEADER
  9
$ACADVER
  1
AC1021
  9
$ACADMAINTVER
 70
    50
  9
$DWGCODEPAGE
  3
ANSI_1252
  9
$LASTSAVEDBY
  1
François
  9
$INSBASE
 10
169.44995
 20
92.67031199999999
 30
0.0
  9
$EXTMIN
 10
119.637835277716
 20
70.75952672873057
 30
-0.0015258207003583
  9
$EXTMAX
 10
231.449924
 20
276.8977259900475
 30
0.0000000349246037
  9
$LIMMIN
 10
169.437375
 20
70.75227099999999
  9
$LIMMAX
 10
230.562326
 20
229.248022
  9
$ORTHOMODE
 70
     0
  9
$REGENMODE
 70
     1
  9
$FILLMODE
 70
     1
  9
$QTEXTMODE
 70
     0
  9
$MIRRTEXT
 70
     1
  9
$LTSCALE
 40
1.0
  9
$ATTMODE
 70
     1
  9
$TEXTSIZE
 40
0.0
  9
$TRACEWID
 40
0.05
  9
$TEXTSTYLE
  7
Standard
  9
$CLAYER
  8
Cotation-JacobDelafon
  9
$CELTYPE
  6
Continuous
  9
$CECOLOR
 62
   256
  9
$CELTSCALE
 40
1.0
  9
$DISPSILH
 70
     0
  9
$DIMSCALE
 40
1.0
  9
$DIMASZ
 40
1.8
  9
$DIMEXO
 40
0.625
  9
$DIMDLI
 40
3.799999999999998
  9
$DIMRND
 40
0.0
  9
$DIMDLE
 40
0.0
  9
$DIMEXE
 40
1.8
  9
$DIMTP
 40
0.0
  9
$DIMTM
 40
0.0
  9
$DIMTXT
 40
3.0
  9
$DIMCEN
 40
0.9
  9
$DIMTSZ
 40
0.0
  9
$DIMTOL
 70
     0
  9
$DIMLIM
 70
     0
  9
$DIMTIH
 70
     0
  9
$DIMTOH
 70
     0
  9
$DIMSE1
 70
     0
  9
$DIMSE2
 70
     0
  9
$DIMTAD
 70
     1
  9
$DIMZIN
 70
    12
  9
$DIMBLK
  1
Oblique
  9
$DIMASO
 70
     1
  9
$DIMSHO
 70
     1
  9
$DIMPOST
  1

  9
$DIMAPOST
  1

  9
$DIMALT
 70
     0
  9
$DIMALTD
 70
     2
  9
$DIMALTF
 40
25.4
  9
$DIMLFAC
 40
1.0
  9
$DIMTOFL
 70
     0
  9
$DIMTVP
 40
0.0
  9
$DIMTIX
 70
     0
  9
$DIMSOXD
 70
     0
  9
$DIMSAH
 70
     0
  9
$DIMBLK1
  1

  9
$DIMBLK2
  1

  9
$DIMSTYLE
  2
Cotation-Jacob-Delafon
  9
$DIMCLRD
 70
     0
  9
$DIMCLRE
 70
     0
  9
$DIMCLRT
 70
     0
  9
$DIMTFAC
 40
1.0
  9
$DIMGAP
 40
0.9
  9
$DIMJUST
 70
     0
  9
$DIMSD1
 70
     0
  9
$DIMSD2
 70
     0
  9
$DIMTOLJ
 70
     1
  9
$DIMTZIN
 70
     0
  9
$DIMALTZ
 70
     0
  9
$DIMALTTZ
 70
     0
  9
$DIMUPT
 70
     0
  9
$DIMDEC
 70
     2
  9
$DIMTDEC
 70
     2
  9
$DIMALTU
 70
     2
  9
$DIMALTTD
 70
     2
  9
$DIMTXSTY
  7
Jacob-Delafon
  9
$DIMAUNIT
 70
     0
  9
$DIMADEC
 70
     0
  9
$DIMALTRND
 40
0.0
  9
$DIMAZIN
 70
     3
  9
$DIMDSEP
 70
    46
  9
$DIMATFIT
 70
     3
  9
$DIMFRAC
 70
     0
  9
$DIMLDRBLK
  1
Oblique
  9
$DIMLUNIT
 70
     2
  9
$DIMLWD
 70
    -2
  9
$DIMLWE
 70
    -2
  9
$DIMTMOVE
 70
     2
  9
$DIMFXL
 40
1.0
  9
$DIMFXLON
 70
     0
  9
$DIMJOGANG
 40
0.7853981633974483
  9
$DIMTFILL
 70
     0
  9
$DIMTFILLCLR
 70
     0
  9
$DIMARCSYM
 70
     0
  9
$DIMLTYPE
  6

  9
$DIMLTEX1
  6

  9
$DIMLTEX2
  6

  9
$LUNITS
 70
     2
  9
$LUPREC
 70
     4
  9
$SKETCHINC
 40
0.1
  9
$FILLETRAD
 40
0.0
  9
$AUNITS
 70
     0
  9
$AUPREC
 70
     0
  9
$MENU
  1
acad
  9
$ELEVATION
 40
0.0
  9
$PELEVATION
 40
0.0
  9
$THICKNESS
 40
0.0
  9
$LIMCHECK
 70
     0
  9
$CHAMFERA
 40
0.0
  9
$CHAMFERB
 40
0.0
  9
$CHAMFERC
 40
0.0
  9
$CHAMFERD
 40
0.0
  9
$SKPOLY
 70
     0
  9
$TDCREATE
 40
2455398.597504514
  9
$TDUCREATE
 40
2455398.514171181
  9
$TDUPDATE
 40
2455398.605688114
  9
$TDUUPDATE
 40
2455398.522354780
  9
$TDINDWG
 40
0.0081853935
  9
$TDUSRTIMER
 40
0.0081852199
  9
$USRTIMER
 70
     1
  9
$ANGBASE
 50
0.0
  9
$ANGDIR
 70
     0
  9
$PDMODE
 70
     0
  9
$PDSIZE
 40
0.0
  9
$PLINEWID
 40
0.0
  9
$SPLFRAME
 70
     0
  9
$SPLINETYPE
 70
     6
  9
$SPLINESEGS
 70
     8
  9
$HANDSEED
  5
4FE
  9
$SURFTAB1
 70
     6
  9
$SURFTAB2
 70
     6
  9
$SURFTYPE
 70
     6
  9
$SURFU
 70
     6
  9
$SURFV
 70
     6
  9
$UCSBASE
  2

  9
$UCSNAME
  2

  9
$UCSORG
 10
0.0
 20
0.0
 30
0.0
  9
$UCSXDIR
 10
1.0
 20
0.0
 30
0.0
  9
$UCSYDIR
 10
0.0
 20
1.0
 30
0.0
  9
$UCSORTHOREF
  2

  9
$UCSORTHOVIEW
 70
     0
  9
$UCSORGTOP
 10
0.0
 20
0.0
 30
0.0
  9
$UCSORGBOTTOM
 10
0.0
 20
0.0
 30
0.0
  9
$UCSORGLEFT
 10
0.0
 20
0.0
 30
0.0
  9
$UCSORGRIGHT
 10
0.0
 20
0.0
 30
0.0
  9
$UCSORGFRONT
 10
0.0
 20
0.0
 30
0.0
  9
$UCSORGBACK
 10
0.0
 20
0.0
 30
0.0
  9
$PUCSBASE
  2

  9
$PUCSNAME
  2

  9
$PUCSORG
 10
0.0
 20
0.0
 30
0.0
  9
$PUCSXDIR
 10
1.0
 20
0.0
 30
0.0
  9
$PUCSYDIR
 10
0.0
 20
1.0
 30
0.0
  9
$PUCSORTHOREF
  2

  9
$PUCSORTHOVIEW
 70
     0
  9
$PUCSORGTOP
 10
0.0
 20
0.0
 30
0.0
  9
$PUCSORGBOTTOM
 10
0.0
 20
0.0
 30
0.0
  9
$PUCSORGLEFT
 10
0.0
 20
0.0
 30
0.0
  9
$PUCSORGRIGHT
 10
0.0
 20
0.0
 30
0.0
  9
$PUCSORGFRONT
 10
0.0
 20
0.0
 30
0.0
  9
$PUCSORGBACK
 10
0.0
 20
0.0
 30
0.0
  9
$USERI1
 70
     0
  9
$USERI2
 70
     0
  9
$USERI3
 70
     0
  9
$USERI4
 70
     0
  9
$USERI5
 70
     0
  9
$USERR1
 40
0.0
  9
$USERR2
 40
0.0
  9
$USERR3
 40
0.0
  9
$USERR4
 40
0.0
  9
$USERR5
 40
0.0
  9
$WORLDVIEW
 70
     1
  9
$SHADEDGE
 70
     3
  9
$SHADEDIF
 70
    70
  9
$TILEMODE
 70
     1
  9
$MAXACTVP
 70
    16
  9
$PINSBASE
 10
0.0
 20
0.0
 30
0.0
  9
$PLIMCHECK
 70
     0
  9
$PEXTMIN
 10
1.000000000000000E+20
 20
1.000000000000000E+20
 30
1.000000000000000E+20
  9
$PEXTMAX
 10
-1.000000000000000E+20
 20
-1.000000000000000E+20
 30
-1.000000000000000E+20
  9
$PLIMMIN
 10
0.0
 20
0.0
  9
$PLIMMAX
 10
12.0
 20
9.0
  9
$UNITMODE
 70
     0
  9
$VISRETAIN
 70
     0
  9
$PLINEGEN
 70
     1
  9
$PSLTSCALE
 70
     0
  9
$TREEDEPTH
 70
  3020
  9
$CMLSTYLE
  2
Standard
  9
$CMLJUST
 70
     0
  9
$CMLSCALE
 40
1.0
  9
$PROXYGRAPHICS
 70
     0
  9
$MEASUREMENT
 70
     1
  9
$CELWEIGHT
370
     0
  9
$ENDCAPS
280
     0
  9
$JOINSTYLE
280
     0
  9
$LWDISPLAY
290
     0
  9
$INSUNITS
 70
     0
  9
$HYPERLINKBASE
  1

  9
$STYLESHEET
  1

  9
$XEDIT
290
     1
  9
$CEPSNTYPE
380
     0
  9
$PSTYLEMODE
290
     1
  9
$FINGERPRINTGUID
  2

  9
$VERSIONGUID
  2
{54B9CB82-9871-4212-B39C-3C22BABAA7A2}
  9
$EXTNAMES
290
     1
  9
$PSVPSCALE
 40
0.0
  9
$OLESTARTUP
290
     0
  9
$SORTENTS
280
   127
  9
$INDEXCTL
280
     0
  9
$HIDETEXT
280
     0
  9
$XCLIPFRAME
290
     0
  9
$HALOGAP
280
     0
  9
$OBSCOLOR
 70
   257
  9
$OBSLTYPE
280
     0
  9
$INTERSECTIONDISPLAY
280
     0
  9
$INTERSECTIONCOLOR
 70
   257
  9
$DIMASSOC
280
     1
  9
$PROJECTNAME
  1

  9
$CAMERADISPLAY
290
     0
  9
$LENSLENGTH
 40
50.0
  9
$CAMERAHEIGHT
 40
0.0
  9
$STEPSPERSEC
 40
2.0
  9
$STEPSIZE
 40
6.0
  9
$3DDWFPREC
 40
2.0
  9
$PSOLWIDTH
 40
0.25
  9
$PSOLHEIGHT
 40
4.0
  9
$LOFTANG1
 40
1.570796326794896
  9
$LOFTANG2
 40
1.570796326794896
  9
$LOFTMAG1
 40
0.0
  9
$LOFTMAG2
 40
0.0
  9
$LOFTPARAM
 70
     7
  9
$LOFTNORMALS
280
     1
  9
$LATITUDE
 40
37.795
  9
$LONGITUDE
 40
-122.394
  9
$NORTHDIRECTION
 40
0.0
  9
$TIMEZONE
 70
 -8000
  9
$LIGHTGLYPHDISPLAY
280
     1
  9
$TILEMODELIGHTSYNCH
280
     1
  9
$CMATERIAL
347
459
  9
$SOLIDHIST
280
     1
  9
$SHOWHIST
280
     1
  9
$DWFFRAME
280
     2
  9
$DGNFRAME
280
     0
  9
$REALWORLDSCALE
290
     1
  9
$INTERFERECOLOR
 62
     1
  9
$INTERFEREOBJVS
345
47B
  9
$INTERFEREVPVS
346
478
  9
$CSHADOW
280
     0
  9
$SHADOWPLANELOCATION
 40
0.0
  0
ENDSEC
  0
SECTION
  2
CLASSES
  0
CLASS
  1
IMAGE
  2
AcDbRasterImage
  3
ISM
 90
     2175
 91
        0
280
     0
281
     1
  0
CLASS
  1
DICTIONARYVAR
  2
AcDbDictionaryVar
  3
ObjectDBX Classes
 90
        0
 91
        7
280
     0
281
     0
  0
CLASS
  1
RASTERVARIABLES
  2
AcDbRasterVariables
  3
ISM
 90
        0
 91
        0
280
     0
281
     0
  0
CLASS
  1
IMAGEDEF
  2
AcDbRasterImageDef
  3
ISM
 90
        0
 91
        0
280
     0
281
     0
  0
CLASS
  1
IMAGEDEF_REACTOR
  2
AcDbRasterImageDefReactor
  3
ISM
 90
        1
 91
        0
280
     0
281
     0
  0
CLASS
  1
IDBUFFER
  2
AcDbIdBuffer
  3
ObjectDBX Classes
 90
        0
 91
        0
280
     0
281
     0
  0
CLASS
  1
SPATIAL_FILTER
  2
AcDbSpatialFilter
  3
ObjectDBX Classes
 90
        0
 91
        0
280
     0
281
     0
  0
CLASS
  1
SORTENTSTABLE
  2
AcDbSortentsTable
  3
ObjectDBX Classes
 90
        0
 91
        0
280
     0
281
     0
  0
CLASS
  1
LAYER_INDEX
  2
AcDbLayerIndex
  3
ObjectDBX Classes
 90
        0
 91
        0
280
     0
281
     0
  0
CLASS
  1
SPATIAL_INDEX
  2
AcDbSpatialIndex
  3
ObjectDBX Classes
 90
        0
 91
        0
280
     0
281
     0
  0
CLASS
  1
OBJECT_PTR
  2
CAseDLPNTableRecord
  3
"ASE-LPNTableRecord"
 90
        1
 91
        0
280
     0
281
     0
  0
CLASS
  1
PLOTSETTINGS
  2
AcDbPlotSettings
  3
ObjectDBX Classes
 90
        0
 91
        0
280
     0
281
     0
  0
CLASS
  1
ACDBDICTIONARYWDFLT
  2
AcDbDictionaryWithDefault
  3
ObjectDBX Classes
 90
        0
 91
        1
280
     0
281
     0
  0
CLASS
  1
WIPEOUT
  2
AcDbWipeout
  3
"WipeOut|Product Desc: Object Enabler for WipeOut entity                        |Company: Autodesk, Inc.                        |WEB Address: www.autodesk.com"
 90
     2175
 91
        0
280
     0
281
     1
  0
CLASS
  1
WIPEOUTVARIABLES
  2
AcDbWipeoutVariables
  3
"WipeOut|Product Desc:     WipeOut Dbx Application|Company:          Autodesk, Inc.|WEB Address:      www.autodesk.com"
 90
        0
 91
        1
280
     0
281
     0
  0
CLASS
  1
RTEXT
  2
RText
  3
RText|AutoCAD Express Tool|expresstools@autodesk.com
 90
        0
 91
        0
280
     0
281
     1
  0
CLASS
  1
ARCALIGNEDTEXT
  2
AcDbArcAlignedText
  3
ATEXT|AutoCAD Express Tool|expresstools@autodesk.com
 90
        0
 91
        0
280
     0
281
     1
  0
CLASS
  1
MATERIAL
  2
AcDbMaterial
  3
ObjectDBX Classes
 90
     1153
 91
        3
280
     0
281
     0
  0
CLASS
  1
VISUALSTYLE
  2
AcDbVisualStyle
  3
ObjectDBX Classes
 90
     4095
 91
       16
280
     0
281
     0
  0
CLASS
  1
TABLESTYLE
  2
AcDbTableStyle
  3
ObjectDBX Classes
 90
     4095
 91
        1
280
     0
281
     0
  0
CLASS
  1
SCALE
  2
AcDbScale
  3
ObjectDBX Classes
 90
     1153
 91
       17
280
     0
281
     0
  0
CLASS
  1
MLEADERSTYLE
  2
AcDbMLeaderStyle
  3
ACDB_MLEADERSTYLE_CLASS
 90
     4095
 91
        1
280
     0
281
     0
  0
CLASS
  1
AEC_REFEDIT_STATUS_TRACKER
  2
AecDbRefEditStatusTracker
  3
AecArchBase50|Product Desc: Autodesk Architectural Desktop 2007 |Company: Autodesk,Inc. |WEB Address: www.autodesk.com
 90
      129
 91
        1
280
     0
281
     0
  0
CLASS
  1
NPOCOLLECTION
  2
AcDbImpNonPersistentObjectsCollection
  3
ObjectDBX Classes
 90
     1153
 91
        1
280
     0
281
     0
  0
CLASS
  1
CELLSTYLEMAP
  2
AcDbCellStyleMap
  3
ObjectDBX Classes
 90
     1152
 91
        1
280
     0
281
     0
  0
ENDSEC
  0
SECTION
  2
TABLES
  0
TABLE
  2
VPORT
  5
7
330
0
100
AcDbSymbolTable
 70
     1
  0
VPORT
  5
15
330
7
100
AcDbSymbolTableRecord
100
AcDbViewportTableRecord
  2
*ACTIVE
 70
     0
 10
0.0
 20
0.0
 11
1.0
 21
1.0
 12
161.3046182637044
 22
192.4069292543443
 13
0.0
 23
0.0
 14
1.0
 24
1.0
 15
0.0
 25
0.0
 16
0.0
 26
0.0
 36
1.0
 17
0.0
 27
0.0
 37
0.0
 40
254.5099959165621
 41
1.31063829787234
 42
50.0
 43
0.0
 44
0.0
 50
0.0
 51
0.0
 71
     0
 72
   100
 73
     1
 74
     1
 75
     0
 76
     0
 77
     0
 78
     0
281
     0
 65
     0
110
0.0
120
0.0
130
0.0
111
1.0
121
0.0
131
0.0
112
0.0
122
1.0
132
0.0
 79
     0
146
0.0
348
477
 60
     3
 61
     5
292
     1
282
     1
141
0.0
142
0.0
 63
   250
421
  3355443
  0
ENDTAB
  0
TABLE
  2
LTYPE
  5
4
330
0
100
AcDbSymbolTable
 70
     1
  0
LTYPE
  5
11
330
4
100
AcDbSymbolTableRecord
100
AcDbLinetypeTableRecord
  2
ByBlock
 70
     0
  3

 72
    65
 73
     0
 40
0.0
  0
LTYPE
  5
12
330
4
100
AcDbSymbolTableRecord
100
AcDbLinetypeTableRecord
  2
ByLayer
 70
     0
  3

 72
    65
 73
     0
 40
0.0
  0
LTYPE
  5
13
330
4
100
AcDbSymbolTableRecord
100
AcDbLinetypeTableRecord
  2
Continuous
 70
     0
  3
Solid line
 72
    65
 73
     0
 40
0.0
  0
ENDTAB
  0
TABLE
  2
LAYER
  5
2
102
{ACAD_XDICTIONARY
360
4E5
102
}
330
0
100
AcDbSymbolTable
 70
     3
  0
LAYER
  5
14
102
{ACAD_XDICTIONARY
360
4F0
102
}
330
2
100
AcDbSymbolTableRecord
100
AcDbLayerTableRecord
  2
0
 70
     0
 62
     7
  6
Continuous
370
    -3
390
1D
347
469
  0
LAYER
  5
4A4
330
2
100
AcDbSymbolTableRecord
100
AcDbLayerTableRecord
  2
Defpoints
 70
     0
 62
     7
  6
Continuous
290
     0
370
    -3
390
1D
347
469
  0
LAYER
  5
4B2
102
{ACAD_XDICTIONARY
360
4B3
102
}
330
2
100
AcDbSymbolTableRecord
100
AcDbLayerTableRecord
  2
Cotation-JacobDelafon
 70
     0
 62
     8
  6
Continuous
370
    -3
390
1D
347
469
  0
ENDTAB
  0
TABLE
  2
STYLE
  5
3
330
0
100
AcDbSymbolTable
 70
     7
  0
STYLE
  5
17
330
3
100
AcDbSymbolTableRecord
100
AcDbTextStyleTableRecord
  2
Standard
 70
     0
 40
0.0
 41
1.0
 50
0.0
 71
     0
 42
0.0
  3
txt
  4

  0
STYLE
  5
24
330
3
100
AcDbSymbolTableRecord
100
AcDbTextStyleTableRecord
  2
STD
 70
     0
 40
0.0
 41
1.0
 50
0.0
 71
     0
 42
0.0
  3
txt
  4

  0
STYLE
  5
25
330
3
100
AcDbSymbolTableRecord
100
AcDbTextStyleTableRecord
  2
TATESTD
 70
     4
 40
0.0
 41
1.0
 50
0.0
 71
     0
 42
0.0
  3
txt
  4

  0
STYLE
  5
26
330
3
100
AcDbSymbolTableRecord
100
AcDbTextStyleTableRecord
  2
KANJISTD
 70
     0
 40
0.0
 41
1.0
 50
0.0
 71
     0
 42
0.0
  3
txt
  4
extfont
  0
STYLE
  5
27
330
3
100
AcDbSymbolTableRecord
100
AcDbTextStyleTableRecord
  2
KANJITATE
 70
     4
 40
0.0
 41
1.0
 50
0.0
 71
     0
 42
0.0
  3
txt
  4
extfont
  0
STYLE
  5
4A5
330
3
100
AcDbSymbolTableRecord
100
AcDbTextStyleTableRecord
  2
Annotative
 70
     0
 40
0.0
 41
1.0
 50
0.0
 71
     0
 42
0.2
  3
txt
  4

1001
AcadAnnotative
1000
AnnotativeData
1002
{
1070
     1
1070
     1
1002
}
  0
STYLE
  5
4A6
330
3
100
AcDbSymbolTableRecord
100
AcDbTextStyleTableRecord
  2
Jacob-Delafon
 70
     0
 40
0.0
 41
1.0
 50
0.0
 71
     0
 42
2.5
  3
ARIAL.TTF
  4

1001
ACAD
1000
Arial
1071
       34
  0
ENDTAB
  0
TABLE
  2
VIEW
  5
5
330
0
100
AcDbSymbolTable
 70
     1
  0
ENDTAB
  0
TABLE
  2
UCS
  5
6
330
0
100
AcDbSymbolTable
 70
     0
  0
ENDTAB
  0
TABLE
  2
APPID
  5
8
330
0
100
AcDbSymbolTable
 70
     3
  0
APPID
  5
16
330
8
100
AcDbSymbolTableRecord
100
AcDbRegAppTableRecord
  2
ACAD
 70
     0
  0
APPID
  5
499
330
8
100
AcDbSymbolTableRecord
100
AcDbRegAppTableRecord
  2
ACAD_MLEADERVER
 70
     0
  0
APPID
  5
4A9
330
8
100
AcDbSymbolTableRecord
100
AcDbRegAppTableRecord
  2
AcadAnnotative
 70
     0
  0
ENDTAB
  0
TABLE
  2
DIMSTYLE
  5
9
330
0
100
AcDbSymbolTable
 70
     3
100
AcDbDimStyleTable
 71
     1
340
4A8
  0
DIMSTYLE
105
18
330
9
100
AcDbSymbolTableRecord
100
AcDbDimStyleTableRecord
  2
Standard
 70
     0
340
17
  0
DIMSTYLE
105
4A7
330
9
100
AcDbSymbolTableRecord
100
AcDbDimStyleTableRecord
  2
Annotative
 70
     0
340
17
1001
AcadAnnotative
1000
AnnotativeData
1002
{
1070
     1
1070
     1
1002
}
  0
DIMSTYLE
105
4A8
102
{ACAD_REACTORS
330
4B9
330
4C6
102
}
330
9
100
AcDbSymbolTableRecord
100
AcDbDimStyleTableRecord
  2
Cotation-Jacob-Delafon
 70
     0
 41
1.8
 42
0.625
 43
3.799999999999998
 44
1.8
 73
     0
 74
     0
 77
     1
 78
    12
 79
     3
140
3.0
141
0.9
147
0.9
271
     2
272
     2
279
     2
340
4A6
341
4A0
342
4A0
  0
ENDTAB
  0
TABLE
  2
BLOCK_RECORD
  5
1
330
0
100
AcDbSymbolTable
 70
     5
  0
BLOCK_RECORD
  5
A
330
1
100
AcDbSymbolTableRecord
100
AcDbBlockTableRecord
  2
*MODEL_SPACE
340
20
 70
     0
280
     1
281
     0
  0
BLOCK_RECORD
  5
B
330
1
100
AcDbSymbolTableRecord
100
AcDbBlockTableRecord
  2
*PAPER_SPACE
340
21
 70
     0
280
     1
281
     0
  0
BLOCK_RECORD
  5
4A0
330
1
100
AcDbSymbolTableRecord
100
AcDbBlockTableRecord
  2
_Oblique
340
0
102
{BLKREFS
331
4D6
331
4D7
331
4EA
331
4EB
102
}
 70
     0
280
     1
281
     0
  0
BLOCK_RECORD
  5
4BA
330
1
100
AcDbSymbolTableRecord
100
AcDbBlockTableRecord
  2
*D3
340
0
 70
     0
280
     1
281
     0
  0
BLOCK_RECORD
  5
4C7
330
1
100
AcDbSymbolTableRecord
100
AcDbBlockTableRecord
  2
*D4
340
0
 70
     0
280
     1
281
     0
  0
ENDTAB
  0
ENDSEC
  0
SECTION
  2
BLOCKS
  0
BLOCK
  5
D
330
A
100
AcDbEntity
  8
0
100
AcDbBlockBegin
  2
*MODEL_SPACE
 70
     0
 10
0.0
 20
0.0
 30
0.0
  3
*MODEL_SPACE
  1

  0
ENDBLK
  5
E
330
A
100
AcDbEntity
  8
0
100
AcDbBlockEnd
  0
BLOCK
  5
F
330
B
100
AcDbEntity
 67
     1
  8
0
100
AcDbBlockBegin
  2
*PAPER_SPACE
 70
     0
 10
0.0
 20
0.0
 30
0.0
  3
*PAPER_SPACE
  1

  0
ENDBLK
  5
10
330
B
100
AcDbEntity
 67
     1
  8
0
100
AcDbBlockEnd
  0
BLOCK
  5
4A1
330
4A0
100
AcDbEntity
  8
0
100
AcDbBlockBegin
  2
_Oblique
 70
     0
 10
0.0
 20
0.0
 30
0.0
  3
_Oblique
  1

  0
LINE
  5
4A2
330
4A0
100
AcDbEntity
  8
0
  6
ByBlock
 62
     0
370
    -2
380
     1
100
AcDbLine
 10
-0.5
 20
-0.5
 30
0.0
 11
0.5
 21
0.5
 31
0.0
  0
ENDBLK
  5
4A3
330
4A0
100
AcDbEntity
  8
0
100
AcDbBlockEnd
  0
BLOCK
  5
4BB
330
4BA
100
AcDbEntity
  8
0
370
     0
100
AcDbBlockBegin
  2
*D3
 70
     1
 10
0.0
 20
0.0
 30
0.0
  3
*D3
  1

  0
LINE
  5
4E7
330
4BA
100
AcDbEntity
  8
Cotation-JacobDelafon
  6
Continuous
 62
     0
370
    -2
100
AcDbLine
 10
169.44995
 20
174.295364
 30
0.0
 11
169.44995
 21
273.9464299463914
 31
0.0
  0
LINE
  5
4E8
330
4BA
100
AcDbEntity
  8
Cotation-JacobDelafon
  6
Continuous
 62
     0
370
    -2
100
AcDbLine
 10
230.549924
 20
214.024205
 30
0.0
 11
230.549924
 21
273.9464299463914
 31
0.0
  0
LINE
  5
4E9
330
4BA
100
AcDbEntity
  8
Cotation-JacobDelafon
  6
Continuous
 62
     0
370
    -2
100
AcDbLine
 10
169.44995
 20
272.1464299463914
 30
0.0
 11
230.549924
 21
272.1464299463914
 31
0.0
  0
INSERT
  5
4EA
330
4BA
100
AcDbEntity
  8
Cotation-JacobDelafon
  6
Continuous
 62
     0
370
    -2
100
AcDbBlockReference
  2
_Oblique
 10
169.44995
 20
272.1464299463914
 30
0.0
 41
1.8
 42
1.8
 43
1.8
 50
180.0
  0
INSERT
  5
4EB
330
4BA
100
AcDbEntity
  8
Cotation-JacobDelafon
  6
Continuous
 62
     0
370
    -2
100
AcDbBlockReference
  2
_Oblique
 10
230.549924
 20
272.1464299463914
 30
0.0
 41
1.8
 42
1.8
 43
1.8
  0
MTEXT
  5
4EC
330
4BA
100
AcDbEntity
  8
Cotation-JacobDelafon
  6
Continuous
 62
     0
370
     0
100
AcDbMText
 10
199.999937
 20
274.5781489095564
 30
0.0
 40
3.0
 41
0.0
 46
0.0
 71
     5
 72
     1
  1
\A1;61
  7
Jacob-Delafon
 73
     1
 44
1.0
  0
POINT
  5
4ED
330
4BA
100
AcDbEntity
  8
Defpoints
  6
Continuous
 62
     0
370
     0
100
AcDbPoint
 10
169.44995
 20
173.6703639999999
 30
0.0
  0
POINT
  5
4EE
330
4BA
100
AcDbEntity
  8
Defpoints
  6
Continuous
 62
     0
370
     0
100
AcDbPoint
 10
230.549924
 20
213.399205
 30
0.0
  0
POINT
  5
4EF
330
4BA
100
AcDbEntity
  8
Defpoints
  6
Continuous
 62
     0
370
     0
100
AcDbPoint
 10
230.549924
 20
272.1464299463914
 30
0.0
  0
ENDBLK
  5
4BC
330
4BA
100
AcDbEntity
  8
0
370
     0
100
AcDbBlockEnd
  0
BLOCK
  5
4C8
330
4C7
100
AcDbEntity
  8
0
370
     0
100
AcDbBlockBegin
  2
*D4
 70
     1
 10
0.0
 20
0.0
 30
0.0
  3
*D4
  1

  0
LINE
  5
4D3
330
4C7
100
AcDbEntity
  8
Cotation-JacobDelafon
  6
Continuous
 62
     0
370
    -2
100
AcDbLine
 10
183.278331
 20
228.916949
 30
0.0
 11
122.5911777060926
 21
228.916949
 31
0.0
  0
LINE
  5
4D4
330
4C7
100
AcDbEntity
  8
Cotation-JacobDelafon
  6
Continuous
 62
     0
370
    -2
100
AcDbLine
 10
168.82495
 20
92.47015199999999
 30
0.0
 11
122.5911777060925
 21
92.47015200000001
 31
0.0
  0
LINE
  5
4D5
330
4C7
100
AcDbEntity
  8
Cotation-JacobDelafon
  6
Continuous
 62
     0
370
    -2
100
AcDbLine
 10
124.3911777060926
 20
228.916949
 30
0.0
 11
124.3911777060925
 21
92.47015200000001
 31
0.0
  0
INSERT
  5
4D6
330
4C7
100
AcDbEntity
  8
Cotation-JacobDelafon
  6
Continuous
 62
     0
370
    -2
100
AcDbBlockReference
  2
_Oblique
 10
124.3911777060926
 20
228.916949
 30
0.0
 41
1.8
 42
1.8
 43
1.8
 50
90.0
  0
INSERT
  5
4D7
330
4C7
100
AcDbEntity
  8
Cotation-JacobDelafon
  6
Continuous
 62
     0
370
    -2
100
AcDbBlockReference
  2
_Oblique
 10
124.3911777060925
 20
92.47015200000001
 30
0.0
 41
1.8
 42
1.8
 43
1.8
 50
270.0
  0
MTEXT
  5
4D8
330
4C7
100
AcDbEntity
  8
Cotation-JacobDelafon
  6
Continuous
 62
     0
370
     0
100
AcDbMText
 10
121.9584355505673
 20
160.6935505
 30
0.0
 40
3.0
 41
0.0
 46
0.0
 71
     5
 72
     1
  1
\A1;136.8
  7
Jacob-Delafon
 11
0.0000000000000001
 21
1.0
 31
0.0
 73
     1
 44
1.0
  0
POINT
  5
4D9
330
4C7
100
AcDbEntity
  8
Defpoints
  6
Continuous
 62
     0
370
     0
100
AcDbPoint
 10
183.903331
 20
228.916949
 30
0.0
  0
POINT
  5
4DA
330
4C7
100
AcDbEntity
  8
Defpoints
  6
Continuous
 62
     0
370
     0
100
AcDbPoint
 10
169.44995
 20
92.47015199999999
 30
0.0
  0
POINT
  5
4DB
330
4C7
100
AcDbEntity
  8
Defpoints
  6
Continuous
 62
     0
370
     0
100
AcDbPoint
 10
124.3911777060925
 20
92.47015200000001
 30
0.0
  0
ENDBLK
  5
4C9
330
4C7
100
AcDbEntity
  8
0
370
     0
100
AcDbBlockEnd
  0
ENDSEC
  0
SECTION
  2
ENTITIES
  0
LINE
  5
455
330
A
100
AcDbEntity
  8
0
 62
     7
100
AcDbLine
 10
182.53804
 20
167.967525
 30
0.0
 11
182.53804
 21
170.991458
 31
0.0
  0
LINE
  5
454
330
A
100
AcDbEntity
  8
0
 62
     7
100
AcDbLine
 10
181.611998
 20
167.967525
 30
0.0
 11
181.4454279999999
 21
167.967525
 31
0.0
  0
LINE
  5
453
330
A
100
AcDbEntity
  8
0
 62
     7
100
AcDbLine
 10
182.098618
 20
167.967525
 30
0.0
 11
181.611998
 21
167.967525
 31
0.0
  0
LINE
  5
452
330
A
100
AcDbEntity
  8
0
 62
     7
100
AcDbLine
 10
182.423835
 20
167.967525
 30
0.0
 11
182.098618
 21
167.967525
 31
0.0
  0
LINE
  5
451
330
A
100
AcDbEntity
  8
0
 62
     7
100
AcDbLine
 10
182.53804
 20
167.967525
 30
0.0
 11
182.423835
 21
167.967525
 31
0.0
  0
LINE
  5
450
330
A
100
AcDbEntity
  8
0
 62
     7
100
AcDbLine
 10
182.53804
 20
170.991458
 30
0.0
 11
182.423835
 21
170.991458
 31
0.0
  0
LINE
  5
44F
330
A
100
AcDbEntity
  8
0
 62
     7
100
AcDbLine
 10
182.423835
 20
170.991458
 30
0.0
 11
182.53804
 21
170.991458
 31
0.0
  0
LINE
  5
44E
330
A
100
AcDbEntity
  8
0
 62
     7
100
AcDbLine
 10
182.098618
 20
170.991458
 30
0.0
 11
182.423835
 21
170.991458
 31
0.0
  0
LINE
  5
44D
330
A
100
AcDbEntity
  8
0
 62
     7
100
AcDbLine
 10
181.611998
 20
170.991458
 30
0.0
 11
182.098618
 21
170.991458
 31
0.0
  0
LINE
  5
44C
330
A
100
AcDbEntity
  8
0
 62
     7
100
AcDbLine
 10
181.567384
 20
170.991458
 30
0.0
 11
181.611998
 21
170.991458
 31
0.0
  0
LINE
  5
44B
330
A
100
AcDbEntity
  8
0
 62
     7
100
AcDbLine
 10
182.423835
 20
170.991458
 30
0.0
 11
182.238833
 21
170.991458
 31
0.0
  0
LINE
  5
44A
330
A
100
AcDbEntity
  8
0
 62
     7
100
AcDbLine
 10
181.409943
 20
167.310718
 30
0.0
 11
181.60218
 21
170.856755
 31
0.0
  0
LINE
  5
449
330
A
100
AcDbEntity
  8
0
 62
     7
100
AcDbLine
 10
179.294482
 20
167.310718
 30
0.0
 11
179.102246
 21
170.856755
 31
0.0
  0
LINE
  5
448
330
A
100
AcDbEntity
  8
0
 62
     7
100
AcDbLine
 10
179.375098
 20
167.310718
 30
0.0
 11
179.294482
 21
167.310718
 31
0.0
  0
LINE
  5
447
330
A
100
AcDbEntity
  8
0
 62
     7
100
AcDbLine
 10
179.604197
 20
167.310718
 30
0.0
 11
179.375098
 21
167.310718
 31
0.0
  0
LINE
  5
446
330
A
100
AcDbEntity
  8
0
 62
     7
100
AcDbLine
 10
179.947328
 20
167.310718
 30
0.0
 11
179.604197
 21
167.310718
 31
0.0
  0
LINE
  5
445
330
A
100
AcDbEntity
  8
0
 62
     7
100
AcDbLine
 10
180.352127
 20
167.310718
 30
0.0
 11
179.947328
 21
167.310718
 31
0.0
  0
LINE
  5
444
330
A
100
AcDbEntity
  8
0
 62
     7
100
AcDbLine
 10
180.756925
 20
167.310718
 30
0.0
 11
180.352127
 21
167.310718
 31
0.0
  0
LINE
  5
443
330
A
100
AcDbEntity
  8
0
 62
     7
100
AcDbLine
 10
181.100057
 20
167.310718
 30
0.0
 11
180.756925
 21
167.310718
 31
0.0
  0
LINE
  5
442
330
A
100
AcDbEntity
  8
0
 62
     7
100
AcDbLine
 10
181.329328
 20
167.310718
 30
0.0
 11
181.100057
 21
167.310718
 31
0.0
  0
LINE
  5
441
330
A
100
AcDbEntity
  8
0
 62
     7
100
AcDbLine
 10
181.409943
 20
167.310718
 30
0.0
 11
181.329328
 21
167.310718
 31
0.0
  0
LINE
  5
440
330
A
100
AcDbEntity
  8
0
 62
     7
100
AcDbLine
 10
181.60218
 20
170.856755
 30
0.0
 11
181.507095
 21
170.856755
 31
0.0
  0
LINE
  5
43F
330
A
100
AcDbEntity
  8
0
 62
     7
100
AcDbLine
 10
181.507095
 20
170.856755
 30
0.0
 11
181.60218
 21
170.856755
 31
0.0
  0
LINE
  5
43E
330
A
100
AcDbEntity
  8
0
 62
     7
100
AcDbLine
 10
181.236138
 20
170.856755
 30
0.0
 11
181.507095
 21
170.856755
 31
0.0
  0
LINE
  5
43D
330
A
100
AcDbEntity
  8
0
 62
     7
100
AcDbLine
 10
180.830478
 20
170.856755
 30
0.0
 11
181.236138
 21
170.856755
 31
0.0
  0
LINE
  5
43C
330
A
100
AcDbEntity
  8
0
 62
     7
100
AcDbLine
 10
180.352127
 20
170.856755
 30
0.0
 11
180.830478
 21
170.856755
 31
0.0
  0
LINE
  5
43B
330
A
100
AcDbEntity
  8
0
 62
     7
100
AcDbLine
 10
179.873775
 20
170.856755
 30
0.0
 11
180.352127
 21
170.856755
 31
0.0
  0
LINE
  5
43A
330
A
100
AcDbEntity
  8
0
 62
     7
100
AcDbLine
 10
179.468287
 20
170.856755
 30
0.0
 11
179.873775
 21
170.856755
 31
0.0
  0
LINE
  5
439
330
A
100
AcDbEntity
  8
0
 62
     7
100
AcDbLine
 10
179.197331
 20
170.856755
 30
0.0
 11
179.468287
 21
170.856755
 31
0.0
  0
LINE
  5
438
330
A
100
AcDbEntity
  8
0
 62
     7
100
AcDbLine
 10
179.102246
 20
170.856755
 30
0.0
 11
179.197331
 21
170.856755
 31
0.0
  0
LINE
  5
437
330
A
100
AcDbEntity
  8
0
 62
     7
100
AcDbLine
 10
179.197331
 20
170.856755
 30
0.0
 11
179.102246
 21
170.856755
 31
0.0
  0
LINE
  5
436
330
A
100
AcDbEntity
  8
0
 62
     7
100
AcDbLine
 10
179.468287
 20
170.856755
 30
0.0
 11
179.197331
 21
170.856755
 31
0.0
  0
LINE
  5
435
330
A
100
AcDbEntity
  8
0
 62
     7
100
AcDbLine
 10
179.538051
 20
170.856755
 30
0.0
 11
179.468287
 21
170.856755
 31
0.0
  0
LINE
  5
434
330
A
100
AcDbEntity
  8
0
 62
     7
100
AcDbLine
 10
180.352127
 20
170.856755
 30
0.0
 11
179.888072
 21
170.856755
 31
0.0
  0
LINE
  5
433
330
A
100
AcDbEntity
  8
0
 62
     7
100
AcDbLine
 10
180.830478
 20
170.856755
 30
0.0
 11
180.352127
 21
170.856755
 31
0.0
  0
LINE
  5
432
330
A
100
AcDbEntity
  8
0
 62
     7
100
AcDbLine
 10
181.236138
 20
170.856755
 30
0.0
 11
180.830478
 21
170.856755
 31
0.0
  0
LINE
  5
431
330
A
100
AcDbEntity
  8
0
 62
     7
100
AcDbLine
 10
181.507095
 20
170.856755
 30
0.0
 11
181.236138
 21
170.856755
 31
0.0
  0
LINE
  5
430
330
A
100
AcDbEntity
  8
0
 62
     7
100
AcDbLine
 10
181.369636
 20
180.142665
 30
0.0
 11
181.319854
 21
185.489281
 31
0.0
  0
LINE
  5
42F
330
A
100
AcDbEntity
  8
0
 62
     7
100
AcDbLine
 10
181.569623
 20
170.883454
 30
0.0
 11
181.369636
 21
180.142665
 31
0.0
  0
LINE
  5
42E
330
A
100
AcDbEntity
  8
0
 62
     7
100
AcDbLine
 10
179.219552
 20
185.489281
 30
0.0
 11
179.169598
 21
180.142665
 31
0.0
  0
LINE
  5
42D
330
A
100
AcDbEntity
  8
0
 62
     7
100
AcDbLine
 10
179.169598
 20
180.142665
 30
0.0
 11
179.084332
 21
170.861233
 31
0.0
  0
LINE
  5
42C
330
A
100
AcDbEntity
  8
0
 62
     7
100
AcDbLine
 10
182.814336
 20
193.475873
 30
0.0
 11
183.264783
 21
193.439183
 31
0.0
  0
LINE
  5
42B
330
A
100
AcDbEntity
  8
0
 62
     7
100
AcDbLine
 10
182.46931
 20
193.136359
 30
0.0
 11
182.814336
 21
193.475873
 31
0.0
  0
LINE
  5
42A
330
A
100
AcDbEntity
  8
0
 62
     7
100
AcDbLine
 10
184.401492
 20
192.576015
 30
0.0
 11
184.369969
 21
192.051671
 31
0.0
  0
LINE
  5
429
330
A
100
AcDbEntity
  8
0
 62
     7
100
AcDbLine
 10
184.110209
 20
192.977713
 30
0.0
 11
184.401492
 21
192.576015
 31
0.0
  0
LINE
  5
428
330
A
100
AcDbEntity
  8
0
 62
     7
100
AcDbLine
 10
181.319854
 20
185.489281
 30
0.0
 11
181.3718749999999
 21
185.915611
 31
0.0
  0
LINE
  5
427
330
A
100
AcDbEntity
  8
0
 62
     7
100
AcDbLine
 10
179.219552
 20
185.489281
 30
0.0
 11
179.365624
 21
186.671465
 31
0.0
  0
LINE
  5
426
330
A
100
AcDbEntity
  8
0
 62
     7
100
AcDbLine
 10
181.3718749999999
 20
185.915611
 30
0.0
 11
181.628535
 21
186.523154
 31
0.0
  0
LINE
  5
425
330
A
100
AcDbEntity
  8
0
 62
     7
100
AcDbLine
 10
179.365624
 20
186.671465
 30
0.0
 11
179.7411389999999
 21
187.643155
 31
0.0
  0
LINE
  5
424
330
A
100
AcDbEntity
  8
0
 62
     7
100
AcDbLine
 10
181.628535
 20
186.523154
 30
0.0
 11
184.369969
 21
192.051671
 31
0.0
  0
LINE
  5
423
330
A
100
AcDbEntity
  8
0
 62
     7
100
AcDbLine
 10
179.7411389999999
 20
187.643155
 30
0.0
 11
182.46931
 21
193.136359
 31
0.0
  0
LINE
  5
422
330
A
100
AcDbEntity
  8
0
 62
     7
100
AcDbLine
 10
183.276324
 20
193.4397
 30
0.0
 11
184.1224389999999
 21
192.970478
 31
0.0
  0
LINE
  5
421
330
A
100
AcDbEntity
  8
0
 62
     7
100
AcDbLine
 10
177.449978
 20
110.57034
 30
0.0
 11
177.475644
 21
110.57034
 31
0.0
  0
LINE
  5
420
330
A
100
AcDbEntity
  8
0
 62
     7
100
AcDbLine
 10
177.641353
 20
162.921494
 30
0.0
 11
177.641353
 21
162.938547
 31
0.0
  0
LINE
  5
41F
330
A
100
AcDbEntity
  8
0
 62
     7
100
AcDbLine
 10
177.641353
 20
162.938547
 30
0.0
 11
177.685278
 21
162.832438
 31
0.0
  0
LINE
  5
41E
330
A
100
AcDbEntity
  8
0
 62
     7
100
AcDbLine
 10
177.535244
 20
162.982472
 30
0.0
 11
177.641353
 21
162.938547
 31
0.0
  0
LINE
  5
41D
330
A
100
AcDbEntity
  8
0
 62
     7
100
AcDbLine
 10
177.641353
 20
155.904351
 30
0.0
 11
177.685278
 21
156.01046
 31
0.0
  0
LINE
  5
41C
330
A
100
AcDbEntity
  8
0
 62
     7
100
AcDbLine
 10
177.641353
 20
155.904351
 30
0.0
 11
177.641353
 21
155.921404
 31
0.0
  0
LINE
  5
41B
330
A
100
AcDbEntity
  8
0
 62
     7
100
AcDbLine
 10
177.535244
 20
155.860426
 30
0.0
 11
177.641353
 21
155.904351
 31
0.0
  0
LINE
  5
41A
330
A
100
AcDbEntity
  8
0
 62
     7
100
AcDbLine
 10
177.449978
 20
162.982472
 30
0.0
 11
177.535244
 21
162.982472
 31
0.0
  0
LINE
  5
419
330
A
100
AcDbEntity
  8
0
 62
     7
100
AcDbLine
 10
177.449978
 20
155.860426
 30
0.0
 11
177.535244
 21
155.860426
 31
0.0
  0
LINE
  5
418
330
A
100
AcDbEntity
  8
0
 62
     7
100
AcDbLine
 10
177.685278
 20
156.02114
 30
0.0
 11
177.685278
 21
156.01046
 31
0.0
  0
LINE
  5
417
330
A
100
AcDbEntity
  8
0
 62
     7
100
AcDbLine
 10
177.685278
 20
156.0416379999999
 30
0.0
 11
177.685278
 21
156.02114
 31
0.0
  0
LINE
  5
416
330
A
100
AcDbEntity
  8
0
 62
     7
100
AcDbLine
 10
177.685278
 20
156.072127
 30
0.0
 11
177.685278
 21
156.0416379999999
 31
0.0
  0
LINE
  5
415
330
A
100
AcDbEntity
  8
0
 62
     7
100
AcDbLine
 10
177.685278
 20
156.125354
 30
0.0
 11
177.685278
 21
156.072127
 31
0.0
  0
LINE
  5
414
330
A
100
AcDbEntity
  8
0
 62
     7
100
AcDbLine
 10
177.685278
 20
162.717372
 30
0.0
 11
177.685278
 21
156.125354
 31
0.0
  0
LINE
  5
413
330
A
100
AcDbEntity
  8
0
 62
     7
100
AcDbLine
 10
177.685278
 20
162.770771
 30
0.0
 11
177.685278
 21
162.717372
 31
0.0
  0
LINE
  5
412
330
A
100
AcDbEntity
  8
0
 62
     7
100
AcDbLine
 10
177.685278
 20
162.801088
 30
0.0
 11
177.685278
 21
162.770771
 31
0.0
  0
LINE
  5
411
330
A
100
AcDbEntity
  8
0
 62
     7
100
AcDbLine
 10
177.685278
 20
162.821758
 30
0.0
 11
177.685278
 21
162.801088
 31
0.0
  0
LINE
  5
410
330
A
100
AcDbEntity
  8
0
 62
     7
100
AcDbLine
 10
177.685278
 20
162.832438
 30
0.0
 11
177.685278
 21
162.821758
 31
0.0
  0
LINE
  5
40F
330
A
100
AcDbEntity
  8
0
 62
     7
100
AcDbLine
 10
177.894051
 20
161.209798
 30
0.0
 11
177.685278
 21
161.209798
 31
0.0
  0
LINE
  5
40E
330
A
100
AcDbEntity
  8
0
 62
     7
100
AcDbLine
 10
177.894051
 20
160.87683
 30
0.0
 11
177.685278
 21
160.87683
 31
0.0
  0
LINE
  5
40D
330
A
100
AcDbEntity
  8
0
 62
     7
100
AcDbLine
 10
177.894051
 20
160.87683
 30
0.0
 11
177.685278
 21
160.87683
 31
0.0
  0
LINE
  5
40C
330
A
100
AcDbEntity
  8
0
 62
     7
100
AcDbLine
 10
177.894051
 20
160.940392
 30
0.0
 11
177.894051
 21
160.87683
 31
0.0
  0
LINE
  5
40B
330
A
100
AcDbEntity
  8
0
 62
     7
100
AcDbLine
 10
177.894051
 20
161.0434
 30
0.0
 11
177.894051
 21
160.940392
 31
0.0
  0
LINE
  5
40A
330
A
100
AcDbEntity
  8
0
 62
     7
100
AcDbLine
 10
177.894051
 20
161.146236
 30
0.0
 11
177.894051
 21
161.0434
 31
0.0
  0
LINE
  5
409
330
A
100
AcDbEntity
  8
0
 62
     7
100
AcDbLine
 10
177.894051
 20
161.209798
 30
0.0
 11
177.894051
 21
161.146236
 31
0.0
  0
LINE
  5
408
330
A
100
AcDbEntity
  8
0
 62
     7
100
AcDbLine
 10
177.894051
 20
161.146236
 30
0.0
 11
177.894051
 21
161.209798
 31
0.0
  0
LINE
  5
407
330
A
100
AcDbEntity
  8
0
 62
     7
100
AcDbLine
 10
177.894051
 20
161.0434
 30
0.0
 11
177.894051
 21
161.146236
 31
0.0
  0
LINE
  5
406
330
A
100
AcDbEntity
  8
0
 62
     7
100
AcDbLine
 10
177.894051
 20
160.940392
 30
0.0
 11
177.894051
 21
161.0434
 31
0.0
  0
LINE
  5
405
330
A
100
AcDbEntity
  8
0
 62
     7
100
AcDbLine
 10
177.894051
 20
160.87683
 30
0.0
 11
177.894051
 21
160.940392
 31
0.0
  0
LINE
  5
404
330
A
100
AcDbEntity
  8
0
 62
     7
100
AcDbLine
 10
177.894051
 20
160.87683
 30
0.0
 11
177.685278
 21
160.87683
 31
0.0
  0
LINE
  5
403
330
A
100
AcDbEntity
  8
0
 62
     7
100
AcDbLine
 10
177.894051
 20
160.87683
 30
0.0
 11
177.685278
 21
160.87683
 31
0.0
  0
LINE
  5
402
330
A
100
AcDbEntity
  8
0
 62
     7
100
AcDbLine
 10
177.894051
 20
160.940392
 30
0.0
 11
177.894051
 21
160.87683
 31
0.0
  0
LINE
  5
401
330
A
100
AcDbEntity
  8
0
 62
     7
100
AcDbLine
 10
177.894051
 20
161.0434
 30
0.0
 11
177.894051
 21
160.940392
 31
0.0
  0
LINE
  5
400
330
A
100
AcDbEntity
  8
0
 62
     7
100
AcDbLine
 10
177.894051
 20
161.146236
 30
0.0
 11
177.894051
 21
161.0434
 31
0.0
  0
LINE
  5
3FF
330
A
100
AcDbEntity
  8
0
 62
     7
100
AcDbLine
 10
177.894051
 20
161.209798
 30
0.0
 11
177.894051
 21
161.146236
 31
0.0
  0
LINE
  5
3FE
330
A
100
AcDbEntity
  8
0
 62
     7
100
AcDbLine
 10
177.894051
 20
161.146236
 30
0.0
 11
177.894051
 21
161.209798
 31
0.0
  0
LINE
  5
3FD
330
A
100
AcDbEntity
  8
0
 62
     7
100
AcDbLine
 10
177.894051
 20
161.0434
 30
0.0
 11
177.894051
 21
161.146236
 31
0.0
  0
LINE
  5
3FC
330
A
100
AcDbEntity
  8
0
 62
     7
100
AcDbLine
 10
177.894051
 20
160.940392
 30
0.0
 11
177.894051
 21
161.0434
 31
0.0
  0
LINE
  5
3FB
330
A
100
AcDbEntity
  8
0
 62
     7
100
AcDbLine
 10
177.894051
 20
160.87683
 30
0.0
 11
177.894051
 21
160.940392
 31
0.0
  0
LINE
  5
3FA
330
A
100
AcDbEntity
  8
0
 62
     7
100
AcDbLine
 10
177.894051
 20
160.87683
 30
0.0
 11
177.685278
 21
160.87683
 31
0.0
  0
LINE
  5
3F9
330
A
100
AcDbEntity
  8
0
 62
     7
100
AcDbLine
 10
177.894051
 20
160.87683
 30
0.0
 11
177.685278
 21
160.87683
 31
0.0
  0
LINE
  5
3F8
330
A
100
AcDbEntity
  8
0
 62
     7
100
AcDbLine
 10
177.894051
 20
160.940392
 30
0.0
 11
177.894051
 21
160.87683
 31
0.0
  0
LINE
  5
3F7
330
A
100
AcDbEntity
  8
0
 62
     7
100
AcDbLine
 10
177.894051
 20
161.0434
 30
0.0
 11
177.894051
 21
160.940392
 31
0.0
  0
LINE
  5
3F6
330
A
100
AcDbEntity
  8
0
 62
     7
100
AcDbLine
 10
177.894051
 20
161.146236
 30
0.0
 11
177.894051
 21
161.0434
 31
0.0
  0
LINE
  5
3F5
330
A
100
AcDbEntity
  8
0
 62
     7
100
AcDbLine
 10
177.894051
 20
161.209798
 30
0.0
 11
177.894051
 21
161.146236
 31
0.0
  0
LINE
  5
3F4
330
A
100
AcDbEntity
  8
0
 62
     7
100
AcDbLine
 10
177.894051
 20
161.146236
 30
0.0
 11
177.894051
 21
161.209798
 31
0.0
  0
LINE
  5
3F3
330
A
100
AcDbEntity
  8
0
 62
     7
100
AcDbLine
 10
177.894051
 20
161.0434
 30
0.0
 11
177.894051
 21
161.146236
 31
0.0
  0
LINE
  5
3F2
330
A
100
AcDbEntity
  8
0
 62
     7
100
AcDbLine
 10
177.894051
 20
160.940392
 30
0.0
 11
177.894051
 21
161.0434
 31
0.0
  0
LINE
  5
3F1
330
A
100
AcDbEntity
  8
0
 62
     7
100
AcDbLine
 10
177.894051
 20
160.87683
 30
0.0
 11
177.894051
 21
160.940392
 31
0.0
  0
LINE
  5
3F0
330
A
100
AcDbEntity
  8
0
 62
     7
100
AcDbLine
 10
177.894051
 20
160.87683
 30
0.0
 11
177.685278
 21
160.87683
 31
0.0
  0
LINE
  5
3EF
330
A
100
AcDbEntity
  8
0
 62
     7
100
AcDbLine
 10
177.894051
 20
160.87683
 30
0.0
 11
177.685278
 21
160.87683
 31
0.0
  0
LINE
  5
3EE
330
A
100
AcDbEntity
  8
0
 62
     7
100
AcDbLine
 10
177.894051
 20
160.940392
 30
0.0
 11
177.894051
 21
160.87683
 31
0.0
  0
LINE
  5
3ED
330
A
100
AcDbEntity
  8
0
 62
     7
100
AcDbLine
 10
177.894051
 20
161.0434
 30
0.0
 11
177.894051
 21
160.940392
 31
0.0
  0
LINE
  5
3EC
330
A
100
AcDbEntity
  8
0
 62
     7
100
AcDbLine
 10
177.894051
 20
161.146236
 30
0.0
 11
177.894051
 21
161.0434
 31
0.0
  0
LINE
  5
3EB
330
A
100
AcDbEntity
  8
0
 62
     7
100
AcDbLine
 10
177.894051
 20
161.209798
 30
0.0
 11
177.894051
 21
161.146236
 31
0.0
  0
LINE
  5
3EA
330
A
100
AcDbEntity
  8
0
 62
     7
100
AcDbLine
 10
177.894051
 20
161.146236
 30
0.0
 11
177.894051
 21
161.209798
 31
0.0
  0
LINE
  5
3E9
330
A
100
AcDbEntity
  8
0
 62
     7
100
AcDbLine
 10
177.894051
 20
161.0434
 30
0.0
 11
177.894051
 21
161.146236
 31
0.0
  0
LINE
  5
3E8
330
A
100
AcDbEntity
  8
0
 62
     7
100
AcDbLine
 10
177.894051
 20
160.940392
 30
0.0
 11
177.894051
 21
161.0434
 31
0.0
  0
LINE
  5
3E7
330
A
100
AcDbEntity
  8
0
 62
     7
100
AcDbLine
 10
177.894051
 20
160.87683
 30
0.0
 11
177.894051
 21
160.940392
 31
0.0
  0
LINE
  5
3E6
330
A
100
AcDbEntity
  8
0
 62
     7
100
AcDbLine
 10
177.894051
 20
160.87683
 30
0.0
 11
177.685278
 21
160.87683
 31
0.0
  0
LINE
  5
3E5
330
A
100
AcDbEntity
  8
0
 62
     7
100
AcDbLine
 10
177.894051
 20
160.87683
 30
0.0
 11
177.685278
 21
160.87683
 31
0.0
  0
LINE
  5
3E4
330
A
100
AcDbEntity
  8
0
 62
     7
100
AcDbLine
 10
177.894051
 20
160.940392
 30
0.0
 11
177.894051
 21
160.87683
 31
0.0
  0
LINE
  5
3E3
330
A
100
AcDbEntity
  8
0
 62
     7
100
AcDbLine
 10
177.894051
 20
161.0434
 30
0.0
 11
177.894051
 21
160.940392
 31
0.0
  0
LINE
  5
3E2
330
A
100
AcDbEntity
  8
0
 62
     7
100
AcDbLine
 10
177.894051
 20
161.146236
 30
0.0
 11
177.894051
 21
161.0434
 31
0.0
  0
LINE
  5
3E1
330
A
100
AcDbEntity
  8
0
 62
     7
100
AcDbLine
 10
177.894051
 20
161.209798
 30
0.0
 11
177.894051
 21
161.146236
 31
0.0
  0
LINE
  5
3E0
330
A
100
AcDbEntity
  8
0
 62
     7
100
AcDbLine
 10
177.894051
 20
161.146236
 30
0.0
 11
177.894051
 21
161.209798
 31
0.0
  0
LINE
  5
3DF
330
A
100
AcDbEntity
  8
0
 62
     7
100
AcDbLine
 10
177.894051
 20
161.0434
 30
0.0
 11
177.894051
 21
161.146236
 31
0.0
  0
LINE
  5
3DE
330
A
100
AcDbEntity
  8
0
 62
     7
100
AcDbLine
 10
177.894051
 20
160.940392
 30
0.0
 11
177.894051
 21
161.0434
 31
0.0
  0
LINE
  5
3DD
330
A
100
AcDbEntity
  8
0
 62
     7
100
AcDbLine
 10
177.894051
 20
160.87683
 30
0.0
 11
177.894051
 21
160.940392
 31
0.0
  0
LINE
  5
3DC
330
A
100
AcDbEntity
  8
0
 62
     7
100
AcDbLine
 10
177.894051
 20
160.413809
 30
0.0
 11
177.685278
 21
160.413809
 31
0.0
  0
LINE
  5
3DB
330
A
100
AcDbEntity
  8
0
 62
     7
100
AcDbLine
 10
177.894051
 20
160.413809
 30
0.0
 11
177.685278
 21
160.413809
 31
0.0
  0
LINE
  5
3DA
330
A
100
AcDbEntity
  8
0
 62
     7
100
AcDbLine
 10
177.894051
 20
160.08084
 30
0.0
 11
177.685278
 21
160.08084
 31
0.0
  0
LINE
  5
3D9
330
A
100
AcDbEntity
  8
0
 62
     7
100
AcDbLine
 10
177.894051
 20
160.08084
 30
0.0
 11
177.685278
 21
160.08084
 31
0.0
  0
LINE
  5
3D8
330
A
100
AcDbEntity
  8
0
 62
     7
100
AcDbLine
 10
177.894051
 20
160.144402
 30
0.0
 11
177.894051
 21
160.08084
 31
0.0
  0
LINE
  5
3D7
330
A
100
AcDbEntity
  8
0
 62
     7
100
AcDbLine
 10
177.894051
 20
160.247238
 30
0.0
 11
177.894051
 21
160.144402
 31
0.0
  0
LINE
  5
3D6
330
A
100
AcDbEntity
  8
0
 62
     7
100
AcDbLine
 10
177.894051
 20
160.350247
 30
0.0
 11
177.894051
 21
160.247238
 31
0.0
  0
LINE
  5
3D5
330
A
100
AcDbEntity
  8
0
 62
     7
100
AcDbLine
 10
177.894051
 20
160.413809
 30
0.0
 11
177.894051
 21
160.350247
 31
0.0
  0
LINE
  5
3D4
330
A
100
AcDbEntity
  8
0
 62
     7
100
AcDbLine
 10
177.894051
 20
160.350247
 30
0.0
 11
177.894051
 21
160.413809
 31
0.0
  0
LINE
  5
3D3
330
A
100
AcDbEntity
  8
0
 62
     7
100
AcDbLine
 10
177.894051
 20
160.247238
 30
0.0
 11
177.894051
 21
160.350247
 31
0.0
  0
LINE
  5
3D2
330
A
100
AcDbEntity
  8
0
 62
     7
100
AcDbLine
 10
177.894051
 20
160.144402
 30
0.0
 11
177.894051
 21
160.247238
 31
0.0
  0
LINE
  5
3D1
330
A
100
AcDbEntity
  8
0
 62
     7
100
AcDbLine
 10
177.894051
 20
160.08084
 30
0.0
 11
177.894051
 21
160.144402
 31
0.0
  0
LINE
  5
3D0
330
A
100
AcDbEntity
  8
0
 62
     7
100
AcDbLine
 10
177.894051
 20
160.413809
 30
0.0
 11
177.685278
 21
160.413809
 31
0.0
  0
LINE
  5
3CF
330
A
100
AcDbEntity
  8
0
 62
     7
100
AcDbLine
 10
177.894051
 20
160.413809
 30
0.0
 11
177.685278
 21
160.413809
 31
0.0
  0
LINE
  5
3CE
330
A
100
AcDbEntity
  8
0
 62
     7
100
AcDbLine
 10
177.894051
 20
160.08084
 30
0.0
 11
177.685278
 21
160.08084
 31
0.0
  0
LINE
  5
3CD
330
A
100
AcDbEntity
  8
0
 62
     7
100
AcDbLine
 10
177.894051
 20
160.08084
 30
0.0
 11
177.685278
 21
160.08084
 31
0.0
  0
LINE
  5
3CC
330
A
100
AcDbEntity
  8
0
 62
     7
100
AcDbLine
 10
177.894051
 20
160.144402
 30
0.0
 11
177.894051
 21
160.08084
 31
0.0
  0
LINE
  5
3CB
330
A
100
AcDbEntity
  8
0
 62
     7
100
AcDbLine
 10
177.894051
 20
160.247238
 30
0.0
 11
177.894051
 21
160.144402
 31
0.0
  0
LINE
  5
3CA
330
A
100
AcDbEntity
  8
0
 62
     7
100
AcDbLine
 10
177.894051
 20
160.350247
 30
0.0
 11
177.894051
 21
160.247238
 31
0.0
  0
LINE
  5
3C9
330
A
100
AcDbEntity
  8
0
 62
     7
100
AcDbLine
 10
177.894051
 20
160.413809
 30
0.0
 11
177.894051
 21
160.350247
 31
0.0
  0
LINE
  5
3C8
330
A
100
AcDbEntity
  8
0
 62
     7
100
AcDbLine
 10
177.894051
 20
160.350247
 30
0.0
 11
177.894051
 21
160.413809
 31
0.0
  0
LINE
  5
3C7
330
A
100
AcDbEntity
  8
0
 62
     7
100
AcDbLine
 10
177.894051
 20
160.247238
 30
0.0
 11
177.894051
 21
160.350247
 31
0.0
  0
LINE
  5
3C6
330
A
100
AcDbEntity
  8
0
 62
     7
100
AcDbLine
 10
177.894051
 20
160.144402
 30
0.0
 11
177.894051
 21
160.247238
 31
0.0
  0
LINE
  5
3C5
330
A
100
AcDbEntity
  8
0
 62
     7
100
AcDbLine
 10
177.894051
 20
160.08084
 30
0.0
 11
177.894051
 21
160.144402
 31
0.0
  0
LINE
  5
3C4
330
A
100
AcDbEntity
  8
0
 62
     7
100
AcDbLine
 10
177.894051
 20
160.413809
 30
0.0
 11
177.685278
 21
160.413809
 31
0.0
  0
LINE
  5
3C3
330
A
100
AcDbEntity
  8
0
 62
     7
100
AcDbLine
 10
177.894051
 20
160.413809
 30
0.0
 11
177.685278
 21
160.413809
 31
0.0
  0
LINE
  5
3C2
330
A
100
AcDbEntity
  8
0
 62
     7
100
AcDbLine
 10
177.894051
 20
160.08084
 30
0.0
 11
177.685278
 21
160.08084
 31
0.0
  0
LINE
  5
3C1
330
A
100
AcDbEntity
  8
0
 62
     7
100
AcDbLine
 10
177.894051
 20
160.08084
 30
0.0
 11
177.685278
 21
160.08084
 31
0.0
  0
LINE
  5
3C0
330
A
100
AcDbEntity
  8
0
 62
     7
100
AcDbLine
 10
177.894051
 20
160.144402
 30
0.0
 11
177.894051
 21
160.08084
 31
0.0
  0
LINE
  5
3BF
330
A
100
AcDbEntity
  8
0
 62
     7
100
AcDbLine
 10
177.894051
 20
160.247238
 30
0.0
 11
177.894051
 21
160.144402
 31
0.0
  0
LINE
  5
3BE
330
A
100
AcDbEntity
  8
0
 62
     7
100
AcDbLine
 10
177.894051
 20
160.350247
 30
0.0
 11
177.894051
 21
160.247238
 31
0.0
  0
LINE
  5
3BD
330
A
100
AcDbEntity
  8
0
 62
     7
100
AcDbLine
 10
177.894051
 20
160.413809
 30
0.0
 11
177.894051
 21
160.350247
 31
0.0
  0
LINE
  5
3BC
330
A
100
AcDbEntity
  8
0
 62
     7
100
AcDbLine
 10
177.894051
 20
160.350247
 30
0.0
 11
177.894051
 21
160.413809
 31
0.0
  0
LINE
  5
3BB
330
A
100
AcDbEntity
  8
0
 62
     7
100
AcDbLine
 10
177.894051
 20
160.247238
 30
0.0
 11
177.894051
 21
160.350247
 31
0.0
  0
LINE
  5
3BA
330
A
100
AcDbEntity
  8
0
 62
     7
100
AcDbLine
 10
177.894051
 20
160.144402
 30
0.0
 11
177.894051
 21
160.247238
 31
0.0
  0
LINE
  5
3B9
330
A
100
AcDbEntity
  8
0
 62
     7
100
AcDbLine
 10
177.894051
 20
160.08084
 30
0.0
 11
177.894051
 21
160.144402
 31
0.0
  0
LINE
  5
3B8
330
A
100
AcDbEntity
  8
0
 62
     7
100
AcDbLine
 10
177.894051
 20
160.413809
 30
0.0
 11
177.685278
 21
160.413809
 31
0.0
  0
LINE
  5
3B7
330
A
100
AcDbEntity
  8
0
 62
     7
100
AcDbLine
 10
177.894051
 20
160.413809
 30
0.0
 11
177.685278
 21
160.413809
 31
0.0
  0
LINE
  5
3B6
330
A
100
AcDbEntity
  8
0
 62
     7
100
AcDbLine
 10
177.894051
 20
160.08084
 30
0.0
 11
177.685278
 21
160.08084
 31
0.0
  0
LINE
  5
3B5
330
A
100
AcDbEntity
  8
0
 62
     7
100
AcDbLine
 10
177.894051
 20
160.08084
 30
0.0
 11
177.685278
 21
160.08084
 31
0.0
  0
LINE
  5
3B4
330
A
100
AcDbEntity
  8
0
 62
     7
100
AcDbLine
 10
177.894051
 20
160.144402
 30
0.0
 11
177.894051
 21
160.08084
 31
0.0
  0
LINE
  5
3B3
330
A
100
AcDbEntity
  8
0
 62
     7
100
AcDbLine
 10
177.894051
 20
160.247238
 30
0.0
 11
177.894051
 21
160.144402
 31
0.0
  0
LINE
  5
3B2
330
A
100
AcDbEntity
  8
0
 62
     7
100
AcDbLine
 10
177.894051
 20
160.350247
 30
0.0
 11
177.894051
 21
160.247238
 31
0.0
  0
LINE
  5
3B1
330
A
100
AcDbEntity
  8
0
 62
     7
100
AcDbLine
 10
177.894051
 20
160.413809
 30
0.0
 11
177.894051
 21
160.350247
 31
0.0
  0
LINE
  5
3B0
330
A
100
AcDbEntity
  8
0
 62
     7
100
AcDbLine
 10
177.894051
 20
160.350247
 30
0.0
 11
177.894051
 21
160.413809
 31
0.0
  0
LINE
  5
3AF
330
A
100
AcDbEntity
  8
0
 62
     7
100
AcDbLine
 10
177.894051
 20
160.247238
 30
0.0
 11
177.894051
 21
160.350247
 31
0.0
  0
LINE
  5
3AE
330
A
100
AcDbEntity
  8
0
 62
     7
100
AcDbLine
 10
177.894051
 20
160.144402
 30
0.0
 11
177.894051
 21
160.247238
 31
0.0
  0
LINE
  5
3AD
330
A
100
AcDbEntity
  8
0
 62
     7
100
AcDbLine
 10
177.894051
 20
160.08084
 30
0.0
 11
177.894051
 21
160.144402
 31
0.0
  0
LINE
  5
3AC
330
A
100
AcDbEntity
  8
0
 62
     7
100
AcDbLine
 10
177.894051
 20
160.413809
 30
0.0
 11
177.685278
 21
160.413809
 31
0.0
  0
LINE
  5
3AB
330
A
100
AcDbEntity
  8
0
 62
     7
100
AcDbLine
 10
177.894051
 20
160.413809
 30
0.0
 11
177.685278
 21
160.413809
 31
0.0
  0
LINE
  5
3AA
330
A
100
AcDbEntity
  8
0
 62
     7
100
AcDbLine
 10
177.894051
 20
160.08084
 30
0.0
 11
177.685278
 21
160.08084
 31
0.0
  0
LINE
  5
3A9
330
A
100
AcDbEntity
  8
0
 62
     7
100
AcDbLine
 10
177.894051
 20
160.08084
 30
0.0
 11
177.685278
 21
160.08084
 31
0.0
  0
LINE
  5
3A8
330
A
100
AcDbEntity
  8
0
 62
     7
100
AcDbLine
 10
177.894051
 20
160.144402
 30
0.0
 11
177.894051
 21
160.08084
 31
0.0
  0
LINE
  5
3A7
330
A
100
AcDbEntity
  8
0
 62
     7
100
AcDbLine
 10
177.894051
 20
160.247238
 30
0.0
 11
177.894051
 21
160.144402
 31
0.0
  0
LINE
  5
3A6
330
A
100
AcDbEntity
  8
0
 62
     7
100
AcDbLine
 10
177.894051
 20
160.350247
 30
0.0
 11
177.894051
 21
160.247238
 31
0.0
  0
LINE
  5
3A5
330
A
100
AcDbEntity
  8
0
 62
     7
100
AcDbLine
 10
177.894051
 20
160.413809
 30
0.0
 11
177.894051
 21
160.350247
 31
0.0
  0
LINE
  5
3A4
330
A
100
AcDbEntity
  8
0
 62
     7
100
AcDbLine
 10
177.894051
 20
160.350247
 30
0.0
 11
177.894051
 21
160.413809
 31
0.0
  0
LINE
  5
3A3
330
A
100
AcDbEntity
  8
0
 62
     7
100
AcDbLine
 10
177.894051
 20
160.247238
 30
0.0
 11
177.894051
 21
160.350247
 31
0.0
  0
LINE
  5
3A2
330
A
100
AcDbEntity
  8
0
 62
     7
100
AcDbLine
 10
177.894051
 20
160.144402
 30
0.0
 11
177.894051
 21
160.247238
 31
0.0
  0
LINE
  5
3A1
330
A
100
AcDbEntity
  8
0
 62
     7
100
AcDbLine
 10
177.894051
 20
160.08084
 30
0.0
 11
177.894051
 21
160.144402
 31
0.0
  0
LINE
  5
3A0
330
A
100
AcDbEntity
  8
0
 62
     7
100
AcDbLine
 10
177.894051
 20
159.623848
 30
0.0
 11
177.685278
 21
159.623848
 31
0.0
  0
LINE
  5
39F
330
A
100
AcDbEntity
  8
0
 62
     7
100
AcDbLine
 10
177.894051
 20
159.290708
 30
0.0
 11
177.685278
 21
159.290708
 31
0.0
  0
LINE
  5
39E
330
A
100
AcDbEntity
  8
0
 62
     7
100
AcDbLine
 10
177.894051
 20
159.354442
 30
0.0
 11
177.894051
 21
159.290708
 31
0.0
  0
LINE
  5
39D
330
A
100
AcDbEntity
  8
0
 62
     7
100
AcDbLine
 10
177.894051
 20
159.457278
 30
0.0
 11
177.894051
 21
159.354442
 31
0.0
  0
LINE
  5
39C
330
A
100
AcDbEntity
  8
0
 62
     7
100
AcDbLine
 10
177.894051
 20
159.560286
 30
0.0
 11
177.894051
 21
159.457278
 31
0.0
  0
LINE
  5
39B
330
A
100
AcDbEntity
  8
0
 62
     7
100
AcDbLine
 10
177.894051
 20
159.623848
 30
0.0
 11
177.894051
 21
159.560286
 31
0.0
  0
LINE
  5
39A
330
A
100
AcDbEntity
  8
0
 62
     7
100
AcDbLine
 10
177.894051
 20
159.560286
 30
0.0
 11
177.894051
 21
159.623848
 31
0.0
  0
LINE
  5
399
330
A
100
AcDbEntity
  8
0
 62
     7
100
AcDbLine
 10
177.894051
 20
159.457278
 30
0.0
 11
177.894051
 21
159.560286
 31
0.0
  0
LINE
  5
398
330
A
100
AcDbEntity
  8
0
 62
     7
100
AcDbLine
 10
177.894051
 20
159.354442
 30
0.0
 11
177.894051
 21
159.457278
 31
0.0
  0
LINE
  5
397
330
A
100
AcDbEntity
  8
0
 62
     7
100
AcDbLine
 10
177.894051
 20
159.290708
 30
0.0
 11
177.894051
 21
159.354442
 31
0.0
  0
LINE
  5
396
330
A
100
AcDbEntity
  8
0
 62
     7
100
AcDbLine
 10
177.894051
 20
159.354442
 30
0.0
 11
177.894051
 21
159.290708
 31
0.0
  0
LINE
  5
395
330
A
100
AcDbEntity
  8
0
 62
     7
100
AcDbLine
 10
177.894051
 20
159.457278
 30
0.0
 11
177.894051
 21
159.354442
 31
0.0
  0
LINE
  5
394
330
A
100
AcDbEntity
  8
0
 62
     7
100
AcDbLine
 10
177.894051
 20
159.560286
 30
0.0
 11
177.894051
 21
159.457278
 31
0.0
  0
LINE
  5
393
330
A
100
AcDbEntity
  8
0
 62
     7
100
AcDbLine
 10
177.894051
 20
159.623848
 30
0.0
 11
177.894051
 21
159.560286
 31
0.0
  0
LINE
  5
392
330
A
100
AcDbEntity
  8
0
 62
     7
100
AcDbLine
 10
177.894051
 20
159.560286
 30
0.0
 11
177.894051
 21
159.623848
 31
0.0
  0
LINE
  5
391
330
A
100
AcDbEntity
  8
0
 62
     7
100
AcDbLine
 10
177.894051
 20
159.457278
 30
0.0
 11
177.894051
 21
159.560286
 31
0.0
  0
LINE
  5
390
330
A
100
AcDbEntity
  8
0
 62
     7
100
AcDbLine
 10
177.894051
 20
159.354442
 30
0.0
 11
177.894051
 21
159.457278
 31
0.0
  0
LINE
  5
38F
330
A
100
AcDbEntity
  8
0
 62
     7
100
AcDbLine
 10
177.894051
 20
159.290708
 30
0.0
 11
177.894051
 21
159.354442
 31
0.0
  0
LINE
  5
38E
330
A
100
AcDbEntity
  8
0
 62
     7
100
AcDbLine
 10
177.894051
 20
159.354442
 30
0.0
 11
177.894051
 21
159.290708
 31
0.0
  0
LINE
  5
38D
330
A
100
AcDbEntity
  8
0
 62
     7
100
AcDbLine
 10
177.894051
 20
159.457278
 30
0.0
 11
177.894051
 21
159.354442
 31
0.0
  0
LINE
  5
38C
330
A
100
AcDbEntity
  8
0
 62
     7
100
AcDbLine
 10
177.894051
 20
159.560286
 30
0.0
 11
177.894051
 21
159.457278
 31
0.0
  0
LINE
  5
38B
330
A
100
AcDbEntity
  8
0
 62
     7
100
AcDbLine
 10
177.894051
 20
159.623848
 30
0.0
 11
177.894051
 21
159.560286
 31
0.0
  0
LINE
  5
38A
330
A
100
AcDbEntity
  8
0
 62
     7
100
AcDbLine
 10
177.894051
 20
159.560286
 30
0.0
 11
177.894051
 21
159.623848
 31
0.0
  0
LINE
  5
389
330
A
100
AcDbEntity
  8
0
 62
     7
100
AcDbLine
 10
177.894051
 20
159.457278
 30
0.0
 11
177.894051
 21
159.560286
 31
0.0
  0
LINE
  5
388
330
A
100
AcDbEntity
  8
0
 62
     7
100
AcDbLine
 10
177.894051
 20
159.354442
 30
0.0
 11
177.894051
 21
159.457278
 31
0.0
  0
LINE
  5
387
330
A
100
AcDbEntity
  8
0
 62
     7
100
AcDbLine
 10
177.894051
 20
159.290708
 30
0.0
 11
177.894051
 21
159.354442
 31
0.0
  0
LINE
  5
386
330
A
100
AcDbEntity
  8
0
 62
     7
100
AcDbLine
 10
177.894051
 20
159.354442
 30
0.0
 11
177.894051
 21
159.290708
 31
0.0
  0
LINE
  5
385
330
A
100
AcDbEntity
  8
0
 62
     7
100
AcDbLine
 10
177.894051
 20
159.457278
 30
0.0
 11
177.894051
 21
159.354442
 31
0.0
  0
LINE
  5
384
330
A
100
AcDbEntity
  8
0
 62
     7
100
AcDbLine
 10
177.894051
 20
159.560286
 30
0.0
 11
177.894051
 21
159.457278
 31
0.0
  0
LINE
  5
383
330
A
100
AcDbEntity
  8
0
 62
     7
100
AcDbLine
 10
177.894051
 20
159.623848
 30
0.0
 11
177.894051
 21
159.560286
 31
0.0
  0
LINE
  5
382
330
A
100
AcDbEntity
  8
0
 62
     7
100
AcDbLine
 10
177.894051
 20
159.560286
 30
0.0
 11
177.894051
 21
159.623848
 31
0.0
  0
LINE
  5
381
330
A
100
AcDbEntity
  8
0
 62
     7
100
AcDbLine
 10
177.894051
 20
159.457278
 30
0.0
 11
177.894051
 21
159.560286
 31
0.0
  0
LINE
  5
380
330
A
100
AcDbEntity
  8
0
 62
     7
100
AcDbLine
 10
177.894051
 20
159.354442
 30
0.0
 11
177.894051
 21
159.457278
 31
0.0
  0
LINE
  5
37F
330
A
100
AcDbEntity
  8
0
 62
     7
100
AcDbLine
 10
177.894051
 20
159.290708
 30
0.0
 11
177.894051
 21
159.354442
 31
0.0
  0
LINE
  5
37E
330
A
100
AcDbEntity
  8
0
 62
     7
100
AcDbLine
 10
177.894051
 20
159.354442
 30
0.0
 11
177.894051
 21
159.290708
 31
0.0
  0
LINE
  5
37D
330
A
100
AcDbEntity
  8
0
 62
     7
100
AcDbLine
 10
177.894051
 20
159.457278
 30
0.0
 11
177.894051
 21
159.354442
 31
0.0
  0
LINE
  5
37C
330
A
100
AcDbEntity
  8
0
 62
     7
100
AcDbLine
 10
177.894051
 20
159.560286
 30
0.0
 11
177.894051
 21
159.457278
 31
0.0
  0
LINE
  5
37B
330
A
100
AcDbEntity
  8
0
 62
     7
100
AcDbLine
 10
177.894051
 20
159.623848
 30
0.0
 11
177.894051
 21
159.560286
 31
0.0
  0
LINE
  5
37A
330
A
100
AcDbEntity
  8
0
 62
     7
100
AcDbLine
 10
177.894051
 20
159.560286
 30
0.0
 11
177.894051
 21
159.623848
 31
0.0
  0
LINE
  5
379
330
A
100
AcDbEntity
  8
0
 62
     7
100
AcDbLine
 10
177.894051
 20
159.457278
 30
0.0
 11
177.894051
 21
159.560286
 31
0.0
  0
LINE
  5
378
330
A
100
AcDbEntity
  8
0
 62
     7
100
AcDbLine
 10
177.894051
 20
159.354442
 30
0.0
 11
177.894051
 21
159.457278
 31
0.0
  0
LINE
  5
377
330
A
100
AcDbEntity
  8
0
 62
     7
100
AcDbLine
 10
177.894051
 20
159.290708
 30
0.0
 11
177.894051
 21
159.354442
 31
0.0
  0
LINE
  5
376
330
A
100
AcDbEntity
  8
0
 62
     7
100
AcDbLine
 10
177.894051
 20
158.829926
 30
0.0
 11
177.685278
 21
158.829926
 31
0.0
  0
LINE
  5
375
330
A
100
AcDbEntity
  8
0
 62
     7
100
AcDbLine
 10
177.894051
 20
158.829926
 30
0.0
 11
177.685278
 21
158.829926
 31
0.0
  0
LINE
  5
374
330
A
100
AcDbEntity
  8
0
 62
     7
100
AcDbLine
 10
177.894051
 20
158.496785
 30
0.0
 11
177.685278
 21
158.496785
 31
0.0
  0
LINE
  5
373
330
A
100
AcDbEntity
  8
0
 62
     7
100
AcDbLine
 10
177.894051
 20
158.560347
 30
0.0
 11
177.894051
 21
158.496785
 31
0.0
  0
LINE
  5
372
330
A
100
AcDbEntity
  8
0
 62
     7
100
AcDbLine
 10
177.894051
 20
158.663356
 30
0.0
 11
177.894051
 21
158.560347
 31
0.0
  0
LINE
  5
371
330
A
100
AcDbEntity
  8
0
 62
     7
100
AcDbLine
 10
177.894051
 20
158.766192
 30
0.0
 11
177.894051
 21
158.663356
 31
0.0
  0
LINE
  5
370
330
A
100
AcDbEntity
  8
0
 62
     7
100
AcDbLine
 10
177.894051
 20
158.829926
 30
0.0
 11
177.894051
 21
158.766192
 31
0.0
  0
LINE
  5
36F
330
A
100
AcDbEntity
  8
0
 62
     7
100
AcDbLine
 10
177.894051
 20
158.766192
 30
0.0
 11
177.894051
 21
158.829926
 31
0.0
  0
LINE
  5
36E
330
A
100
AcDbEntity
  8
0
 62
     7
100
AcDbLine
 10
177.894051
 20
158.663356
 30
0.0
 11
177.894051
 21
158.766192
 31
0.0
  0
LINE
  5
36D
330
A
100
AcDbEntity
  8
0
 62
     7
100
AcDbLine
 10
177.894051
 20
158.560347
 30
0.0
 11
177.894051
 21
158.663356
 31
0.0
  0
LINE
  5
36C
330
A
100
AcDbEntity
  8
0
 62
     7
100
AcDbLine
 10
177.894051
 20
158.496785
 30
0.0
 11
177.894051
 21
158.560347
 31
0.0
  0
LINE
  5
36B
330
A
100
AcDbEntity
  8
0
 62
     7
100
AcDbLine
 10
177.894051
 20
158.829926
 30
0.0
 11
177.685278
 21
158.829926
 31
0.0
  0
LINE
  5
36A
330
A
100
AcDbEntity
  8
0
 62
     7
100
AcDbLine
 10
177.894051
 20
158.829926
 30
0.0
 11
177.685278
 21
158.829926
 31
0.0
  0
LINE
  5
369
330
A
100
AcDbEntity
  8
0
 62
     7
100
AcDbLine
 10
177.894051
 20
158.560347
 30
0.0
 11
177.894051
 21
158.496785
 31
0.0
  0
LINE
  5
368
330
A
100
AcDbEntity
  8
0
 62
     7
100
AcDbLine
 10
177.894051
 20
158.663356
 30
0.0
 11
177.894051
 21
158.560347
 31
0.0
  0
LINE
  5
367
330
A
100
AcDbEntity
  8
0
 62
     7
100
AcDbLine
 10
177.894051
 20
158.766192
 30
0.0
 11
177.894051
 21
158.663356
 31
0.0
  0
LINE
  5
366
330
A
100
AcDbEntity
  8
0
 62
     7
100
AcDbLine
 10
177.894051
 20
158.829926
 30
0.0
 11
177.894051
 21
158.766192
 31
0.0
  0
LINE
  5
365
330
A
100
AcDbEntity
  8
0
 62
     7
100
AcDbLine
 10
177.894051
 20
158.766192
 30
0.0
 11
177.894051
 21
158.829926
 31
0.0
  0
LINE
  5
364
330
A
100
AcDbEntity
  8
0
 62
     7
100
AcDbLine
 10
177.894051
 20
158.663356
 30
0.0
 11
177.894051
 21
158.766192
 31
0.0
  0
LINE
  5
363
330
A
100
AcDbEntity
  8
0
 62
     7
100
AcDbLine
 10
177.894051
 20
158.560347
 30
0.0
 11
177.894051
 21
158.663356
 31
0.0
  0
LINE
  5
362
330
A
100
AcDbEntity
  8
0
 62
     7
100
AcDbLine
 10
177.894051
 20
158.496785
 30
0.0
 11
177.894051
 21
158.560347
 31
0.0
  0
LINE
  5
361
330
A
100
AcDbEntity
  8
0
 62
     7
100
AcDbLine
 10
177.894051
 20
158.829926
 30
0.0
 11
177.685278
 21
158.829926
 31
0.0
  0
LINE
  5
360
330
A
100
AcDbEntity
  8
0
 62
     7
100
AcDbLine
 10
177.894051
 20
158.829926
 30
0.0
 11
177.685278
 21
158.829926
 31
0.0
  0
LINE
  5
35F
330
A
100
AcDbEntity
  8
0
 62
     7
100
AcDbLine
 10
177.894051
 20
158.560347
 30
0.0
 11
177.894051
 21
158.496785
 31
0.0
  0
LINE
  5
35E
330
A
100
AcDbEntity
  8
0
 62
     7
100
AcDbLine
 10
177.894051
 20
158.663356
 30
0.0
 11
177.894051
 21
158.560347
 31
0.0
  0
LINE
  5
35D
330
A
100
AcDbEntity
  8
0
 62
     7
100
AcDbLine
 10
177.894051
 20
158.766192
 30
0.0
 11
177.894051
 21
158.663356
 31
0.0
  0
LINE
  5
35C
330
A
100
AcDbEntity
  8
0
 62
     7
100
AcDbLine
 10
177.894051
 20
158.829926
 30
0.0
 11
177.894051
 21
158.766192
 31
0.0
  0
LINE
  5
35B
330
A
100
AcDbEntity
  8
0
 62
     7
100
AcDbLine
 10
177.894051
 20
158.766192
 30
0.0
 11
177.894051
 21
158.829926
 31
0.0
  0
LINE
  5
35A
330
A
100
AcDbEntity
  8
0
 62
     7
100
AcDbLine
 10
177.894051
 20
158.663356
 30
0.0
 11
177.894051
 21
158.766192
 31
0.0
  0
LINE
  5
359
330
A
100
AcDbEntity
  8
0
 62
     7
100
AcDbLine
 10
177.894051
 20
158.560347
 30
0.0
 11
177.894051
 21
158.663356
 31
0.0
  0
LINE
  5
358
330
A
100
AcDbEntity
  8
0
 62
     7
100
AcDbLine
 10
177.894051
 20
158.496785
 30
0.0
 11
177.894051
 21
158.560347
 31
0.0
  0
LINE
  5
357
330
A
100
AcDbEntity
  8
0
 62
     7
100
AcDbLine
 10
177.894051
 20
158.829926
 30
0.0
 11
177.685278
 21
158.829926
 31
0.0
  0
LINE
  5
356
330
A
100
AcDbEntity
  8
0
 62
     7
100
AcDbLine
 10
177.894051
 20
158.829926
 30
0.0
 11
177.685278
 21
158.829926
 31
0.0
  0
LINE
  5
355
330
A
100
AcDbEntity
  8
0
 62
     7
100
AcDbLine
 10
177.894051
 20
158.560347
 30
0.0
 11
177.894051
 21
158.496785
 31
0.0
  0
LINE
  5
354
330
A
100
AcDbEntity
  8
0
 62
     7
100
AcDbLine
 10
177.894051
 20
158.663356
 30
0.0
 11
177.894051
 21
158.560347
 31
0.0
  0
LINE
  5
353
330
A
100
AcDbEntity
  8
0
 62
     7
100
AcDbLine
 10
177.894051
 20
158.766192
 30
0.0
 11
177.894051
 21
158.663356
 31
0.0
  0
LINE
  5
352
330
A
100
AcDbEntity
  8
0
 62
     7
100
AcDbLine
 10
177.894051
 20
158.829926
 30
0.0
 11
177.894051
 21
158.766192
 31
0.0
  0
LINE
  5
351
330
A
100
AcDbEntity
  8
0
 62
     7
100
AcDbLine
 10
177.894051
 20
158.766192
 30
0.0
 11
177.894051
 21
158.829926
 31
0.0
  0
LINE
  5
350
330
A
100
AcDbEntity
  8
0
 62
     7
100
AcDbLine
 10
177.894051
 20
158.663356
 30
0.0
 11
177.894051
 21
158.766192
 31
0.0
  0
LINE
  5
34F
330
A
100
AcDbEntity
  8
0
 62
     7
100
AcDbLine
 10
177.894051
 20
158.560347
 30
0.0
 11
177.894051
 21
158.663356
 31
0.0
  0
LINE
  5
34E
330
A
100
AcDbEntity
  8
0
 62
     7
100
AcDbLine
 10
177.894051
 20
158.496785
 30
0.0
 11
177.894051
 21
158.560347
 31
0.0
  0
LINE
  5
34D
330
A
100
AcDbEntity
  8
0
 62
     7
100
AcDbLine
 10
177.894051
 20
158.829926
 30
0.0
 11
177.685278
 21
158.829926
 31
0.0
  0
LINE
  5
34C
330
A
100
AcDbEntity
  8
0
 62
     7
100
AcDbLine
 10
177.894051
 20
158.829926
 30
0.0
 11
177.685278
 21
158.829926
 31
0.0
  0
LINE
  5
34B
330
A
100
AcDbEntity
  8
0
 62
     7
100
AcDbLine
 10
177.894051
 20
158.560347
 30
0.0
 11
177.894051
 21
158.496785
 31
0.0
  0
LINE
  5
34A
330
A
100
AcDbEntity
  8
0
 62
     7
100
AcDbLine
 10
177.894051
 20
158.663356
 30
0.0
 11
177.894051
 21
158.560347
 31
0.0
  0
LINE
  5
349
330
A
100
AcDbEntity
  8
0
 62
     7
100
AcDbLine
 10
177.894051
 20
158.766192
 30
0.0
 11
177.894051
 21
158.663356
 31
0.0
  0
LINE
  5
348
330
A
100
AcDbEntity
  8
0
 62
     7
100
AcDbLine
 10
177.894051
 20
158.829926
 30
0.0
 11
177.894051
 21
158.766192
 31
0.0
  0
LINE
  5
347
330
A
100
AcDbEntity
  8
0
 62
     7
100
AcDbLine
 10
177.894051
 20
158.766192
 30
0.0
 11
177.894051
 21
158.829926
 31
0.0
  0
LINE
  5
346
330
A
100
AcDbEntity
  8
0
 62
     7
100
AcDbLine
 10
177.894051
 20
158.663356
 30
0.0
 11
177.894051
 21
158.766192
 31
0.0
  0
LINE
  5
345
330
A
100
AcDbEntity
  8
0
 62
     7
100
AcDbLine
 10
177.894051
 20
158.560347
 30
0.0
 11
177.894051
 21
158.663356
 31
0.0
  0
LINE
  5
344
330
A
100
AcDbEntity
  8
0
 62
     7
100
AcDbLine
 10
177.894051
 20
158.496785
 30
0.0
 11
177.894051
 21
158.560347
 31
0.0
  0
LINE
  5
343
330
A
100
AcDbEntity
  8
0
 62
     7
100
AcDbLine
 10
177.894051
 20
158.035832
 30
0.0
 11
177.685278
 21
158.035832
 31
0.0
  0
LINE
  5
342
330
A
100
AcDbEntity
  8
0
 62
     7
100
AcDbLine
 10
177.894051
 20
158.035832
 30
0.0
 11
177.685278
 21
158.035832
 31
0.0
  0
LINE
  5
341
330
A
100
AcDbEntity
  8
0
 62
     7
100
AcDbLine
 10
177.894051
 20
157.702691
 30
0.0
 11
177.685278
 21
157.702691
 31
0.0
  0
LINE
  5
340
330
A
100
AcDbEntity
  8
0
 62
     7
100
AcDbLine
 10
177.894051
 20
157.702691
 30
0.0
 11
177.685278
 21
157.702691
 31
0.0
  0
LINE
  5
33F
330
A
100
AcDbEntity
  8
0
 62
     7
100
AcDbLine
 10
177.894051
 20
157.766425
 30
0.0
 11
177.894051
 21
157.702691
 31
0.0
  0
LINE
  5
33E
330
A
100
AcDbEntity
  8
0
 62
     7
100
AcDbLine
 10
177.894051
 20
157.869261
 30
0.0
 11
177.894051
 21
157.766425
 31
0.0
  0
LINE
  5
33D
330
A
100
AcDbEntity
  8
0
 62
     7
100
AcDbLine
 10
177.894051
 20
157.97227
 30
0.0
 11
177.894051
 21
157.869261
 31
0.0
  0
LINE
  5
33C
330
A
100
AcDbEntity
  8
0
 62
     7
100
AcDbLine
 10
177.894051
 20
158.035832
 30
0.0
 11
177.894051
 21
157.97227
 31
0.0
  0
LINE
  5
33B
330
A
100
AcDbEntity
  8
0
 62
     7
100
AcDbLine
 10
177.894051
 20
157.97227
 30
0.0
 11
177.894051
 21
158.035832
 31
0.0
  0
LINE
  5
33A
330
A
100
AcDbEntity
  8
0
 62
     7
100
AcDbLine
 10
177.894051
 20
157.869261
 30
0.0
 11
177.894051
 21
157.97227
 31
0.0
  0
LINE
  5
339
330
A
100
AcDbEntity
  8
0
 62
     7
100
AcDbLine
 10
177.894051
 20
157.766425
 30
0.0
 11
177.894051
 21
157.869261
 31
0.0
  0
LINE
  5
338
330
A
100
AcDbEntity
  8
0
 62
     7
100
AcDbLine
 10
177.894051
 20
157.702691
 30
0.0
 11
177.894051
 21
157.766425
 31
0.0
  0
LINE
  5
337
330
A
100
AcDbEntity
  8
0
 62
     7
100
AcDbLine
 10
177.894051
 20
158.035832
 30
0.0
 11
177.685278
 21
158.035832
 31
0.0
  0
LINE
  5
336
330
A
100
AcDbEntity
  8
0
 62
     7
100
AcDbLine
 10
177.894051
 20
158.035832
 30
0.0
 11
177.685278
 21
158.035832
 31
0.0
  0
LINE
  5
335
330
A
100
AcDbEntity
  8
0
 62
     7
100
AcDbLine
 10
177.894051
 20
157.702691
 30
0.0
 11
177.685278
 21
157.702691
 31
0.0
  0
LINE
  5
334
330
A
100
AcDbEntity
  8
0
 62
     7
100
AcDbLine
 10
177.894051
 20
157.702691
 30
0.0
 11
177.685278
 21
157.702691
 31
0.0
  0
LINE
  5
333
330
A
100
AcDbEntity
  8
0
 62
     7
100
AcDbLine
 10
177.894051
 20
157.766425
 30
0.0
 11
177.894051
 21
157.702691
 31
0.0
  0
LINE
  5
332
330
A
100
AcDbEntity
  8
0
 62
     7
100
AcDbLine
 10
177.894051
 20
157.869261
 30
0.0
 11
177.894051
 21
157.766425
 31
0.0
  0
LINE
  5
331
330
A
100
AcDbEntity
  8
0
 62
     7
100
AcDbLine
 10
177.894051
 20
157.97227
 30
0.0
 11
177.894051
 21
157.869261
 31
0.0
  0
LINE
  5
330
330
A
100
AcDbEntity
  8
0
 62
     7
100
AcDbLine
 10
177.894051
 20
158.035832
 30
0.0
 11
177.894051
 21
157.97227
 31
0.0
  0
LINE
  5
32F
330
A
100
AcDbEntity
  8
0
 62
     7
100
AcDbLine
 10
177.894051
 20
157.97227
 30
0.0
 11
177.894051
 21
158.035832
 31
0.0
  0
LINE
  5
32E
330
A
100
AcDbEntity
  8
0
 62
     7
100
AcDbLine
 10
177.894051
 20
157.869261
 30
0.0
 11
177.894051
 21
157.97227
 31
0.0
  0
LINE
  5
32D
330
A
100
AcDbEntity
  8
0
 62
     7
100
AcDbLine
 10
177.894051
 20
157.766425
 30
0.0
 11
177.894051
 21
157.869261
 31
0.0
  0
LINE
  5
32C
330
A
100
AcDbEntity
  8
0
 62
     7
100
AcDbLine
 10
177.894051
 20
157.702691
 30
0.0
 11
177.894051
 21
157.766425
 31
0.0
  0
LINE
  5
32B
330
A
100
AcDbEntity
  8
0
 62
     7
100
AcDbLine
 10
177.894051
 20
158.035832
 30
0.0
 11
177.685278
 21
158.035832
 31
0.0
  0
LINE
  5
32A
330
A
100
AcDbEntity
  8
0
 62
     7
100
AcDbLine
 10
177.894051
 20
158.035832
 30
0.0
 11
177.685278
 21
158.035832
 31
0.0
  0
LINE
  5
329
330
A
100
AcDbEntity
  8
0
 62
     7
100
AcDbLine
 10
177.894051
 20
157.702691
 30
0.0
 11
177.685278
 21
157.702691
 31
0.0
  0
LINE
  5
328
330
A
100
AcDbEntity
  8
0
 62
     7
100
AcDbLine
 10
177.894051
 20
157.702691
 30
0.0
 11
177.685278
 21
157.702691
 31
0.0
  0
LINE
  5
327
330
A
100
AcDbEntity
  8
0
 62
     7
100
AcDbLine
 10
177.894051
 20
157.766425
 30
0.0
 11
177.894051
 21
157.702691
 31
0.0
  0
LINE
  5
326
330
A
100
AcDbEntity
  8
0
 62
     7
100
AcDbLine
 10
177.894051
 20
157.869261
 30
0.0
 11
177.894051
 21
157.766425
 31
0.0
  0
LINE
  5
325
330
A
100
AcDbEntity
  8
0
 62
     7
100
AcDbLine
 10
177.894051
 20
157.97227
 30
0.0
 11
177.894051
 21
157.869261
 31
0.0
  0
LINE
  5
324
330
A
100
AcDbEntity
  8
0
 62
     7
100
AcDbLine
 10
177.894051
 20
158.035832
 30
0.0
 11
177.894051
 21
157.97227
 31
0.0
  0
LINE
  5
323
330
A
100
AcDbEntity
  8
0
 62
     7
100
AcDbLine
 10
177.894051
 20
157.97227
 30
0.0
 11
177.894051
 21
158.035832
 31
0.0
  0
LINE
  5
322
330
A
100
AcDbEntity
  8
0
 62
     7
100
AcDbLine
 10
177.894051
 20
157.869261
 30
0.0
 11
177.894051
 21
157.97227
 31
0.0
  0
LINE
  5
321
330
A
100
AcDbEntity
  8
0
 62
     7
100
AcDbLine
 10
177.894051
 20
157.766425
 30
0.0
 11
177.894051
 21
157.869261
 31
0.0
  0
LINE
  5
320
330
A
100
AcDbEntity
  8
0
 62
     7
100
AcDbLine
 10
177.894051
 20
157.702691
 30
0.0
 11
177.894051
 21
157.766425
 31
0.0
  0
LINE
  5
31F
330
A
100
AcDbEntity
  8
0
 62
     7
100
AcDbLine
 10
177.894051
 20
158.035832
 30
0.0
 11
177.685278
 21
158.035832
 31
0.0
  0
LINE
  5
31E
330
A
100
AcDbEntity
  8
0
 62
     7
100
AcDbLine
 10
177.894051
 20
158.035832
 30
0.0
 11
177.685278
 21
158.035832
 31
0.0
  0
LINE
  5
31D
330
A
100
AcDbEntity
  8
0
 62
     7
100
AcDbLine
 10
177.894051
 20
157.702691
 30
0.0
 11
177.685278
 21
157.702691
 31
0.0
  0
LINE
  5
31C
330
A
100
AcDbEntity
  8
0
 62
     7
100
AcDbLine
 10
177.894051
 20
157.702691
 30
0.0
 11
177.685278
 21
157.702691
 31
0.0
  0
LINE
  5
31B
330
A
100
AcDbEntity
  8
0
 62
     7
100
AcDbLine
 10
177.894051
 20
157.766425
 30
0.0
 11
177.894051
 21
157.702691
 31
0.0
  0
LINE
  5
31A
330
A
100
AcDbEntity
  8
0
 62
     7
100
AcDbLine
 10
177.894051
 20
157.869261
 30
0.0
 11
177.894051
 21
157.766425
 31
0.0
  0
LINE
  5
319
330
A
100
AcDbEntity
  8
0
 62
     7
100
AcDbLine
 10
177.894051
 20
157.97227
 30
0.0
 11
177.894051
 21
157.869261
 31
0.0
  0
LINE
  5
318
330
A
100
AcDbEntity
  8
0
 62
     7
100
AcDbLine
 10
177.894051
 20
158.035832
 30
0.0
 11
177.894051
 21
157.97227
 31
0.0
  0
LINE
  5
317
330
A
100
AcDbEntity
  8
0
 62
     7
100
AcDbLine
 10
177.894051
 20
157.97227
 30
0.0
 11
177.894051
 21
158.035832
 31
0.0
  0
LINE
  5
316
330
A
100
AcDbEntity
  8
0
 62
     7
100
AcDbLine
 10
177.894051
 20
157.869261
 30
0.0
 11
177.894051
 21
157.97227
 31
0.0
  0
LINE
  5
315
330
A
100
AcDbEntity
  8
0
 62
     7
100
AcDbLine
 10
177.894051
 20
157.766425
 30
0.0
 11
177.894051
 21
157.869261
 31
0.0
  0
LINE
  5
314
330
A
100
AcDbEntity
  8
0
 62
     7
100
AcDbLine
 10
177.894051
 20
157.702691
 30
0.0
 11
177.894051
 21
157.766425
 31
0.0
  0
LINE
  5
313
330
A
100
AcDbEntity
  8
0
 62
     7
100
AcDbLine
 10
177.894051
 20
158.035832
 30
0.0
 11
177.685278
 21
158.035832
 31
0.0
  0
LINE
  5
312
330
A
100
AcDbEntity
  8
0
 62
     7
100
AcDbLine
 10
177.894051
 20
158.035832
 30
0.0
 11
177.685278
 21
158.035832
 31
0.0
  0
LINE
  5
311
330
A
100
AcDbEntity
  8
0
 62
     7
100
AcDbLine
 10
177.894051
 20
157.702691
 30
0.0
 11
177.685278
 21
157.702691
 31
0.0
  0
LINE
  5
310
330
A
100
AcDbEntity
  8
0
 62
     7
100
AcDbLine
 10
177.894051
 20
157.702691
 30
0.0
 11
177.685278
 21
157.702691
 31
0.0
  0
LINE
  5
30F
330
A
100
AcDbEntity
  8
0
 62
     7
100
AcDbLine
 10
177.894051
 20
157.766425
 30
0.0
 11
177.894051
 21
157.702691
 31
0.0
  0
LINE
  5
30E
330
A
100
AcDbEntity
  8
0
 62
     7
100
AcDbLine
 10
177.894051
 20
157.869261
 30
0.0
 11
177.894051
 21
157.766425
 31
0.0
  0
LINE
  5
30D
330
A
100
AcDbEntity
  8
0
 62
     7
100
AcDbLine
 10
177.894051
 20
157.97227
 30
0.0
 11
177.894051
 21
157.869261
 31
0.0
  0
LINE
  5
30C
330
A
100
AcDbEntity
  8
0
 62
     7
100
AcDbLine
 10
177.894051
 20
158.035832
 30
0.0
 11
177.894051
 21
157.97227
 31
0.0
  0
LINE
  5
30B
330
A
100
AcDbEntity
  8
0
 62
     7
100
AcDbLine
 10
177.894051
 20
157.97227
 30
0.0
 11
177.894051
 21
158.035832
 31
0.0
  0
LINE
  5
30A
330
A
100
AcDbEntity
  8
0
 62
     7
100
AcDbLine
 10
177.894051
 20
157.869261
 30
0.0
 11
177.894051
 21
157.97227
 31
0.0
  0
LINE
  5
309
330
A
100
AcDbEntity
  8
0
 62
     7
100
AcDbLine
 10
177.894051
 20
157.766425
 30
0.0
 11
177.894051
 21
157.869261
 31
0.0
  0
LINE
  5
308
330
A
100
AcDbEntity
  8
0
 62
     7
100
AcDbLine
 10
177.894051
 20
157.702691
 30
0.0
 11
177.894051
 21
157.766425
 31
0.0
  0
LINE
  5
307
330
A
100
AcDbEntity
  8
0
 62
     7
100
AcDbLine
 10
177.641353
 20
132.72816
 30
0.0
 11
177.641353
 21
132.812565
 31
0.0
  0
LINE
  5
306
330
A
100
AcDbEntity
  8
0
 62
     7
100
AcDbLine
 10
177.641353
 20
132.812565
 30
0.0
 11
177.641353
 21
132.877677
 31
0.0
  0
LINE
  5
305
330
A
100
AcDbEntity
  8
0
 62
     7
100
AcDbLine
 10
177.641353
 20
132.877677
 30
0.0
 11
177.641353
 21
132.92143
 31
0.0
  0
LINE
  5
304
330
A
100
AcDbEntity
  8
0
 62
     7
100
AcDbLine
 10
177.641353
 20
132.92143
 30
0.0
 11
177.641353
 21
132.938656
 31
0.0
  0
LINE
  5
303
330
A
100
AcDbEntity
  8
0
 62
     7
100
AcDbLine
 10
177.641353
 20
132.938656
 30
0.0
 11
177.685278
 21
132.832547
 31
0.0
  0
LINE
  5
302
330
A
100
AcDbEntity
  8
0
 62
     7
100
AcDbLine
 10
177.535244
 20
132.982408
 30
0.0
 11
177.641353
 21
132.938656
 31
0.0
  0
LINE
  5
301
330
A
100
AcDbEntity
  8
0
 62
     7
100
AcDbLine
 10
177.641353
 20
125.90446
 30
0.0
 11
177.685278
 21
126.010569
 31
0.0
  0
LINE
  5
300
330
A
100
AcDbEntity
  8
0
 62
     7
100
AcDbLine
 10
177.641353
 20
125.90446
 30
0.0
 11
177.641353
 21
125.921341
 31
0.0
  0
LINE
  5
2FF
330
A
100
AcDbEntity
  8
0
 62
     7
100
AcDbLine
 10
177.535244
 20
125.860362
 30
0.0
 11
177.641353
 21
125.90446
 31
0.0
  0
LINE
  5
2FE
330
A
100
AcDbEntity
  8
0
 62
     7
100
AcDbLine
 10
177.641353
 20
125.921341
 30
0.0
 11
177.641353
 21
125.965438
 31
0.0
  0
LINE
  5
2FD
330
A
100
AcDbEntity
  8
0
 62
     7
100
AcDbLine
 10
177.641353
 20
125.965438
 30
0.0
 11
177.641353
 21
126.03055
 31
0.0
  0
LINE
  5
2FC
330
A
100
AcDbEntity
  8
0
 62
     7
100
AcDbLine
 10
177.641353
 20
126.03055
 30
0.0
 11
177.641353
 21
126.114955
 31
0.0
  0
LINE
  5
2FB
330
A
100
AcDbEntity
  8
0
 62
     7
100
AcDbLine
 10
177.641353
 20
126.114955
 30
0.0
 11
177.641353
 21
132.72816
 31
0.0
  0
LINE
  5
2FA
330
A
100
AcDbEntity
  8
0
 62
     7
100
AcDbLine
 10
177.449978
 20
132.982408
 30
0.0
 11
177.535244
 21
132.982408
 31
0.0
  0
LINE
  5
2F9
330
A
100
AcDbEntity
  8
0
 62
     7
100
AcDbLine
 10
177.449978
 20
125.860362
 30
0.0
 11
177.535244
 21
125.860362
 31
0.0
  0
LINE
  5
2F8
330
A
100
AcDbEntity
  8
0
 62
     7
100
AcDbLine
 10
177.685278
 20
126.021248
 30
0.0
 11
177.685278
 21
126.010569
 31
0.0
  0
LINE
  5
2F7
330
A
100
AcDbEntity
  8
0
 62
     7
100
AcDbLine
 10
177.685278
 20
126.041574
 30
0.0
 11
177.685278
 21
126.021248
 31
0.0
  0
LINE
  5
2F6
330
A
100
AcDbEntity
  8
0
 62
     7
100
AcDbLine
 10
177.685278
 20
126.072236
 30
0.0
 11
177.685278
 21
126.041574
 31
0.0
  0
LINE
  5
2F5
330
A
100
AcDbEntity
  8
0
 62
     7
100
AcDbLine
 10
177.685278
 20
126.12529
 30
0.0
 11
177.685278
 21
126.072236
 31
0.0
  0
LINE
  5
2F4
330
A
100
AcDbEntity
  8
0
 62
     7
100
AcDbLine
 10
177.685278
 20
132.71748
 30
0.0
 11
177.685278
 21
126.12529
 31
0.0
  0
LINE
  5
2F3
330
A
100
AcDbEntity
  8
0
 62
     7
100
AcDbLine
 10
177.685278
 20
132.770879
 30
0.0
 11
177.685278
 21
132.71748
 31
0.0
  0
LINE
  5
2F2
330
A
100
AcDbEntity
  8
0
 62
     7
100
AcDbLine
 10
177.685278
 20
132.801196
 30
0.0
 11
177.685278
 21
132.770879
 31
0.0
  0
LINE
  5
2F1
330
A
100
AcDbEntity
  8
0
 62
     7
100
AcDbLine
 10
177.685278
 20
132.821522
 30
0.0
 11
177.685278
 21
132.801196
 31
0.0
  0
LINE
  5
2F0
330
A
100
AcDbEntity
  8
0
 62
     7
100
AcDbLine
 10
177.685278
 20
132.832547
 30
0.0
 11
177.685278
 21
132.821522
 31
0.0
  0
LINE
  5
2EF
330
A
100
AcDbEntity
  8
0
 62
     7
100
AcDbLine
 10
177.894051
 20
131.209907
 30
0.0
 11
177.685278
 21
131.209907
 31
0.0
  0
LINE
  5
2EE
330
A
100
AcDbEntity
  8
0
 62
     7
100
AcDbLine
 10
177.894051
 20
131.146172
 30
0.0
 11
177.685278
 21
131.146172
 31
0.0
  0
LINE
  5
2ED
330
A
100
AcDbEntity
  8
0
 62
     7
100
AcDbLine
 10
177.894051
 20
131.043164
 30
0.0
 11
177.685278
 21
131.043164
 31
0.0
  0
LINE
  5
2EC
330
A
100
AcDbEntity
  8
0
 62
     7
100
AcDbLine
 10
177.894051
 20
130.9405
 30
0.0
 11
177.685278
 21
130.9405
 31
0.0
  0
LINE
  5
2EB
330
A
100
AcDbEntity
  8
0
 62
     7
100
AcDbLine
 10
177.894051
 20
130.876766
 30
0.0
 11
177.685278
 21
130.876766
 31
0.0
  0
LINE
  5
2EA
330
A
100
AcDbEntity
  8
0
 62
     7
100
AcDbLine
 10
177.894051
 20
130.9405
 30
0.0
 11
177.894051
 21
130.876766
 31
0.0
  0
LINE
  5
2E9
330
A
100
AcDbEntity
  8
0
 62
     7
100
AcDbLine
 10
177.894051
 20
131.043164
 30
0.0
 11
177.894051
 21
130.9405
 31
0.0
  0
LINE
  5
2E8
330
A
100
AcDbEntity
  8
0
 62
     7
100
AcDbLine
 10
177.894051
 20
131.146172
 30
0.0
 11
177.894051
 21
131.043164
 31
0.0
  0
LINE
  5
2E7
330
A
100
AcDbEntity
  8
0
 62
     7
100
AcDbLine
 10
177.894051
 20
131.209907
 30
0.0
 11
177.894051
 21
131.146172
 31
0.0
  0
LINE
  5
2E6
330
A
100
AcDbEntity
  8
0
 62
     7
100
AcDbLine
 10
177.894051
 20
131.146172
 30
0.0
 11
177.894051
 21
131.209907
 31
0.0
  0
LINE
  5
2E5
330
A
100
AcDbEntity
  8
0
 62
     7
100
AcDbLine
 10
177.894051
 20
131.043164
 30
0.0
 11
177.894051
 21
131.146172
 31
0.0
  0
LINE
  5
2E4
330
A
100
AcDbEntity
  8
0
 62
     7
100
AcDbLine
 10
177.894051
 20
130.9405
 30
0.0
 11
177.894051
 21
131.043164
 31
0.0
  0
LINE
  5
2E3
330
A
100
AcDbEntity
  8
0
 62
     7
100
AcDbLine
 10
177.894051
 20
130.876766
 30
0.0
 11
177.894051
 21
130.9405
 31
0.0
  0
LINE
  5
2E2
330
A
100
AcDbEntity
  8
0
 62
     7
100
AcDbLine
 10
177.894051
 20
130.9405
 30
0.0
 11
177.894051
 21
130.876766
 31
0.0
  0
LINE
  5
2E1
330
A
100
AcDbEntity
  8
0
 62
     7
100
AcDbLine
 10
177.894051
 20
131.043164
 30
0.0
 11
177.894051
 21
130.9405
 31
0.0
  0
LINE
  5
2E0
330
A
100
AcDbEntity
  8
0
 62
     7
100
AcDbLine
 10
177.894051
 20
131.146172
 30
0.0
 11
177.894051
 21
131.043164
 31
0.0
  0
LINE
  5
2DF
330
A
100
AcDbEntity
  8
0
 62
     7
100
AcDbLine
 10
177.894051
 20
131.209907
 30
0.0
 11
177.894051
 21
131.146172
 31
0.0
  0
LINE
  5
2DE
330
A
100
AcDbEntity
  8
0
 62
     7
100
AcDbLine
 10
177.894051
 20
131.146172
 30
0.0
 11
177.894051
 21
131.209907
 31
0.0
  0
LINE
  5
2DD
330
A
100
AcDbEntity
  8
0
 62
     7
100
AcDbLine
 10
177.894051
 20
131.043164
 30
0.0
 11
177.894051
 21
131.146172
 31
0.0
  0
LINE
  5
2DC
330
A
100
AcDbEntity
  8
0
 62
     7
100
AcDbLine
 10
177.894051
 20
130.9405
 30
0.0
 11
177.894051
 21
131.043164
 31
0.0
  0
LINE
  5
2DB
330
A
100
AcDbEntity
  8
0
 62
     7
100
AcDbLine
 10
177.894051
 20
130.876766
 30
0.0
 11
177.894051
 21
130.9405
 31
0.0
  0
LINE
  5
2DA
330
A
100
AcDbEntity
  8
0
 62
     7
100
AcDbLine
 10
177.894051
 20
130.9405
 30
0.0
 11
177.894051
 21
130.876766
 31
0.0
  0
LINE
  5
2D9
330
A
100
AcDbEntity
  8
0
 62
     7
100
AcDbLine
 10
177.894051
 20
131.043164
 30
0.0
 11
177.894051
 21
130.9405
 31
0.0
  0
LINE
  5
2D8
330
A
100
AcDbEntity
  8
0
 62
     7
100
AcDbLine
 10
177.894051
 20
131.146172
 30
0.0
 11
177.894051
 21
131.043164
 31
0.0
  0
LINE
  5
2D7
330
A
100
AcDbEntity
  8
0
 62
     7
100
AcDbLine
 10
177.894051
 20
131.209907
 30
0.0
 11
177.894051
 21
131.146172
 31
0.0
  0
LINE
  5
2D6
330
A
100
AcDbEntity
  8
0
 62
     7
100
AcDbLine
 10
177.894051
 20
131.146172
 30
0.0
 11
177.894051
 21
131.209907
 31
0.0
  0
LINE
  5
2D5
330
A
100
AcDbEntity
  8
0
 62
     7
100
AcDbLine
 10
177.894051
 20
131.043164
 30
0.0
 11
177.894051
 21
131.146172
 31
0.0
  0
LINE
  5
2D4
330
A
100
AcDbEntity
  8
0
 62
     7
100
AcDbLine
 10
177.894051
 20
130.9405
 30
0.0
 11
177.894051
 21
131.043164
 31
0.0
  0
LINE
  5
2D3
330
A
100
AcDbEntity
  8
0
 62
     7
100
AcDbLine
 10
177.894051
 20
130.876766
 30
0.0
 11
177.894051
 21
130.9405
 31
0.0
  0
LINE
  5
2D2
330
A
100
AcDbEntity
  8
0
 62
     7
100
AcDbLine
 10
177.894051
 20
130.9405
 30
0.0
 11
177.894051
 21
130.876766
 31
0.0
  0
LINE
  5
2D1
330
A
100
AcDbEntity
  8
0
 62
     7
100
AcDbLine
 10
177.894051
 20
131.043164
 30
0.0
 11
177.894051
 21
130.9405
 31
0.0
  0
LINE
  5
2D0
330
A
100
AcDbEntity
  8
0
 62
     7
100
AcDbLine
 10
177.894051
 20
131.146172
 30
0.0
 11
177.894051
 21
131.043164
 31
0.0
  0
LINE
  5
2CF
330
A
100
AcDbEntity
  8
0
 62
     7
100
AcDbLine
 10
177.894051
 20
131.209907
 30
0.0
 11
177.894051
 21
131.146172
 31
0.0
  0
LINE
  5
2CE
330
A
100
AcDbEntity
  8
0
 62
     7
100
AcDbLine
 10
177.894051
 20
131.146172
 30
0.0
 11
177.894051
 21
131.209907
 31
0.0
  0
LINE
  5
2CD
330
A
100
AcDbEntity
  8
0
 62
     7
100
AcDbLine
 10
177.894051
 20
131.043164
 30
0.0
 11
177.894051
 21
131.146172
 31
0.0
  0
LINE
  5
2CC
330
A
100
AcDbEntity
  8
0
 62
     7
100
AcDbLine
 10
177.894051
 20
130.9405
 30
0.0
 11
177.894051
 21
131.043164
 31
0.0
  0
LINE
  5
2CB
330
A
100
AcDbEntity
  8
0
 62
     7
100
AcDbLine
 10
177.894051
 20
130.876766
 30
0.0
 11
177.894051
 21
130.9405
 31
0.0
  0
LINE
  5
2CA
330
A
100
AcDbEntity
  8
0
 62
     7
100
AcDbLine
 10
177.894051
 20
130.9405
 30
0.0
 11
177.894051
 21
130.876766
 31
0.0
  0
LINE
  5
2C9
330
A
100
AcDbEntity
  8
0
 62
     7
100
AcDbLine
 10
177.894051
 20
131.043164
 30
0.0
 11
177.894051
 21
130.9405
 31
0.0
  0
LINE
  5
2C8
330
A
100
AcDbEntity
  8
0
 62
     7
100
AcDbLine
 10
177.894051
 20
131.146172
 30
0.0
 11
177.894051
 21
131.043164
 31
0.0
  0
LINE
  5
2C7
330
A
100
AcDbEntity
  8
0
 62
     7
100
AcDbLine
 10
177.894051
 20
131.209907
 30
0.0
 11
177.894051
 21
131.146172
 31
0.0
  0
LINE
  5
2C6
330
A
100
AcDbEntity
  8
0
 62
     7
100
AcDbLine
 10
177.894051
 20
131.146172
 30
0.0
 11
177.894051
 21
131.209907
 31
0.0
  0
LINE
  5
2C5
330
A
100
AcDbEntity
  8
0
 62
     7
100
AcDbLine
 10
177.894051
 20
131.043164
 30
0.0
 11
177.894051
 21
131.146172
 31
0.0
  0
LINE
  5
2C4
330
A
100
AcDbEntity
  8
0
 62
     7
100
AcDbLine
 10
177.894051
 20
130.9405
 30
0.0
 11
177.894051
 21
131.043164
 31
0.0
  0
LINE
  5
2C3
330
A
100
AcDbEntity
  8
0
 62
     7
100
AcDbLine
 10
177.894051
 20
130.876766
 30
0.0
 11
177.894051
 21
130.9405
 31
0.0
  0
LINE
  5
2C2
330
A
100
AcDbEntity
  8
0
 62
     7
100
AcDbLine
 10
177.894051
 20
130.413745
 30
0.0
 11
177.685278
 21
130.413745
 31
0.0
  0
LINE
  5
2C1
330
A
100
AcDbEntity
  8
0
 62
     7
100
AcDbLine
 10
177.894051
 20
130.350355
 30
0.0
 11
177.685278
 21
130.350355
 31
0.0
  0
LINE
  5
2C0
330
A
100
AcDbEntity
  8
0
 62
     7
100
AcDbLine
 10
177.894051
 20
130.247347
 30
0.0
 11
177.685278
 21
130.247347
 31
0.0
  0
LINE
  5
2BF
330
A
100
AcDbEntity
  8
0
 62
     7
100
AcDbLine
 10
177.894051
 20
130.144339
 30
0.0
 11
177.685278
 21
130.144339
 31
0.0
  0
LINE
  5
2BE
330
A
100
AcDbEntity
  8
0
 62
     7
100
AcDbLine
 10
177.894051
 20
130.080604
 30
0.0
 11
177.685278
 21
130.080604
 31
0.0
  0
LINE
  5
2BD
330
A
100
AcDbEntity
  8
0
 62
     7
100
AcDbLine
 10
177.894051
 20
130.144339
 30
0.0
 11
177.894051
 21
130.080604
 31
0.0
  0
LINE
  5
2BC
330
A
100
AcDbEntity
  8
0
 62
     7
100
AcDbLine
 10
177.894051
 20
130.247347
 30
0.0
 11
177.894051
 21
130.144339
 31
0.0
  0
LINE
  5
2BB
330
A
100
AcDbEntity
  8
0
 62
     7
100
AcDbLine
 10
177.894051
 20
130.350355
 30
0.0
 11
177.894051
 21
130.247347
 31
0.0
  0
LINE
  5
2BA
330
A
100
AcDbEntity
  8
0
 62
     7
100
AcDbLine
 10
177.894051
 20
130.413745
 30
0.0
 11
177.894051
 21
130.350355
 31
0.0
  0
LINE
  5
2B9
330
A
100
AcDbEntity
  8
0
 62
     7
100
AcDbLine
 10
177.894051
 20
130.350355
 30
0.0
 11
177.894051
 21
130.413745
 31
0.0
  0
LINE
  5
2B8
330
A
100
AcDbEntity
  8
0
 62
     7
100
AcDbLine
 10
177.894051
 20
130.247347
 30
0.0
 11
177.894051
 21
130.350355
 31
0.0
  0
LINE
  5
2B7
330
A
100
AcDbEntity
  8
0
 62
     7
100
AcDbLine
 10
177.894051
 20
130.144339
 30
0.0
 11
177.894051
 21
130.247347
 31
0.0
  0
LINE
  5
2B6
330
A
100
AcDbEntity
  8
0
 62
     7
100
AcDbLine
 10
177.894051
 20
130.080604
 30
0.0
 11
177.894051
 21
130.144339
 31
0.0
  0
LINE
  5
2B5
330
A
100
AcDbEntity
  8
0
 62
     7
100
AcDbLine
 10
177.894051
 20
130.144339
 30
0.0
 11
177.894051
 21
130.080604
 31
0.0
  0
LINE
  5
2B4
330
A
100
AcDbEntity
  8
0
 62
     7
100
AcDbLine
 10
177.894051
 20
130.247347
 30
0.0
 11
177.894051
 21
130.144339
 31
0.0
  0
LINE
  5
2B3
330
A
100
AcDbEntity
  8
0
 62
     7
100
AcDbLine
 10
177.894051
 20
130.350355
 30
0.0
 11
177.894051
 21
130.247347
 31
0.0
  0
LINE
  5
2B2
330
A
100
AcDbEntity
  8
0
 62
     7
100
AcDbLine
 10
177.894051
 20
130.413745
 30
0.0
 11
177.894051
 21
130.350355
 31
0.0
  0
LINE
  5
2B1
330
A
100
AcDbEntity
  8
0
 62
     7
100
AcDbLine
 10
177.894051
 20
130.350355
 30
0.0
 11
177.894051
 21
130.413745
 31
0.0
  0
LINE
  5
2B0
330
A
100
AcDbEntity
  8
0
 62
     7
100
AcDbLine
 10
177.894051
 20
130.247347
 30
0.0
 11
177.894051
 21
130.350355
 31
0.0
  0
LINE
  5
2AF
330
A
100
AcDbEntity
  8
0
 62
     7
100
AcDbLine
 10
177.894051
 20
130.144339
 30
0.0
 11
177.894051
 21
130.247347
 31
0.0
  0
LINE
  5
2AE
330
A
100
AcDbEntity
  8
0
 62
     7
100
AcDbLine
 10
177.894051
 20
130.080604
 30
0.0
 11
177.894051
 21
130.144339
 31
0.0
  0
LINE
  5
2AD
330
A
100
AcDbEntity
  8
0
 62
     7
100
AcDbLine
 10
177.894051
 20
130.144339
 30
0.0
 11
177.894051
 21
130.080604
 31
0.0
  0
LINE
  5
2AC
330
A
100
AcDbEntity
  8
0
 62
     7
100
AcDbLine
 10
177.894051
 20
130.247347
 30
0.0
 11
177.894051
 21
130.144339
 31
0.0
  0
LINE
  5
2AB
330
A
100
AcDbEntity
  8
0
 62
     7
100
AcDbLine
 10
177.894051
 20
130.350355
 30
0.0
 11
177.894051
 21
130.247347
 31
0.0
  0
LINE
  5
2AA
330
A
100
AcDbEntity
  8
0
 62
     7
100
AcDbLine
 10
177.894051
 20
130.413745
 30
0.0
 11
177.894051
 21
130.350355
 31
0.0
  0
LINE
  5
2A9
330
A
100
AcDbEntity
  8
0
 62
     7
100
AcDbLine
 10
177.894051
 20
130.350355
 30
0.0
 11
177.894051
 21
130.413745
 31
0.0
  0
LINE
  5
2A8
330
A
100
AcDbEntity
  8
0
 62
     7
100
AcDbLine
 10
177.894051
 20
130.247347
 30
0.0
 11
177.894051
 21
130.350355
 31
0.0
  0
LINE
  5
2A7
330
A
100
AcDbEntity
  8
0
 62
     7
100
AcDbLine
 10
177.894051
 20
130.144339
 30
0.0
 11
177.894051
 21
130.247347
 31
0.0
  0
LINE
  5
2A6
330
A
100
AcDbEntity
  8
0
 62
     7
100
AcDbLine
 10
177.894051
 20
130.080604
 30
0.0
 11
177.894051
 21
130.144339
 31
0.0
  0
LINE
  5
2A5
330
A
100
AcDbEntity
  8
0
 62
     7
100
AcDbLine
 10
177.894051
 20
130.144339
 30
0.0
 11
177.894051
 21
130.080604
 31
0.0
  0
LINE
  5
2A4
330
A
100
AcDbEntity
  8
0
 62
     7
100
AcDbLine
 10
177.894051
 20
130.247347
 30
0.0
 11
177.894051
 21
130.144339
 31
0.0
  0
LINE
  5
2A3
330
A
100
AcDbEntity
  8
0
 62
     7
100
AcDbLine
 10
177.894051
 20
130.350355
 30
0.0
 11
177.894051
 21
130.247347
 31
0.0
  0
LINE
  5
2A2
330
A
100
AcDbEntity
  8
0
 62
     7
100
AcDbLine
 10
177.894051
 20
130.413745
 30
0.0
 11
177.894051
 21
130.350355
 31
0.0
  0
LINE
  5
2A1
330
A
100
AcDbEntity
  8
0
 62
     7
100
AcDbLine
 10
177.894051
 20
130.350355
 30
0.0
 11
177.894051
 21
130.413745
 31
0.0
  0
LINE
  5
2A0
330
A
100
AcDbEntity
  8
0
 62
     7
100
AcDbLine
 10
177.894051
 20
130.247347
 30
0.0
 11
177.894051
 21
130.350355
 31
0.0
  0
LINE
  5
29F
330
A
100
AcDbEntity
  8
0
 62
     7
100
AcDbLine
 10
177.894051
 20
130.144339
 30
0.0
 11
177.894051
 21
130.247347
 31
0.0
  0
LINE
  5
29E
330
A
100
AcDbEntity
  8
0
 62
     7
100
AcDbLine
 10
177.894051
 20
130.080604
 30
0.0
 11
177.894051
 21
130.144339
 31
0.0
  0
LINE
  5
29D
330
A
100
AcDbEntity
  8
0
 62
     7
100
AcDbLine
 10
177.894051
 20
130.144339
 30
0.0
 11
177.894051
 21
130.080604
 31
0.0
  0
LINE
  5
29C
330
A
100
AcDbEntity
  8
0
 62
     7
100
AcDbLine
 10
177.894051
 20
130.247347
 30
0.0
 11
177.894051
 21
130.144339
 31
0.0
  0
LINE
  5
29B
330
A
100
AcDbEntity
  8
0
 62
     7
100
AcDbLine
 10
177.894051
 20
130.350355
 30
0.0
 11
177.894051
 21
130.247347
 31
0.0
  0
LINE
  5
29A
330
A
100
AcDbEntity
  8
0
 62
     7
100
AcDbLine
 10
177.894051
 20
130.413745
 30
0.0
 11
177.894051
 21
130.350355
 31
0.0
  0
LINE
  5
299
330
A
100
AcDbEntity
  8
0
 62
     7
100
AcDbLine
 10
177.894051
 20
130.350355
 30
0.0
 11
177.894051
 21
130.413745
 31
0.0
  0
LINE
  5
298
330
A
100
AcDbEntity
  8
0
 62
     7
100
AcDbLine
 10
177.894051
 20
130.247347
 30
0.0
 11
177.894051
 21
130.350355
 31
0.0
  0
LINE
  5
297
330
A
100
AcDbEntity
  8
0
 62
     7
100
AcDbLine
 10
177.894051
 20
130.144339
 30
0.0
 11
177.894051
 21
130.247347
 31
0.0
  0
LINE
  5
296
330
A
100
AcDbEntity
  8
0
 62
     7
100
AcDbLine
 10
177.894051
 20
130.080604
 30
0.0
 11
177.894051
 21
130.144339
 31
0.0
  0
LINE
  5
295
330
A
100
AcDbEntity
  8
0
 62
     7
100
AcDbLine
 10
177.894051
 20
129.623785
 30
0.0
 11
177.685278
 21
129.623785
 31
0.0
  0
LINE
  5
294
330
A
100
AcDbEntity
  8
0
 62
     7
100
AcDbLine
 10
177.894051
 20
129.623785
 30
0.0
 11
177.685278
 21
129.623785
 31
0.0
  0
LINE
  5
293
330
A
100
AcDbEntity
  8
0
 62
     7
100
AcDbLine
 10
177.894051
 20
129.560395
 30
0.0
 11
177.685278
 21
129.560395
 31
0.0
  0
LINE
  5
292
330
A
100
AcDbEntity
  8
0
 62
     7
100
AcDbLine
 10
177.894051
 20
129.457387
 30
0.0
 11
177.685278
 21
129.457387
 31
0.0
  0
LINE
  5
291
330
A
100
AcDbEntity
  8
0
 62
     7
100
AcDbLine
 10
177.894051
 20
129.354378
 30
0.0
 11
177.685278
 21
129.354378
 31
0.0
  0
LINE
  5
290
330
A
100
AcDbEntity
  8
0
 62
     7
100
AcDbLine
 10
177.894051
 20
129.290644
 30
0.0
 11
177.685278
 21
129.290644
 31
0.0
  0
LINE
  5
28F
330
A
100
AcDbEntity
  8
0
 62
     7
100
AcDbLine
 10
177.894051
 20
129.290644
 30
0.0
 11
177.685278
 21
129.290644
 31
0.0
  0
LINE
  5
28E
330
A
100
AcDbEntity
  8
0
 62
     7
100
AcDbLine
 10
177.894051
 20
129.354378
 30
0.0
 11
177.894051
 21
129.290644
 31
0.0
  0
LINE
  5
28D
330
A
100
AcDbEntity
  8
0
 62
     7
100
AcDbLine
 10
177.894051
 20
129.457387
 30
0.0
 11
177.894051
 21
129.354378
 31
0.0
  0
LINE
  5
28C
330
A
100
AcDbEntity
  8
0
 62
     7
100
AcDbLine
 10
177.894051
 20
129.560395
 30
0.0
 11
177.894051
 21
129.457387
 31
0.0
  0
LINE
  5
28B
330
A
100
AcDbEntity
  8
0
 62
     7
100
AcDbLine
 10
177.894051
 20
129.623785
 30
0.0
 11
177.894051
 21
129.560395
 31
0.0
  0
LINE
  5
28A
330
A
100
AcDbEntity
  8
0
 62
     7
100
AcDbLine
 10
177.894051
 20
129.560395
 30
0.0
 11
177.894051
 21
129.623785
 31
0.0
  0
LINE
  5
289
330
A
100
AcDbEntity
  8
0
 62
     7
100
AcDbLine
 10
177.894051
 20
129.457387
 30
0.0
 11
177.894051
 21
129.560395
 31
0.0
  0
LINE
  5
288
330
A
100
AcDbEntity
  8
0
 62
     7
100
AcDbLine
 10
177.894051
 20
129.354378
 30
0.0
 11
177.894051
 21
129.457387
 31
0.0
  0
LINE
  5
287
330
A
100
AcDbEntity
  8
0
 62
     7
100
AcDbLine
 10
177.894051
 20
129.290644
 30
0.0
 11
177.894051
 21
129.354378
 31
0.0
  0
LINE
  5
286
330
A
100
AcDbEntity
  8
0
 62
     7
100
AcDbLine
 10
177.894051
 20
129.623785
 30
0.0
 11
177.685278
 21
129.623785
 31
0.0
  0
LINE
  5
285
330
A
100
AcDbEntity
  8
0
 62
     7
100
AcDbLine
 10
177.894051
 20
129.623785
 30
0.0
 11
177.685278
 21
129.623785
 31
0.0
  0
LINE
  5
284
330
A
100
AcDbEntity
  8
0
 62
     7
100
AcDbLine
 10
177.894051
 20
129.290644
 30
0.0
 11
177.685278
 21
129.290644
 31
0.0
  0
LINE
  5
283
330
A
100
AcDbEntity
  8
0
 62
     7
100
AcDbLine
 10
177.894051
 20
129.290644
 30
0.0
 11
177.685278
 21
129.290644
 31
0.0
  0
LINE
  5
282
330
A
100
AcDbEntity
  8
0
 62
     7
100
AcDbLine
 10
177.894051
 20
129.354378
 30
0.0
 11
177.894051
 21
129.290644
 31
0.0
  0
LINE
  5
281
330
A
100
AcDbEntity
  8
0
 62
     7
100
AcDbLine
 10
177.894051
 20
129.457387
 30
0.0
 11
177.894051
 21
129.354378
 31
0.0
  0
LINE
  5
280
330
A
100
AcDbEntity
  8
0
 62
     7
100
AcDbLine
 10
177.894051
 20
129.560395
 30
0.0
 11
177.894051
 21
129.457387
 31
0.0
  0
LINE
  5
27F
330
A
100
AcDbEntity
  8
0
 62
     7
100
AcDbLine
 10
177.894051
 20
129.623785
 30
0.0
 11
177.894051
 21
129.560395
 31
0.0
  0
LINE
  5
27E
330
A
100
AcDbEntity
  8
0
 62
     7
100
AcDbLine
 10
177.894051
 20
129.560395
 30
0.0
 11
177.894051
 21
129.623785
 31
0.0
  0
LINE
  5
27D
330
A
100
AcDbEntity
  8
0
 62
     7
100
AcDbLine
 10
177.894051
 20
129.457387
 30
0.0
 11
177.894051
 21
129.560395
 31
0.0
  0
LINE
  5
27C
330
A
100
AcDbEntity
  8
0
 62
     7
100
AcDbLine
 10
177.894051
 20
129.354378
 30
0.0
 11
177.894051
 21
129.457387
 31
0.0
  0
LINE
  5
27B
330
A
100
AcDbEntity
  8
0
 62
     7
100
AcDbLine
 10
177.894051
 20
129.290644
 30
0.0
 11
177.894051
 21
129.354378
 31
0.0
  0
LINE
  5
27A
330
A
100
AcDbEntity
  8
0
 62
     7
100
AcDbLine
 10
177.894051
 20
129.623785
 30
0.0
 11
177.685278
 21
129.623785
 31
0.0
  0
LINE
  5
279
330
A
100
AcDbEntity
  8
0
 62
     7
100
AcDbLine
 10
177.894051
 20
129.623785
 30
0.0
 11
177.685278
 21
129.623785
 31
0.0
  0
LINE
  5
278
330
A
100
AcDbEntity
  8
0
 62
     7
100
AcDbLine
 10
177.894051
 20
129.290644
 30
0.0
 11
177.685278
 21
129.290644
 31
0.0
  0
LINE
  5
277
330
A
100
AcDbEntity
  8
0
 62
     7
100
AcDbLine
 10
177.894051
 20
129.290644
 30
0.0
 11
177.685278
 21
129.290644
 31
0.0
  0
LINE
  5
276
330
A
100
AcDbEntity
  8
0
 62
     7
100
AcDbLine
 10
177.894051
 20
129.354378
 30
0.0
 11
177.894051
 21
129.290644
 31
0.0
  0
LINE
  5
275
330
A
100
AcDbEntity
  8
0
 62
     7
100
AcDbLine
 10
177.894051
 20
129.457387
 30
0.0
 11
177.894051
 21
129.354378
 31
0.0
  0
LINE
  5
274
330
A
100
AcDbEntity
  8
0
 62
     7
100
AcDbLine
 10
177.894051
 20
129.560395
 30
0.0
 11
177.894051
 21
129.457387
 31
0.0
  0
LINE
  5
273
330
A
100
AcDbEntity
  8
0
 62
     7
100
AcDbLine
 10
177.894051
 20
129.623785
 30
0.0
 11
177.894051
 21
129.560395
 31
0.0
  0
LINE
  5
272
330
A
100
AcDbEntity
  8
0
 62
     7
100
AcDbLine
 10
177.894051
 20
129.560395
 30
0.0
 11
177.894051
 21
129.623785
 31
0.0
  0
LINE
  5
271
330
A
100
AcDbEntity
  8
0
 62
     7
100
AcDbLine
 10
177.894051
 20
129.457387
 30
0.0
 11
177.894051
 21
129.560395
 31
0.0
  0
LINE
  5
270
330
A
100
AcDbEntity
  8
0
 62
     7
100
AcDbLine
 10
177.894051
 20
129.354378
 30
0.0
 11
177.894051
 21
129.457387
 31
0.0
  0
LINE
  5
26F
330
A
100
AcDbEntity
  8
0
 62
     7
100
AcDbLine
 10
177.894051
 20
129.290644
 30
0.0
 11
177.894051
 21
129.354378
 31
0.0
  0
LINE
  5
26E
330
A
100
AcDbEntity
  8
0
 62
     7
100
AcDbLine
 10
177.894051
 20
129.623785
 30
0.0
 11
177.685278
 21
129.623785
 31
0.0
  0
LINE
  5
26D
330
A
100
AcDbEntity
  8
0
 62
     7
100
AcDbLine
 10
177.894051
 20
129.623785
 30
0.0
 11
177.685278
 21
129.623785
 31
0.0
  0
LINE
  5
26C
330
A
100
AcDbEntity
  8
0
 62
     7
100
AcDbLine
 10
177.894051
 20
129.290644
 30
0.0
 11
177.685278
 21
129.290644
 31
0.0
  0
LINE
  5
26B
330
A
100
AcDbEntity
  8
0
 62
     7
100
AcDbLine
 10
177.894051
 20
129.290644
 30
0.0
 11
177.685278
 21
129.290644
 31
0.0
  0
LINE
  5
26A
330
A
100
AcDbEntity
  8
0
 62
     7
100
AcDbLine
 10
177.894051
 20
129.354378
 30
0.0
 11
177.894051
 21
129.290644
 31
0.0
  0
LINE
  5
269
330
A
100
AcDbEntity
  8
0
 62
     7
100
AcDbLine
 10
177.894051
 20
129.457387
 30
0.0
 11
177.894051
 21
129.354378
 31
0.0
  0
LINE
  5
268
330
A
100
AcDbEntity
  8
0
 62
     7
100
AcDbLine
 10
177.894051
 20
129.560395
 30
0.0
 11
177.894051
 21
129.457387
 31
0.0
  0
LINE
  5
267
330
A
100
AcDbEntity
  8
0
 62
     7
100
AcDbLine
 10
177.894051
 20
129.623785
 30
0.0
 11
177.894051
 21
129.560395
 31
0.0
  0
LINE
  5
266
330
A
100
AcDbEntity
  8
0
 62
     7
100
AcDbLine
 10
177.894051
 20
129.560395
 30
0.0
 11
177.894051
 21
129.623785
 31
0.0
  0
LINE
  5
265
330
A
100
AcDbEntity
  8
0
 62
     7
100
AcDbLine
 10
177.894051
 20
129.457387
 30
0.0
 11
177.894051
 21
129.560395
 31
0.0
  0
LINE
  5
264
330
A
100
AcDbEntity
  8
0
 62
     7
100
AcDbLine
 10
177.894051
 20
129.354378
 30
0.0
 11
177.894051
 21
129.457387
 31
0.0
  0
LINE
  5
263
330
A
100
AcDbEntity
  8
0
 62
     7
100
AcDbLine
 10
177.894051
 20
129.290644
 30
0.0
 11
177.894051
 21
129.354378
 31
0.0
  0
LINE
  5
262
330
A
100
AcDbEntity
  8
0
 62
     7
100
AcDbLine
 10
177.894051
 20
129.623785
 30
0.0
 11
177.685278
 21
129.623785
 31
0.0
  0
LINE
  5
261
330
A
100
AcDbEntity
  8
0
 62
     7
100
AcDbLine
 10
177.894051
 20
129.623785
 30
0.0
 11
177.685278
 21
129.623785
 31
0.0
  0
LINE
  5
260
330
A
100
AcDbEntity
  8
0
 62
     7
100
AcDbLine
 10
177.894051
 20
129.290644
 30
0.0
 11
177.685278
 21
129.290644
 31
0.0
  0
LINE
  5
25F
330
A
100
AcDbEntity
  8
0
 62
     7
100
AcDbLine
 10
177.894051
 20
129.290644
 30
0.0
 11
177.685278
 21
129.290644
 31
0.0
  0
LINE
  5
25E
330
A
100
AcDbEntity
  8
0
 62
     7
100
AcDbLine
 10
177.894051
 20
129.354378
 30
0.0
 11
177.894051
 21
129.290644
 31
0.0
  0
LINE
  5
25D
330
A
100
AcDbEntity
  8
0
 62
     7
100
AcDbLine
 10
177.894051
 20
129.457387
 30
0.0
 11
177.894051
 21
129.354378
 31
0.0
  0
LINE
  5
25C
330
A
100
AcDbEntity
  8
0
 62
     7
100
AcDbLine
 10
177.894051
 20
129.560395
 30
0.0
 11
177.894051
 21
129.457387
 31
0.0
  0
LINE
  5
25B
330
A
100
AcDbEntity
  8
0
 62
     7
100
AcDbLine
 10
177.894051
 20
129.623785
 30
0.0
 11
177.894051
 21
129.560395
 31
0.0
  0
LINE
  5
25A
330
A
100
AcDbEntity
  8
0
 62
     7
100
AcDbLine
 10
177.894051
 20
129.560395
 30
0.0
 11
177.894051
 21
129.623785
 31
0.0
  0
LINE
  5
259
330
A
100
AcDbEntity
  8
0
 62
     7
100
AcDbLine
 10
177.894051
 20
129.457387
 30
0.0
 11
177.894051
 21
129.560395
 31
0.0
  0
LINE
  5
258
330
A
100
AcDbEntity
  8
0
 62
     7
100
AcDbLine
 10
177.894051
 20
129.354378
 30
0.0
 11
177.894051
 21
129.457387
 31
0.0
  0
LINE
  5
257
330
A
100
AcDbEntity
  8
0
 62
     7
100
AcDbLine
 10
177.894051
 20
129.290644
 30
0.0
 11
177.894051
 21
129.354378
 31
0.0
  0
LINE
  5
256
330
A
100
AcDbEntity
  8
0
 62
     7
100
AcDbLine
 10
177.894051
 20
128.82969
 30
0.0
 11
177.685278
 21
128.82969
 31
0.0
  0
LINE
  5
255
330
A
100
AcDbEntity
  8
0
 62
     7
100
AcDbLine
 10
177.894051
 20
128.82969
 30
0.0
 11
177.685278
 21
128.82969
 31
0.0
  0
LINE
  5
254
330
A
100
AcDbEntity
  8
0
 62
     7
100
AcDbLine
 10
177.894051
 20
128.7663
 30
0.0
 11
177.685278
 21
128.7663
 31
0.0
  0
LINE
  5
253
330
A
100
AcDbEntity
  8
0
 62
     7
100
AcDbLine
 10
177.894051
 20
128.663292
 30
0.0
 11
177.685278
 21
128.663292
 31
0.0
  0
LINE
  5
252
330
A
100
AcDbEntity
  8
0
 62
     7
100
AcDbLine
 10
177.894051
 20
128.560284
 30
0.0
 11
177.685278
 21
128.560284
 31
0.0
  0
LINE
  5
251
330
A
100
AcDbEntity
  8
0
 62
     7
100
AcDbLine
 10
177.894051
 20
128.496894
 30
0.0
 11
177.685278
 21
128.496894
 31
0.0
  0
LINE
  5
250
330
A
100
AcDbEntity
  8
0
 62
     7
100
AcDbLine
 10
177.894051
 20
128.496894
 30
0.0
 11
177.685278
 21
128.496894
 31
0.0
  0
LINE
  5
24F
330
A
100
AcDbEntity
  8
0
 62
     7
100
AcDbLine
 10
177.894051
 20
128.560284
 30
0.0
 11
177.894051
 21
128.496894
 31
0.0
  0
LINE
  5
24E
330
A
100
AcDbEntity
  8
0
 62
     7
100
AcDbLine
 10
177.894051
 20
128.663292
 30
0.0
 11
177.894051
 21
128.560284
 31
0.0
  0
LINE
  5
24D
330
A
100
AcDbEntity
  8
0
 62
     7
100
AcDbLine
 10
177.894051
 20
128.7663
 30
0.0
 11
177.894051
 21
128.663292
 31
0.0
  0
LINE
  5
24C
330
A
100
AcDbEntity
  8
0
 62
     7
100
AcDbLine
 10
177.894051
 20
128.82969
 30
0.0
 11
177.894051
 21
128.7663
 31
0.0
  0
LINE
  5
24B
330
A
100
AcDbEntity
  8
0
 62
     7
100
AcDbLine
 10
177.894051
 20
128.7663
 30
0.0
 11
177.894051
 21
128.82969
 31
0.0
  0
LINE
  5
24A
330
A
100
AcDbEntity
  8
0
 62
     7
100
AcDbLine
 10
177.894051
 20
128.663292
 30
0.0
 11
177.894051
 21
128.7663
 31
0.0
  0
LINE
  5
249
330
A
100
AcDbEntity
  8
0
 62
     7
100
AcDbLine
 10
177.894051
 20
128.560284
 30
0.0
 11
177.894051
 21
128.663292
 31
0.0
  0
LINE
  5
248
330
A
100
AcDbEntity
  8
0
 62
     7
100
AcDbLine
 10
177.894051
 20
128.496894
 30
0.0
 11
177.894051
 21
128.560284
 31
0.0
  0
LINE
  5
247
330
A
100
AcDbEntity
  8
0
 62
     7
100
AcDbLine
 10
177.894051
 20
128.82969
 30
0.0
 11
177.685278
 21
128.82969
 31
0.0
  0
LINE
  5
246
330
A
100
AcDbEntity
  8
0
 62
     7
100
AcDbLine
 10
177.894051
 20
128.82969
 30
0.0
 11
177.685278
 21
128.82969
 31
0.0
  0
LINE
  5
245
330
A
100
AcDbEntity
  8
0
 62
     7
100
AcDbLine
 10
177.894051
 20
128.496894
 30
0.0
 11
177.685278
 21
128.496894
 31
0.0
  0
LINE
  5
244
330
A
100
AcDbEntity
  8
0
 62
     7
100
AcDbLine
 10
177.894051
 20
128.496894
 30
0.0
 11
177.685278
 21
128.496894
 31
0.0
  0
LINE
  5
243
330
A
100
AcDbEntity
  8
0
 62
     7
100
AcDbLine
 10
177.894051
 20
128.560284
 30
0.0
 11
177.894051
 21
128.496894
 31
0.0
  0
LINE
  5
242
330
A
100
AcDbEntity
  8
0
 62
     7
100
AcDbLine
 10
177.894051
 20
128.663292
 30
0.0
 11
177.894051
 21
128.560284
 31
0.0
  0
LINE
  5
241
330
A
100
AcDbEntity
  8
0
 62
     7
100
AcDbLine
 10
177.894051
 20
128.7663
 30
0.0
 11
177.894051
 21
128.663292
 31
0.0
  0
LINE
  5
240
330
A
100
AcDbEntity
  8
0
 62
     7
100
AcDbLine
 10
177.894051
 20
128.82969
 30
0.0
 11
177.894051
 21
128.7663
 31
0.0
  0
LINE
  5
23F
330
A
100
AcDbEntity
  8
0
 62
     7
100
AcDbLine
 10
177.894051
 20
128.7663
 30
0.0
 11
177.894051
 21
128.82969
 31
0.0
  0
LINE
  5
23E
330
A
100
AcDbEntity
  8
0
 62
     7
100
AcDbLine
 10
177.894051
 20
128.663292
 30
0.0
 11
177.894051
 21
128.7663
 31
0.0
  0
LINE
  5
23D
330
A
100
AcDbEntity
  8
0
 62
     7
100
AcDbLine
 10
177.894051
 20
128.560284
 30
0.0
 11
177.894051
 21
128.663292
 31
0.0
  0
LINE
  5
23C
330
A
100
AcDbEntity
  8
0
 62
     7
100
AcDbLine
 10
177.894051
 20
128.496894
 30
0.0
 11
177.894051
 21
128.560284
 31
0.0
  0
LINE
  5
23B
330
A
100
AcDbEntity
  8
0
 62
     7
100
AcDbLine
 10
177.894051
 20
128.82969
 30
0.0
 11
177.685278
 21
128.82969
 31
0.0
  0
LINE
  5
23A
330
A
100
AcDbEntity
  8
0
 62
     7
100
AcDbLine
 10
177.894051
 20
128.82969
 30
0.0
 11
177.685278
 21
128.82969
 31
0.0
  0
LINE
  5
239
330
A
100
AcDbEntity
  8
0
 62
     7
100
AcDbLine
 10
177.894051
 20
128.496894
 30
0.0
 11
177.685278
 21
128.496894
 31
0.0
  0
LINE
  5
238
330
A
100
AcDbEntity
  8
0
 62
     7
100
AcDbLine
 10
177.894051
 20
128.496894
 30
0.0
 11
177.685278
 21
128.496894
 31
0.0
  0
LINE
  5
237
330
A
100
AcDbEntity
  8
0
 62
     7
100
AcDbLine
 10
177.894051
 20
128.560284
 30
0.0
 11
177.894051
 21
128.496894
 31
0.0
  0
LINE
  5
236
330
A
100
AcDbEntity
  8
0
 62
     7
100
AcDbLine
 10
177.894051
 20
128.663292
 30
0.0
 11
177.894051
 21
128.560284
 31
0.0
  0
LINE
  5
235
330
A
100
AcDbEntity
  8
0
 62
     7
100
AcDbLine
 10
177.894051
 20
128.7663
 30
0.0
 11
177.894051
 21
128.663292
 31
0.0
  0
LINE
  5
234
330
A
100
AcDbEntity
  8
0
 62
     7
100
AcDbLine
 10
177.894051
 20
128.82969
 30
0.0
 11
177.894051
 21
128.7663
 31
0.0
  0
LINE
  5
233
330
A
100
AcDbEntity
  8
0
 62
     7
100
AcDbLine
 10
177.894051
 20
128.7663
 30
0.0
 11
177.894051
 21
128.82969
 31
0.0
  0
LINE
  5
232
330
A
100
AcDbEntity
  8
0
 62
     7
100
AcDbLine
 10
177.894051
 20
128.663292
 30
0.0
 11
177.894051
 21
128.7663
 31
0.0
  0
LINE
  5
231
330
A
100
AcDbEntity
  8
0
 62
     7
100
AcDbLine
 10
177.894051
 20
128.560284
 30
0.0
 11
177.894051
 21
128.663292
 31
0.0
  0
LINE
  5
230
330
A
100
AcDbEntity
  8
0
 62
     7
100
AcDbLine
 10
177.894051
 20
128.496894
 30
0.0
 11
177.894051
 21
128.560284
 31
0.0
  0
LINE
  5
22F
330
A
100
AcDbEntity
  8
0
 62
     7
100
AcDbLine
 10
177.894051
 20
128.82969
 30
0.0
 11
177.685278
 21
128.82969
 31
0.0
  0
LINE
  5
22E
330
A
100
AcDbEntity
  8
0
 62
     7
100
AcDbLine
 10
177.894051
 20
128.82969
 30
0.0
 11
177.685278
 21
128.82969
 31
0.0
  0
LINE
  5
22D
330
A
100
AcDbEntity
  8
0
 62
     7
100
AcDbLine
 10
177.894051
 20
128.496894
 30
0.0
 11
177.685278
 21
128.496894
 31
0.0
  0
LINE
  5
22C
330
A
100
AcDbEntity
  8
0
 62
     7
100
AcDbLine
 10
177.894051
 20
128.496894
 30
0.0
 11
177.685278
 21
128.496894
 31
0.0
  0
LINE
  5
22B
330
A
100
AcDbEntity
  8
0
 62
     7
100
AcDbLine
 10
177.894051
 20
128.560284
 30
0.0
 11
177.894051
 21
128.496894
 31
0.0
  0
LINE
  5
22A
330
A
100
AcDbEntity
  8
0
 62
     7
100
AcDbLine
 10
177.894051
 20
128.663292
 30
0.0
 11
177.894051
 21
128.560284
 31
0.0
  0
LINE
  5
229
330
A
100
AcDbEntity
  8
0
 62
     7
100
AcDbLine
 10
177.894051
 20
128.7663
 30
0.0
 11
177.894051
 21
128.663292
 31
0.0
  0
LINE
  5
228
330
A
100
AcDbEntity
  8
0
 62
     7
100
AcDbLine
 10
177.894051
 20
128.82969
 30
0.0
 11
177.894051
 21
128.7663
 31
0.0
  0
LINE
  5
227
330
A
100
AcDbEntity
  8
0
 62
     7
100
AcDbLine
 10
177.894051
 20
128.7663
 30
0.0
 11
177.894051
 21
128.82969
 31
0.0
  0
LINE
  5
226
330
A
100
AcDbEntity
  8
0
 62
     7
100
AcDbLine
 10
177.894051
 20
128.663292
 30
0.0
 11
177.894051
 21
128.7663
 31
0.0
  0
LINE
  5
225
330
A
100
AcDbEntity
  8
0
 62
     7
100
AcDbLine
 10
177.894051
 20
128.560284
 30
0.0
 11
177.894051
 21
128.663292
 31
0.0
  0
LINE
  5
224
330
A
100
AcDbEntity
  8
0
 62
     7
100
AcDbLine
 10
177.894051
 20
128.496894
 30
0.0
 11
177.894051
 21
128.560284
 31
0.0
  0
LINE
  5
223
330
A
100
AcDbEntity
  8
0
 62
     7
100
AcDbLine
 10
177.894051
 20
128.82969
 30
0.0
 11
177.685278
 21
128.82969
 31
0.0
  0
LINE
  5
222
330
A
100
AcDbEntity
  8
0
 62
     7
100
AcDbLine
 10
177.894051
 20
128.82969
 30
0.0
 11
177.685278
 21
128.82969
 31
0.0
  0
LINE
  5
221
330
A
100
AcDbEntity
  8
0
 62
     7
100
AcDbLine
 10
177.894051
 20
128.496894
 30
0.0
 11
177.685278
 21
128.496894
 31
0.0
  0
LINE
  5
220
330
A
100
AcDbEntity
  8
0
 62
     7
100
AcDbLine
 10
177.894051
 20
128.496894
 30
0.0
 11
177.685278
 21
128.496894
 31
0.0
  0
LINE
  5
21F
330
A
100
AcDbEntity
  8
0
 62
     7
100
AcDbLine
 10
177.894051
 20
128.560284
 30
0.0
 11
177.894051
 21
128.496894
 31
0.0
  0
LINE
  5
21E
330
A
100
AcDbEntity
  8
0
 62
     7
100
AcDbLine
 10
177.894051
 20
128.663292
 30
0.0
 11
177.894051
 21
128.560284
 31
0.0
  0
LINE
  5
21D
330
A
100
AcDbEntity
  8
0
 62
     7
100
AcDbLine
 10
177.894051
 20
128.7663
 30
0.0
 11
177.894051
 21
128.663292
 31
0.0
  0
LINE
  5
21C
330
A
100
AcDbEntity
  8
0
 62
     7
100
AcDbLine
 10
177.894051
 20
128.82969
 30
0.0
 11
177.894051
 21
128.7663
 31
0.0
  0
LINE
  5
21B
330
A
100
AcDbEntity
  8
0
 62
     7
100
AcDbLine
 10
177.894051
 20
128.7663
 30
0.0
 11
177.894051
 21
128.82969
 31
0.0
  0
LINE
  5
21A
330
A
100
AcDbEntity
  8
0
 62
     7
100
AcDbLine
 10
177.894051
 20
128.663292
 30
0.0
 11
177.894051
 21
128.7663
 31
0.0
  0
LINE
  5
219
330
A
100
AcDbEntity
  8
0
 62
     7
100
AcDbLine
 10
177.894051
 20
128.560284
 30
0.0
 11
177.894051
 21
128.663292
 31
0.0
  0
LINE
  5
218
330
A
100
AcDbEntity
  8
0
 62
     7
100
AcDbLine
 10
177.894051
 20
128.496894
 30
0.0
 11
177.894051
 21
128.560284
 31
0.0
  0
LINE
  5
217
330
A
100
AcDbEntity
  8
0
 62
     7
100
AcDbLine
 10
177.894051
 20
128.03594
 30
0.0
 11
177.685278
 21
128.03594
 31
0.0
  0
LINE
  5
216
330
A
100
AcDbEntity
  8
0
 62
     7
100
AcDbLine
 10
177.894051
 20
127.972206
 30
0.0
 11
177.685278
 21
127.972206
 31
0.0
  0
LINE
  5
215
330
A
100
AcDbEntity
  8
0
 62
     7
100
AcDbLine
 10
177.894051
 20
127.869198
 30
0.0
 11
177.685278
 21
127.869198
 31
0.0
  0
LINE
  5
214
330
A
100
AcDbEntity
  8
0
 62
     7
100
AcDbLine
 10
177.894051
 20
127.766534
 30
0.0
 11
177.685278
 21
127.766534
 31
0.0
  0
LINE
  5
213
330
A
100
AcDbEntity
  8
0
 62
     7
100
AcDbLine
 10
177.894051
 20
127.702799
 30
0.0
 11
177.685278
 21
127.702799
 31
0.0
  0
LINE
  5
212
330
A
100
AcDbEntity
  8
0
 62
     7
100
AcDbLine
 10
177.894051
 20
127.766534
 30
0.0
 11
177.894051
 21
127.702799
 31
0.0
  0
LINE
  5
211
330
A
100
AcDbEntity
  8
0
 62
     7
100
AcDbLine
 10
177.894051
 20
127.869198
 30
0.0
 11
177.894051
 21
127.766534
 31
0.0
  0
LINE
  5
210
330
A
100
AcDbEntity
  8
0
 62
     7
100
AcDbLine
 10
177.894051
 20
127.972206
 30
0.0
 11
177.894051
 21
127.869198
 31
0.0
  0
LINE
  5
20F
330
A
100
AcDbEntity
  8
0
 62
     7
100
AcDbLine
 10
177.894051
 20
128.03594
 30
0.0
 11
177.894051
 21
127.972206
 31
0.0
  0
LINE
  5
20E
330
A
100
AcDbEntity
  8
0
 62
     7
100
AcDbLine
 10
177.894051
 20
127.972206
 30
0.0
 11
177.894051
 21
128.03594
 31
0.0
  0
LINE
  5
20D
330
A
100
AcDbEntity
  8
0
 62
     7
100
AcDbLine
 10
177.894051
 20
127.869198
 30
0.0
 11
177.894051
 21
127.972206
 31
0.0
  0
LINE
  5
20C
330
A
100
AcDbEntity
  8
0
 62
     7
100
AcDbLine
 10
177.894051
 20
127.766534
 30
0.0
 11
177.894051
 21
127.869198
 31
0.0
  0
LINE
  5
20B
330
A
100
AcDbEntity
  8
0
 62
     7
100
AcDbLine
 10
177.894051
 20
127.702799
 30
0.0
 11
177.894051
 21
127.766534
 31
0.0
  0
LINE
  5
20A
330
A
100
AcDbEntity
  8
0
 62
     7
100
AcDbLine
 10
177.894051
 20
127.766534
 30
0.0
 11
177.894051
 21
127.702799
 31
0.0
  0
LINE
  5
209
330
A
100
AcDbEntity
  8
0
 62
     7
100
AcDbLine
 10
177.894051
 20
127.869198
 30
0.0
 11
177.894051
 21
127.766534
 31
0.0
  0
LINE
  5
208
330
A
100
AcDbEntity
  8
0
 62
     7
100
AcDbLine
 10
177.894051
 20
127.972206
 30
0.0
 11
177.894051
 21
127.869198
 31
0.0
  0
LINE
  5
207
330
A
100
AcDbEntity
  8
0
 62
     7
100
AcDbLine
 10
177.894051
 20
128.03594
 30
0.0
 11
177.894051
 21
127.972206
 31
0.0
  0
LINE
  5
206
330
A
100
AcDbEntity
  8
0
 62
     7
100
AcDbLine
 10
177.894051
 20
127.972206
 30
0.0
 11
177.894051
 21
128.03594
 31
0.0
  0
LINE
  5
205
330
A
100
AcDbEntity
  8
0
 62
     7
100
AcDbLine
 10
177.894051
 20
127.869198
 30
0.0
 11
177.894051
 21
127.972206
 31
0.0
  0
LINE
  5
204
330
A
100
AcDbEntity
  8
0
 62
     7
100
AcDbLine
 10
177.894051
 20
127.766534
 30
0.0
 11
177.894051
 21
127.869198
 31
0.0
  0
LINE
  5
203
330
A
100
AcDbEntity
  8
0
 62
     7
100
AcDbLine
 10
177.894051
 20
127.702799
 30
0.0
 11
177.894051
 21
127.766534
 31
0.0
  0
LINE
  5
202
330
A
100
AcDbEntity
  8
0
 62
     7
100
AcDbLine
 10
177.894051
 20
127.766534
 30
0.0
 11
177.894051
 21
127.702799
 31
0.0
  0
LINE
  5
201
330
A
100
AcDbEntity
  8
0
 62
     7
100
AcDbLine
 10
177.894051
 20
127.869198
 30
0.0
 11
177.894051
 21
127.766534
 31
0.0
  0
LINE
  5
200
330
A
100
AcDbEntity
  8
0
 62
     7
100
AcDbLine
 10
177.894051
 20
127.972206
 30
0.0
 11
177.894051
 21
127.869198
 31
0.0
  0
LINE
  5
1FF
330
A
100
AcDbEntity
  8
0
 62
     7
100
AcDbLine
 10
177.894051
 20
128.03594
 30
0.0
 11
177.894051
 21
127.972206
 31
0.0
  0
LINE
  5
1FE
330
A
100
AcDbEntity
  8
0
 62
     7
100
AcDbLine
 10
177.894051
 20
127.972206
 30
0.0
 11
177.894051
 21
128.03594
 31
0.0
  0
LINE
  5
1FD
330
A
100
AcDbEntity
  8
0
 62
     7
100
AcDbLine
 10
177.894051
 20
127.869198
 30
0.0
 11
177.894051
 21
127.972206
 31
0.0
  0
LINE
  5
1FC
330
A
100
AcDbEntity
  8
0
 62
     7
100
AcDbLine
 10
177.894051
 20
127.766534
 30
0.0
 11
177.894051
 21
127.869198
 31
0.0
  0
LINE
  5
1FB
330
A
100
AcDbEntity
  8
0
 62
     7
100
AcDbLine
 10
177.894051
 20
127.702799
 30
0.0
 11
177.894051
 21
127.766534
 31
0.0
  0
LINE
  5
1FA
330
A
100
AcDbEntity
  8
0
 62
     7
100
AcDbLine
 10
177.894051
 20
127.766534
 30
0.0
 11
177.894051
 21
127.702799
 31
0.0
  0
LINE
  5
1F9
330
A
100
AcDbEntity
  8
0
 62
     7
100
AcDbLine
 10
177.894051
 20
127.869198
 30
0.0
 11
177.894051
 21
127.766534
 31
0.0
  0
LINE
  5
1F8
330
A
100
AcDbEntity
  8
0
 62
     7
100
AcDbLine
 10
177.894051
 20
127.972206
 30
0.0
 11
177.894051
 21
127.869198
 31
0.0
  0
LINE
  5
1F7
330
A
100
AcDbEntity
  8
0
 62
     7
100
AcDbLine
 10
177.894051
 20
128.03594
 30
0.0
 11
177.894051
 21
127.972206
 31
0.0
  0
LINE
  5
1F6
330
A
100
AcDbEntity
  8
0
 62
     7
100
AcDbLine
 10
177.894051
 20
127.972206
 30
0.0
 11
177.894051
 21
128.03594
 31
0.0
  0
LINE
  5
1F5
330
A
100
AcDbEntity
  8
0
 62
     7
100
AcDbLine
 10
177.894051
 20
127.869198
 30
0.0
 11
177.894051
 21
127.972206
 31
0.0
  0
LINE
  5
1F4
330
A
100
AcDbEntity
  8
0
 62
     7
100
AcDbLine
 10
177.894051
 20
127.766534
 30
0.0
 11
177.894051
 21
127.869198
 31
0.0
  0
LINE
  5
1F3
330
A
100
AcDbEntity
  8
0
 62
     7
100
AcDbLine
 10
177.894051
 20
127.702799
 30
0.0
 11
177.894051
 21
127.766534
 31
0.0
  0
LINE
  5
1F2
330
A
100
AcDbEntity
  8
0
 62
     7
100
AcDbLine
 10
177.894051
 20
127.766534
 30
0.0
 11
177.894051
 21
127.702799
 31
0.0
  0
LINE
  5
1F1
330
A
100
AcDbEntity
  8
0
 62
     7
100
AcDbLine
 10
177.894051
 20
127.869198
 30
0.0
 11
177.894051
 21
127.766534
 31
0.0
  0
LINE
  5
1F0
330
A
100
AcDbEntity
  8
0
 62
     7
100
AcDbLine
 10
177.894051
 20
127.972206
 30
0.0
 11
177.894051
 21
127.869198
 31
0.0
  0
LINE
  5
1EF
330
A
100
AcDbEntity
  8
0
 62
     7
100
AcDbLine
 10
177.894051
 20
128.03594
 30
0.0
 11
177.894051
 21
127.972206
 31
0.0
  0
LINE
  5
1EE
330
A
100
AcDbEntity
  8
0
 62
     7
100
AcDbLine
 10
177.894051
 20
127.972206
 30
0.0
 11
177.894051
 21
128.03594
 31
0.0
  0
LINE
  5
1ED
330
A
100
AcDbEntity
  8
0
 62
     7
100
AcDbLine
 10
177.894051
 20
127.869198
 30
0.0
 11
177.894051
 21
127.972206
 31
0.0
  0
LINE
  5
1EC
330
A
100
AcDbEntity
  8
0
 62
     7
100
AcDbLine
 10
177.894051
 20
127.766534
 30
0.0
 11
177.894051
 21
127.869198
 31
0.0
  0
LINE
  5
1EB
330
A
100
AcDbEntity
  8
0
 62
     7
100
AcDbLine
 10
177.894051
 20
127.702799
 30
0.0
 11
177.894051
 21
127.766534
 31
0.0
  0
LINE
  5
1EA
330
A
100
AcDbEntity
  8
0
 62
     7
100
AcDbLine
 10
175.352604
 20
90.13541100000001
 30
0.0
 11
175.193785
 21
92.47015199999999
 31
0.0
  0
LINE
  5
1E9
330
A
100
AcDbEntity
  8
0
 62
     7
100
AcDbLine
 10
176.629012
 20
90.13541100000001
 30
0.0
 11
176.79231
 21
90.13541100000001
 31
0.0
  0
LINE
  5
1E8
330
A
100
AcDbEntity
  8
0
 62
     7
100
AcDbLine
 10
176.409904
 20
90.13541100000001
 30
0.0
 11
176.629012
 21
90.13541100000001
 31
0.0
  0
LINE
  5
1E7
330
A
100
AcDbEntity
  8
0
 62
     7
100
AcDbLine
 10
175.352604
 20
90.13541100000001
 30
0.0
 11
175.441143
 21
90.13541100000001
 31
0.0
  0
LINE
  5
1E6
330
A
100
AcDbEntity
  8
0
 62
     7
100
AcDbLine
 10
175.538812
 20
90.13541100000001
 30
0.0
 11
175.352604
 21
90.13541100000001
 31
0.0
  0
LINE
  5
1E5
330
A
100
AcDbEntity
  8
0
 62
     7
100
AcDbLine
 10
176.026293
 20
90.13541100000001
 30
0.0
 11
175.538812
 21
90.13541100000001
 31
0.0
  0
LINE
  5
1E4
330
A
100
AcDbEntity
  8
0
 62
     7
100
AcDbLine
 10
176.629012
 20
90.13541100000001
 30
0.0
 11
176.026293
 21
90.13541100000001
 31
0.0
  0
LINE
  5
1E3
330
A
100
AcDbEntity
  8
0
 62
     7
100
AcDbLine
 10
176.79231
 20
90.13541100000001
 30
0.0
 11
176.629012
 21
90.13541100000001
 31
0.0
  0
LINE
  5
1E2
330
A
100
AcDbEntity
  8
0
 62
     7
100
AcDbLine
 10
230.514784
 20
213.314456
 30
0.0
 11
230.430035
 21
213.279316
 31
0.0
  0
LINE
  5
1E1
330
A
100
AcDbEntity
  8
0
 62
     7
100
AcDbLine
 10
230.549924
 20
213.399205
 30
0.0
 11
230.514784
 21
213.314456
 31
0.0
  0
LINE
  5
1E0
330
A
100
AcDbEntity
  8
0
 62
     7
100
AcDbLine
 10
202.670144
 20
213.279316
 30
0.0
 11
202.58505
 21
213.314456
 31
0.0
  0
LINE
  5
1DF
330
A
100
AcDbEntity
  8
0
 62
     7
100
AcDbLine
 10
202.58505
 20
213.314456
 30
0.0
 11
202.54991
 21
213.399205
 31
0.0
  0
LINE
  5
1DE
330
A
100
AcDbEntity
  8
0
 62
     7
100
AcDbLine
 10
230.549924
 20
214.479243
 30
0.0
 11
230.549924
 21
213.399205
 31
0.0
  0
LINE
  5
1DD
330
A
100
AcDbEntity
  8
0
 62
     7
100
AcDbLine
 10
202.54991
 20
213.399205
 30
0.0
 11
202.54991
 21
214.479243
 31
0.0
  0
LINE
  5
1DC
330
A
100
AcDbEntity
  8
0
 62
     7
100
AcDbLine
 10
230.514784
 20
214.479243
 30
0.0
 11
230.549924
 21
214.479243
 31
0.0
  0
LINE
  5
1DB
330
A
100
AcDbEntity
  8
0
 62
     7
100
AcDbLine
 10
230.430035
 20
214.479243
 30
0.0
 11
230.514784
 21
214.479243
 31
0.0
  0
LINE
  5
1DA
330
A
100
AcDbEntity
  8
0
 62
     7
100
AcDbLine
 10
202.670144
 20
214.479243
 30
0.0
 11
230.430035
 21
214.479243
 31
0.0
  0
LINE
  5
1D9
330
A
100
AcDbEntity
  8
0
 62
     7
100
AcDbLine
 10
202.58505
 20
214.479243
 30
0.0
 11
202.670144
 21
214.479243
 31
0.0
  0
LINE
  5
1D8
330
A
100
AcDbEntity
  8
0
 62
     7
100
AcDbLine
 10
202.54991
 20
214.479243
 30
0.0
 11
202.58505
 21
214.479243
 31
0.0
  0
LINE
  5
1D7
330
A
100
AcDbEntity
  8
0
 62
     7
100
AcDbLine
 10
230.430035
 20
213.279316
 30
0.0
 11
202.670144
 21
213.279316
 31
0.0
  0
LINE
  5
1D6
330
A
100
AcDbEntity
  8
0
 62
     7
100
AcDbLine
 10
204.168761
 20
213.269842
 30
0.0
 11
204.168761
 21
212.859875
 31
0.0
  0
LINE
  5
1D5
330
A
100
AcDbEntity
  8
0
 62
     7
100
AcDbLine
 10
203.768441
 20
212.859875
 30
0.0
 11
203.768441
 21
213.269842
 31
0.0
  0
LINE
  5
1D4
330
A
100
AcDbEntity
  8
0
 62
     7
100
AcDbLine
 10
203.827007
 20
212.859875
 30
0.0
 11
203.768441
 21
212.859875
 31
0.0
  0
LINE
  5
1D3
330
A
100
AcDbEntity
  8
0
 62
     7
100
AcDbLine
 10
203.968601
 20
212.859875
 30
0.0
 11
203.827007
 21
212.859875
 31
0.0
  0
LINE
  5
1D2
330
A
100
AcDbEntity
  8
0
 62
     7
100
AcDbLine
 10
204.110194
 20
212.859875
 30
0.0
 11
203.968601
 21
212.859875
 31
0.0
  0
LINE
  5
1D1
330
A
100
AcDbEntity
  8
0
 62
     7
100
AcDbLine
 10
204.168761
 20
212.859875
 30
0.0
 11
204.110194
 21
212.859875
 31
0.0
  0
LINE
  5
1D0
330
A
100
AcDbEntity
  8
0
 62
     7
100
AcDbLine
 10
204.110194
 20
213.269842
 30
0.0
 11
204.168761
 21
213.269842
 31
0.0
  0
LINE
  5
1CF
330
A
100
AcDbEntity
  8
0
 62
     7
100
AcDbLine
 10
203.968601
 20
213.269842
 30
0.0
 11
204.110194
 21
213.269842
 31
0.0
  0
LINE
  5
1CE
330
A
100
AcDbEntity
  8
0
 62
     7
100
AcDbLine
 10
203.827007
 20
213.269842
 30
0.0
 11
203.968601
 21
213.269842
 31
0.0
  0
LINE
  5
1CD
330
A
100
AcDbEntity
  8
0
 62
     7
100
AcDbLine
 10
203.768441
 20
213.269842
 30
0.0
 11
203.827007
 21
213.269842
 31
0.0
  0
LINE
  5
1CC
330
A
100
AcDbEntity
  8
0
 62
     7
100
AcDbLine
 10
206.068731
 20
213.269842
 30
0.0
 11
206.068731
 21
212.859875
 31
0.0
  0
LINE
  5
1CB
330
A
100
AcDbEntity
  8
0
 62
     7
100
AcDbLine
 10
205.668755
 20
212.859875
 30
0.0
 11
205.668755
 21
213.269842
 31
0.0
  0
LINE
  5
1CA
330
A
100
AcDbEntity
  8
0
 62
     7
100
AcDbLine
 10
206.010164
 20
212.859875
 30
0.0
 11
205.868571
 21
212.859875
 31
0.0
  0
LINE
  5
1C9
330
A
100
AcDbEntity
  8
0
 62
     7
100
AcDbLine
 10
206.068731
 20
212.859875
 30
0.0
 11
206.010164
 21
212.859875
 31
0.0
  0
LINE
  5
1C8
330
A
100
AcDbEntity
  8
0
 62
     7
100
AcDbLine
 10
205.727322
 20
212.859875
 30
0.0
 11
205.668755
 21
212.859875
 31
0.0
  0
LINE
  5
1C7
330
A
100
AcDbEntity
  8
0
 62
     7
100
AcDbLine
 10
205.868571
 20
212.859875
 30
0.0
 11
205.727322
 21
212.859875
 31
0.0
  0
LINE
  5
1C6
330
A
100
AcDbEntity
  8
0
 62
     7
100
AcDbLine
 10
206.010164
 20
213.269842
 30
0.0
 11
206.068731
 21
213.269842
 31
0.0
  0
LINE
  5
1C5
330
A
100
AcDbEntity
  8
0
 62
     7
100
AcDbLine
 10
205.868571
 20
213.269842
 30
0.0
 11
206.010164
 21
213.269842
 31
0.0
  0
LINE
  5
1C4
330
A
100
AcDbEntity
  8
0
 62
     7
100
AcDbLine
 10
205.727322
 20
213.269842
 30
0.0
 11
205.868571
 21
213.269842
 31
0.0
  0
LINE
  5
1C3
330
A
100
AcDbEntity
  8
0
 62
     7
100
AcDbLine
 10
205.668755
 20
213.269842
 30
0.0
 11
205.727322
 21
213.269842
 31
0.0
  0
LINE
  5
1C2
330
A
100
AcDbEntity
  8
0
 62
     7
100
AcDbLine
 10
206.068731
 20
213.269842
 30
0.0
 11
206.068731
 21
212.859875
 31
0.0
  0
LINE
  5
1C1
330
A
100
AcDbEntity
  8
0
 62
     7
100
AcDbLine
 10
205.668755
 20
212.859875
 30
0.0
 11
205.668755
 21
213.269842
 31
0.0
  0
LINE
  5
1C0
330
A
100
AcDbEntity
  8
0
 62
     7
100
AcDbLine
 10
206.068731
 20
213.269842
 30
0.0
 11
206.068731
 21
212.859875
 31
0.0
  0
LINE
  5
1BF
330
A
100
AcDbEntity
  8
0
 62
     7
100
AcDbLine
 10
205.668755
 20
212.859875
 30
0.0
 11
205.668755
 21
213.269842
 31
0.0
  0
LINE
  5
1BE
330
A
100
AcDbEntity
  8
0
 62
     7
100
AcDbLine
 10
206.068731
 20
213.269842
 30
0.0
 11
206.068731
 21
212.859875
 31
0.0
  0
LINE
  5
1BD
330
A
100
AcDbEntity
  8
0
 62
     7
100
AcDbLine
 10
205.668755
 20
212.859875
 30
0.0
 11
205.668755
 21
213.269842
 31
0.0
  0
LINE
  5
1BC
330
A
100
AcDbEntity
  8
0
 62
     7
100
AcDbLine
 10
206.068731
 20
213.269842
 30
0.0
 11
206.068731
 21
212.859875
 31
0.0
  0
LINE
  5
1BB
330
A
100
AcDbEntity
  8
0
 62
     7
100
AcDbLine
 10
205.668755
 20
212.859875
 30
0.0
 11
205.668755
 21
213.269842
 31
0.0
  0
LINE
  5
1BA
330
A
100
AcDbEntity
  8
0
 62
     7
100
AcDbLine
 10
206.068731
 20
213.269842
 30
0.0
 11
206.068731
 21
212.859875
 31
0.0
  0
LINE
  5
1B9
330
A
100
AcDbEntity
  8
0
 62
     7
100
AcDbLine
 10
205.668755
 20
212.859875
 30
0.0
 11
205.668755
 21
213.269842
 31
0.0
  0
LINE
  5
1B8
330
A
100
AcDbEntity
  8
0
 62
     7
100
AcDbLine
 10
206.068731
 20
213.269842
 30
0.0
 11
206.068731
 21
212.859875
 31
0.0
  0
LINE
  5
1B7
330
A
100
AcDbEntity
  8
0
 62
     7
100
AcDbLine
 10
205.668755
 20
212.859875
 30
0.0
 11
205.668755
 21
213.269842
 31
0.0
  0
LINE
  5
1B6
330
A
100
AcDbEntity
  8
0
 62
     7
100
AcDbLine
 10
206.068731
 20
213.269842
 30
0.0
 11
206.068731
 21
212.859875
 31
0.0
  0
LINE
  5
1B5
330
A
100
AcDbEntity
  8
0
 62
     7
100
AcDbLine
 10
205.668755
 20
212.859875
 30
0.0
 11
205.668755
 21
213.269842
 31
0.0
  0
LINE
  5
1B4
330
A
100
AcDbEntity
  8
0
 62
     7
100
AcDbLine
 10
206.068731
 20
213.269842
 30
0.0
 11
206.068731
 21
212.859875
 31
0.0
  0
LINE
  5
1B3
330
A
100
AcDbEntity
  8
0
 62
     7
100
AcDbLine
 10
205.668755
 20
212.859875
 30
0.0
 11
205.668755
 21
213.269842
 31
0.0
  0
LINE
  5
1B2
330
A
100
AcDbEntity
  8
0
 62
     7
100
AcDbLine
 10
206.068731
 20
213.269842
 30
0.0
 11
206.068731
 21
212.859875
 31
0.0
  0
LINE
  5
1B1
330
A
100
AcDbEntity
  8
0
 62
     7
100
AcDbLine
 10
205.668755
 20
212.859875
 30
0.0
 11
205.668755
 21
213.269842
 31
0.0
  0
LINE
  5
1B0
330
A
100
AcDbEntity
  8
0
 62
     7
100
AcDbLine
 10
206.068731
 20
213.269842
 30
0.0
 11
206.068731
 21
212.859875
 31
0.0
  0
LINE
  5
1AF
330
A
100
AcDbEntity
  8
0
 62
     7
100
AcDbLine
 10
205.668755
 20
212.859875
 30
0.0
 11
205.668755
 21
213.269842
 31
0.0
  0
LINE
  5
1AE
330
A
100
AcDbEntity
  8
0
 62
     7
100
AcDbLine
 10
206.068731
 20
213.269842
 30
0.0
 11
206.068731
 21
212.859875
 31
0.0
  0
LINE
  5
1AD
330
A
100
AcDbEntity
  8
0
 62
     7
100
AcDbLine
 10
205.668755
 20
212.859875
 30
0.0
 11
205.668755
 21
213.269842
 31
0.0
  0
LINE
  5
1AC
330
A
100
AcDbEntity
  8
0
 62
     7
100
AcDbLine
 10
206.068731
 20
213.269842
 30
0.0
 11
206.068731
 21
212.859875
 31
0.0
  0
LINE
  5
1AB
330
A
100
AcDbEntity
  8
0
 62
     7
100
AcDbLine
 10
205.668755
 20
212.859875
 30
0.0
 11
205.668755
 21
213.269842
 31
0.0
  0
LINE
  5
1AA
330
A
100
AcDbEntity
  8
0
 62
     7
100
AcDbLine
 10
206.068731
 20
213.269842
 30
0.0
 11
206.068731
 21
212.859875
 31
0.0
  0
LINE
  5
1A9
330
A
100
AcDbEntity
  8
0
 62
     7
100
AcDbLine
 10
205.668755
 20
212.859875
 30
0.0
 11
205.668755
 21
213.269842
 31
0.0
  0
LINE
  5
1A8
330
A
100
AcDbEntity
  8
0
 62
     7
100
AcDbLine
 10
207.968701
 20
213.269842
 30
0.0
 11
207.968701
 21
212.859875
 31
0.0
  0
LINE
  5
1A7
330
A
100
AcDbEntity
  8
0
 62
     7
100
AcDbLine
 10
207.568726
 20
212.859875
 30
0.0
 11
207.568726
 21
213.269842
 31
0.0
  0
LINE
  5
1A6
330
A
100
AcDbEntity
  8
0
 62
     7
100
AcDbLine
 10
207.910135
 20
212.859875
 30
0.0
 11
207.768541
 21
212.859875
 31
0.0
  0
LINE
  5
1A5
330
A
100
AcDbEntity
  8
0
 62
     7
100
AcDbLine
 10
207.968701
 20
212.859875
 30
0.0
 11
207.910135
 21
212.859875
 31
0.0
  0
LINE
  5
1A4
330
A
100
AcDbEntity
  8
0
 62
     7
100
AcDbLine
 10
207.627292
 20
212.859875
 30
0.0
 11
207.568726
 21
212.859875
 31
0.0
  0
LINE
  5
1A3
330
A
100
AcDbEntity
  8
0
 62
     7
100
AcDbLine
 10
207.768541
 20
212.859875
 30
0.0
 11
207.627292
 21
212.859875
 31
0.0
  0
LINE
  5
1A2
330
A
100
AcDbEntity
  8
0
 62
     7
100
AcDbLine
 10
207.910135
 20
213.269842
 30
0.0
 11
207.968701
 21
213.269842
 31
0.0
  0
LINE
  5
1A1
330
A
100
AcDbEntity
  8
0
 62
     7
100
AcDbLine
 10
207.768541
 20
213.269842
 30
0.0
 11
207.910135
 21
213.269842
 31
0.0
  0
LINE
  5
1A0
330
A
100
AcDbEntity
  8
0
 62
     7
100
AcDbLine
 10
207.627292
 20
213.269842
 30
0.0
 11
207.768541
 21
213.269842
 31
0.0
  0
LINE
  5
19F
330
A
100
AcDbEntity
  8
0
 62
     7
100
AcDbLine
 10
207.568726
 20
213.269842
 30
0.0
 11
207.627292
 21
213.269842
 31
0.0
  0
LINE
  5
19E
330
A
100
AcDbEntity
  8
0
 62
     7
100
AcDbLine
 10
209.868671
 20
213.269842
 30
0.0
 11
209.868671
 21
212.859875
 31
0.0
  0
LINE
  5
19D
330
A
100
AcDbEntity
  8
0
 62
     7
100
AcDbLine
 10
209.468696
 20
212.859875
 30
0.0
 11
209.468696
 21
213.269842
 31
0.0
  0
LINE
  5
19C
330
A
100
AcDbEntity
  8
0
 62
     7
100
AcDbLine
 10
209.810105
 20
212.859875
 30
0.0
 11
209.668511
 21
212.859875
 31
0.0
  0
LINE
  5
19B
330
A
100
AcDbEntity
  8
0
 62
     7
100
AcDbLine
 10
209.868671
 20
212.859875
 30
0.0
 11
209.810105
 21
212.859875
 31
0.0
  0
LINE
  5
19A
330
A
100
AcDbEntity
  8
0
 62
     7
100
AcDbLine
 10
209.527262
 20
212.859875
 30
0.0
 11
209.468696
 21
212.859875
 31
0.0
  0
LINE
  5
199
330
A
100
AcDbEntity
  8
0
 62
     7
100
AcDbLine
 10
209.668511
 20
212.859875
 30
0.0
 11
209.527262
 21
212.859875
 31
0.0
  0
LINE
  5
198
330
A
100
AcDbEntity
  8
0
 62
     7
100
AcDbLine
 10
209.810105
 20
213.269842
 30
0.0
 11
209.868671
 21
213.269842
 31
0.0
  0
LINE
  5
197
330
A
100
AcDbEntity
  8
0
 62
     7
100
AcDbLine
 10
209.668511
 20
213.269842
 30
0.0
 11
209.810105
 21
213.269842
 31
0.0
  0
LINE
  5
196
330
A
100
AcDbEntity
  8
0
 62
     7
100
AcDbLine
 10
209.527262
 20
213.269842
 30
0.0
 11
209.668511
 21
213.269842
 31
0.0
  0
LINE
  5
195
330
A
100
AcDbEntity
  8
0
 62
     7
100
AcDbLine
 10
209.468696
 20
213.269842
 30
0.0
 11
209.527262
 21
213.269842
 31
0.0
  0
LINE
  5
194
330
A
100
AcDbEntity
  8
0
 62
     7
100
AcDbLine
 10
209.468696
 20
212.859875
 30
0.0
 11
209.468696
 21
213.269842
 31
0.0
  0
LINE
  5
193
330
A
100
AcDbEntity
  8
0
 62
     7
100
AcDbLine
 10
209.468696
 20
212.859875
 30
0.0
 11
209.468696
 21
213.269842
 31
0.0
  0
LINE
  5
192
330
A
100
AcDbEntity
  8
0
 62
     7
100
AcDbLine
 10
209.468696
 20
212.859875
 30
0.0
 11
209.468696
 21
213.269842
 31
0.0
  0
LINE
  5
191
330
A
100
AcDbEntity
  8
0
 62
     7
100
AcDbLine
 10
209.468696
 20
212.859875
 30
0.0
 11
209.468696
 21
213.269842
 31
0.0
  0
LINE
  5
190
330
A
100
AcDbEntity
  8
0
 62
     7
100
AcDbLine
 10
209.468696
 20
212.859875
 30
0.0
 11
209.468696
 21
213.269842
 31
0.0
  0
LINE
  5
18F
330
A
100
AcDbEntity
  8
0
 62
     7
100
AcDbLine
 10
209.468696
 20
212.859875
 30
0.0
 11
209.468696
 21
213.269842
 31
0.0
  0
LINE
  5
18E
330
A
100
AcDbEntity
  8
0
 62
     7
100
AcDbLine
 10
209.468696
 20
212.859875
 30
0.0
 11
209.468696
 21
213.269842
 31
0.0
  0
LINE
  5
18D
330
A
100
AcDbEntity
  8
0
 62
     7
100
AcDbLine
 10
209.468696
 20
212.859875
 30
0.0
 11
209.468696
 21
213.269842
 31
0.0
  0
LINE
  5
18C
330
A
100
AcDbEntity
  8
0
 62
     7
100
AcDbLine
 10
209.468696
 20
212.859875
 30
0.0
 11
209.468696
 21
213.269842
 31
0.0
  0
LINE
  5
18B
330
A
100
AcDbEntity
  8
0
 62
     7
100
AcDbLine
 10
209.468696
 20
212.859875
 30
0.0
 11
209.468696
 21
213.269842
 31
0.0
  0
LINE
  5
18A
330
A
100
AcDbEntity
  8
0
 62
     7
100
AcDbLine
 10
209.468696
 20
212.859875
 30
0.0
 11
209.468696
 21
213.269842
 31
0.0
  0
LINE
  5
189
330
A
100
AcDbEntity
  8
0
 62
     7
100
AcDbLine
 10
209.468696
 20
212.859875
 30
0.0
 11
209.468696
 21
213.269842
 31
0.0
  0
LINE
  5
188
330
A
100
AcDbEntity
  8
0
 62
     7
100
AcDbLine
 10
209.468696
 20
212.859875
 30
0.0
 11
209.468696
 21
213.269842
 31
0.0
  0
LINE
  5
187
330
A
100
AcDbEntity
  8
0
 62
     7
100
AcDbLine
 10
211.768641
 20
213.269842
 30
0.0
 11
211.768641
 21
212.859875
 31
0.0
  0
LINE
  5
186
330
A
100
AcDbEntity
  8
0
 62
     7
100
AcDbLine
 10
211.368666
 20
212.859875
 30
0.0
 11
211.368666
 21
213.269842
 31
0.0
  0
LINE
  5
185
330
A
100
AcDbEntity
  8
0
 62
     7
100
AcDbLine
 10
211.710075
 20
212.859875
 30
0.0
 11
211.568481
 21
212.859875
 31
0.0
  0
LINE
  5
184
330
A
100
AcDbEntity
  8
0
 62
     7
100
AcDbLine
 10
211.768641
 20
212.859875
 30
0.0
 11
211.710075
 21
212.859875
 31
0.0
  0
LINE
  5
183
330
A
100
AcDbEntity
  8
0
 62
     7
100
AcDbLine
 10
211.427233
 20
212.859875
 30
0.0
 11
211.368666
 21
212.859875
 31
0.0
  0
LINE
  5
182
330
A
100
AcDbEntity
  8
0
 62
     7
100
AcDbLine
 10
211.568481
 20
212.859875
 30
0.0
 11
211.427233
 21
212.859875
 31
0.0
  0
LINE
  5
181
330
A
100
AcDbEntity
  8
0
 62
     7
100
AcDbLine
 10
211.710075
 20
213.269842
 30
0.0
 11
211.768641
 21
213.269842
 31
0.0
  0
LINE
  5
180
330
A
100
AcDbEntity
  8
0
 62
     7
100
AcDbLine
 10
211.568481
 20
213.269842
 30
0.0
 11
211.710075
 21
213.269842
 31
0.0
  0
LINE
  5
17F
330
A
100
AcDbEntity
  8
0
 62
     7
100
AcDbLine
 10
211.427233
 20
213.269842
 30
0.0
 11
211.568481
 21
213.269842
 31
0.0
  0
LINE
  5
17E
330
A
100
AcDbEntity
  8
0
 62
     7
100
AcDbLine
 10
211.368666
 20
213.269842
 30
0.0
 11
211.427233
 21
213.269842
 31
0.0
  0
LINE
  5
17D
330
A
100
AcDbEntity
  8
0
 62
     7
100
AcDbLine
 10
213.668612
 20
213.269842
 30
0.0
 11
213.668612
 21
212.859875
 31
0.0
  0
LINE
  5
17C
330
A
100
AcDbEntity
  8
0
 62
     7
100
AcDbLine
 10
213.268636
 20
212.859875
 30
0.0
 11
213.268636
 21
213.269842
 31
0.0
  0
LINE
  5
17B
330
A
100
AcDbEntity
  8
0
 62
     7
100
AcDbLine
 10
213.327203
 20
212.859875
 30
0.0
 11
213.268636
 21
212.859875
 31
0.0
  0
LINE
  5
17A
330
A
100
AcDbEntity
  8
0
 62
     7
100
AcDbLine
 10
213.468452
 20
212.859875
 30
0.0
 11
213.327203
 21
212.859875
 31
0.0
  0
LINE
  5
179
330
A
100
AcDbEntity
  8
0
 62
     7
100
AcDbLine
 10
213.610045
 20
212.859875
 30
0.0
 11
213.468452
 21
212.859875
 31
0.0
  0
LINE
  5
178
330
A
100
AcDbEntity
  8
0
 62
     7
100
AcDbLine
 10
213.668612
 20
212.859875
 30
0.0
 11
213.610045
 21
212.859875
 31
0.0
  0
LINE
  5
177
330
A
100
AcDbEntity
  8
0
 62
     7
100
AcDbLine
 10
213.610045
 20
213.269842
 30
0.0
 11
213.668612
 21
213.269842
 31
0.0
  0
LINE
  5
176
330
A
100
AcDbEntity
  8
0
 62
     7
100
AcDbLine
 10
213.468452
 20
213.269842
 30
0.0
 11
213.610045
 21
213.269842
 31
0.0
  0
LINE
  5
175
330
A
100
AcDbEntity
  8
0
 62
     7
100
AcDbLine
 10
213.327203
 20
213.269842
 30
0.0
 11
213.468452
 21
213.269842
 31
0.0
  0
LINE
  5
174
330
A
100
AcDbEntity
  8
0
 62
     7
100
AcDbLine
 10
213.268636
 20
213.269842
 30
0.0
 11
213.327203
 21
213.269842
 31
0.0
  0
LINE
  5
173
330
A
100
AcDbEntity
  8
0
 62
     7
100
AcDbLine
 10
213.268636
 20
212.859875
 30
0.0
 11
213.268636
 21
213.269842
 31
0.0
  0
LINE
  5
172
330
A
100
AcDbEntity
  8
0
 62
     7
100
AcDbLine
 10
213.268636
 20
212.859875
 30
0.0
 11
213.268636
 21
213.269842
 31
0.0
  0
LINE
  5
171
330
A
100
AcDbEntity
  8
0
 62
     7
100
AcDbLine
 10
213.268636
 20
212.859875
 30
0.0
 11
213.268636
 21
213.269842
 31
0.0
  0
LINE
  5
170
330
A
100
AcDbEntity
  8
0
 62
     7
100
AcDbLine
 10
213.268636
 20
212.859875
 30
0.0
 11
213.268636
 21
213.269842
 31
0.0
  0
LINE
  5
16F
330
A
100
AcDbEntity
  8
0
 62
     7
100
AcDbLine
 10
213.268636
 20
212.859875
 30
0.0
 11
213.268636
 21
213.269842
 31
0.0
  0
LINE
  5
16E
330
A
100
AcDbEntity
  8
0
 62
     7
100
AcDbLine
 10
213.268636
 20
212.859875
 30
0.0
 11
213.268636
 21
213.269842
 31
0.0
  0
LINE
  5
16D
330
A
100
AcDbEntity
  8
0
 62
     7
100
AcDbLine
 10
213.268636
 20
212.859875
 30
0.0
 11
213.268636
 21
213.269842
 31
0.0
  0
LINE
  5
16C
330
A
100
AcDbEntity
  8
0
 62
     7
100
AcDbLine
 10
213.268636
 20
212.859875
 30
0.0
 11
213.268636
 21
213.269842
 31
0.0
  0
LINE
  5
16B
330
A
100
AcDbEntity
  8
0
 62
     7
100
AcDbLine
 10
213.268636
 20
212.859875
 30
0.0
 11
213.268636
 21
213.269842
 31
0.0
  0
LINE
  5
16A
330
A
100
AcDbEntity
  8
0
 62
     7
100
AcDbLine
 10
213.268636
 20
212.859875
 30
0.0
 11
213.268636
 21
213.269842
 31
0.0
  0
LINE
  5
169
330
A
100
AcDbEntity
  8
0
 62
     7
100
AcDbLine
 10
213.268636
 20
212.859875
 30
0.0
 11
213.268636
 21
213.269842
 31
0.0
  0
LINE
  5
168
330
A
100
AcDbEntity
  8
0
 62
     7
100
AcDbLine
 10
213.268636
 20
212.859875
 30
0.0
 11
213.268636
 21
213.269842
 31
0.0
  0
LINE
  5
167
330
A
100
AcDbEntity
  8
0
 62
     7
100
AcDbLine
 10
213.268636
 20
212.859875
 30
0.0
 11
213.268636
 21
213.269842
 31
0.0
  0
LINE
  5
166
330
A
100
AcDbEntity
  8
0
 62
     7
100
AcDbLine
 10
215.568582
 20
213.269842
 30
0.0
 11
215.568582
 21
212.859875
 31
0.0
  0
LINE
  5
165
330
A
100
AcDbEntity
  8
0
 62
     7
100
AcDbLine
 10
215.168606
 20
212.859875
 30
0.0
 11
215.168606
 21
213.269842
 31
0.0
  0
LINE
  5
164
330
A
100
AcDbEntity
  8
0
 62
     7
100
AcDbLine
 10
215.510015
 20
212.859875
 30
0.0
 11
215.368766
 21
212.859875
 31
0.0
  0
LINE
  5
163
330
A
100
AcDbEntity
  8
0
 62
     7
100
AcDbLine
 10
215.568582
 20
212.859875
 30
0.0
 11
215.510015
 21
212.859875
 31
0.0
  0
LINE
  5
162
330
A
100
AcDbEntity
  8
0
 62
     7
100
AcDbLine
 10
215.227173
 20
212.859875
 30
0.0
 11
215.168606
 21
212.859875
 31
0.0
  0
LINE
  5
161
330
A
100
AcDbEntity
  8
0
 62
     7
100
AcDbLine
 10
215.368766
 20
212.859875
 30
0.0
 11
215.227173
 21
212.859875
 31
0.0
  0
LINE
  5
160
330
A
100
AcDbEntity
  8
0
 62
     7
100
AcDbLine
 10
215.510015
 20
213.269842
 30
0.0
 11
215.568582
 21
213.269842
 31
0.0
  0
LINE
  5
15F
330
A
100
AcDbEntity
  8
0
 62
     7
100
AcDbLine
 10
215.368766
 20
213.269842
 30
0.0
 11
215.510015
 21
213.269842
 31
0.0
  0
LINE
  5
15E
330
A
100
AcDbEntity
  8
0
 62
     7
100
AcDbLine
 10
215.227173
 20
213.269842
 30
0.0
 11
215.368766
 21
213.269842
 31
0.0
  0
LINE
  5
15D
330
A
100
AcDbEntity
  8
0
 62
     7
100
AcDbLine
 10
215.168606
 20
213.269842
 30
0.0
 11
215.227173
 21
213.269842
 31
0.0
  0
LINE
  5
15C
330
A
100
AcDbEntity
  8
0
 62
     7
100
AcDbLine
 10
217.468552
 20
213.269842
 30
0.0
 11
217.468552
 21
212.859875
 31
0.0
  0
LINE
  5
15B
330
A
100
AcDbEntity
  8
0
 62
     7
100
AcDbLine
 10
217.068576
 20
212.859875
 30
0.0
 11
217.068576
 21
213.269842
 31
0.0
  0
LINE
  5
15A
330
A
100
AcDbEntity
  8
0
 62
     7
100
AcDbLine
 10
217.127143
 20
212.859875
 30
0.0
 11
217.068576
 21
212.859875
 31
0.0
  0
LINE
  5
159
330
A
100
AcDbEntity
  8
0
 62
     7
100
AcDbLine
 10
217.268736
 20
212.859875
 30
0.0
 11
217.127143
 21
212.859875
 31
0.0
  0
LINE
  5
158
330
A
100
AcDbEntity
  8
0
 62
     7
100
AcDbLine
 10
217.409985
 20
212.859875
 30
0.0
 11
217.268736
 21
212.859875
 31
0.0
  0
LINE
  5
157
330
A
100
AcDbEntity
  8
0
 62
     7
100
AcDbLine
 10
217.468552
 20
212.859875
 30
0.0
 11
217.409985
 21
212.859875
 31
0.0
  0
LINE
  5
156
330
A
100
AcDbEntity
  8
0
 62
     7
100
AcDbLine
 10
217.409985
 20
213.269842
 30
0.0
 11
217.468552
 21
213.269842
 31
0.0
  0
LINE
  5
155
330
A
100
AcDbEntity
  8
0
 62
     7
100
AcDbLine
 10
217.268736
 20
213.269842
 30
0.0
 11
217.409985
 21
213.269842
 31
0.0
  0
LINE
  5
154
330
A
100
AcDbEntity
  8
0
 62
     7
100
AcDbLine
 10
217.127143
 20
213.269842
 30
0.0
 11
217.268736
 21
213.269842
 31
0.0
  0
LINE
  5
153
330
A
100
AcDbEntity
  8
0
 62
     7
100
AcDbLine
 10
217.068576
 20
213.269842
 30
0.0
 11
217.127143
 21
213.269842
 31
0.0
  0
LINE
  5
152
330
A
100
AcDbEntity
  8
0
 62
     7
100
AcDbLine
 10
217.068576
 20
212.859875
 30
0.0
 11
217.068576
 21
213.269842
 31
0.0
  0
LINE
  5
151
330
A
100
AcDbEntity
  8
0
 62
     7
100
AcDbLine
 10
217.068576
 20
212.859875
 30
0.0
 11
217.068576
 21
213.269842
 31
0.0
  0
LINE
  5
150
330
A
100
AcDbEntity
  8
0
 62
     7
100
AcDbLine
 10
217.068576
 20
212.859875
 30
0.0
 11
217.068576
 21
213.269842
 31
0.0
  0
LINE
  5
14F
330
A
100
AcDbEntity
  8
0
 62
     7
100
AcDbLine
 10
217.068576
 20
212.859875
 30
0.0
 11
217.068576
 21
213.269842
 31
0.0
  0
LINE
  5
14E
330
A
100
AcDbEntity
  8
0
 62
     7
100
AcDbLine
 10
217.068576
 20
212.859875
 30
0.0
 11
217.068576
 21
213.269842
 31
0.0
  0
LINE
  5
14D
330
A
100
AcDbEntity
  8
0
 62
     7
100
AcDbLine
 10
217.068576
 20
212.859875
 30
0.0
 11
217.068576
 21
213.269842
 31
0.0
  0
LINE
  5
14C
330
A
100
AcDbEntity
  8
0
 62
     7
100
AcDbLine
 10
217.068576
 20
212.859875
 30
0.0
 11
217.068576
 21
213.269842
 31
0.0
  0
LINE
  5
14B
330
A
100
AcDbEntity
  8
0
 62
     7
100
AcDbLine
 10
217.068576
 20
212.859875
 30
0.0
 11
217.068576
 21
213.269842
 31
0.0
  0
LINE
  5
14A
330
A
100
AcDbEntity
  8
0
 62
     7
100
AcDbLine
 10
217.068576
 20
212.859875
 30
0.0
 11
217.068576
 21
213.269842
 31
0.0
  0
LINE
  5
149
330
A
100
AcDbEntity
  8
0
 62
     7
100
AcDbLine
 10
217.068576
 20
212.859875
 30
0.0
 11
217.068576
 21
213.269842
 31
0.0
  0
LINE
  5
148
330
A
100
AcDbEntity
  8
0
 62
     7
100
AcDbLine
 10
217.068576
 20
212.859875
 30
0.0
 11
217.068576
 21
213.269842
 31
0.0
  0
LINE
  5
147
330
A
100
AcDbEntity
  8
0
 62
     7
100
AcDbLine
 10
217.068576
 20
212.859875
 30
0.0
 11
217.068576
 21
213.269842
 31
0.0
  0
LINE
  5
146
330
A
100
AcDbEntity
  8
0
 62
     7
100
AcDbLine
 10
217.068576
 20
212.859875
 30
0.0
 11
217.068576
 21
213.269842
 31
0.0
  0
LINE
  5
145
330
A
100
AcDbEntity
  8
0
 62
     7
100
AcDbLine
 10
219.368522
 20
213.269842
 30
0.0
 11
219.368522
 21
212.859875
 31
0.0
  0
LINE
  5
144
330
A
100
AcDbEntity
  8
0
 62
     7
100
AcDbLine
 10
218.968547
 20
212.859875
 30
0.0
 11
218.968547
 21
213.269842
 31
0.0
  0
LINE
  5
143
330
A
100
AcDbEntity
  8
0
 62
     7
100
AcDbLine
 10
219.027113
 20
212.859875
 30
0.0
 11
218.968547
 21
212.859875
 31
0.0
  0
LINE
  5
142
330
A
100
AcDbEntity
  8
0
 62
     7
100
AcDbLine
 10
219.168707
 20
212.859875
 30
0.0
 11
219.027113
 21
212.859875
 31
0.0
  0
LINE
  5
141
330
A
100
AcDbEntity
  8
0
 62
     7
100
AcDbLine
 10
219.309956
 20
212.859875
 30
0.0
 11
219.168707
 21
212.859875
 31
0.0
  0
LINE
  5
140
330
A
100
AcDbEntity
  8
0
 62
     7
100
AcDbLine
 10
219.368522
 20
212.859875
 30
0.0
 11
219.309956
 21
212.859875
 31
0.0
  0
LINE
  5
13F
330
A
100
AcDbEntity
  8
0
 62
     7
100
AcDbLine
 10
219.309956
 20
213.269842
 30
0.0
 11
219.368522
 21
213.269842
 31
0.0
  0
LINE
  5
13E
330
A
100
AcDbEntity
  8
0
 62
     7
100
AcDbLine
 10
219.168707
 20
213.269842
 30
0.0
 11
219.309956
 21
213.269842
 31
0.0
  0
LINE
  5
13D
330
A
100
AcDbEntity
  8
0
 62
     7
100
AcDbLine
 10
219.027113
 20
213.269842
 30
0.0
 11
219.168707
 21
213.269842
 31
0.0
  0
LINE
  5
13C
330
A
100
AcDbEntity
  8
0
 62
     7
100
AcDbLine
 10
218.968547
 20
213.269842
 30
0.0
 11
219.027113
 21
213.269842
 31
0.0
  0
LINE
  5
13B
330
A
100
AcDbEntity
  8
0
 62
     7
100
AcDbLine
 10
221.268492
 20
213.269842
 30
0.0
 11
221.268492
 21
212.859875
 31
0.0
  0
LINE
  5
13A
330
A
100
AcDbEntity
  8
0
 62
     7
100
AcDbLine
 10
220.868517
 20
212.859875
 30
0.0
 11
220.868517
 21
213.269842
 31
0.0
  0
LINE
  5
139
330
A
100
AcDbEntity
  8
0
 62
     7
100
AcDbLine
 10
220.927083
 20
212.859875
 30
0.0
 11
220.868517
 21
212.859875
 31
0.0
  0
LINE
  5
138
330
A
100
AcDbEntity
  8
0
 62
     7
100
AcDbLine
 10
221.068677
 20
212.859875
 30
0.0
 11
220.927083
 21
212.859875
 31
0.0
  0
LINE
  5
137
330
A
100
AcDbEntity
  8
0
 62
     7
100
AcDbLine
 10
221.209926
 20
212.859875
 30
0.0
 11
221.068677
 21
212.859875
 31
0.0
  0
LINE
  5
136
330
A
100
AcDbEntity
  8
0
 62
     7
100
AcDbLine
 10
221.268492
 20
212.859875
 30
0.0
 11
221.209926
 21
212.859875
 31
0.0
  0
LINE
  5
135
330
A
100
AcDbEntity
  8
0
 62
     7
100
AcDbLine
 10
221.209926
 20
213.269842
 30
0.0
 11
221.268492
 21
213.269842
 31
0.0
  0
LINE
  5
134
330
A
100
AcDbEntity
  8
0
 62
     7
100
AcDbLine
 10
221.068677
 20
213.269842
 30
0.0
 11
221.209926
 21
213.269842
 31
0.0
  0
LINE
  5
133
330
A
100
AcDbEntity
  8
0
 62
     7
100
AcDbLine
 10
220.927083
 20
213.269842
 30
0.0
 11
221.068677
 21
213.269842
 31
0.0
  0
LINE
  5
132
330
A
100
AcDbEntity
  8
0
 62
     7
100
AcDbLine
 10
220.868517
 20
213.269842
 30
0.0
 11
220.927083
 21
213.269842
 31
0.0
  0
LINE
  5
131
330
A
100
AcDbEntity
  8
0
 62
     7
100
AcDbLine
 10
220.868517
 20
212.859875
 30
0.0
 11
220.868517
 21
213.269842
 31
0.0
  0
LINE
  5
130
330
A
100
AcDbEntity
  8
0
 62
     7
100
AcDbLine
 10
220.868517
 20
212.859875
 30
0.0
 11
220.868517
 21
213.269842
 31
0.0
  0
LINE
  5
12F
330
A
100
AcDbEntity
  8
0
 62
     7
100
AcDbLine
 10
220.868517
 20
212.859875
 30
0.0
 11
220.868517
 21
213.269842
 31
0.0
  0
LINE
  5
12E
330
A
100
AcDbEntity
  8
0
 62
     7
100
AcDbLine
 10
220.868517
 20
212.859875
 30
0.0
 11
220.868517
 21
213.269842
 31
0.0
  0
LINE
  5
12D
330
A
100
AcDbEntity
  8
0
 62
     7
100
AcDbLine
 10
220.868517
 20
212.859875
 30
0.0
 11
220.868517
 21
213.269842
 31
0.0
  0
LINE
  5
12C
330
A
100
AcDbEntity
  8
0
 62
     7
100
AcDbLine
 10
220.868517
 20
212.859875
 30
0.0
 11
220.868517
 21
213.269842
 31
0.0
  0
LINE
  5
12B
330
A
100
AcDbEntity
  8
0
 62
     7
100
AcDbLine
 10
220.868517
 20
212.859875
 30
0.0
 11
220.868517
 21
213.269842
 31
0.0
  0
LINE
  5
12A
330
A
100
AcDbEntity
  8
0
 62
     7
100
AcDbLine
 10
220.868517
 20
212.859875
 30
0.0
 11
220.868517
 21
213.269842
 31
0.0
  0
LINE
  5
129
330
A
100
AcDbEntity
  8
0
 62
     7
100
AcDbLine
 10
220.868517
 20
212.859875
 30
0.0
 11
220.868517
 21
213.269842
 31
0.0
  0
LINE
  5
128
330
A
100
AcDbEntity
  8
0
 62
     7
100
AcDbLine
 10
220.868517
 20
212.859875
 30
0.0
 11
220.868517
 21
213.269842
 31
0.0
  0
LINE
  5
127
330
A
100
AcDbEntity
  8
0
 62
     7
100
AcDbLine
 10
220.868517
 20
212.859875
 30
0.0
 11
220.868517
 21
213.269842
 31
0.0
  0
LINE
  5
126
330
A
100
AcDbEntity
  8
0
 62
     7
100
AcDbLine
 10
220.868517
 20
212.859875
 30
0.0
 11
220.868517
 21
213.269842
 31
0.0
  0
LINE
  5
125
330
A
100
AcDbEntity
  8
0
 62
     7
100
AcDbLine
 10
220.868517
 20
212.859875
 30
0.0
 11
220.868517
 21
213.269842
 31
0.0
  0
LINE
  5
124
330
A
100
AcDbEntity
  8
0
 62
     7
100
AcDbLine
 10
223.168462
 20
213.269842
 30
0.0
 11
223.168462
 21
212.859875
 31
0.0
  0
LINE
  5
123
330
A
100
AcDbEntity
  8
0
 62
     7
100
AcDbLine
 10
222.768487
 20
212.859875
 30
0.0
 11
222.768487
 21
213.269842
 31
0.0
  0
LINE
  5
122
330
A
100
AcDbEntity
  8
0
 62
     7
100
AcDbLine
 10
222.827053
 20
212.859875
 30
0.0
 11
222.768487
 21
212.859875
 31
0.0
  0
LINE
  5
121
330
A
100
AcDbEntity
  8
0
 62
     7
100
AcDbLine
 10
222.968647
 20
212.859875
 30
0.0
 11
222.827053
 21
212.859875
 31
0.0
  0
LINE
  5
120
330
A
100
AcDbEntity
  8
0
 62
     7
100
AcDbLine
 10
223.109896
 20
212.859875
 30
0.0
 11
222.968647
 21
212.859875
 31
0.0
  0
LINE
  5
11F
330
A
100
AcDbEntity
  8
0
 62
     7
100
AcDbLine
 10
223.168462
 20
212.859875
 30
0.0
 11
223.109896
 21
212.859875
 31
0.0
  0
LINE
  5
11E
330
A
100
AcDbEntity
  8
0
 62
     7
100
AcDbLine
 10
223.109896
 20
213.269842
 30
0.0
 11
223.168462
 21
213.269842
 31
0.0
  0
LINE
  5
11D
330
A
100
AcDbEntity
  8
0
 62
     7
100
AcDbLine
 10
222.968647
 20
213.269842
 30
0.0
 11
223.109896
 21
213.269842
 31
0.0
  0
LINE
  5
11C
330
A
100
AcDbEntity
  8
0
 62
     7
100
AcDbLine
 10
222.827053
 20
213.269842
 30
0.0
 11
222.968647
 21
213.269842
 31
0.0
  0
LINE
  5
11B
330
A
100
AcDbEntity
  8
0
 62
     7
100
AcDbLine
 10
222.768487
 20
213.269842
 30
0.0
 11
222.827053
 21
213.269842
 31
0.0
  0
LINE
  5
11A
330
A
100
AcDbEntity
  8
0
 62
     7
100
AcDbLine
 10
225.068777
 20
213.269842
 30
0.0
 11
225.068777
 21
212.859875
 31
0.0
  0
LINE
  5
119
330
A
100
AcDbEntity
  8
0
 62
     7
100
AcDbLine
 10
224.668457
 20
212.859875
 30
0.0
 11
224.668457
 21
213.269842
 31
0.0
  0
LINE
  5
118
330
A
100
AcDbEntity
  8
0
 62
     7
100
AcDbLine
 10
224.727024
 20
212.859875
 30
0.0
 11
224.668457
 21
212.859875
 31
0.0
  0
LINE
  5
117
330
A
100
AcDbEntity
  8
0
 62
     7
100
AcDbLine
 10
224.868617
 20
212.859875
 30
0.0
 11
224.727024
 21
212.859875
 31
0.0
  0
LINE
  5
116
330
A
100
AcDbEntity
  8
0
 62
     7
100
AcDbLine
 10
225.010211
 20
212.859875
 30
0.0
 11
224.868617
 21
212.859875
 31
0.0
  0
LINE
  5
115
330
A
100
AcDbEntity
  8
0
 62
     7
100
AcDbLine
 10
225.068777
 20
212.859875
 30
0.0
 11
225.010211
 21
212.859875
 31
0.0
  0
LINE
  5
114
330
A
100
AcDbEntity
  8
0
 62
     7
100
AcDbLine
 10
225.010211
 20
213.269842
 30
0.0
 11
225.068777
 21
213.269842
 31
0.0
  0
LINE
  5
113
330
A
100
AcDbEntity
  8
0
 62
     7
100
AcDbLine
 10
224.868617
 20
213.269842
 30
0.0
 11
225.010211
 21
213.269842
 31
0.0
  0
LINE
  5
112
330
A
100
AcDbEntity
  8
0
 62
     7
100
AcDbLine
 10
224.727024
 20
213.269842
 30
0.0
 11
224.868617
 21
213.269842
 31
0.0
  0
LINE
  5
111
330
A
100
AcDbEntity
  8
0
 62
     7
100
AcDbLine
 10
224.668457
 20
213.269842
 30
0.0
 11
224.727024
 21
213.269842
 31
0.0
  0
LINE
  5
110
330
A
100
AcDbEntity
  8
0
 62
     7
100
AcDbLine
 10
224.668457
 20
212.859875
 30
0.0
 11
224.668457
 21
213.269842
 31
0.0
  0
LINE
  5
10F
330
A
100
AcDbEntity
  8
0
 62
     7
100
AcDbLine
 10
224.668457
 20
212.859875
 30
0.0
 11
224.668457
 21
213.269842
 31
0.0
  0
LINE
  5
10E
330
A
100
AcDbEntity
  8
0
 62
     7
100
AcDbLine
 10
224.668457
 20
212.859875
 30
0.0
 11
224.668457
 21
213.269842
 31
0.0
  0
LINE
  5
10D
330
A
100
AcDbEntity
  8
0
 62
     7
100
AcDbLine
 10
224.668457
 20
212.859875
 30
0.0
 11
224.668457
 21
213.269842
 31
0.0
  0
LINE
  5
10C
330
A
100
AcDbEntity
  8
0
 62
     7
100
AcDbLine
 10
224.668457
 20
212.859875
 30
0.0
 11
224.668457
 21
213.269842
 31
0.0
  0
LINE
  5
10B
330
A
100
AcDbEntity
  8
0
 62
     7
100
AcDbLine
 10
224.668457
 20
212.859875
 30
0.0
 11
224.668457
 21
213.269842
 31
0.0
  0
LINE
  5
10A
330
A
100
AcDbEntity
  8
0
 62
     7
100
AcDbLine
 10
224.668457
 20
212.859875
 30
0.0
 11
224.668457
 21
213.269842
 31
0.0
  0
LINE
  5
109
330
A
100
AcDbEntity
  8
0
 62
     7
100
AcDbLine
 10
224.668457
 20
212.859875
 30
0.0
 11
224.668457
 21
213.269842
 31
0.0
  0
LINE
  5
108
330
A
100
AcDbEntity
  8
0
 62
     7
100
AcDbLine
 10
224.668457
 20
212.859875
 30
0.0
 11
224.668457
 21
213.269842
 31
0.0
  0
LINE
  5
107
330
A
100
AcDbEntity
  8
0
 62
     7
100
AcDbLine
 10
224.668457
 20
212.859875
 30
0.0
 11
224.668457
 21
213.269842
 31
0.0
  0
LINE
  5
106
330
A
100
AcDbEntity
  8
0
 62
     7
100
AcDbLine
 10
224.668457
 20
212.859875
 30
0.0
 11
224.668457
 21
213.269842
 31
0.0
  0
LINE
  5
105
330
A
100
AcDbEntity
  8
0
 62
     7
100
AcDbLine
 10
224.668457
 20
212.859875
 30
0.0
 11
224.668457
 21
213.269842
 31
0.0
  0
LINE
  5
104
330
A
100
AcDbEntity
  8
0
 62
     7
100
AcDbLine
 10
224.668457
 20
212.859875
 30
0.0
 11
224.668457
 21
213.269842
 31
0.0
  0
LINE
  5
103
330
A
100
AcDbEntity
  8
0
 62
     7
100
AcDbLine
 10
226.968747
 20
213.269842
 30
0.0
 11
226.968747
 21
212.859875
 31
0.0
  0
LINE
  5
102
330
A
100
AcDbEntity
  8
0
 62
     7
100
AcDbLine
 10
226.568772
 20
212.859875
 30
0.0
 11
226.568772
 21
213.269842
 31
0.0
  0
LINE
  5
101
330
A
100
AcDbEntity
  8
0
 62
     7
100
AcDbLine
 10
226.627338
 20
212.859875
 30
0.0
 11
226.568772
 21
212.859875
 31
0.0
  0
LINE
  5
100
330
A
100
AcDbEntity
  8
0
 62
     7
100
AcDbLine
 10
226.768587
 20
212.859875
 30
0.0
 11
226.627338
 21
212.859875
 31
0.0
  0
LINE
  5
FF
330
A
100
AcDbEntity
  8
0
 62
     7
100
AcDbLine
 10
226.909836
 20
212.859875
 30
0.0
 11
226.768587
 21
212.859875
 31
0.0
  0
LINE
  5
FE
330
A
100
AcDbEntity
  8
0
 62
     7
100
AcDbLine
 10
226.968747
 20
212.859875
 30
0.0
 11
226.909836
 21
212.859875
 31
0.0
  0
LINE
  5
FD
330
A
100
AcDbEntity
  8
0
 62
     7
100
AcDbLine
 10
226.909836
 20
213.269842
 30
0.0
 11
226.968747
 21
213.269842
 31
0.0
  0
LINE
  5
FC
330
A
100
AcDbEntity
  8
0
 62
     7
100
AcDbLine
 10
226.768587
 20
213.269842
 30
0.0
 11
226.909836
 21
213.269842
 31
0.0
  0
LINE
  5
FB
330
A
100
AcDbEntity
  8
0
 62
     7
100
AcDbLine
 10
226.627338
 20
213.269842
 30
0.0
 11
226.768587
 21
213.269842
 31
0.0
  0
LINE
  5
FA
330
A
100
AcDbEntity
  8
0
 62
     7
100
AcDbLine
 10
226.568772
 20
213.269842
 30
0.0
 11
226.627338
 21
213.269842
 31
0.0
  0
LINE
  5
F9
330
A
100
AcDbEntity
  8
0
 62
     7
100
AcDbLine
 10
228.868717
 20
213.269842
 30
0.0
 11
228.868717
 21
212.859875
 31
0.0
  0
LINE
  5
F8
330
A
100
AcDbEntity
  8
0
 62
     7
100
AcDbLine
 10
228.468742
 20
212.859875
 30
0.0
 11
228.468742
 21
213.269842
 31
0.0
  0
LINE
  5
F7
330
A
100
AcDbEntity
  8
0
 62
     7
100
AcDbLine
 10
228.527308
 20
212.859875
 30
0.0
 11
228.468742
 21
212.859875
 31
0.0
  0
LINE
  5
F6
330
A
100
AcDbEntity
  8
0
 62
     7
100
AcDbLine
 10
228.668557
 20
212.859875
 30
0.0
 11
228.527308
 21
212.859875
 31
0.0
  0
LINE
  5
F5
330
A
100
AcDbEntity
  8
0
 62
     7
100
AcDbLine
 10
228.810151
 20
212.859875
 30
0.0
 11
228.668557
 21
212.859875
 31
0.0
  0
LINE
  5
F4
330
A
100
AcDbEntity
  8
0
 62
     7
100
AcDbLine
 10
228.868717
 20
212.859875
 30
0.0
 11
228.810151
 21
212.859875
 31
0.0
  0
LINE
  5
F3
330
A
100
AcDbEntity
  8
0
 62
     7
100
AcDbLine
 10
228.810151
 20
213.269842
 30
0.0
 11
228.868717
 21
213.269842
 31
0.0
  0
LINE
  5
F2
330
A
100
AcDbEntity
  8
0
 62
     7
100
AcDbLine
 10
228.668557
 20
213.269842
 30
0.0
 11
228.810151
 21
213.269842
 31
0.0
  0
LINE
  5
F1
330
A
100
AcDbEntity
  8
0
 62
     7
100
AcDbLine
 10
228.527308
 20
213.269842
 30
0.0
 11
228.668557
 21
213.269842
 31
0.0
  0
LINE
  5
F0
330
A
100
AcDbEntity
  8
0
 62
     7
100
AcDbLine
 10
228.468742
 20
213.269842
 30
0.0
 11
228.527308
 21
213.269842
 31
0.0
  0
LINE
  5
EF
330
A
100
AcDbEntity
  8
0
 62
     7
100
AcDbLine
 10
228.468742
 20
212.859875
 30
0.0
 11
228.468742
 21
213.269842
 31
0.0
  0
LINE
  5
EE
330
A
100
AcDbEntity
  8
0
 62
     7
100
AcDbLine
 10
228.468742
 20
212.859875
 30
0.0
 11
228.468742
 21
213.269842
 31
0.0
  0
LINE
  5
ED
330
A
100
AcDbEntity
  8
0
 62
     7
100
AcDbLine
 10
228.468742
 20
212.859875
 30
0.0
 11
228.468742
 21
213.269842
 31
0.0
  0
LINE
  5
EC
330
A
100
AcDbEntity
  8
0
 62
     7
100
AcDbLine
 10
228.468742
 20
212.859875
 30
0.0
 11
228.468742
 21
213.269842
 31
0.0
  0
LINE
  5
EB
330
A
100
AcDbEntity
  8
0
 62
     7
100
AcDbLine
 10
228.468742
 20
212.859875
 30
0.0
 11
228.468742
 21
213.269842
 31
0.0
  0
LINE
  5
EA
330
A
100
AcDbEntity
  8
0
 62
     7
100
AcDbLine
 10
228.468742
 20
212.859875
 30
0.0
 11
228.468742
 21
213.269842
 31
0.0
  0
LINE
  5
E9
330
A
100
AcDbEntity
  8
0
 62
     7
100
AcDbLine
 10
228.468742
 20
212.859875
 30
0.0
 11
228.468742
 21
213.269842
 31
0.0
  0
LINE
  5
E8
330
A
100
AcDbEntity
  8
0
 62
     7
100
AcDbLine
 10
228.468742
 20
212.859875
 30
0.0
 11
228.468742
 21
213.269842
 31
0.0
  0
LINE
  5
E7
330
A
100
AcDbEntity
  8
0
 62
     7
100
AcDbLine
 10
228.468742
 20
212.859875
 30
0.0
 11
228.468742
 21
213.269842
 31
0.0
  0
LINE
  5
E6
330
A
100
AcDbEntity
  8
0
 62
     7
100
AcDbLine
 10
228.468742
 20
212.859875
 30
0.0
 11
228.468742
 21
213.269842
 31
0.0
  0
LINE
  5
E5
330
A
100
AcDbEntity
  8
0
 62
     7
100
AcDbLine
 10
228.468742
 20
212.859875
 30
0.0
 11
228.468742
 21
213.269842
 31
0.0
  0
LINE
  5
E4
330
A
100
AcDbEntity
  8
0
 62
     7
100
AcDbLine
 10
228.468742
 20
212.859875
 30
0.0
 11
228.468742
 21
213.269842
 31
0.0
  0
LINE
  5
E3
330
A
100
AcDbEntity
  8
0
 62
     7
100
AcDbLine
 10
228.468742
 20
212.859875
 30
0.0
 11
228.468742
 21
213.269842
 31
0.0
  0
LINE
  5
E2
330
A
100
AcDbEntity
  8
0
 62
     7
100
AcDbLine
 10
215.981993
 20
219.768325
 30
0.0
 11
215.981993
 21
218.276944
 31
0.0
  0
LINE
  5
E1
330
A
100
AcDbEntity
  8
0
 62
     7
100
AcDbLine
 10
213.468107
 20
219.768325
 30
0.0
 11
213.468107
 21
218.276944
 31
0.0
  0
LINE
  5
E0
330
A
100
AcDbEntity
  8
0
 62
     7
100
AcDbLine
 10
215.981993
 20
218.276944
 30
0.0
 11
215.963734
 21
218.148097
 31
0.0
  0
LINE
  5
DF
330
A
100
AcDbEntity
  8
0
 62
     7
100
AcDbLine
 10
213.468107
 20
218.276944
 30
0.0
 11
213.486366
 21
218.148097
 31
0.0
  0
LINE
  5
DE
330
A
100
AcDbEntity
  8
0
 62
     7
100
AcDbLine
 10
215.963734
 20
218.148097
 30
0.0
 11
215.832132
 21
217.936224
 31
0.0
  0
LINE
  5
DD
330
A
100
AcDbEntity
  8
0
 62
     7
100
AcDbLine
 10
213.486366
 20
218.148097
 30
0.0
 11
213.617969
 21
217.936224
 31
0.0
  0
LINE
  5
DC
330
A
100
AcDbEntity
  8
0
 62
     7
100
AcDbLine
 10
215.832132
 20
217.936224
 30
0.0
 11
215.604755
 21
217.824086
 31
0.0
  0
LINE
  5
DB
330
A
100
AcDbEntity
  8
0
 62
     7
100
AcDbLine
 10
215.747727
 20
217.936224
 30
0.0
 11
215.832132
 21
217.936224
 31
0.0
  0
LINE
  5
DA
330
A
100
AcDbEntity
  8
0
 62
     7
100
AcDbLine
 10
215.507948
 20
217.936224
 30
0.0
 11
215.747727
 21
217.936224
 31
0.0
  0
LINE
  5
D9
330
A
100
AcDbEntity
  8
0
 62
     7
100
AcDbLine
 10
215.148625
 20
217.936224
 30
0.0
 11
215.507948
 21
217.936224
 31
0.0
  0
LINE
  5
D8
330
A
100
AcDbEntity
  8
0
 62
     7
100
AcDbLine
 10
214.725222
 20
217.936224
 30
0.0
 11
215.148625
 21
217.936224
 31
0.0
  0
LINE
  5
D7
330
A
100
AcDbEntity
  8
0
 62
     7
100
AcDbLine
 10
214.301476
 20
217.936224
 30
0.0
 11
214.725222
 21
217.936224
 31
0.0
  0
LINE
  5
D6
330
A
100
AcDbEntity
  8
0
 62
     7
100
AcDbLine
 10
213.942152
 20
217.936224
 30
0.0
 11
214.301476
 21
217.936224
 31
0.0
  0
LINE
  5
D5
330
A
100
AcDbEntity
  8
0
 62
     7
100
AcDbLine
 10
213.702374
 20
217.936224
 30
0.0
 11
213.942152
 21
217.936224
 31
0.0
  0
LINE
  5
D4
330
A
100
AcDbEntity
  8
0
 62
     7
100
AcDbLine
 10
213.617969
 20
217.936224
 30
0.0
 11
213.702374
 21
217.936224
 31
0.0
  0
LINE
  5
D3
330
A
100
AcDbEntity
  8
0
 62
     7
100
AcDbLine
 10
213.617969
 20
217.936224
 30
0.0
 11
213.845345
 21
217.824086
 31
0.0
  0
LINE
  5
D2
330
A
100
AcDbEntity
  8
0
 62
     7
100
AcDbLine
 10
215.604755
 20
217.824086
 30
0.0
 11
215.533786
 21
217.777233
 31
0.0
  0
LINE
  5
D1
330
A
100
AcDbEntity
  8
0
 62
     7
100
AcDbLine
 10
213.845345
 20
217.824086
 30
0.0
 11
213.916314
 21
217.777233
 31
0.0
  0
LINE
  5
D0
330
A
100
AcDbEntity
  8
0
 62
     7
100
AcDbLine
 10
215.533786
 20
217.777233
 30
0.0
 11
215.515872
 21
217.685937
 31
0.0
  0
LINE
  5
CF
330
A
100
AcDbEntity
  8
0
 62
     7
100
AcDbLine
 10
215.472119
 20
217.777233
 30
0.0
 11
215.533786
 21
217.777233
 31
0.0
  0
LINE
  5
CE
330
A
100
AcDbEntity
  8
0
 62
     7
100
AcDbLine
 10
215.296764
 20
217.777233
 30
0.0
 11
215.472119
 21
217.777233
 31
0.0
  0
LINE
  5
CD
330
A
100
AcDbEntity
  8
0
 62
     7
100
AcDbLine
 10
215.034592
 20
217.777233
 30
0.0
 11
215.296764
 21
217.777233
 31
0.0
  0
LINE
  5
CC
330
A
100
AcDbEntity
  8
0
 62
     7
100
AcDbLine
 10
214.725222
 20
217.777233
 30
0.0
 11
215.034592
 21
217.777233
 31
0.0
  0
LINE
  5
CB
330
A
100
AcDbEntity
  8
0
 62
     7
100
AcDbLine
 10
214.415508
 20
217.777233
 30
0.0
 11
214.725222
 21
217.777233
 31
0.0
  0
LINE
  5
CA
330
A
100
AcDbEntity
  8
0
 62
     7
100
AcDbLine
 10
214.153337
 20
217.777233
 30
0.0
 11
214.415508
 21
217.777233
 31
0.0
  0
LINE
  5
C9
330
A
100
AcDbEntity
  8
0
 62
     7
100
AcDbLine
 10
213.977981
 20
217.777233
 30
0.0
 11
214.153337
 21
217.777233
 31
0.0
  0
LINE
  5
C8
330
A
100
AcDbEntity
  8
0
 62
     7
100
AcDbLine
 10
213.916314
 20
217.777233
 30
0.0
 11
213.977981
 21
217.777233
 31
0.0
  0
LINE
  5
C7
330
A
100
AcDbEntity
  8
0
 62
     7
100
AcDbLine
 10
213.916314
 20
217.777233
 30
0.0
 11
213.934229
 21
217.685937
 31
0.0
  0
LINE
  5
C6
330
A
100
AcDbEntity
  8
0
 62
     7
100
AcDbLine
 10
215.515872
 20
217.685937
 30
0.0
 11
215.554801
 21
217.624787
 31
0.0
  0
LINE
  5
C5
330
A
100
AcDbEntity
  8
0
 62
     7
100
AcDbLine
 10
215.455927
 20
217.685937
 30
0.0
 11
215.515872
 21
217.685937
 31
0.0
  0
LINE
  5
C4
330
A
100
AcDbEntity
  8
0
 62
     7
100
AcDbLine
 10
215.284361
 20
217.685937
 30
0.0
 11
215.455927
 21
217.685937
 31
0.0
  0
LINE
  5
C3
330
A
100
AcDbEntity
  8
0
 62
     7
100
AcDbLine
 10
215.027702
 20
217.685937
 30
0.0
 11
215.284361
 21
217.685937
 31
0.0
  0
LINE
  5
C2
330
A
100
AcDbEntity
  8
0
 62
     7
100
AcDbLine
 10
214.725222
 20
217.685937
 30
0.0
 11
215.027702
 21
217.685937
 31
0.0
  0
LINE
  5
C1
330
A
100
AcDbEntity
  8
0
 62
     7
100
AcDbLine
 10
214.422399
 20
217.685937
 30
0.0
 11
214.725222
 21
217.685937
 31
0.0
  0
LINE
  5
C0
330
A
100
AcDbEntity
  8
0
 62
     7
100
AcDbLine
 10
214.165739
 20
217.685937
 30
0.0
 11
214.422399
 21
217.685937
 31
0.0
  0
LINE
  5
BF
330
A
100
AcDbEntity
  8
0
 62
     7
100
AcDbLine
 10
213.994173
 20
217.685937
 30
0.0
 11
214.165739
 21
217.685937
 31
0.0
  0
LINE
  5
BE
330
A
100
AcDbEntity
  8
0
 62
     7
100
AcDbLine
 10
213.934229
 20
217.685937
 30
0.0
 11
213.994173
 21
217.685937
 31
0.0
  0
LINE
  5
BD
330
A
100
AcDbEntity
  8
0
 62
     7
100
AcDbLine
 10
213.934229
 20
217.685937
 30
0.0
 11
213.894954
 21
217.624787
 31
0.0
  0
LINE
  5
BC
330
A
100
AcDbEntity
  8
0
 62
     7
100
AcDbLine
 10
215.554801
 20
217.624787
 30
0.0
 11
215.640929
 21
217.550718
 31
0.0
  0
LINE
  5
BB
330
A
100
AcDbEntity
  8
0
 62
     7
100
AcDbLine
 10
213.894954
 20
217.624787
 30
0.0
 11
213.809172
 21
217.550718
 31
0.0
  0
LINE
  5
BA
330
A
100
AcDbEntity
  8
0
 62
     7
100
AcDbLine
 10
215.640929
 20
217.550718
 30
0.0
 11
215.792169
 21
217.382425
 31
0.0
  0
LINE
  5
B9
330
A
100
AcDbEntity
  8
0
 62
     7
100
AcDbLine
 10
213.809172
 20
217.550718
 30
0.0
 11
213.657932
 21
217.382425
 31
0.0
  0
LINE
  5
B8
330
A
100
AcDbEntity
  8
0
 62
     7
100
AcDbLine
 10
215.792169
 20
217.382425
 30
0.0
 11
215.913436
 21
217.190705
 31
0.0
  0
LINE
  5
B7
330
A
100
AcDbEntity
  8
0
 62
     7
100
AcDbLine
 10
213.657932
 20
217.382425
 30
0.0
 11
213.536664
 21
217.190705
 31
0.0
  0
LINE
  5
B6
330
A
100
AcDbEntity
  8
0
 62
     7
100
AcDbLine
 10
216.55009
 20
217.190705
 30
0.0
 11
216.55009
 21
214.479243
 31
0.0
  0
LINE
  5
B5
330
A
100
AcDbEntity
  8
0
 62
     7
100
AcDbLine
 10
216.411252
 20
217.190705
 30
0.0
 11
216.55009
 21
217.190705
 31
0.0
  0
LINE
  5
B4
330
A
100
AcDbEntity
  8
0
 62
     7
100
AcDbLine
 10
216.015411
 20
217.190705
 30
0.0
 11
216.411252
 21
217.190705
 31
0.0
  0
LINE
  5
B3
330
A
100
AcDbEntity
  8
0
 62
     7
100
AcDbLine
 10
215.423543
 20
217.190705
 30
0.0
 11
216.015411
 21
217.190705
 31
0.0
  0
LINE
  5
B2
330
A
100
AcDbEntity
  8
0
 62
     7
100
AcDbLine
 10
214.725222
 20
217.190705
 30
0.0
 11
215.423543
 21
217.190705
 31
0.0
  0
LINE
  5
B1
330
A
100
AcDbEntity
  8
0
 62
     7
100
AcDbLine
 10
214.026557
 20
217.190705
 30
0.0
 11
214.725222
 21
217.190705
 31
0.0
  0
LINE
  5
B0
330
A
100
AcDbEntity
  8
0
 62
     7
100
AcDbLine
 10
213.43469
 20
217.190705
 30
0.0
 11
214.026557
 21
217.190705
 31
0.0
  0
LINE
  5
AF
330
A
100
AcDbEntity
  8
0
 62
     7
100
AcDbLine
 10
213.038848
 20
217.190705
 30
0.0
 11
213.43469
 21
217.190705
 31
0.0
  0
LINE
  5
AE
330
A
100
AcDbEntity
  8
0
 62
     7
100
AcDbLine
 10
212.900011
 20
217.190705
 30
0.0
 11
213.038848
 21
217.190705
 31
0.0
  0
LINE
  5
AD
330
A
100
AcDbEntity
  8
0
 62
     7
100
AcDbLine
 10
212.900011
 20
217.190705
 30
0.0
 11
212.900011
 21
214.479243
 31
0.0
  0
LINE
  5
AC
330
A
100
AcDbEntity
  8
0
 62
     7
100
AcDbLine
 10
215.981993
 20
219.768325
 30
0.0
 11
215.973725
 21
219.768325
 31
0.0
  0
LINE
  5
AB
330
A
100
AcDbEntity
  8
0
 62
     7
100
AcDbLine
 10
215.973725
 20
219.768325
 30
0.0
 11
215.981993
 21
219.768325
 31
0.0
  0
LINE
  5
AA
330
A
100
AcDbEntity
  8
0
 62
     7
100
AcDbLine
 10
213.468107
 20
219.768325
 30
0.0
 11
213.479131
 21
219.768325
 31
0.0
  0
LINE
  5
A9
330
A
100
AcDbEntity
  8
0
 62
     7
100
AcDbLine
 10
213.479131
 20
219.768325
 30
0.0
 11
213.468107
 21
219.768325
 31
0.0
  0
LINE
  5
A8
330
A
100
AcDbEntity
  8
0
 62
     7
100
AcDbLine
 10
213.482232
 20
222.790191
 30
0.0
 11
213.479131
 21
219.768325
 31
0.0
  0
LINE
  5
A7
330
A
100
AcDbEntity
  8
0
 62
     7
100
AcDbLine
 10
213.488778
 20
219.761952
 30
0.0
 11
215.982682
 21
219.762641
 31
0.0
  0
LINE
  5
A6
330
A
100
AcDbEntity
  8
0
 62
     7
100
AcDbLine
 10
215.969246
 20
222.978465
 30
0.0
 11
215.973725
 21
219.765053
 31
0.0
  0
LINE
  5
A5
330
A
100
AcDbEntity
  8
0
 62
     7
100
AcDbLine
 10
213.283105
 20
224.20268
 30
0.0
 11
213.482232
 21
222.790191
 31
0.0
  0
LINE
  5
A4
330
A
100
AcDbEntity
  8
0
 62
     7
100
AcDbLine
 10
215.6647
 20
224.931318
 30
0.0
 11
215.969246
 21
222.978465
 31
0.0
  0
LINE
  5
A3
330
A
100
AcDbEntity
  8
0
 62
     7
100
AcDbLine
 10
212.760484
 20
225.247578
 30
0.0
 11
213.283105
 21
224.20268
 31
0.0
  0
LINE
  5
A2
330
A
100
AcDbEntity
  8
0
 62
     7
100
AcDbLine
 10
214.822374
 20
226.620276
 30
0.0
 11
215.6647
 21
224.931318
 31
0.0
  0
LINE
  5
A1
330
A
100
AcDbEntity
  8
0
 62
     7
100
AcDbLine
 10
212.034603
 20
226.000503
 30
0.0
 11
212.813194
 21
225.193145
 31
0.0
  0
LINE
  5
A0
330
A
100
AcDbEntity
  8
0
 62
     7
100
AcDbLine
 10
214.822374
 20
226.620276
 30
0.0
 11
214.768975
 21
226.676775
 31
0.0
  0
LINE
  5
9F
330
A
100
AcDbEntity
  8
0
 62
     7
100
AcDbLine
 10
213.465007
 20
228.029664
 30
0.0
 11
214.768975
 21
226.676775
 31
0.0
  0
LINE
  5
9E
330
A
100
AcDbEntity
  8
0
 62
     7
100
AcDbLine
 10
211.052062
 20
226.529842
 30
0.0
 11
212.034603
 21
226.000503
 31
0.0
  0
LINE
  5
9D
330
A
100
AcDbEntity
  8
0
 62
     7
100
AcDbLine
 10
211.811016
 20
228.916949
 30
0.0
 11
213.465007
 21
228.029664
 31
0.0
  0
LINE
  5
9C
330
A
100
AcDbEntity
  8
0
 62
     7
100
AcDbLine
 10
209.712953
 20
226.730002
 30
0.0
 11
211.052062
 21
226.529842
 31
0.0
  0
LINE
  5
9B
330
A
100
AcDbEntity
  8
0
 62
     7
100
AcDbLine
 10
209.906223
 20
229.235448
 30
0.0
 11
211.811016
 21
228.916949
 31
0.0
  0
LINE
  5
9A
330
A
100
AcDbEntity
  8
0
 62
     7
100
AcDbLine
 10
186.001394
 20
226.730002
 30
0.0
 11
209.712953
 21
226.730002
 31
0.0
  0
LINE
  5
99
330
A
100
AcDbEntity
  8
0
 62
     7
100
AcDbLine
 10
185.807952
 20
229.235448
 30
0.0
 11
209.906223
 21
229.235448
 31
0.0
  0
LINE
  5
98
330
A
100
AcDbEntity
  8
0
 62
     7
100
AcDbLine
 10
184.6621129999999
 20
226.52967
 30
0.0
 11
186.001394
 21
226.730002
 31
0.0
  0
LINE
  5
97
330
A
100
AcDbEntity
  8
0
 62
     7
100
AcDbLine
 10
183.903331
 20
228.916949
 30
0.0
 11
185.807952
 21
229.235448
 31
0.0
  0
LINE
  5
96
330
A
100
AcDbEntity
  8
0
 62
     7
100
AcDbLine
 10
183.678883
 20
226.000331
 30
0.0
 11
184.6621129999999
 21
226.52967
 31
0.0
  0
LINE
  5
95
330
A
100
AcDbEntity
  8
0
 62
     7
100
AcDbLine
 10
182.249169
 20
228.029664
 30
0.0
 11
183.903331
 21
228.916949
 31
0.0
  0
LINE
  5
94
330
A
100
AcDbEntity
  8
0
 62
     7
100
AcDbLine
 10
182.952657
 20
225.247233
 30
0.0
 11
183.678883
 21
226.000331
 31
0.0
  0
LINE
  5
93
330
A
100
AcDbEntity
  8
0
 62
     7
100
AcDbLine
 10
180.944511
 20
226.676775
 30
0.0
 11
182.249169
 21
228.029664
 31
0.0
  0
LINE
  5
92
330
A
100
AcDbEntity
  8
0
 62
     7
100
AcDbLine
 10
182.430208
 20
224.203541
 30
0.0
 11
182.953691
 21
225.2493
 31
0.0
  0
LINE
  5
91
330
A
100
AcDbEntity
  8
0
 62
     7
100
AcDbLine
 10
180.944511
 20
226.676775
 30
0.0
 11
180.89094
 21
226.620276
 31
0.0
  0
LINE
  5
90
330
A
100
AcDbEntity
  8
0
 62
     7
100
AcDbLine
 10
180.048614
 20
224.931318
 30
0.0
 11
180.89094
 21
226.620276
 31
0.0
  0
LINE
  5
8F
330
A
100
AcDbEntity
  8
0
 62
     7
100
AcDbLine
 10
182.232977
 20
222.793119
 30
0.0
 11
182.430208
 21
224.203541
 31
0.0
  0
LINE
  5
8E
330
A
100
AcDbEntity
  8
0
 62
     7
100
AcDbLine
 10
179.745618
 20
222.978638
 30
0.0
 11
180.048614
 21
224.931318
 31
0.0
  0
LINE
  5
8D
330
A
100
AcDbEntity
  8
0
 62
     7
100
AcDbLine
 10
182.247618
 20
92.67031199999999
 30
0.0
 11
182.239178
 21
167.967525
 31
0.0
  0
LINE
  5
8C
330
A
100
AcDbEntity
  8
0
 62
     7
100
AcDbLine
 10
182.238833
 20
170.991458
 30
0.0
 11
182.2369379999999
 21
187.750125
 31
0.0
  0
LINE
  5
8B
330
A
100
AcDbEntity
  8
0
 62
     7
100
AcDbLine
 10
182.236249
 20
192.66731
 30
0.0
 11
182.232977
 21
222.793119
 31
0.0
  0
LINE
  5
8A
330
A
100
AcDbEntity
  8
0
 62
     7
100
AcDbLine
 10
179.753197
 20
92.67031199999999
 30
0.0
 11
179.751302
 21
125.074192
 31
0.0
  0
LINE
  5
89
330
A
100
AcDbEntity
  8
0
 62
     7
100
AcDbLine
 10
179.747685
 20
187.656246
 30
0.0
 11
179.745618
 21
222.978638
 31
0.0
  0
LINE
  5
88
330
A
100
AcDbEntity
  8
0
 62
     7
100
AcDbLine
 10
181.334668
 20
92.59762099999999
 30
0.0
 11
180.845637
 21
92.59762099999999
 31
0.0
  0
LINE
  5
87
330
A
100
AcDbEntity
  8
0
 62
     7
100
AcDbLine
 10
169.44995
 20
92.47015199999999
 30
0.0
 11
176.870341
 21
92.47015199999999
 31
0.0
  0
LINE
  5
86
330
A
100
AcDbEntity
  8
0
 62
     7
100
AcDbLine
 10
176.877059
 20
92.67031199999999
 30
0.0
 11
169.44995
 21
92.67031199999999
 31
0.0
  0
LINE
  5
85
330
A
100
AcDbEntity
  8
0
 62
     7
100
AcDbLine
 10
178.661102
 20
92.47015199999999
 30
0.0
 11
181.336735
 21
92.47015199999999
 31
0.0
  0
LINE
  5
84
330
A
100
AcDbEntity
  8
0
 62
     7
100
AcDbLine
 10
181.336735
 20
92.67031199999999
 30
0.0
 11
178.66782
 21
92.67031199999999
 31
0.0
  0
LINE
  5
83
330
A
100
AcDbEntity
  8
0
 62
     7
100
AcDbLine
 10
181.336735
 20
92.47015199999999
 30
0.0
 11
181.775123
 21
92.47015199999999
 31
0.0
  0
LINE
  5
82
330
A
100
AcDbEntity
  8
0
 62
     7
100
AcDbLine
 10
181.775123
 20
92.67031199999999
 30
0.0
 11
181.336735
 21
92.67031199999999
 31
0.0
  0
LINE
  5
81
330
A
100
AcDbEntity
  8
0
 62
     7
100
AcDbLine
 10
181.775123
 20
92.47015199999999
 30
0.0
 11
182.09569
 21
92.47015199999999
 31
0.0
  0
LINE
  5
80
330
A
100
AcDbEntity
  8
0
 62
     7
100
AcDbLine
 10
182.09569
 20
92.67031199999999
 30
0.0
 11
181.775123
 21
92.67031199999999
 31
0.0
  0
LINE
  5
7F
330
A
100
AcDbEntity
  8
0
 62
     7
100
AcDbLine
 10
182.09569
 20
92.47015199999999
 30
0.0
 11
182.25003
 21
92.47015199999999
 31
0.0
  0
LINE
  5
7E
330
A
100
AcDbEntity
  8
0
 62
     7
100
AcDbLine
 10
182.25003
 20
92.67031199999999
 30
0.0
 11
182.09569
 21
92.67031199999999
 31
0.0
  0
LINE
  5
7D
330
A
100
AcDbEntity
  8
0
 62
     7
100
AcDbLine
 10
182.25003
 20
92.67031199999999
 30
0.0
 11
182.25003
 21
92.47015199999999
 31
0.0
  0
LINE
  5
7C
330
A
100
AcDbEntity
  8
0
 62
     7
100
AcDbLine
 10
178.66782
 20
92.67031199999999
 30
0.0
 11
179.753197
 21
92.67031199999999
 31
0.0
  0
LINE
  5
7B
330
A
100
AcDbEntity
  8
0
 62
     7
100
AcDbLine
 10
169.44995
 20
92.47015199999999
 30
0.0
 11
169.44995
 21
92.67031199999999
 31
0.0
  0
LINE
  5
7A
330
A
100
AcDbEntity
  8
0
 62
     7
100
AcDbLine
 10
176.791965
 20
90.12886599999999
 30
0.0
 11
176.750107
 21
90.12955500000002
 31
0.0
  0
LINE
  5
79
330
A
100
AcDbEntity
  8
0
 62
     7
100
AcDbLine
 10
176.750107
 20
90.12955500000002
 30
0.0
 11
176.409904
 21
90.13541100000001
 31
0.0
  0
LINE
  5
78
330
A
100
AcDbEntity
  8
0
 62
     7
100
AcDbLine
 10
175.351743
 20
84.95329899999999
 30
0.0
 11
175.441143
 21
90.13541100000001
 31
0.0
  0
LINE
  5
77
330
A
100
AcDbEntity
  8
0
 62
     7
100
AcDbLine
 10
175.500743
 20
79.77359799999999
 30
0.0
 11
175.351743
 21
84.95329899999999
 31
0.0
  0
LINE
  5
76
330
A
100
AcDbEntity
  8
0
 62
     7
100
AcDbLine
 10
175.906576
 20
75.553011
 30
0.0
 11
175.500743
 21
79.77359799999999
 31
0.0
  0
LINE
  5
75
330
A
100
AcDbEntity
  8
0
 62
     7
100
AcDbLine
 10
178.283864
 20
72.643628
 30
0.0
 11
178.06889
 21
73.6713
 31
0.0
  0
LINE
  5
74
330
A
100
AcDbEntity
  8
0
 62
     7
100
AcDbLine
 10
176.280196
 20
73.786711
 30
0.0
 11
175.906576
 21
75.553011
 31
0.0
  0
LINE
  5
73
330
A
100
AcDbEntity
  8
0
 62
     7
100
AcDbLine
 10
178.286275
 20
72.64500600000001
 30
0.0
 11
177.96657
 21
71.597008
 31
0.0
  0
LINE
  5
72
330
A
100
AcDbEntity
  8
0
 62
     7
100
AcDbLine
 10
177.308729
 20
70.764673
 30
0.0
 11
177.7702
 21
71.07473099999999
 31
0.0
  0
LINE
  5
71
330
A
100
AcDbEntity
  8
0
 62
     7
100
AcDbLine
 10
177.192974
 20
70.764673
 30
0.0
 11
177.308729
 21
70.764673
 31
0.0
  0
LINE
  5
70
330
A
100
AcDbEntity
  8
0
 62
     7
100
AcDbLine
 10
177.96657
 20
71.597008
 30
0.0
 11
177.82825
 21
71.597008
 31
0.0
  0
LINE
  5
6F
330
A
100
AcDbEntity
  8
0
 62
     7
100
AcDbLine
 10
177.7702
 20
71.07473099999999
 30
0.0
 11
177.96657
 21
71.597008
 31
0.0
  0
LINE
  5
6E
330
A
100
AcDbEntity
  8
0
 62
     7
100
AcDbLine
 10
176.046102
 20
71.66315400000001
 30
0.0
 11
176.204232
 21
71.12813
 31
0.0
  0
LINE
  5
6D
330
A
100
AcDbEntity
  8
0
 62
     7
100
AcDbLine
 10
176.204232
 20
71.12813
 30
0.0
 11
176.642276
 21
70.784999
 31
0.0
  0
LINE
  5
6C
330
A
100
AcDbEntity
  8
0
 62
     7
100
AcDbLine
 10
176.642276
 20
70.784999
 30
0.0
 11
177.192974
 21
70.764673
 31
0.0
  0
LINE
  5
6B
330
A
100
AcDbEntity
  8
0
 62
     7
100
AcDbLine
 10
177.82825
 20
71.597008
 30
0.0
 11
177.835312
 21
72.64500600000001
 31
0.0
  0
LINE
  5
6A
330
A
100
AcDbEntity
  8
0
 62
     7
100
AcDbLine
 10
176.046102
 20
71.66315400000001
 30
0.0
 11
176.050581
 21
72.707362
 31
0.0
  0
LINE
  5
69
330
A
100
AcDbEntity
  8
0
 62
     7
100
AcDbLine
 10
176.656401
 20
75.55335600000001
 30
0.0
 11
176.050581
 21
72.707362
 31
0.0
  0
LINE
  5
68
330
A
100
AcDbEntity
  8
0
 62
     7
100
AcDbLine
 10
177.835312
 20
72.64500600000001
 30
0.0
 11
178.444233
 21
75.50512399999999
 31
0.0
  0
LINE
  5
67
330
A
100
AcDbEntity
  8
0
 62
     7
100
AcDbLine
 10
176.678794
 20
79.773942
 30
0.0
 11
176.656401
 21
75.55335600000001
 31
0.0
  0
LINE
  5
66
330
A
100
AcDbEntity
  8
0
 62
     7
100
AcDbLine
 10
178.444233
 20
75.50512399999999
 30
0.0
 11
178.468693
 21
79.74706999999999
 31
0.0
  0
LINE
  5
65
330
A
100
AcDbEntity
  8
0
 62
     7
100
AcDbLine
 10
176.618677
 20
84.94537499999999
 30
0.0
 11
176.678794
 21
79.773942
 31
0.0
  0
LINE
  5
64
330
A
100
AcDbEntity
  8
0
 62
     7
100
AcDbLine
 10
178.468693
 20
79.74706999999999
 30
0.0
 11
178.409265
 21
84.938829
 31
0.0
  0
LINE
  5
63
330
A
100
AcDbEntity
  8
0
 62
     7
100
AcDbLine
 10
179.373203
 20
167.310718
 30
0.0
 11
176.618677
 21
84.94537499999999
 31
0.0
  0
LINE
  5
62
330
A
100
AcDbEntity
  8
0
 62
     7
100
AcDbLine
 10
178.409265
 20
84.938829
 30
0.0
 11
181.1636189999999
 21
167.310718
 31
0.0
  0
LINE
  5
61
330
A
100
AcDbEntity
  8
0
 62
     7
100
AcDbLine
 10
175.123333
 20
103.529942
 30
0.0
 11
175.123333
 21
103.279829
 31
0.0
  0
LINE
  5
60
330
A
100
AcDbEntity
  8
0
 62
     7
100
AcDbLine
 10
169.683183
 20
103.279829
 30
0.0
 11
169.683183
 21
103.529942
 31
0.0
  0
LINE
  5
5F
330
A
100
AcDbEntity
  8
0
 62
     7
100
AcDbLine
 10
175.123333
 20
103.529942
 30
0.0
 11
175.167258
 21
103.529942
 31
0.0
  0
LINE
  5
5E
330
A
100
AcDbEntity
  8
0
 62
     7
100
AcDbLine
 10
175.017224
 20
103.529942
 30
0.0
 11
175.123333
 21
103.529942
 31
0.0
  0
LINE
  5
5D
330
A
100
AcDbEntity
  8
0
 62
     7
100
AcDbLine
 10
169.683183
 20
103.529942
 30
0.0
 11
169.789119
 21
103.529942
 31
0.0
  0
LINE
  5
5C
330
A
100
AcDbEntity
  8
0
 62
     7
100
AcDbLine
 10
169.639258
 20
103.529942
 30
0.0
 11
169.683183
 21
103.529942
 31
0.0
  0
LINE
  5
5B
330
A
100
AcDbEntity
  8
0
 62
     7
100
AcDbLine
 10
175.167258
 20
103.529942
 30
0.0
 11
169.639258
 21
103.529942
 31
0.0
  0
LINE
  5
5A
330
A
100
AcDbEntity
  8
0
 62
     7
100
AcDbLine
 10
169.639258
 20
103.279829
 30
0.0
 11
175.167258
 21
103.279829
 31
0.0
  0
LINE
  5
59
330
A
100
AcDbEntity
  8
0
 62
     7
100
AcDbLine
 10
169.683183
 20
103.279829
 30
0.0
 11
169.639258
 21
103.279829
 31
0.0
  0
LINE
  5
58
330
A
100
AcDbEntity
  8
0
 62
     7
100
AcDbLine
 10
169.789119
 20
103.279829
 30
0.0
 11
169.683183
 21
103.279829
 31
0.0
  0
LINE
  5
57
330
A
100
AcDbEntity
  8
0
 62
     7
100
AcDbLine
 10
175.123333
 20
103.279829
 30
0.0
 11
175.017224
 21
103.279829
 31
0.0
  0
LINE
  5
56
330
A
100
AcDbEntity
  8
0
 62
     7
100
AcDbLine
 10
175.167258
 20
103.279829
 30
0.0
 11
175.123333
 21
103.279829
 31
0.0
  0
LINE
  5
55
330
A
100
AcDbEntity
  8
0
 62
     7
100
AcDbLine
 10
175.167258
 20
103.279829
 30
0.0
 11
175.167258
 21
101.252045
 31
0.0
  0
LINE
  5
54
330
A
100
AcDbEntity
  8
0
 62
     7
100
AcDbLine
 10
175.167258
 20
103.529942
 30
0.0
 11
175.167258
 21
103.279829
 31
0.0
  0
LINE
  5
53
330
A
100
AcDbEntity
  8
0
 62
     7
100
AcDbLine
 10
169.639258
 20
101.252045
 30
0.0
 11
175.167258
 21
101.252045
 31
0.0
  0
LINE
  5
52
330
A
100
AcDbEntity
  8
0
 62
     7
100
AcDbLine
 10
175.167258
 20
101.252045
 30
0.0
 11
169.639258
 21
101.252045
 31
0.0
  0
LINE
  5
51
330
A
100
AcDbEntity
  8
0
 62
     7
100
AcDbLine
 10
169.639258
 20
103.279829
 30
0.0
 11
169.639258
 21
103.529942
 31
0.0
  0
LINE
  5
50
330
A
100
AcDbEntity
  8
0
 62
     7
100
AcDbLine
 10
169.639258
 20
101.252045
 30
0.0
 11
169.639258
 21
103.279829
 31
0.0
  0
LINE
  5
4F
330
A
100
AcDbEntity
  8
0
 62
     7
100
AcDbLine
 10
175.017224
 20
103.529942
 30
0.0
 11
169.789119
 21
103.529942
 31
0.0
  0
LINE
  5
4E
330
A
100
AcDbEntity
  8
0
 62
     7
100
AcDbLine
 10
169.789119
 20
103.279829
 30
0.0
 11
175.017224
 21
103.279829
 31
0.0
  0
LINE
  5
4D
330
A
100
AcDbEntity
  8
0
 62
     7
100
AcDbLine
 10
175.123333
 20
128.751831
 30
0.0
 11
175.123333
 21
128.502062
 31
0.0
  0
LINE
  5
4C
330
A
100
AcDbEntity
  8
0
 62
     7
100
AcDbLine
 10
169.683183
 20
128.502062
 30
0.0
 11
169.683183
 21
128.751831
 31
0.0
  0
LINE
  5
4B
330
A
100
AcDbEntity
  8
0
 62
     7
100
AcDbLine
 10
175.123333
 20
128.751831
 30
0.0
 11
175.167258
 21
128.751831
 31
0.0
  0
LINE
  5
4A
330
A
100
AcDbEntity
  8
0
 62
     7
100
AcDbLine
 10
175.017224
 20
128.751831
 30
0.0
 11
175.123333
 21
128.751831
 31
0.0
  0
LINE
  5
49
330
A
100
AcDbEntity
  8
0
 62
     7
100
AcDbLine
 10
169.683183
 20
128.751831
 30
0.0
 11
169.789119
 21
128.751831
 31
0.0
  0
LINE
  5
48
330
A
100
AcDbEntity
  8
0
 62
     7
100
AcDbLine
 10
169.639258
 20
128.751831
 30
0.0
 11
169.683183
 21
128.751831
 31
0.0
  0
LINE
  5
47
330
A
100
AcDbEntity
  8
0
 62
     7
100
AcDbLine
 10
175.167258
 20
128.751831
 30
0.0
 11
169.639258
 21
128.751831
 31
0.0
  0
LINE
  5
46
330
A
100
AcDbEntity
  8
0
 62
     7
100
AcDbLine
 10
169.639258
 20
128.502062
 30
0.0
 11
175.167258
 21
128.502062
 31
0.0
  0
LINE
  5
45
330
A
100
AcDbEntity
  8
0
 62
     7
100
AcDbLine
 10
169.683183
 20
128.502062
 30
0.0
 11
169.639258
 21
128.502062
 31
0.0
  0
LINE
  5
44
330
A
100
AcDbEntity
  8
0
 62
     7
100
AcDbLine
 10
169.789119
 20
128.502062
 30
0.0
 11
169.683183
 21
128.502062
 31
0.0
  0
LINE
  5
43
330
A
100
AcDbEntity
  8
0
 62
     7
100
AcDbLine
 10
175.123333
 20
128.502062
 30
0.0
 11
175.017224
 21
128.502062
 31
0.0
  0
LINE
  5
42
330
A
100
AcDbEntity
  8
0
 62
     7
100
AcDbLine
 10
175.167258
 20
128.502062
 30
0.0
 11
175.123333
 21
128.502062
 31
0.0
  0
LINE
  5
41
330
A
100
AcDbEntity
  8
0
 62
     7
100
AcDbLine
 10
175.167258
 20
128.502062
 30
0.0
 11
175.167258
 21
126.473934
 31
0.0
  0
LINE
  5
40
330
A
100
AcDbEntity
  8
0
 62
     7
100
AcDbLine
 10
175.167258
 20
128.751831
 30
0.0
 11
175.167258
 21
128.502062
 31
0.0
  0
LINE
  5
3F
330
A
100
AcDbEntity
  8
0
 62
     7
100
AcDbLine
 10
175.167258
 20
126.473934
 30
0.0
 11
169.639258
 21
126.473934
 31
0.0
  0
LINE
  5
3E
330
A
100
AcDbEntity
  8
0
 62
     7
100
AcDbLine
 10
169.639258
 20
128.502062
 30
0.0
 11
169.639258
 21
128.751831
 31
0.0
  0
LINE
  5
3D
330
A
100
AcDbEntity
  8
0
 62
     7
100
AcDbLine
 10
169.639258
 20
126.473934
 30
0.0
 11
169.639258
 21
128.502062
 31
0.0
  0
LINE
  5
3C
330
A
100
AcDbEntity
  8
0
 62
     7
100
AcDbLine
 10
175.017224
 20
128.751831
 30
0.0
 11
169.789119
 21
128.751831
 31
0.0
  0
LINE
  5
3B
330
A
100
AcDbEntity
  8
0
 62
     7
100
AcDbLine
 10
169.789119
 20
128.502062
 30
0.0
 11
175.017224
 21
128.502062
 31
0.0
  0
LINE
  5
3A
330
A
100
AcDbEntity
  8
0
 62
     7
100
AcDbLine
 10
177.391412
 20
173.6703639999999
 30
0.0
 11
177.391412
 21
108.051975
 31
0.0
  0
LINE
  5
39
330
A
100
AcDbEntity
  8
0
 62
     7
100
AcDbLine
 10
169.44995
 20
173.6703639999999
 30
0.0
 11
169.44995
 21
92.67031199999999
 31
0.0
  0
LINE
  5
38
330
A
100
AcDbEntity
  8
0
 62
     7
100
AcDbLine
 10
177.391412
 20
173.6703639999999
 30
0.0
 11
177.449978
 21
173.6703639999999
 31
0.0
  0
LINE
  5
37
330
A
100
AcDbEntity
  8
0
 62
     7
100
AcDbLine
 10
177.249991
 20
173.6703639999999
 30
0.0
 11
177.391412
 21
173.6703639999999
 31
0.0
  0
LINE
  5
36
330
A
100
AcDbEntity
  8
0
 62
     7
100
AcDbLine
 10
169.44995
 20
173.6703639999999
 30
0.0
 11
177.249991
 21
173.6703639999999
 31
0.0
  0
LINE
  5
35
330
A
100
AcDbEntity
  8
0
 62
     7
100
AcDbLine
 10
176.877059
 20
92.67031199999999
 30
0.0
 11
169.44995
 21
92.67031199999999
 31
0.0
  0
LINE
  5
34
330
A
100
AcDbEntity
  8
0
 62
     7
100
AcDbLine
 10
177.449978
 20
110.667836
 30
0.0
 11
177.449978
 21
110.747073
 31
0.0
  0
LINE
  5
33
330
A
100
AcDbEntity
  8
0
 62
     7
100
AcDbLine
 10
177.449978
 20
110.57034
 30
0.0
 11
177.449978
 21
110.667836
 31
0.0
  0
LINE
  5
32
330
A
100
AcDbEntity
  8
0
 62
     7
100
AcDbLine
 10
177.449978
 20
109.803806
 30
0.0
 11
177.449978
 21
110.57034
 31
0.0
  0
LINE
  5
31
330
A
100
AcDbEntity
  8
0
 62
     7
100
AcDbLine
 10
177.449978
 20
173.6703639999999
 30
0.0
 11
177.449978
 21
109.803806
 31
0.0
  0
LINE
  5
30
330
A
100
AcDbEntity
  8
0
 62
     7
100
AcDbLine
 10
177.449978
 20
110.667836
 30
0.0
 11
177.449978
 21
110.57034
 31
0.0
  0
LINE
  5
2F
330
A
100
AcDbEntity
  8
0
 62
     7
100
AcDbLine
 10
177.449978
 20
125.683629
 30
0.0
 11
177.449978
 21
110.667836
 31
0.0
  0
LINE
  5
2E
330
A
100
AcDbEntity
  8
0
 62
     7
100
AcDbLine
 10
177.449978
 20
125.763211
 30
0.0
 11
177.449978
 21
125.683629
 31
0.0
  0
LINE
  5
2D
330
A
100
AcDbEntity
  8
0
 62
     7
100
AcDbLine
 10
177.449978
 20
125.860362
 30
0.0
 11
177.449978
 21
125.763211
 31
0.0
  0
LINE
  5
2C
330
A
100
AcDbEntity
  8
0
 62
     7
100
AcDbLine
 10
177.449978
 20
133.079905
 30
0.0
 11
177.449978
 21
132.982408
 31
0.0
  0
LINE
  5
2B
330
A
100
AcDbEntity
  8
0
 62
     7
100
AcDbLine
 10
177.449978
 20
133.159142
 30
0.0
 11
177.449978
 21
133.079905
 31
0.0
  0
LINE
  5
2A
330
A
100
AcDbEntity
  8
0
 62
     7
100
AcDbLine
 10
182.177511
 20
170.991458
 30
0.0
 11
182.238833
 21
170.991458
 31
0.0
  0
LINE
  5
29
330
A
100
AcDbEntity
  8
0
 62
     7
100
AcDbLine
 10
182.093623
 20
92.67031199999999
 30
0.0
 11
182.247618
 21
92.67031199999999
 31
0.0
  0
DIMENSION
  5
4B9
330
A
100
AcDbEntity
  8
Cotation-JacobDelafon
  6
Continuous
370
     0
100
AcDbDimension
  2
*D3
 10
230.549924
 20
272.1464299463914
 30
0.0
 11
199.999937
 21
274.5781489095564
 31
0.0
 70
    32
  1
61
 71
     5
 42
61.09997400000003
 73
     0
 74
     0
 75
     0
  3
Cotation-Jacob-Delafon
100
AcDbAlignedDimension
 13
169.44995
 23
173.6703639999999
 33
0.0
 14
230.549924
 24
213.399205
 34
0.0
100
AcDbRotatedDimension
  0
DIMENSION
  5
4C6
330
A
100
AcDbEntity
  8
Cotation-JacobDelafon
  6
Continuous
370
     0
100
AcDbDimension
  2
*D4
 10
124.3911777060925
 20
92.47015200000001
 30
0.0
 11
121.9584355505673
 21
160.6935505
 31
0.0
 70
    32
  1
136.8
 71
     5
 42
136.446797
 73
     0
 74
     0
 75
     0
  3
Cotation-Jacob-Delafon
100
AcDbAlignedDimension
 13
183.903331
 23
228.916949
 33
0.0
 14
169.44995
 24
92.47015199999999
 34
0.0
 50
90.0
100
AcDbRotatedDimension
  0
ENDSEC
  0
SECTION
  2
OBJECTS
  0
DICTIONARY
  5
19
330
0
100
AcDbDictionary
281
     1
  3
ACAD_COLOR
350
482
  3
ACAD_GROUP
350
1A
  3
ACAD_LAYOUT
350
1E
  3
ACAD_MATERIAL
350
458
  3
ACAD_MLEADERSTYLE
350
497
  3
ACAD_MLINESTYLE
350
1B
  3
ACAD_PLOTSETTINGS
350
22
  3
ACAD_PLOTSTYLENAME
350
1F
  3
ACAD_SCALELIST
350
485
  3
ACAD_TABLESTYLE
350
483
  3
ACAD_VISUALSTYLE
350
471
  3
ACAD_WIPEOUT_VARS
350
23
  3
ACDB_RECOMPOSE_DATA
350
4FD
  3
AcDbVariableDictionary
350
4F3
  3
AEC_PROPERTY_SET_DEFS
350
4AD
  0
DICTIONARY
  5
4E5
330
2
100
AcDbDictionary
280
     1
281
     1
  3
ACLYDICTIONARY
360
4E6
  0
DICTIONARY
  5
4F0
330
14
100
AcDbDictionary
280
     1
281
     1
  3
ADSK_XREC_LAYER_RECONCILED
360
4F1
  0
DICTIONARY
  5
4B3
330
4B2
100
AcDbDictionary
280
     1
281
     1
  3
ADSK_XREC_LAYER_RECONCILED
360
4F2
  0
DICTIONARY
  5
482
102
{ACAD_REACTORS
330
19
102
}
330
19
100
AcDbDictionary
281
     1
  0
DICTIONARY
  5
1A
102
{ACAD_REACTORS
330
19
102
}
330
19
100
AcDbDictionary
281
     1
  0
DICTIONARY
  5
1E
102
{ACAD_REACTORS
330
19
102
}
330
19
100
AcDbDictionary
281
     1
  3
Layout1
350
21
  3
Model
350
20
  0
DICTIONARY
  5
458
102
{ACAD_REACTORS
330
19
102
}
330
19
100
AcDbDictionary
281
     1
  3
ByBlock
350
461
  3
ByLayer
350
459
  3
Global
350
469
  0
DICTIONARY
  5
497
102
{ACAD_REACTORS
330
19
102
}
330
19
100
AcDbDictionary
281
     1
  3
Standard
350
498
  0
DICTIONARY
  5
1B
102
{ACAD_REACTORS
330
19
102
}
330
19
100
AcDbDictionary
281
     1
  3
Standard
350
1C
  0
DICTIONARY
  5
22
102
{ACAD_REACTORS
330
19
102
}
330
19
100
AcDbDictionary
281
     1
  0
ACDBDICTIONARYWDFLT
  5
1F
102
{ACAD_REACTORS
330
19
102
}
330
19
100
AcDbDictionary
281
     1
  3
Normal
350
1D
100
AcDbDictionaryWithDefault
340
1D
  0
DICTIONARY
  5
485
102
{ACAD_REACTORS
330
19
102
}
330
19
100
AcDbDictionary
281
     1
  3
A0
350
486
  3
A1
350
487
  3
A2
350
488
  3
A3
350
489
  3
A4
350
48A
  3
A5
350
48B
  3
A6
350
48C
  3
A7
350
48D
  3
A8
350
48E
  3
A9
350
48F
  3
B0
350
490
  3
B1
350
491
  3
B2
350
492
  3
B3
350
493
  3
B4
350
494
  3
B5
350
495
  3
B6
350
496
  0
DICTIONARY
  5
483
102
{ACAD_REACTORS
330
19
102
}
330
19
100
AcDbDictionary
281
     1
  3
Standard
350
484
  0
DICTIONARY
  5
471
102
{ACAD_REACTORS
330
19
102
}
330
19
100
AcDbDictionary
281
     1
  3
2dWireframe
350
477
  3
3D Hidden
350
479
  3
3dWireframe
350
478
  3
Basic
350
476
  3
Brighten
350
47D
  3
ColorChange
350
481
  3
Conceptual
350
47A
  3
Dim
350
47C
  3
Facepattern
350
480
  3
Flat
350
472
  3
FlatWithEdges
350
473
  3
Gouraud
350
474
  3
GouraudWithEdges
350
475
  3
Linepattern
350
47F
  3
Realistic
350
47B
  3
Thicken
350
47E
  0
WIPEOUTVARIABLES
  5
23
330
19
100
AcDbWipeoutVariables
 70
     1
  0
XRECORD
  5
4FD
102
{ACAD_REACTORS
330
19
102
}
330
19
100
AcDbXrecord
280
     1
 90
        1
330
484
  0
DICTIONARY
  5
4F3
102
{ACAD_REACTORS
330
19
102
}
330
19
100
AcDbDictionary
281
     1
  3
CANNOSCALE
350
4F7
  3
CMLEADERSTYLE
350
4F5
  3
CTABLESTYLE
350
4F4
  3
LAYEREVAL
350
4F9
  3
LAYERNOTIFY
350
4FA
  3
LIGHTINGUNITS
350
4F8
  3
MSLTSCALE
350
4F6
  0
DICTIONARY
  5
4AD
102
{ACAD_REACTORS
330
19
102
}
330
19
100
AcDbDictionary
281
     1
  0
DICTIONARY
  5
4E6
102
{ACAD_REACTORS
330
4E5
102
}
330
4E5
100
AcDbDictionary
281
     1
1001
ACAD
1000
<All
  0
XRECORD
  5
4F1
102
{ACAD_REACTORS
330
4F0
102
}
330
4F0
100
AcDbXrecord
280
     1
290
     1
  0
XRECORD
  5
4F2
102
{ACAD_REACTORS
330
4B3
102
}
330
4B3
100
AcDbXrecord
280
     1
290
     1
  0
LAYOUT
  5
21
102
{ACAD_REACTORS
330
1E
102
}
330
1E
100
AcDbPlotSettings
  1

  2

  4

  6

 40
0.0
 41
0.0
 42
0.0
 43
0.0
 44
0.0
 45
0.0
 46
0.0
 47
0.0
 48
0.0
 49
0.0
140
0.0
141
0.0
142
1.0
143
1.0
 70
     0
 72
     0
 73
     0
 74
     0
  7

 75
     0
147
1.0
 76
     0
 77
     2
 78
   300
148
0.0
149
0.0
100
AcDbLayout
  1
Layout1
 70
     0
 71
     1
 10
0.0
 20
0.0
 11
12.0
 21
9.0
 12
0.0
 22
0.0
 32
0.0
 14
1.000000000000000E+20
 24
1.000000000000000E+20
 34
1.000000000000000E+20
 15
-1.000000000000000E+20
 25
-1.000000000000000E+20
 35
-1.000000000000000E+20
146
0.0
 13
0.0
 23
0.0
 33
0.0
 16
1.0
 26
0.0
 36
0.0
 17
0.0
 27
1.0
 37
0.0
 76
     0
330
B
  0
LAYOUT
  5
20
102
{ACAD_REACTORS
330
1E
102
}
330
1E
100
AcDbPlotSettings
  1

  2

  4

  6

 40
0.0
 41
0.0
 42
0.0
 43
0.0
 44
0.0
 45
0.0
 46
0.0
 47
0.0
 48
0.0
 49
0.0
140
0.0
141
0.0
142
1.0
143
1.0
 70
  1024
 72
     0
 73
     0
 74
     0
  7

 75
     0
147
1.0
 76
     0
 77
     2
 78
   300
148
0.0
149
0.0
100
AcDbLayout
  1
Model
 70
     0
 71
     0
 10
0.0
 20
0.0
 11
0.0
 21
0.0
 12
0.0
 22
0.0
 32
0.0
 14
0.0
 24
0.0
 34
0.0
 15
0.0
 25
0.0
 35
0.0
146
0.0
 13
0.0
 23
0.0
 33
0.0
 16
0.0
 26
0.0
 36
0.0
 17
0.0
 27
0.0
 37
0.0
 76
     0
330
A
331
15
  0
MATERIAL
  5
461
102
{ACAD_XDICTIONARY
360
462
102
}
102
{ACAD_REACTORS
330
458
102
}
330
458
100
AcDbMaterial
  1
ByBlock
 72
     0
 43
0.0208333333333333
 43
0.0
 43
0.0
 43
0.0
 43
0.0
 43
0.0208333333333333
 43
0.0
 43
0.0
 43
0.0
 43
0.0
 43
1.0
 43
0.0
 43
0.0
 43
0.0
 43
0.0
 43
1.0
 77
     0
 47
0.0208333333333333
 47
0.0
 47
0.0
 47
0.0
 47
0.0
 47
0.0208333333333333
 47
0.0
 47
0.0
 47
0.0
 47
0.0
 47
1.0
 47
0.0
 47
0.0
 47
0.0
 47
0.0
 47
1.0
171
     0
 49
0.0208333333333333
 49
0.0
 49
0.0
 49
0.0
 49
0.0
 49
0.0208333333333333
 49
0.0
 49
0.0
 49
0.0
 49
0.0
 49
1.0
 49
0.0
 49
0.0
 49
0.0
 49
0.0
 49
1.0
175
     0
142
0.0208333333333333
142
0.0
142
0.0
142
0.0
142
0.0
142
0.0208333333333333
142
0.0
142
0.0
142
0.0
142
0.0
142
1.0
142
0.0
142
0.0
142
0.0
142
0.0
142
1.0
179
     0
144
0.0208333333333333
144
0.0
144
0.0
144
0.0
144
0.0
144
0.0208333333333333
144
0.0
144
0.0
144
0.0
144
0.0
144
1.0
144
0.0
144
0.0
144
0.0
144
0.0
144
1.0
147
0.0208333333333333
147
0.0
147
0.0
147
0.0
147
0.0
147
0.0208333333333333
147
0.0
147
0.0
147
0.0
147
0.0
147
1.0
147
0.0
147
0.0
147
0.0
147
0.0
147
1.0
  0
MATERIAL
  5
459
102
{ACAD_XDICTIONARY
360
45A
102
}
102
{ACAD_REACTORS
330
458
102
}
330
458
100
AcDbMaterial
  1
ByLayer
 72
     0
 43
0.0208333333333333
 43
0.0
 43
0.0
 43
0.0
 43
0.0
 43
0.0208333333333333
 43
0.0
 43
0.0
 43
0.0
 43
0.0
 43
1.0
 43
0.0
 43
0.0
 43
0.0
 43
0.0
 43
1.0
 77
     0
 47
0.0208333333333333
 47
0.0
 47
0.0
 47
0.0
 47
0.0
 47
0.0208333333333333
 47
0.0
 47
0.0
 47
0.0
 47
0.0
 47
1.0
 47
0.0
 47
0.0
 47
0.0
 47
0.0
 47
1.0
171
     0
 49
0.0208333333333333
 49
0.0
 49
0.0
 49
0.0
 49
0.0
 49
0.0208333333333333
 49
0.0
 49
0.0
 49
0.0
 49
0.0
 49
1.0
 49
0.0
 49
0.0
 49
0.0
 49
0.0
 49
1.0
175
     0
142
0.0208333333333333
142
0.0
142
0.0
142
0.0
142
0.0
142
0.0208333333333333
142
0.0
142
0.0
142
0.0
142
0.0
142
1.0
142
0.0
142
0.0
142
0.0
142
0.0
142
1.0
179
     0
144
0.0208333333333333
144
0.0
144
0.0
144
0.0
144
0.0
144
0.0208333333333333
144
0.0
144
0.0
144
0.0
144
0.0
144
1.0
144
0.0
144
0.0
144
0.0
144
0.0
144
1.0
147
0.0208333333333333
147
0.0
147
0.0
147
0.0
147
0.0
147
0.0208333333333333
147
0.0
147
0.0
147
0.0
147
0.0
147
1.0
147
0.0
147
0.0
147
0.0
147
0.0
147
1.0
  0
MATERIAL
  5
469
102
{ACAD_XDICTIONARY
360
46A
102
}
102
{ACAD_REACTORS
330
458
102
}
330
458
100
AcDbMaterial
  1
Global
 72
     0
 43
0.0208333333333333
 43
0.0
 43
0.0
 43
0.0
 43
0.0
 43
0.0208333333333333
 43
0.0
 43
0.0
 43
0.0
 43
0.0
 43
1.0
 43
0.0
 43
0.0
 43
0.0
 43
0.0
 43
1.0
 77
     0
 47
0.0208333333333333
 47
0.0
 47
0.0
 47
0.0
 47
0.0
 47
0.0208333333333333
 47
0.0
 47
0.0
 47
0.0
 47
0.0
 47
1.0
 47
0.0
 47
0.0
 47
0.0
 47
0.0
 47
1.0
171
     0
 49
0.0208333333333333
 49
0.0
 49
0.0
 49
0.0
 49
0.0
 49
0.0208333333333333
 49
0.0
 49
0.0
 49
0.0
 49
0.0
 49
1.0
 49
0.0
 49
0.0
 49
0.0
 49
0.0
 49
1.0
175
     0
142
0.0208333333333333
142
0.0
142
0.0
142
0.0
142
0.0
142
0.0208333333333333
142
0.0
142
0.0
142
0.0
142
0.0
142
1.0
142
0.0
142
0.0
142
0.0
142
0.0
142
1.0
179
     0
144
0.0208333333333333
144
0.0
144
0.0
144
0.0
144
0.0
144
0.0208333333333333
144
0.0
144
0.0
144
0.0
144
0.0
144
1.0
144
0.0
144
0.0
144
0.0
144
0.0
144
1.0
147
0.0208333333333333
147
0.0
147
0.0
147
0.0
147
0.0
147
0.0208333333333333
147
0.0
147
0.0
147
0.0
147
0.0
147
1.0
147
0.0
147
0.0
147
0.0
147
0.0
147
1.0
  0
MLEADERSTYLE
  5
498
102
{ACAD_REACTORS
330
497
102
}
330
497
100
AcDbMLeaderStyle
170
     2
171
     1
172
     0
 90
        2
 40
0.0
 41
0.0
173
     1
 91
-1056964608
340
11
 92
       -2
290
     1
 42
2.0
291
     1
 43
0.36
  3
Standard
 44
4.0
300

342
17
174
     1
178
     6
175
     1
176
     0
 93
-1056964608
 45
4.0
292
     0
297
     0
 46
4.0
 94
-1056964608
 47
1.0
 49
1.0
140
1.0
293
     1
141
0.0
294
     1
177
     0
142
1.0
295
     0
296
     0
143
0.125
1001
ACAD_MLEADERVER
1070
     2
  0
MLINESTYLE
  5
1C
102
{ACAD_REACTORS
330
1B
102
}
330
1B
100
AcDbMlineStyle
  2
STANDARD
 70
     0
  3

 62
     0
 51
90.0
 52
90.0
 71
     2
 49
0.5
 62
   256
  6
BYLAYER
 49
-0.5
 62
   256
  6
BYLAYER
  0
ACDBPLACEHOLDER
  5
1D
102
{ACAD_REACTORS
330
1F
102
}
330
1F
  0
SCALE
  5
486
102
{ACAD_REACTORS
330
485
102
}
330
485
100
AcDbScale
 70
     0
300
1:1
140
1.0
141
1.0
290
     1
  0
SCALE
  5
487
102
{ACAD_REACTORS
330
485
102
}
330
485
100
AcDbScale
 70
     0
300
1:2
140
1.0
141
2.0
290
     0
  0
SCALE
  5
488
102
{ACAD_REACTORS
330
485
102
}
330
485
100
AcDbScale
 70
     0
300
1:4
140
1.0
141
4.0
290
     0
  0
SCALE
  5
489
102
{ACAD_REACTORS
330
485
102
}
330
485
100
AcDbScale
 70
     0
300
1:5
140
1.0
141
5.0
290
     0
  0
SCALE
  5
48A
102
{ACAD_REACTORS
330
485
102
}
330
485
100
AcDbScale
 70
     0
300
1:8
140
1.0
141
8.0
290
     0
  0
SCALE
  5
48B
102
{ACAD_REACTORS
330
485
102
}
330
485
100
AcDbScale
 70
     0
300
1:10
140
1.0
141
10.0
290
     0
  0
SCALE
  5
48C
102
{ACAD_REACTORS
330
485
102
}
330
485
100
AcDbScale
 70
     0
300
1:16
140
1.0
141
16.0
290
     0
  0
SCALE
  5
48D
102
{ACAD_REACTORS
330
485
102
}
330
485
100
AcDbScale
 70
     0
300
1:20
140
1.0
141
20.0
290
     0
  0
SCALE
  5
48E
102
{ACAD_REACTORS
330
485
102
}
330
485
100
AcDbScale
 70
     0
300
1:30
140
1.0
141
30.0
290
     0
  0
SCALE
  5
48F
102
{ACAD_REACTORS
330
485
102
}
330
485
100
AcDbScale
 70
     0
300
1:40
140
1.0
141
40.0
290
     0
  0
SCALE
  5
490
102
{ACAD_REACTORS
330
485
102
}
330
485
100
AcDbScale
 70
     0
300
1:50
140
1.0
141
50.0
290
     0
  0
SCALE
  5
491
102
{ACAD_REACTORS
330
485
102
}
330
485
100
AcDbScale
 70
     0
300
1:100
140
1.0
141
100.0
290
     0
  0
SCALE
  5
492
102
{ACAD_REACTORS
330
485
102
}
330
485
100
AcDbScale
 70
     0
300
2:1
140
2.0
141
1.0
290
     0
  0
SCALE
  5
493
102
{ACAD_REACTORS
330
485
102
}
330
485
100
AcDbScale
 70
     0
300
4:1
140
4.0
141
1.0
290
     0
  0
SCALE
  5
494
102
{ACAD_REACTORS
330
485
102
}
330
485
100
AcDbScale
 70
     0
300
8:1
140
8.0
141
1.0
290
     0
  0
SCALE
  5
495
102
{ACAD_REACTORS
330
485
102
}
330
485
100
AcDbScale
 70
     0
300
10:1
140
10.0
141
1.0
290
     0
  0
SCALE
  5
496
102
{ACAD_REACTORS
330
485
102
}
330
485
100
AcDbScale
 70
     0
300
100:1
140
100.0
141
1.0
290
     0
  0
TABLESTYLE
  5
484
102
{ACAD_XDICTIONARY
360
4FB
102
}
102
{ACAD_REACTORS
330
483
102
}
330
483
100
AcDbTableStyle
  3
Standard
 70
     0
 71
     0
 40
1.5
 41
1.5
280
     0
281
     0
  7
Standard
140
4.5
170
     2
 62
     0
 63
     7
283
     0
 90
      512
 91
        0
  1

274
    -2
284
     1
 64
     0
275
    -2
285
     1
 65
     0
276
    -2
286
     1
 66
     0
277
    -2
287
     1
 67
     0
278
    -2
288
     1
 68
     0
279
    -2
289
     1
 69
     0
  7
Standard
140
6.0
170
     5
 62
     0
 63
     7
283
     0
 90
      512
 91
        0
  1

274
    -2
284
     1
 64
     0
275
    -2
285
     1
 65
     0
276
    -2
286
     1
 66
     0
277
    -2
287
     1
 67
     0
278
    -2
288
     1
 68
     0
279
    -2
289
     1
 69
     0
  7
Standard
140
4.5
170
     5
 62
     0
 63
     7
283
     0
 90
      512
 91
        0
  1

274
    -2
284
     1
 64
     0
275
    -2
285
     1
 65
     0
276
    -2
286
     1
 66
     0
277
    -2
287
     1
 67
     0
278
    -2
288
     1
 68
     0
279
    -2
289
     1
 69
     0
  0
VISUALSTYLE
  5
477
102
{ACAD_REACTORS
330
471
102
}
330
471
100
AcDbVisualStyle
  2
2dWireframe
 70
     4
 71
     0
 72
     2
 73
     0
 90
        0
 40
-0.6
 41
-30.0
 62
     5
 63
     7
421
 16777215
 74
     1
 91
        4
 64
     7
 65
   257
 75
     1
175
     1
 42
1.0
 92
        0
 66
   257
 43
1.0
 76
     1
 77
     6
 78
     2
 67
     7
 79
     5
170
     0
171
     0
290
     0
174
     0
 93
        1
 44
0.0
173
     0
291
     0
 45
0.0
  0
VISUALSTYLE
  5
479
102
{ACAD_REACTORS
330
471
102
}
330
471
100
AcDbVisualStyle
  2
3D Hidden
 70
     6
 71
     1
 72
     2
 73
     2
 90
        0
 40
-0.6
 41
-30.0
 62
     5
 63
     7
421
 16777215
 74
     2
 91
        2
 64
     7
 65
   257
 75
     2
175
     1
 42
40.0
 92
        0
 66
   257
 43
1.0
 76
     1
 77
     6
 78
     2
 67
     7
 79
     3
170
     0
171
     0
290
     0
174
     0
 93
        1
 44
0.0
173
     0
291
     0
 45
0.0
  0
VISUALSTYLE
  5
478
102
{ACAD_REACTORS
330
471
102
}
330
471
100
AcDbVisualStyle
  2
3dWireframe
 70
     5
 71
     0
 72
     2
 73
     0
 90
        0
 40
-0.6
 41
-30.0
 62
     5
 63
     7
421
 16777215
 74
     1
 91
        4
 64
     7
 65
   257
 75
     1
175
     1
 42
1.0
 92
        0
 66
   257
 43
1.0
 76
     1
 77
     6
 78
     2
 67
     7
 79
     5
170
     0
171
     0
290
     0
174
     0
 93
        1
 44
0.0
173
     0
291
     0
 45
0.0
  0
VISUALSTYLE
  5
476
102
{ACAD_REACTORS
330
471
102
}
330
471
100
AcDbVisualStyle
  2
Basic
 70
     7
 71
     1
 72
     0
 73
     1
 90
        0
 40
-0.6
 41
-30.0
 62
     5
 63
     7
421
 16777215
 74
     0
 91
        4
 64
     7
 65
   257
 75
     1
175
     1
 42
1.0
 92
        8
 66
     7
 43
1.0
 76
     1
 77
     6
 78
     2
 67
     7
 79
     5
170
     0
171
     0
290
     0
174
     0
 93
        1
 44
0.0
173
     0
291
     1
 45
0.0
  0
VISUALSTYLE
  5
47D
102
{ACAD_REACTORS
330
471
102
}
330
471
100
AcDbVisualStyle
  2
Brighten
 70
    12
 71
     2
 72
     2
 73
     0
 90
        0
 40
-0.6
 41
-30.0
 62
     5
 63
     7
421
 16777215
 74
     1
 91
        4
 64
     7
 65
   257
 75
     1
175
     1
 42
1.0
 92
        8
 66
     7
 43
1.0
 76
     1
 77
     6
 78
     2
 67
     7
 79
     5
170
     0
171
     0
290
     0
174
     0
 93
        1
 44
50.0
173
     0
291
     1
 45
0.0
  0
VISUALSTYLE
  5
481
102
{ACAD_REACTORS
330
471
102
}
330
471
100
AcDbVisualStyle
  2
ColorChange
 70
    16
 71
     2
 72
     2
 73
     3
 90
        0
 40
-0.6
 41
-30.0
 62
     5
 63
     8
421
  8421504
 74
     1
 91
        4
 64
     7
 65
   257
 75
     1
175
     1
 42
1.0
 92
        8
 66
     8
424
  8421504
 43
1.0
 76
     1
 77
     6
 78
     2
 67
     7
 79
     5
170
     0
171
     0
290
     0
174
     0
 93
        1
 44
0.0
173
     0
291
     1
 45
0.0
  0
VISUALSTYLE
  5
47A
102
{ACAD_REACTORS
330
471
102
}
330
471
100
AcDbVisualStyle
  2
Conceptual
 70
     9
 71
     3
 72
     2
 73
     0
 90
        0
 40
-0.6
 41
-30.0
 62
     5
 63
     7
421
 16777215
 74
     2
 91
        2
 64
     7
 65
   257
 75
     1
175
     1
 42
40.0
 92
        8
 66
     7
 43
1.0
 76
     1
 77
     6
 78
     2
 67
     7
 79
     3
170
     0
171
     0
290
     0
174
     0
 93
        1
 44
0.0
173
     0
291
     0
 45
0.0
  0
VISUALSTYLE
  5
47C
102
{ACAD_REACTORS
330
471
102
}
330
471
100
AcDbVisualStyle
  2
Dim
 70
    11
 71
     2
 72
     2
 73
     0
 90
        0
 40
-0.6
 41
-30.0
 62
     5
 63
     7
421
 16777215
 74
     1
 91
        4
 64
     7
 65
   257
 75
     1
175
     1
 42
1.0
 92
        8
 66
     7
 43
1.0
 76
     1
 77
     6
 78
     2
 67
     7
 79
     5
170
     0
171
     0
290
     0
174
     0
 93
        1
 44
-50.0
173
     0
291
     1
 45
0.0
  0
VISUALSTYLE
  5
480
102
{ACAD_REACTORS
330
471
102
}
330
471
100
AcDbVisualStyle
  2
Facepattern
 70
    15
 71
     2
 72
     2
 73
     0
 90
        0
 40
-0.6
 41
-30.0
 62
     5
 63
     7
421
 16777215
 74
     1
 91
        4
 64
     7
 65
   257
 75
     1
175
     1
 42
1.0
 92
        8
 66
     7
 43
1.0
 76
     1
 77
     6
 78
     2
 67
     7
 79
     5
170
     0
171
     0
290
     0
174
     0
 93
        1
 44
0.0
173
     0
291
     1
 45
0.0
  0
VISUALSTYLE
  5
472
102
{ACAD_REACTORS
330
471
102
}
330
471
100
AcDbVisualStyle
  2
Flat
 70
     0
 71
     2
 72
     1
 73
     1
 90
        2
 40
-0.6
 41
30.0
 62
     5
 63
     7
421
 16777215
 74
     0
 91
        4
 64
     7
 65
   257
 75
     1
175
     1
 42
1.0
 92
        8
 66
     7
 43
1.0
 76
     1
 77
     6
 78
     2
 67
     7
 79
     5
170
     0
171
     0
290
     0
174
     0
 93
       13
 44
0.0
173
     0
291
     1
 45
0.0
  0
VISUALSTYLE
  5
473
102
{ACAD_REACTORS
330
471
102
}
330
471
100
AcDbVisualStyle
  2
FlatWithEdges
 70
     1
 71
     2
 72
     1
 73
     1
 90
        2
 40
-0.6
 41
30.0
 62
     5
 63
     7
421
 16777215
 74
     1
 91
        4
 64
     7
 65
   257
 75
     1
175
     1
 42
1.0
 92
        0
 66
   257
 43
1.0
 76
     1
 77
     6
 78
     2
 67
     7
 79
     5
170
     0
171
     0
290
     0
174
     0
 93
       13
 44
0.0
173
     0
291
     1
 45
0.0
  0
VISUALSTYLE
  5
474
102
{ACAD_REACTORS
330
471
102
}
330
471
100
AcDbVisualStyle
  2
Gouraud
 70
     2
 71
     2
 72
     2
 73
     1
 90
        2
 40
-0.6
 41
30.0
 62
     5
 63
     7
421
 16777215
 74
     0
 91
        4
 64
     7
 65
   257
 75
     1
175
     1
 42
1.0
 92
        0
 66
     7
 43
1.0
 76
     1
 77
     6
 78
     2
 67
     7
 79
     5
170
     0
171
     0
290
     0
174
     0
 93
       13
 44
0.0
173
     0
291
     1
 45
0.0
  0
VISUALSTYLE
  5
475
102
{ACAD_REACTORS
330
471
102
}
330
471
100
AcDbVisualStyle
  2
GouraudWithEdges
 70
     3
 71
     2
 72
     2
 73
     1
 90
        2
 40
-0.6
 41
30.0
 62
     5
 63
     7
421
 16777215
 74
     1
 91
        4
 64
     7
 65
   257
 75
     1
175
     1
 42
1.0
 92
        0
 66
   257
 43
1.0
 76
     1
 77
     6
 78
     2
 67
     7
 79
     5
170
     0
171
     0
290
     0
174
     0
 93
       13
 44
0.0
173
     0
291
     1
 45
0.0
  0
VISUALSTYLE
  5
47F
102
{ACAD_REACTORS
330
471
102
}
330
471
100
AcDbVisualStyle
  2
Linepattern
 70
    14
 71
     2
 72
     2
 73
     0
 90
        0
 40
-0.6
 41
-30.0
 62
     5
 63
     7
421
 16777215
 74
     1
 91
        4
 64
     7
 65
   257
 75
     7
175
     7
 42
1.0
 92
        8
 66
     7
 43
1.0
 76
     1
 77
     6
 78
     2
 67
     7
 79
     5
170
     0
171
     0
290
     0
174
     0
 93
        1
 44
0.0
173
     0
291
     1
 45
0.0
  0
VISUALSTYLE
  5
47B
102
{ACAD_REACTORS
330
471
102
}
330
471
100
AcDbVisualStyle
  2
Realistic
 70
     8
 71
     2
 72
     2
 73
     0
 90
        0
 40
-0.6
 41
-30.0
 62
     5
 63
     7
421
 16777215
 74
     1
 91
        0
 64
     7
 65
   257
 75
     1
175
     1
 42
1.0
 92
        8
 66
     8
424
  7895160
 43
1.0
 76
     1
 77
     6
 78
     2
 67
     7
 79
     5
170
     0
171
     0
290
     0
174
     0
 93
       13
 44
0.0
173
     0
291
     0
 45
0.0
  0
VISUALSTYLE
  5
47E
102
{ACAD_REACTORS
330
471
102
}
330
471
100
AcDbVisualStyle
  2
Thicken
 70
    13
 71
     2
 72
     2
 73
     0
 90
        0
 40
-0.6
 41
-30.0
 62
     5
 63
     7
421
 16777215
 74
     1
 91
        4
 64
     7
 65
   257
 75
     1
175
     1
 42
1.0
 92
       12
 66
     7
 43
1.0
 76
     1
 77
     6
 78
     2
 67
     7
 79
     5
170
     0
171
     0
290
     0
174
     0
 93
        1
 44
0.0
173
     0
291
     1
 45
0.0
  0
DICTIONARYVAR
  5
4F7
102
{ACAD_REACTORS
330
4F3
102
}
330
4F3
100
DictionaryVariables
280
     0
  1
1:1
  0
DICTIONARYVAR
  5
4F5
102
{ACAD_REACTORS
330
4F3
102
}
330
4F3
100
DictionaryVariables
280
     0
  1
STANDARD
  0
DICTIONARYVAR
  5
4F4
102
{ACAD_REACTORS
330
4F3
102
}
330
4F3
100
DictionaryVariables
280
     0
  1
STANDARD
  0
DICTIONARYVAR
  5
4F9
102
{ACAD_REACTORS
330
4F3
102
}
330
4F3
100
DictionaryVariables
280
     0
  1
1
  0
DICTIONARYVAR
  5
4FA
102
{ACAD_REACTORS
330
4F3
102
}
330
4F3
100
DictionaryVariables
280
     0
  1
15
  0
DICTIONARYVAR
  5
4F8
102
{ACAD_REACTORS
330
4F3
102
}
330
4F3
100
DictionaryVariables
280
     0
  1
0
  0
DICTIONARYVAR
  5
4F6
102
{ACAD_REACTORS
330
4F3
102
}
330
4F3
100
DictionaryVariables
280
     0
  1
0
  0
DICTIONARY
  5
462
330
461
100
AcDbDictionary
280
     1
281
     1
  3
BUMPTILE
360
464
  3
DIFFUSETILE
360
463
  3
OPACITYTILE
360
467
  3
REFLECTIONTILE
360
466
  3
REFRACTIONTILE
360
468
  3
SPECULARTILE
360
465
  0
DICTIONARY
  5
45A
330
459
100
AcDbDictionary
280
     1
281
     1
  3
BUMPTILE
360
45C
  3
DIFFUSETILE
360
45B
  3
OPACITYTILE
360
45F
  3
REFLECTIONTILE
360
45E
  3
REFRACTIONTILE
360
460
  3
SPECULARTILE
360
45D
  0
DICTIONARY
  5
46A
330
469
100
AcDbDictionary
280
     1
281
     1
  3
BUMPTILE
360
46C
  3
DIFFUSETILE
360
46B
  3
OPACITYTILE
360
46F
  3
REFLECTIONTILE
360
46E
  3
REFRACTIONTILE
360
470
  3
SPECULARTILE
360
46D
  0
DICTIONARY
  5
4FB
330
484
100
AcDbDictionary
280
     1
281
     1
  3
ACAD_ROUNDTRIP_2008_TABLESTYLE_CELLSTYLEMAP
360
4FC
  0
XRECORD
  5
464
102
{ACAD_REACTORS
330
462
102
}
330
462
100
AcDbXrecord
280
     1
270
     1
271
     1
  0
XRECORD
  5
463
102
{ACAD_REACTORS
330
462
102
}
330
462
100
AcDbXrecord
280
     1
270
     1
271
     1
  0
XRECORD
  5
467
102
{ACAD_REACTORS
330
462
102
}
330
462
100
AcDbXrecord
280
     1
270
     1
271
     1
  0
XRECORD
  5
466
102
{ACAD_REACTORS
330
462
102
}
330
462
100
AcDbXrecord
280
     1
270
     1
271
     1
  0
XRECORD
  5
468
102
{ACAD_REACTORS
330
462
102
}
330
462
100
AcDbXrecord
280
     1
270
     1
271
     1
  0
XRECORD
  5
465
102
{ACAD_REACTORS
330
462
102
}
330
462
100
AcDbXrecord
280
     1
270
     1
271
     1
  0
XRECORD
  5
45C
102
{ACAD_REACTORS
330
45A
102
}
330
45A
100
AcDbXrecord
280
     1
270
     1
271
     1
  0
XRECORD
  5
45B
102
{ACAD_REACTORS
330
45A
102
}
330
45A
100
AcDbXrecord
280
     1
270
     1
271
     1
  0
XRECORD
  5
45F
102
{ACAD_REACTORS
330
45A
102
}
330
45A
100
AcDbXrecord
280
     1
270
     1
271
     1
  0
XRECORD
  5
45E
102
{ACAD_REACTORS
330
45A
102
}
330
45A
100
AcDbXrecord
280
     1
270
     1
271
     1
  0
XRECORD
  5
460
102
{ACAD_REACTORS
330
45A
102
}
330
45A
100
AcDbXrecord
280
     1
270
     1
271
     1
  0
XRECORD
  5
45D
102
{ACAD_REACTORS
330
45A
102
}
330
45A
100
AcDbXrecord
280
     1
270
     1
271
     1
  0
XRECORD
  5
46C
102
{ACAD_REACTORS
330
46A
102
}
330
46A
100
AcDbXrecord
280
     1
270
     1
271
     1
  0
XRECORD
  5
46B
102
{ACAD_REACTORS
330
46A
102
}
330
46A
100
AcDbXrecord
280
     1
270
     1
271
     1
  0
XRECORD
  5
46F
102
{ACAD_REACTORS
330
46A
102
}
330
46A
100
AcDbXrecord
280
     1
270
     1
271
     1
  0
XRECORD
  5
46E
102
{ACAD_REACTORS
330
46A
102
}
330
46A
100
AcDbXrecord
280
     1
270
     1
271
     1
  0
XRECORD
  5
470
102
{ACAD_REACTORS
330
46A
102
}
330
46A
100
AcDbXrecord
280
     1
270
     1
271
     1
  0
XRECORD
  5
46D
102
{ACAD_REACTORS
330
46A
102
}
330
46A
100
AcDbXrecord
280
     1
270
     1
271
     1
  0
CELLSTYLEMAP
  5
4FC
102
{ACAD_REACTORS
330
4FB
102
}
330
4FB
100
AcDbCellStyleMap
 90
        3
300
CELLSTYLE
  1
TABLEFORMAT_BEGIN
 90
        5
170
     1
 91
        0
 92
    32768
 62
   257
 93
        1
300
CONTENTFORMAT
  1
CONTENTFORMAT_BEGIN
 90
        0
 91
        0
 92
      512
 93
        0
300

 40
0.0
140
1.0
 94
        5
 62
     0
340
17
144
6.0
309
CONTENTFORMAT_END
171
     1
301
MARGIN
  1
CELLMARGIN_BEGIN
 40
1.5
 40
1.5
 40
1.5
 40
1.5
 40
4.5
 40
4.5
309
CELLMARGIN_END
 94
        6
 95
        1
302
GRIDFORMAT
  1
GRIDFORMAT_BEGIN
 90
        0
 91
        1
 62
     0
 92
       -2
340
0
 93
        0
 40
1.125
309
GRIDFORMAT_END
 95
        2
302
GRIDFORMAT
  1
GRIDFORMAT_BEGIN
 90
        0
 91
        1
 62
     0
 92
       -2
340
0
 93
        0
 40
1.125
309
GRIDFORMAT_END
 95
        4
302
GRIDFORMAT
  1
GRIDFORMAT_BEGIN
 90
        0
 91
        1
 62
     0
 92
       -2
340
0
 93
        0
 40
1.125
309
GRIDFORMAT_END
 95
        8
302
GRIDFORMAT
  1
GRIDFORMAT_BEGIN
 90
        0
 91
        1
 62
     0
 92
       -2
340
0
 93
        0
 40
1.125
309
GRIDFORMAT_END
 95
       16
302
GRIDFORMAT
  1
GRIDFORMAT_BEGIN
 90
        0
 91
        1
 62
     0
 92
       -2
340
0
 93
        0
 40
1.125
309
GRIDFORMAT_END
 95
       32
302
GRIDFORMAT
  1
GRIDFORMAT_BEGIN
 90
        0
 91
        1
 62
     0
 92
       -2
340
0
 93
        0
 40
1.125
309
GRIDFORMAT_END
309
TABLEFORMAT_END
  1
CELLSTYLE_BEGIN
 90
        1
 91
        1
300
_TITLE
309
CELLSTYLE_END
300
CELLSTYLE
  1
TABLEFORMAT_BEGIN
 90
        5
170
     1
 91
        0
 92
        0
 62
   257
 93
        1
300
CONTENTFORMAT
  1
CONTENTFORMAT_BEGIN
 90
        0
 91
        0
 92
      512
 93
        0
300

 40
0.0
140
1.0
 94
        5
 62
     0
340
17
144
4.5
309
CONTENTFORMAT_END
171
     1
301
MARGIN
  1
CELLMARGIN_BEGIN
 40
1.5
 40
1.5
 40
1.5
 40
1.5
 40
4.5
 40
4.5
309
CELLMARGIN_END
 94
        6
 95
        1
302
GRIDFORMAT
  1
GRIDFORMAT_BEGIN
 90
        0
 91
        1
 62
     0
 92
       -2
340
0
 93
        0
 40
1.125
309
GRIDFORMAT_END
 95
        2
302
GRIDFORMAT
  1
GRIDFORMAT_BEGIN
 90
        0
 91
        1
 62
     0
 92
       -2
340
0
 93
        0
 40
1.125
309
GRIDFORMAT_END
 95
        4
302
GRIDFORMAT
  1
GRIDFORMAT_BEGIN
 90
        0
 91
        1
 62
     0
 92
       -2
340
0
 93
        0
 40
1.125
309
GRIDFORMAT_END
 95
        8
302
GRIDFORMAT
  1
GRIDFORMAT_BEGIN
 90
        0
 91
        1
 62
     0
 92
       -2
340
0
 93
        0
 40
1.125
309
GRIDFORMAT_END
 95
       16
302
GRIDFORMAT
  1
GRIDFORMAT_BEGIN
 90
        0
 91
        1
 62
     0
 92
       -2
340
0
 93
        0
 40
1.125
309
GRIDFORMAT_END
 95
       32
302
GRIDFORMAT
  1
GRIDFORMAT_BEGIN
 90
        0
 91
        1
 62
     0
 92
       -2
340
0
 93
        0
 40
1.125
309
GRIDFORMAT_END
309
TABLEFORMAT_END
  1
CELLSTYLE_BEGIN
 90
        2
 91
        1
300
_HEADER
309
CELLSTYLE_END
300
CELLSTYLE
  1
TABLEFORMAT_BEGIN
 90
        5
170
     1
 91
        0
 92
        0
 62
   257
 93
        1
300
CONTENTFORMAT
  1
CONTENTFORMAT_BEGIN
 90
        0
 91
        0
 92
      512
 93
        0
300

 40
0.0
140
1.0
 94
        2
 62
     0
340
17
144
4.5
309
CONTENTFORMAT_END
171
     1
301
MARGIN
  1
CELLMARGIN_BEGIN
 40
1.5
 40
1.5
 40
1.5
 40
1.5
 40
4.5
 40
4.5
309
CELLMARGIN_END
 94
        6
 95
        1
302
GRIDFORMAT
  1
GRIDFORMAT_BEGIN
 90
        0
 91
        1
 62
     0
 92
       -2
340
0
 93
        0
 40
1.125
309
GRIDFORMAT_END
 95
        2
302
GRIDFORMAT
  1
GRIDFORMAT_BEGIN
 90
        0
 91
        1
 62
     0
 92
       -2
340
0
 93
        0
 40
1.125
309
GRIDFORMAT_END
 95
        4
302
GRIDFORMAT
  1
GRIDFORMAT_BEGIN
 90
        0
 91
        1
 62
     0
 92
       -2
340
0
 93
        0
 40
1.125
309
GRIDFORMAT_END
 95
        8
302
GRIDFORMAT
  1
GRIDFORMAT_BEGIN
 90
        0
 91
        1
 62
     0
 92
       -2
340
0
 93
        0
 40
1.125
309
GRIDFORMAT_END
 95
       16
302
GRIDFORMAT
  1
GRIDFORMAT_BEGIN
 90
        0
 91
        1
 62
     0
 92
       -2
340
0
 93
        0
 40
1.125
309
GRIDFORMAT_END
 95
       32
302
GRIDFORMAT
  1
GRIDFORMAT_BEGIN
 90
        0
 91
        1
 62
     0
 92
       -2
340
0
 93
        0
 40
1.125
309
GRIDFORMAT_END
309
TABLEFORMAT_END
  1
CELLSTYLE_BEGIN
 90
        3
 91
        2
300
_DATA
309
CELLSTYLE_END
  0
ENDSEC
  0
EOF
