  0
SECTION
  2
HEADER
  9
$ACADVER
  1
AC1014
  9
$ACADMAINTVER
 70
     9
  9
$DWGCODEPAGE
  3
ANSI_1252
  9
$INSBASE
 10
0.0
 20
0.0
 30
0.0
  9
$EXTMIN
 10
-11.73572737770181
 20
-0.8999999999999982
 30
0.0
  9
$EXTMAX
 10
160.8999999999999
 20
71.13950104385252
 30
0.0
  9
$LIMMIN
 10
0.0
 20
0.0
  9
$LIMMAX
 10
420.0
 20
297.0
  9
$ORTHOMODE
 70
     1
  9
$REGENMODE
 70
     1
  9
$FILLMODE
 70
     1
  9
$QTEXTMODE
 70
     0
  9
$MIRRTEXT
 70
     1
  9
$DRAGMODE
 70
     2
  9
$LTSCALE
 40
1.0
  9
$OSMODE
 70
   167
  9
$ATTMODE
 70
     1
  9
$TEXTSIZE
 40
2.5
  9
$TRACEWID
 40
1.0
  9
$TEXTSTYLE
  7
STANDARD
  9
$CLAYER
  8
0
  9
$CELTYPE
  6
BYLAYER
  9
$CECOLOR
 62
   256
  9
$CELTSCALE
 40
1.0
  9
$DELOBJ
 70
     1
  9
$DISPSILH
 70
     0
  9
$DIMSCALE
 40
1.0
  9
$DIMASZ
 40
1.8
  9
$DIMEXO
 40
0.625
  9
$DIMDLI
 40
3.799999999999999
  9
$DIMRND
 40
0.0
  9
$DIMDLE
 40
0.0
  9
$DIMEXE
 40
1.8
  9
$DIMTP
 40
0.0
  9
$DIMTM
 40
0.0
  9
$DIMTXT
 40
3.0
  9
$DIMCEN
 40
0.9
  9
$DIMTSZ
 40
0.0
  9
$DIMTOL
 70
     0
  9
$DIMLIM
 70
     0
  9
$DIMTIH
 70
     0
  9
$DIMTOH
 70
     0
  9
$DIMSE1
 70
     0
  9
$DIMSE2
 70
     0
  9
$DIMTAD
 70
     1
  9
$DIMZIN
 70
    12
  9
$DIMBLK
  1
OBLIQUE
  9
$DIMASO
 70
     1
  9
$DIMSHO
 70
     1
  9
$DIMPOST
  1

  9
$DIMAPOST
  1

  9
$DIMALT
 70
     0
  9
$DIMALTD
 70
     2
  9
$DIMALTF
 40
25.4
  9
$DIMLFAC
 40
1.0
  9
$DIMTOFL
 70
     0
  9
$DIMTVP
 40
0.0
  9
$DIMTIX
 70
     0
  9
$DIMSOXD
 70
     0
  9
$DIMSAH
 70
     0
  9
$DIMBLK1
  1

  9
$DIMBLK2
  1

  9
$DIMSTYLE
  2
COTATION-JACOB-DELAFON
  9
$DIMCLRD
 70
     0
  9
$DIMCLRE
 70
     0
  9
$DIMCLRT
 70
     0
  9
$DIMTFAC
 40
1.0
  9
$DIMGAP
 40
0.9
  9
$DIMJUST
 70
     0
  9
$DIMSD1
 70
     0
  9
$DIMSD2
 70
     0
  9
$DIMTOLJ
 70
     1
  9
$DIMTZIN
 70
     0
  9
$DIMALTZ
 70
     0
  9
$DIMALTTZ
 70
     0
  9
$DIMFIT
 70
     5
  9
$DIMUPT
 70
     0
  9
$DIMUNIT
 70
     2
  9
$DIMDEC
 70
     2
  9
$DIMTDEC
 70
     2
  9
$DIMALTU
 70
     2
  9
$DIMALTTD
 70
     2
  9
$DIMTXSTY
  7
JACOB-DELAFON
  9
$DIMAUNIT
 70
     0
  9
$LUNITS
 70
     2
  9
$LUPREC
 70
     4
  9
$SKETCHINC
 40
1.0
  9
$FILLETRAD
 40
0.0
  9
$AUNITS
 70
     0
  9
$AUPREC
 70
     0
  9
$MENU
  1
.
  9
$ELEVATION
 40
0.0
  9
$PELEVATION
 40
0.0
  9
$THICKNESS
 40
0.0
  9
$LIMCHECK
 70
     0
  9
$BLIPMODE
 70
     0
  9
$CHAMFERA
 40
10.0
  9
$CHAMFERB
 40
10.0
  9
$CHAMFERC
 40
20.0
  9
$CHAMFERD
 40
0.0
  9
$SKPOLY
 70
     0
  9
$TDCREATE
 40
2451205.774017129
  9
$TDUPDATE
 40
2452285.713406793
  9
$TDINDWG
 40
0.0824547106
  9
$TDUSRTIMER
 40
0.0824547106
  9
$USRTIMER
 70
     1
  9
$ANGBASE
 50
0.0
  9
$ANGDIR
 70
     0
  9
$PDMODE
 70
     0
  9
$PDSIZE
 40
0.0
  9
$PLINEWID
 40
0.0
  9
$COORDS
 70
     0
  9
$SPLFRAME
 70
     0
  9
$SPLINETYPE
 70
     6
  9
$SPLINESEGS
 70
     8
  9
$ATTDIA
 70
     0
  9
$ATTREQ
 70
     1
  9
$HANDLING
 70
 22529
  9
$HANDSEED
  5
719
  9
$SURFTAB1
 70
     6
  9
$SURFTAB2
 70
     6
  9
$SURFTYPE
 70
     6
  9
$SURFU
 70
     6
  9
$SURFV
 70
     6
  9
$UCSNAME
  2

  9
$UCSORG
 10
0.0
 20
0.0
 30
0.0
  9
$UCSXDIR
 10
1.0
 20
0.0
 30
0.0
  9
$UCSYDIR
 10
0.0
 20
1.0
 30
0.0
  9
$PUCSNAME
  2

  9
$PUCSORG
 10
0.0
 20
0.0
 30
0.0
  9
$PUCSXDIR
 10
1.0
 20
0.0
 30
0.0
  9
$PUCSYDIR
 10
0.0
 20
1.0
 30
0.0
  9
$USERI1
 70
     0
  9
$USERI2
 70
     0
  9
$USERI3
 70
     0
  9
$USERI4
 70
     0
  9
$USERI5
 70
     0
  9
$USERR1
 40
0.0
  9
$USERR2
 40
0.0
  9
$USERR3
 40
0.0
  9
$USERR4
 40
0.0
  9
$USERR5
 40
0.0
  9
$WORLDVIEW
 70
     1
  9
$SHADEDGE
 70
     3
  9
$SHADEDIF
 70
    70
  9
$TILEMODE
 70
     1
  9
$MAXACTVP
 70
    48
  9
$PINSBASE
 10
0.0
 20
0.0
 30
0.0
  9
$PLIMCHECK
 70
     0
  9
$PEXTMIN
 10
24.38124809265136
 20
20.4312497138977
 30
0.0
  9
$PEXTMAX
 10
219.4312328338622
 20
183.8812474250793
 30
0.0
  9
$PLIMMIN
 10
-17.79376220703125
 20
-5.793749809265136
  9
$PLIMMAX
 10
261.6062316894531
 20
210.1062440872192
  9
$UNITMODE
 70
     0
  9
$VISRETAIN
 70
     1
  9
$PLINEGEN
 70
     0
  9
$PSLTSCALE
 70
     1
  9
$TREEDEPTH
 70
  3020
  9
$PICKSTYLE
 70
     1
  9
$CMLSTYLE
  2
STANDARD
  9
$CMLJUST
 70
     0
  9
$CMLSCALE
 40
20.0
  9
$PROXYGRAPHICS
 70
     1
  9
$MEASUREMENT
 70
     1
  0
ENDSEC
  0
SECTION
  2
CLASSES
  0
CLASS
  1
RASTERVARIABLES
  2
AcDbRasterVariables
  3
ISM
 90
        0
280
     0
281
     0
  0
CLASS
  1
IMAGEDEF
  2
AcDbRasterImageDef
  3
ISM
 90
        0
280
     0
281
     0
  0
CLASS
  1
IMAGEDEF_REACTOR
  2
AcDbRasterImageDefReactor
  3
ISM
 90
        1
280
     0
281
     0
  0
CLASS
  1
IMAGE
  2
AcDbRasterImage
  3
ISM
 90
      127
280
     0
281
     1
  0
CLASS
  1
LWPOLYLINE
  2
AcDbPolyline
  3
AutoCAD 2000
 90
        0
280
     0
281
     1
  0
CLASS
  1
ACDBDICTIONARYWDFLT
  2
AcDbDictionaryWithDefault
  3
AutoCAD 2000
 90
        0
280
     0
281
     0
  0
CLASS
  1
ACDBPLACEHOLDER
  2
AcDbPlaceHolder
  3
AutoCAD 2000
 90
        0
280
     0
281
     0
  0
CLASS
  1
LAYOUT
  2
AcDbLayout
  3
AutoCAD 2000
 90
        0
280
     0
281
     0
  0
CLASS
  1
DICTIONARYVAR
  2
AcDbDictionaryVar
  3
AutoCAD 2000
 90
        0
280
     0
281
     0
  0
CLASS
  1
LONG_TRANSACTION
  2
AcDbLongTransaction
  3
AutoCAD 2000
 90
        0
280
     0
281
     0
  0
CLASS
  1
LWPOLYLINE
  2
AcDbPolyline
  3
AutoCAD 2000
 90
        0
280
     0
281
     1
  0
CLASS
  1
HATCH
  2
AcDbHatch
  3
AutoCAD 2000
 90
        0
280
     0
281
     1
  0
CLASS
  1
XRECORD
  2
AcDbXrecord
  3
AutoCAD 2000
 90
        0
280
     0
281
     0
  0
ENDSEC
  0
SECTION
  2
TABLES
  0
TABLE
  2
VPORT
  5
8
330
0
100
AcDbSymbolTable
 70
     3
  0
VPORT
  5
6F3
330
8
100
AcDbSymbolTableRecord
100
AcDbViewportTableRecord
  2
*ACTIVE
 70
     0
 10
0.0
 20
0.0
 11
1.0
 21
1.0
 12
74.58592178599531
 22
35.1159389606234
 13
0.0
 23
0.0
 14
10.0
 24
10.0
 15
10.0
 25
10.0
 16
0.0
 26
0.0
 36
1.0
 17
0.0
 27
0.0
 37
0.0
 40
95.02946783830212
 41
1.828516377649325
 42
50.0
 43
0.0
 44
0.0
 50
0.0
 51
0.0
 71
     0
 72
   100
 73
     1
 74
     1
 75
     0
 76
     0
 77
     0
 78
     0
  0
ENDTAB
  0
TABLE
  2
LTYPE
  5
5
330
0
100
AcDbSymbolTable
 70
     1
  0
LTYPE
  5
12
330
5
100
AcDbSymbolTableRecord
100
AcDbLinetypeTableRecord
  2
BYBLOCK
 70
     0
  3

 72
    65
 73
     0
 40
0.0
  0
LTYPE
  5
13
330
5
100
AcDbSymbolTableRecord
100
AcDbLinetypeTableRecord
  2
BYLAYER
 70
     0
  3

 72
    65
 73
     0
 40
0.0
  0
LTYPE
  5
14
330
5
100
AcDbSymbolTableRecord
100
AcDbLinetypeTableRecord
  2
CONTINUOUS
 70
     0
  3
Solid line
 72
    65
 73
     0
 40
0.0
  0
ENDTAB
  0
TABLE
  2
LAYER
  5
2
330
0
100
AcDbSymbolTable
 70
     3
  0
LAYER
  5
E
330
2
100
AcDbSymbolTableRecord
100
AcDbLayerTableRecord
  2
0
 70
     0
 62
   255
  6
CONTINUOUS
  0
LAYER
  5
1E1
330
2
100
AcDbSymbolTableRecord
100
AcDbLayerTableRecord
  2
DEFPOINTS
 70
     0
 62
     7
  6
CONTINUOUS
  0
LAYER
  5
4D7
330
2
100
AcDbSymbolTableRecord
100
AcDbLayerTableRecord
  2
COTATION-JACOBDELAFON
 70
     0
 62
     8
  6
CONTINUOUS
  0
ENDTAB
  0
TABLE
  2
STYLE
  5
3
330
0
100
AcDbSymbolTable
 70
     2
  0
STYLE
  5
F
330
3
100
AcDbSymbolTableRecord
100
AcDbTextStyleTableRecord
  2
STANDARD
 70
     0
 40
0.0
 41
1.0
 50
0.0
 71
     0
 42
2.5
  3
txt
  4

  0
STYLE
  5
4D8
330
3
100
AcDbSymbolTableRecord
100
AcDbTextStyleTableRecord
  2
JACOB-DELAFON
 70
     0
 40
0.0
 41
1.0
 50
0.0
 71
     0
 42
2.5
  3
ARIAL.TTF
  4

1001
ACAD
1000
Arial
1071
       34
  0
ENDTAB
  0
TABLE
  2
VIEW
  5
6
330
0
100
AcDbSymbolTable
 70
     0
  0
ENDTAB
  0
TABLE
  2
UCS
  5
7
330
0
100
AcDbSymbolTable
 70
     0
  0
ENDTAB
  0
TABLE
  2
APPID
  5
9
330
0
100
AcDbSymbolTable
 70
     2
  0
APPID
  5
10
330
9
100
AcDbSymbolTableRecord
100
AcDbRegAppTableRecord
  2
ACAD
 70
     0
  0
APPID
  5
4DA
330
9
100
AcDbSymbolTableRecord
100
AcDbRegAppTableRecord
  2
PE_URL
 70
     0
  0
ENDTAB
  0
TABLE
  2
DIMSTYLE
  5
A
330
0
100
AcDbSymbolTable
 70
     2
  0
DIMSTYLE
105
1D
330
A
100
AcDbSymbolTableRecord
100
AcDbDimStyleTableRecord
  2
STANDARD
 70
     0
  3

  4

  5

  6

  7

 40
1.0
 41
0.18
 42
0.0625
 43
0.38
 44
0.18
 45
0.0
 46
0.0
 47
0.0
 48
0.0
140
0.18
141
0.09
142
0.0
143
25.4
144
1.0
145
0.0
146
1.0
147
0.09
 71
     0
 72
     0
 73
     1
 74
     1
 75
     0
 76
     0
 77
     0
 78
     0
170
     0
171
     2
172
     0
173
     0
174
     0
175
     0
176
     0
177
     0
178
     0
270
     2
271
     4
272
     4
273
     2
274
     2
340
F
275
     0
280
     0
281
     0
282
     0
283
     1
284
     0
285
     0
286
     0
287
     3
288
     0
  0
DIMSTYLE
105
4D9
102
{ACAD_REACTORS
330
5B0
330
5E9
102
}
330
A
100
AcDbSymbolTableRecord
100
AcDbDimStyleTableRecord
  2
COTATION-JACOB-DELAFON
 70
     0
  3

  4

  5
OBLIQUE
  6

  7

 40
1.0
 41
1.8
 42
0.625
 43
3.799999999999999
 44
1.8
 45
0.0
 46
0.0
 47
0.0
 48
0.0
140
3.0
141
0.9
142
0.0
143
25.4
144
1.0
145
0.0
146
1.0
147
0.9
 71
     0
 72
     0
 73
     0
 74
     0
 75
     0
 76
     0
 77
     1
 78
    12
170
     0
171
     2
172
     0
173
     0
174
     0
175
     0
176
     0
177
     0
178
     0
270
     2
271
     2
272
     2
273
     2
274
     2
340
4D8
275
     0
280
     0
281
     0
282
     0
283
     1
284
     0
285
     0
286
     0
287
     5
288
     0
  0
ENDTAB
  0
TABLE
  2
BLOCK_RECORD
  5
1
330
0
100
AcDbSymbolTable
 70
     3
  0
BLOCK_RECORD
  5
18
102
{ACAD_XDICTIONARY
360
717
102
}
330
1
100
AcDbSymbolTableRecord
100
AcDbBlockTableRecord
  2
*MODEL_SPACE
  0
BLOCK_RECORD
  5
15
102
{ACAD_XDICTIONARY
360
715
102
}
330
1
100
AcDbSymbolTableRecord
100
AcDbBlockTableRecord
  2
*PAPER_SPACE
  0
BLOCK_RECORD
  5
4BB
330
1
100
AcDbSymbolTableRecord
100
AcDbBlockTableRecord
  2
_OBLIQUE
  0
BLOCK_RECORD
  5
5B1
330
1
100
AcDbSymbolTableRecord
100
AcDbBlockTableRecord
  2
*D1
  0
BLOCK_RECORD
  5
5EA
330
1
100
AcDbSymbolTableRecord
100
AcDbBlockTableRecord
  2
*D2
  0
ENDTAB
  0
ENDSEC
  0
SECTION
  2
BLOCKS
  0
BLOCK
  5
19
330
18
100
AcDbEntity
  8
0
100
AcDbBlockBegin
  2
*MODEL_SPACE
 70
     0
 10
0.0
 20
0.0
 30
0.0
  3
*MODEL_SPACE
  1

  0
ENDBLK
  5
1A
330
18
100
AcDbEntity
  8
0
100
AcDbBlockEnd
  0
BLOCK
  5
16
330
15
100
AcDbEntity
 67
     1
  8
0
100
AcDbBlockBegin
  2
*PAPER_SPACE
 70
     0
 10
0.0
 20
0.0
 30
0.0
  3
*PAPER_SPACE
  1

  0
ENDBLK
  5
17
330
15
100
AcDbEntity
 67
     1
  8
0
100
AcDbBlockEnd
  0
BLOCK
  5
4BD
330
4BB
100
AcDbEntity
  8
0
100
AcDbBlockBegin
  2
_OBLIQUE
 70
     0
 10
0.0
 20
0.0
 30
0.0
  3
_OBLIQUE
  1

  0
LINE
  5
4BC
330
4BB
100
AcDbEntity
  8
0
  6
BYBLOCK
 62
     0
100
AcDbLine
 10
-0.5
 20
-0.5
 30
0.0
 11
0.5
 21
0.5
 31
0.0
  0
ENDBLK
  5
4BE
330
4BB
100
AcDbEntity
  8
0
100
AcDbBlockEnd
  0
BLOCK
  5
5BB
330
5B1
100
AcDbEntity
  8
0
100
AcDbBlockBegin
  2
*D1
 70
     1
 10
0.0
 20
0.0
 30
0.0
  3
*D1
  1

  0
LINE
  5
6A3
330
5B1
100
AcDbEntity
  8
COTATION-JACOBDELAFON
 62
     0
100
AcDbLine
 10
0.0000000000000107
 20
55.125
 30
0.0
 11
0.0000000000000115
 21
68.1882050001963
 31
0.0
  0
LINE
  5
6A4
330
5B1
100
AcDbEntity
  8
COTATION-JACOBDELAFON
 62
     0
100
AcDbLine
 10
160.0
 20
54.19761665731627
 30
0.0
 11
160.0
 21
68.1882050001963
 31
0.0
  0
LINE
  5
6A5
330
5B1
100
AcDbEntity
  8
COTATION-JACOBDELAFON
 62
     0
100
AcDbLine
 10
0.0000000000000114
 20
66.3882050001963
 30
0.0
 11
160.0
 21
66.3882050001963
 31
0.0
  0
INSERT
  5
6A6
330
5B1
100
AcDbEntity
  8
COTATION-JACOBDELAFON
 62
     0
100
AcDbBlockReference
  2
_OBLIQUE
 10
0.0000000000000114
 20
66.3882050001963
 30
0.0
 41
1.8
 42
1.8
 43
1.8
 50
180.0
  0
INSERT
  5
6A7
330
5B1
100
AcDbEntity
  8
COTATION-JACOBDELAFON
 62
     0
100
AcDbBlockReference
  2
_OBLIQUE
 10
160.0
 20
66.3882050001963
 30
0.0
 41
1.8
 42
1.8
 43
1.8
  0
MTEXT
  5
6A8
330
5B1
100
AcDbEntity
  8
COTATION-JACOBDELAFON
 62
     0
100
AcDbMText
 10
80.0
 20
68.81992396336139
 30
0.0
 40
3.0
 41
0.0
 71
     5
 72
     1
  1
\A1;160
  7
JACOB-DELAFON
1001
ACAD
1000
MTEXTBEGIN
1070
    73
1070
     1
1070
    44
1040
1.0
1070
    74
1070
     0
1000
MTEXTEND
  0
POINT
  5
6A9
330
5B1
100
AcDbEntity
  8
DEFPOINTS
 62
     0
100
AcDbPoint
 10
0.0000000000000107
 20
54.5
 30
0.0
  0
POINT
  5
6AA
330
5B1
100
AcDbEntity
  8
DEFPOINTS
 62
     0
100
AcDbPoint
 10
160.0
 20
53.57261665731627
 30
0.0
  0
POINT
  5
6AB
330
5B1
100
AcDbEntity
  8
DEFPOINTS
 62
     0
100
AcDbPoint
 10
160.0
 20
66.3882050001963
 30
0.0
  0
ENDBLK
  5
5BC
330
5B1
100
AcDbEntity
  8
0
100
AcDbBlockEnd
  0
BLOCK
  5
5F4
330
5EA
100
AcDbEntity
  8
0
100
AcDbBlockBegin
  2
*D2
 70
     1
 10
0.0
 20
0.0
 30
0.0
  3
*D2
  1

  0
LINE
  5
6AC
330
5EA
100
AcDbEntity
  8
COTATION-JACOBDELAFON
 62
     0
100
AcDbLine
 10
-0.6249999999999894
 20
54.5
 30
0.0
 11
-8.790570488206578
 21
54.5
 31
0.0
  0
LINE
  5
6AD
330
5EA
100
AcDbEntity
  8
COTATION-JACOBDELAFON
 62
     0
100
AcDbLine
 10
10.19279099426567
 20
-0.0000000000000029
 30
0.0
 11
-8.79057048820659
 21
0.0000000000000025
 31
0.0
  0
LINE
  5
6AE
330
5EA
100
AcDbEntity
  8
COTATION-JACOBDELAFON
 62
     0
100
AcDbLine
 10
-6.990570488206577
 20
54.5
 30
0.0
 11
-6.990570488206589
 21
0.000000000000002
 31
0.0
  0
INSERT
  5
6AF
330
5EA
100
AcDbEntity
  8
COTATION-JACOBDELAFON
 62
     0
100
AcDbBlockReference
  2
_OBLIQUE
 10
-6.990570488206577
 20
54.5
 30
0.0
 41
1.8
 42
1.8
 43
1.8
 50
90.0
  0
INSERT
  5
6B0
330
5EA
100
AcDbEntity
  8
COTATION-JACOBDELAFON
 62
     0
100
AcDbBlockReference
  2
_OBLIQUE
 10
-6.990570488206589
 20
0.000000000000002
 30
0.0
 41
1.8
 42
1.8
 43
1.8
 50
270.0
  0
MTEXT
  5
6B1
330
5EA
100
AcDbEntity
  8
COTATION-JACOBDELAFON
 62
     0
100
AcDbMText
 10
-9.41615029721068
 20
27.25
 30
0.0
 40
3.0
 41
0.0
 71
     5
 72
     1
  1
\A1;54.5
  7
JACOB-DELAFON
 11
0.0000000000000001
 21
1.0
 31
0.0
1001
ACAD
1000
MTEXTBEGIN
1070
    73
1070
     1
1070
    44
1040
1.0
1070
    74
1070
     0
1000
MTEXTEND
  0
POINT
  5
6B2
330
5EA
100
AcDbEntity
  8
DEFPOINTS
 62
     0
100
AcDbPoint
 10
0.0000000000000107
 20
54.5
 30
0.0
  0
POINT
  5
6B3
330
5EA
100
AcDbEntity
  8
DEFPOINTS
 62
     0
100
AcDbPoint
 10
10.81779099426567
 20
-0.0000000000000031
 30
0.0
  0
POINT
  5
6B4
330
5EA
100
AcDbEntity
  8
DEFPOINTS
 62
     0
100
AcDbPoint
 10
-6.990570488206589
 20
0.000000000000002
 30
0.0
  0
ENDBLK
  5
5F5
330
5EA
100
AcDbEntity
  8
0
100
AcDbBlockEnd
  0
ENDSEC
  0
SECTION
  2
ENTITIES
  0
LINE
  5
185
330
18
100
AcDbEntity
  8
0
100
AcDbLine
 10
160.0
 20
52.64523331463255
 30
0.0
 11
160.0
 21
54.5
 31
0.0
  0
LINE
  5
186
330
18
100
AcDbEntity
  8
0
100
AcDbLine
 10
160.0
 20
54.5
 30
0.0
 11
0.0000000000000107
 21
54.5
 31
0.0
  0
LINE
  5
187
330
18
100
AcDbEntity
  8
0
100
AcDbLine
 10
0.0000000000000107
 20
54.5
 30
0.0
 11
0.0000000000000391
 21
52.64523331463255
 31
0.0
  0
LINE
  5
189
330
18
100
AcDbEntity
  8
0
100
AcDbLine
 10
106.7168983316153
 20
-0.0000000000000031
 30
0.0
 11
102.7016864124976
 21
-0.0000000000000031
 31
0.0
  0
LINE
  5
18A
330
18
100
AcDbEntity
  8
0
100
AcDbLine
 10
110.1343709971827
 20
17.3291186300677
 30
0.0
 11
35.15580686690135
 21
15.40506616774248
 31
0.0
  0
LINE
  5
18B
330
18
100
AcDbEntity
  8
0
100
AcDbLine
 10
33.98044470757581
 20
15.40506616774248
 30
0.0
 11
33.49885641798723
 21
12.99999999999996
 31
0.0
  0
LINE
  5
18C
330
18
100
AcDbEntity
  8
0
100
AcDbLine
 10
33.49885641798723
 20
12.99999999999996
 30
0.0
 11
27.23823379389334
 21
12.99999999999996
 31
0.0
  0
LINE
  5
18D
330
18
100
AcDbEntity
  8
0
100
AcDbLine
 10
27.23823379389334
 20
12.99999999999996
 30
0.0
 11
25.79347311522009
 21
15.40506616774248
 31
0.0
  0
LINE
  5
18E
330
18
100
AcDbEntity
  8
0
100
AcDbLine
 10
25.79347311522012
 20
15.40506616774242
 30
0.0
 11
35.15580686690135
 21
15.40506616774248
 31
0.0
  0
LINE
  5
190
330
18
100
AcDbEntity
  8
0
100
AcDbLine
 10
153.0
 20
52.64523331463255
 30
0.0
 11
136.1400380727369
 21
29.35444475009148
 31
0.0
  0
SPLINE
  5
191
330
18
100
AcDbEntity
  8
0
100
AcDbSpline
210
0.0
220
0.0
230
1.0
 70
     8
 71
     3
 72
    12
 73
     8
 74
     6
 42
0.0000000001
 43
0.0000000001
 44
0.0000000001
 40
0.0
 40
0.0
 40
0.0
 40
0.0
 40
6.78365629181725
 40
16.01182384419648
 40
22.80068847605625
 40
27.07695289991395
 40
29.87264678267473
 40
29.87264678267473
 40
29.87264678267473
 40
29.87264678267473
 10
110.1343709971827
 20
17.3291186300677
 30
0.0
 10
112.3865660025255
 20
17.44495038043372
 30
0.0
 10
117.7025413610986
 20
17.71835420613502
 30
0.0
 10
125.3353843654617
 20
19.39048373858298
 30
0.0
 10
130.7893163615614
 20
23.55133269795556
 30
0.0
 10
134.1825846044619
 20
26.70320966453076
 30
0.0
 10
135.585454208002
 20
28.60329933391636
 30
0.0
 10
136.1400380727368
 20
29.35444475009151
 30
0.0
 11
110.1343709971827
 21
17.3291186300677
 31
0.0
 11
116.8988899637108
 21
17.83830998603653
 31
0.0
 11
125.8010223659034
 21
20.2695884704183
 31
0.0
 11
131.3648535459895
 21
24.15963546103651
 31
0.0
 11
134.4249619520645
 21
27.14663629227507
 31
0.0
 11
136.1400380727368
 21
29.35444475009151
 31
0.0
  0
SPLINE
  5
192
330
18
100
AcDbEntity
  8
0
100
AcDbSpline
210
0.0
220
0.0
230
1.0
 70
     8
 71
     3
 72
    11
 73
     7
 74
     5
 42
0.0000000001
 43
0.0000000001
 44
0.0000000001
 40
0.0
 40
0.0
 40
0.0
 40
0.0
 40
4.04606911505307
 40
9.108546800212305
 40
12.82866771481034
 40
15.07764427591497
 40
15.07764427591497
 40
15.07764427591497
 40
15.07764427591497
 10
25.79347311522
 20
15.40506616774248
 30
0.0
 10
24.53215922872002
 20
15.92472672439591
 30
0.0
 10
21.69267818223965
 20
17.09459119430623
 30
0.0
 10
18.81324253893568
 20
20.41306769067426
 30
0.0
 10
16.74362991715002
 20
23.45572880301962
 30
0.0
 10
15.97119224018726
 20
25.29454343339278
 30
0.0
 10
15.68016093478898
 20
25.98735353085876
 30
0.0
 11
25.79347311522
 21
15.40506616774248
 31
0.0
 11
22.16640747352594
 21
17.19812782720341
 31
0.0
 11
18.61946478196479
 21
20.81031246472073
 31
0.0
 11
16.60257210334726
 21
23.93624329283718
 31
0.0
 11
15.68016093478898
 21
25.98735353085876
 31
0.0
  0
LINE
  5
197
330
18
100
AcDbEntity
  8
0
100
AcDbLine
 10
11.00000000000003
 20
52.64523331463255
 30
0.0
 11
15.68016093478898
 21
25.98735353085876
 31
0.0
  0
LINE
  5
199
330
18
100
AcDbEntity
  8
0
100
AcDbLine
 10
44.51992959113748
 20
15.62513618553395
 30
0.0
 11
43.32480715222231
 21
6.018701802085755
 31
0.0
  0
LINE
  5
19A
330
18
100
AcDbEntity
  8
0
100
AcDbLine
 10
43.32480715222231
 20
6.018701802085755
 30
0.0
 11
39.77786446066026
 21
6.018701802085755
 31
0.0
  0
LINE
  5
19B
330
18
100
AcDbEntity
  8
0
100
AcDbLine
 10
39.77786446066026
 20
6.018701802085755
 30
0.0
 11
38.19025615748138
 21
15.47637998207741
 31
0.0
  0
LWPOLYLINE
  5
19C
330
18
100
AcDbEntity
  8
0
100
AcDbPolyline
 90
        4
 70
     0
 43
0.0
 10
39.91695877363027
 20
6.018701802085755
 10
39.91695877363027
 20
3.726353314581555
 10
43.1161656827672
 20
3.726353314581555
 10
43.1161656827672
 20
6.018701802085755
  0
LWPOLYLINE
  5
19D
330
18
100
AcDbEntity
  8
0
100
AcDbPolyline
 90
        4
 70
     0
 43
0.0
 10
40.26469874614726
 20
3.726353314581555
 10
40.26469874614726
 20
2.753840977091098
 10
42.69887436367279
 20
2.753840977091098
 10
42.69887436367279
 20
3.726353314581555
  0
LINE
  5
19E
330
18
100
AcDbEntity
  8
0
100
AcDbLine
 10
42.46883274461633
 20
2.753840977091126
 30
0.0
 11
43.74134980539558
 21
-0.0000000000000031
 31
0.0
  0
LINE
  5
19F
330
18
100
AcDbEntity
  8
0
100
AcDbLine
 10
40.68624611986028
 20
2.753840977091126
 30
0.0
 11
39.61715558997032
 21
-0.0000000000000031
 31
0.0
  0
LINE
  5
1A0
330
18
100
AcDbEntity
  8
0
100
AcDbLine
 10
102.8126380389027
 20
5.890533481080521
 30
0.0
 11
100.9321456049398
 21
17.09297694570506
 31
0.0
  0
LINE
  5
1A1
330
18
100
AcDbEntity
  8
0
100
AcDbLine
 10
107.7751064281515
 20
17.26857667576416
 30
0.0
 11
106.3595807304648
 21
5.890533481080521
 31
0.0
  0
LINE
  5
1A2
330
18
100
AcDbEntity
  8
0
100
AcDbLine
 10
103.7210196981028
 20
2.625672656085921
 30
0.0
 11
102.7016864124976
 21
-0.0000000000000031
 31
0.0
  0
LINE
  5
1A3
330
18
100
AcDbEntity
  8
0
100
AcDbLine
 10
106.3595807304648
 20
5.890533481080521
 30
0.0
 11
102.8126380389027
 21
5.890533481080521
 31
0.0
  0
LINE
  5
1A4
330
18
100
AcDbEntity
  8
0
100
AcDbLine
 10
105.5036063228588
 20
2.625672656085921
 30
0.0
 11
106.7168983316153
 21
-0.0000000000000031
 31
0.0
  0
LWPOLYLINE
  5
1A5
330
18
100
AcDbEntity
  8
0
100
AcDbPolyline
 90
        4
 70
     0
 43
0.0
 10
103.2994723243897
 20
3.598184993576265
 10
103.2994723243897
 20
2.62567265608595
 10
105.7336479419152
 20
2.62567265608595
 10
105.7336479419152
 20
3.598184993576265
  0
LWPOLYLINE
  5
1A6
330
18
100
AcDbEntity
  8
0
100
AcDbPolyline
 90
        4
 70
     0
 43
0.0
 10
102.9517323518728
 20
5.890533481080493
 10
102.9517323518728
 20
3.598184993576265
 10
106.1509392610097
 20
3.598184993576265
 10
106.1509392610097
 20
5.890533481080493
  0
LINE
  5
4B9
330
18
100
AcDbEntity
  8
0
100
AcDbLine
 10
160.0
 20
52.64523331463255
 30
0.0
 11
0.0000000000000391
 21
52.64523331463255
 31
0.0
  0
DIMENSION
  5
5B0
330
18
100
AcDbEntity
  8
COTATION-JACOBDELAFON
100
AcDbDimension
  2
*D1
 10
160.0
 20
66.3882050001963
 30
0.0
 11
80.0
 21
68.81992396336139
 31
0.0
 70
    32
  3
COTATION-JACOB-DELAFON
100
AcDbAlignedDimension
 13
0.0000000000000107
 23
54.5
 33
0.0
 14
160.0
 24
53.57261665731627
 34
0.0
 50
180.0
100
AcDbRotatedDimension
  0
DIMENSION
  5
5E9
330
18
100
AcDbEntity
  8
COTATION-JACOBDELAFON
100
AcDbDimension
  2
*D2
 10
-6.990570488206589
 20
0.000000000000002
 30
0.0
 11
-9.41615029721068
 21
27.25
 31
0.0
 70
    32
  3
COTATION-JACOB-DELAFON
100
AcDbAlignedDimension
 13
0.0000000000000107
 23
54.5
 33
0.0
 14
10.81779099426567
 24
-0.0000000000000031
 34
0.0
 50
90.0
100
AcDbRotatedDimension
  0
LINE
  5
68B
330
18
100
AcDbEntity
  8
0
100
AcDbLine
 10
43.74134980539557
 20
-0.0000000000000031
 30
0.0
 11
39.61715558997033
 21
-0.0000000000000031
 31
0.0
  0
VIEWPORT
  5
64D
330
15
100
AcDbEntity
 67
     1
  8
0
100
AcDbViewport
 10
121.9062347412109
 20
102.156247138977
 30
0.0
 40
417.6737219110095
 41
228.4221935424804
 68
     1
 69
     1
1001
ACAD
1000
MVIEW
1002
{
1070
    16
1010
0.0
1020
0.0
1030
0.0
1010
0.0
1020
0.0
1030
1.0
1040
0.0
1040
228.4221935424804
1040
121.9062347412109
1040
102.156247138977
1040
50.0
1040
0.0
1040
0.0
1070
     0
1070
   100
1070
     1
1070
     1
1070
     0
1070
     0
1070
     0
1070
     0
1040
0.0
1040
0.0
1040
0.0
1040
10.0
1040
10.0
1040
10.0
1040
10.0
1070
     0
1002
{
1002
}
1002
}
  0
ENDSEC
  0
SECTION
  2
OBJECTS
  0
DICTIONARY
  5
C
330
0
100
AcDbDictionary
  3
ACAD_GROUP
350
D
  3
ACAD_IMAGE_DICT
350
21
  3
ACAD_IMAGE_VARS
350
20
  3
ACAD_LAYOUT
350
34C
  3
ACAD_MLINESTYLE
350
1B
  3
ACAD_PLOTSETTINGS
350
34D
  3
ACAD_PLOTSTYLENAME
350
34A
  3
ACDBHEADERROUNDTRIPXREC
350
6F4
  3
ACDBVARIABLEDICTIONARY
350
353
  0
DICTIONARY
  5
717
330
18
100
AcDbDictionary
280
     1
  3
ACAD_LAYOUTSELFREF
360
718
  0
DICTIONARY
  5
715
330
15
100
AcDbDictionary
280
     1
  3
ACAD_LAYOUTSELFREF
360
716
  0
DICTIONARY
  5
D
102
{ACAD_REACTORS
330
C
102
}
330
C
100
AcDbDictionary
  0
DICTIONARY
  5
21
102
{ACAD_REACTORS
330
C
102
}
330
C
100
AcDbDictionary
  0
RASTERVARIABLES
  5
20
102
{ACAD_REACTORS
330
C
102
}
330
C
100
AcDbRasterVariables
 90
        0
 70
     1
 71
     1
 72
     0
  0
DICTIONARY
  5
34C
102
{ACAD_REACTORS
330
C
102
}
330
C
100
AcDbDictionary
  0
DICTIONARY
  5
1B
102
{ACAD_REACTORS
330
C
102
}
330
C
100
AcDbDictionary
  3
STANDARD
350
1C
  0
DICTIONARY
  5
34D
102
{ACAD_REACTORS
330
C
102
}
330
C
100
AcDbDictionary
  0
ACDBDICTIONARYWDFLT
  5
34A
102
{ACAD_REACTORS
330
C
102
}
330
C
100
AcDbDictionary
281
     1
  3
Normal
350
34B
100
AcDbDictionaryWithDefault
340
34B
  0
DICTIONARY
  5
6F4
102
{ACAD_REACTORS
330
C
102
}
330
C
100
AcDbDictionary
  3
CEPSNTYPE
350
6FE
  3
DIMSTYLEDATA
350
702
  3
FINGERPRINTGUID
350
6FF
  3
HYPERLINKBASE
350
6F7
  3
INSUNITS
350
6FD
  3
LAYOUTDICT
350
6F9
  3
LWETCUNION
350
6FC
  3
PLOTSETDICT
350
6FA
  3
PLOTSTYLNAMDICT
350
6FB
  3
PSVPSCALE
350
701
  3
PUCSBASE
350
705
  3
PUCSORGBACK
350
70B
  3
PUCSORGBOTTOM
350
707
  3
PUCSORGFRONT
350
70A
  3
PUCSORGLEFT
350
708
  3
PUCSORGRIGHT
350
709
  3
PUCSORGTOP
350
706
  3
PUCSORTHOREF
350
703
  3
PUCSORTHOVIEW
350
704
  3
STYLESHEET
350
6F8
  3
TSTACKALIGN
350
6F5
  3
TSTACKSIZE
350
6F6
  3
UCSBASE
350
70E
  3
UCSORGBACK
350
714
  3
UCSORGBOTTOM
350
710
  3
UCSORGFRONT
350
713
  3
UCSORGLEFT
350
711
  3
UCSORGRIGHT
350
712
  3
UCSORGTOP
350
70F
  3
UCSORTHOREF
350
70C
  3
UCSORTHOVIEW
350
70D
  3
VERSIONGUID
350
700
  0
DICTIONARY
  5
353
102
{ACAD_REACTORS
330
C
102
}
330
C
100
AcDbDictionary
  3
DIMASSOC
350
354
  0
XRECORD
  5
718
102
{ACAD_REACTORS
330
717
102
}
330
717
100
AcDbXrecord
340
18
  0
XRECORD
  5
716
102
{ACAD_REACTORS
330
715
102
}
330
715
100
AcDbXrecord
340
15
  0
MLINESTYLE
  5
1C
102
{ACAD_REACTORS
330
1B
102
}
330
1B
100
AcDbMlineStyle
  2
STANDARD
 70
     0
  3

 62
   256
 51
90.0
 52
90.0
 71
     2
 49
0.5
 62
   256
  6
BYLAYER
 49
-0.5
 62
   256
  6
BYLAYER
  0
ACDBPLACEHOLDER
  5
34B
102
{ACAD_REACTORS
330
34A
102
}
330
34A
100
AcDbPlaceHolder
280
     0
  0
XRECORD
  5
6FE
102
{ACAD_REACTORS
330
6F4
102
}
330
6F4
100
AcDbXrecord
 90
        0
  0
XRECORD
  5
702
102
{ACAD_REACTORS
330
6F4
102
}
330
6F4
100
AcDbXrecord
1000
DSTYLE
1002
{
1070
    79
 70
     3
1070
   279
 70
     2
1070
   342
340
4BB
1002
}
  0
XRECORD
  5
6FF
102
{ACAD_REACTORS
330
6F4
102
}
330
6F4
100
AcDbXrecord
  1
{09FD3E7F-EBD2-4D58-A3C7-0BF60499D6DD}
  0
XRECORD
  5
6F7
102
{ACAD_REACTORS
330
6F4
102
}
330
6F4
100
AcDbXrecord
  1

  0
XRECORD
  5
6FD
102
{ACAD_REACTORS
330
6F4
102
}
330
6F4
100
AcDbXrecord
 90
        0
  0
XRECORD
  5
6F9
102
{ACAD_REACTORS
330
6F4
102
}
330
6F4
100
AcDbXrecord
340
34C
  0
XRECORD
  5
6FC
102
{ACAD_REACTORS
330
6F4
102
}
330
6F4
100
AcDbXrecord
 90
    14877
  0
XRECORD
  5
6FA
102
{ACAD_REACTORS
330
6F4
102
}
330
6F4
100
AcDbXrecord
340
34D
  0
XRECORD
  5
6FB
102
{ACAD_REACTORS
330
6F4
102
}
330
6F4
100
AcDbXrecord
340
34A
  0
XRECORD
  5
701
102
{ACAD_REACTORS
330
6F4
102
}
330
6F4
100
AcDbXrecord
 40
0.0
  0
XRECORD
  5
705
102
{ACAD_REACTORS
330
6F4
102
}
330
6F4
100
AcDbXrecord
340
0
  0
XRECORD
  5
70B
102
{ACAD_REACTORS
330
6F4
102
}
330
6F4
100
AcDbXrecord
 10
0.0
 20
0.0
 30
0.0
  0
XRECORD
  5
707
102
{ACAD_REACTORS
330
6F4
102
}
330
6F4
100
AcDbXrecord
 10
0.0
 20
0.0
 30
0.0
  0
XRECORD
  5
70A
102
{ACAD_REACTORS
330
6F4
102
}
330
6F4
100
AcDbXrecord
 10
0.0
 20
0.0
 30
0.0
  0
XRECORD
  5
708
102
{ACAD_REACTORS
330
6F4
102
}
330
6F4
100
AcDbXrecord
 10
0.0
 20
0.0
 30
0.0
  0
XRECORD
  5
709
102
{ACAD_REACTORS
330
6F4
102
}
330
6F4
100
AcDbXrecord
 10
0.0
 20
0.0
 30
0.0
  0
XRECORD
  5
706
102
{ACAD_REACTORS
330
6F4
102
}
330
6F4
100
AcDbXrecord
 10
0.0
 20
0.0
 30
0.0
  0
XRECORD
  5
703
102
{ACAD_REACTORS
330
6F4
102
}
330
6F4
100
AcDbXrecord
340
0
  0
XRECORD
  5
704
102
{ACAD_REACTORS
330
6F4
102
}
330
6F4
100
AcDbXrecord
 70
     0
  0
XRECORD
  5
6F8
102
{ACAD_REACTORS
330
6F4
102
}
330
6F4
100
AcDbXrecord
  1

  0
XRECORD
  5
6F5
102
{ACAD_REACTORS
330
6F4
102
}
330
6F4
100
AcDbXrecord
 90
        1
  0
XRECORD
  5
6F6
102
{ACAD_REACTORS
330
6F4
102
}
330
6F4
100
AcDbXrecord
 90
       70
  0
XRECORD
  5
70E
102
{ACAD_REACTORS
330
6F4
102
}
330
6F4
100
AcDbXrecord
340
0
  0
XRECORD
  5
714
102
{ACAD_REACTORS
330
6F4
102
}
330
6F4
100
AcDbXrecord
 10
0.0
 20
0.0
 30
0.0
  0
XRECORD
  5
710
102
{ACAD_REACTORS
330
6F4
102
}
330
6F4
100
AcDbXrecord
 10
0.0
 20
0.0
 30
0.0
  0
XRECORD
  5
713
102
{ACAD_REACTORS
330
6F4
102
}
330
6F4
100
AcDbXrecord
 10
0.0
 20
0.0
 30
0.0
  0
XRECORD
  5
711
102
{ACAD_REACTORS
330
6F4
102
}
330
6F4
100
AcDbXrecord
 10
0.0
 20
0.0
 30
0.0
  0
XRECORD
  5
712
102
{ACAD_REACTORS
330
6F4
102
}
330
6F4
100
AcDbXrecord
 10
0.0
 20
0.0
 30
0.0
  0
XRECORD
  5
70F
102
{ACAD_REACTORS
330
6F4
102
}
330
6F4
100
AcDbXrecord
 10
0.0
 20
0.0
 30
0.0
  0
XRECORD
  5
70C
102
{ACAD_REACTORS
330
6F4
102
}
330
6F4
100
AcDbXrecord
340
0
  0
XRECORD
  5
70D
102
{ACAD_REACTORS
330
6F4
102
}
330
6F4
100
AcDbXrecord
 70
     0
  0
XRECORD
  5
700
102
{ACAD_REACTORS
330
6F4
102
}
330
6F4
100
AcDbXrecord
  1
{FF6A5E98-A623-46B5-AE21-DE829BEF3E67}
  0
DICTIONARYVAR
  5
354
102
{ACAD_REACTORS
330
353
102
}
330
353
100
DictionaryVariables
280
     0
  1
1
  0
ENDSEC
  0
EOF
