  0
SECTION
  2
HEADER
  9
$ACADVER
  1
AC1014
  9
$ACADMAINTVER
 70
     9
  9
$DWGCODEPAGE
  3
ANSI_1252
  9
$INSBASE
 10
0.0
 20
0.0
 30
0.0
  9
$EXTMIN
 10
-0.8999999999999996
 20
-35.89999999999998
 30
0.0
  9
$EXTMAX
 10
180.2071172291901
 20
46.68727477039713
 30
0.0
  9
$LIMMIN
 10
0.0
 20
0.0
  9
$LIMMAX
 10
420.0
 20
297.0
  9
$ORTHOMODE
 70
     1
  9
$REGENMODE
 70
     1
  9
$FILLMODE
 70
     1
  9
$QTEXTMODE
 70
     0
  9
$MIRRTEXT
 70
     1
  9
$DRAGMODE
 70
     2
  9
$LTSCALE
 40
1.0
  9
$OSMODE
 70
   167
  9
$ATTMODE
 70
     1
  9
$TEXTSIZE
 40
2.5
  9
$TRACEWID
 40
1.0
  9
$TEXTSTYLE
  7
STANDARD
  9
$CLAYER
  8
0
  9
$CELTYPE
  6
BYLAYER
  9
$CECOLOR
 62
   256
  9
$CELTSCALE
 40
1.0
  9
$DELOBJ
 70
     1
  9
$DISPSILH
 70
     0
  9
$DIMSCALE
 40
1.0
  9
$DIMASZ
 40
1.8
  9
$DIMEXO
 40
0.625
  9
$DIMDLI
 40
3.799999999999999
  9
$DIMRND
 40
0.0
  9
$DIMDLE
 40
0.0
  9
$DIMEXE
 40
1.8
  9
$DIMTP
 40
0.0
  9
$DIMTM
 40
0.0
  9
$DIMTXT
 40
3.0
  9
$DIMCEN
 40
0.9
  9
$DIMTSZ
 40
0.0
  9
$DIMTOL
 70
     0
  9
$DIMLIM
 70
     0
  9
$DIMTIH
 70
     0
  9
$DIMTOH
 70
     0
  9
$DIMSE1
 70
     0
  9
$DIMSE2
 70
     0
  9
$DIMTAD
 70
     1
  9
$DIMZIN
 70
    12
  9
$DIMBLK
  1
OBLIQUE
  9
$DIMASO
 70
     1
  9
$DIMSHO
 70
     1
  9
$DIMPOST
  1

  9
$DIMAPOST
  1

  9
$DIMALT
 70
     0
  9
$DIMALTD
 70
     2
  9
$DIMALTF
 40
25.4
  9
$DIMLFAC
 40
1.0
  9
$DIMTOFL
 70
     0
  9
$DIMTVP
 40
0.0
  9
$DIMTIX
 70
     0
  9
$DIMSOXD
 70
     0
  9
$DIMSAH
 70
     0
  9
$DIMBLK1
  1

  9
$DIMBLK2
  1

  9
$DIMSTYLE
  2
COTATION-JACOB-DELAFON
  9
$DIMCLRD
 70
     0
  9
$DIMCLRE
 70
     0
  9
$DIMCLRT
 70
     0
  9
$DIMTFAC
 40
1.0
  9
$DIMGAP
 40
0.9
  9
$DIMJUST
 70
     0
  9
$DIMSD1
 70
     0
  9
$DIMSD2
 70
     0
  9
$DIMTOLJ
 70
     1
  9
$DIMTZIN
 70
     0
  9
$DIMALTZ
 70
     0
  9
$DIMALTTZ
 70
     0
  9
$DIMFIT
 70
     5
  9
$DIMUPT
 70
     0
  9
$DIMUNIT
 70
     2
  9
$DIMDEC
 70
     2
  9
$DIMTDEC
 70
     2
  9
$DIMALTU
 70
     2
  9
$DIMALTTD
 70
     2
  9
$DIMTXSTY
  7
JACOB-DELAFON
  9
$DIMAUNIT
 70
     0
  9
$LUNITS
 70
     2
  9
$LUPREC
 70
     4
  9
$SKETCHINC
 40
1.0
  9
$FILLETRAD
 40
10.0
  9
$AUNITS
 70
     0
  9
$AUPREC
 70
     0
  9
$MENU
  1
.
  9
$ELEVATION
 40
0.0
  9
$PELEVATION
 40
0.0
  9
$THICKNESS
 40
0.0
  9
$LIMCHECK
 70
     0
  9
$BLIPMODE
 70
     0
  9
$CHAMFERA
 40
10.0
  9
$CHAMFERB
 40
10.0
  9
$CHAMFERC
 40
20.0
  9
$CHAMFERD
 40
0.0
  9
$SKPOLY
 70
     0
  9
$TDCREATE
 40
2451205.774017129
  9
$TDUPDATE
 40
2452285.685465336
  9
$TDINDWG
 40
0.0977301273
  9
$TDUSRTIMER
 40
0.0977301273
  9
$USRTIMER
 70
     1
  9
$ANGBASE
 50
0.0
  9
$ANGDIR
 70
     0
  9
$PDMODE
 70
     0
  9
$PDSIZE
 40
0.0
  9
$PLINEWID
 40
0.0
  9
$COORDS
 70
     0
  9
$SPLFRAME
 70
     0
  9
$SPLINETYPE
 70
     6
  9
$SPLINESEGS
 70
     8
  9
$ATTDIA
 70
     0
  9
$ATTREQ
 70
     1
  9
$HANDLING
 70
 22529
  9
$HANDSEED
  5
807
  9
$SURFTAB1
 70
     6
  9
$SURFTAB2
 70
     6
  9
$SURFTYPE
 70
     6
  9
$SURFU
 70
     6
  9
$SURFV
 70
     6
  9
$UCSNAME
  2

  9
$UCSORG
 10
0.0
 20
0.0
 30
0.0
  9
$UCSXDIR
 10
1.0
 20
0.0
 30
0.0
  9
$UCSYDIR
 10
0.0
 20
1.0
 30
0.0
  9
$PUCSNAME
  2

  9
$PUCSORG
 10
0.0
 20
0.0
 30
0.0
  9
$PUCSXDIR
 10
1.0
 20
0.0
 30
0.0
  9
$PUCSYDIR
 10
0.0
 20
1.0
 30
0.0
  9
$USERI1
 70
     0
  9
$USERI2
 70
     0
  9
$USERI3
 70
     0
  9
$USERI4
 70
     0
  9
$USERI5
 70
     0
  9
$USERR1
 40
0.0
  9
$USERR2
 40
0.0
  9
$USERR3
 40
0.0
  9
$USERR4
 40
0.0
  9
$USERR5
 40
0.0
  9
$WORLDVIEW
 70
     1
  9
$SHADEDGE
 70
     3
  9
$SHADEDIF
 70
    70
  9
$TILEMODE
 70
     1
  9
$MAXACTVP
 70
    48
  9
$PINSBASE
 10
0.0
 20
0.0
 30
0.0
  9
$PLIMCHECK
 70
     0
  9
$PEXTMIN
 10
1.000000000000000E+20
 20
1.000000000000000E+20
 30
1.000000000000000E+20
  9
$PEXTMAX
 10
-1.000000000000000E+20
 20
-1.000000000000000E+20
 30
-1.000000000000000E+20
  9
$PLIMMIN
 10
0.0
 20
0.0
  9
$PLIMMAX
 10
420.0
 20
297.0
  9
$UNITMODE
 70
     0
  9
$VISRETAIN
 70
     1
  9
$PLINEGEN
 70
     0
  9
$PSLTSCALE
 70
     1
  9
$TREEDEPTH
 70
  3020
  9
$PICKSTYLE
 70
     1
  9
$CMLSTYLE
  2
STANDARD
  9
$CMLJUST
 70
     0
  9
$CMLSCALE
 40
20.0
  9
$PROXYGRAPHICS
 70
     1
  9
$MEASUREMENT
 70
     1
  0
ENDSEC
  0
SECTION
  2
CLASSES
  0
CLASS
  1
RASTERVARIABLES
  2
AcDbRasterVariables
  3
ISM
 90
        0
280
     0
281
     0
  0
CLASS
  1
IMAGEDEF
  2
AcDbRasterImageDef
  3
ISM
 90
        0
280
     0
281
     0
  0
CLASS
  1
IMAGEDEF_REACTOR
  2
AcDbRasterImageDefReactor
  3
ISM
 90
        1
280
     0
281
     0
  0
CLASS
  1
IMAGE
  2
AcDbRasterImage
  3
ISM
 90
      127
280
     0
281
     1
  0
CLASS
  1
LWPOLYLINE
  2
AcDbPolyline
  3
AutoCAD 2000
 90
        0
280
     0
281
     1
  0
CLASS
  1
ACDBDICTIONARYWDFLT
  2
AcDbDictionaryWithDefault
  3
AutoCAD 2000
 90
        0
280
     0
281
     0
  0
CLASS
  1
ACDBPLACEHOLDER
  2
AcDbPlaceHolder
  3
AutoCAD 2000
 90
        0
280
     0
281
     0
  0
CLASS
  1
LAYOUT
  2
AcDbLayout
  3
AutoCAD 2000
 90
        0
280
     0
281
     0
  0
CLASS
  1
DICTIONARYVAR
  2
AcDbDictionaryVar
  3
AutoCAD 2000
 90
        0
280
     0
281
     0
  0
CLASS
  1
LONG_TRANSACTION
  2
AcDbLongTransaction
  3
AutoCAD 2000
 90
        0
280
     0
281
     0
  0
CLASS
  1
LWPOLYLINE
  2
AcDbPolyline
  3
AutoCAD 2000
 90
        0
280
     0
281
     1
  0
CLASS
  1
HATCH
  2
AcDbHatch
  3
AutoCAD 2000
 90
        0
280
     0
281
     1
  0
CLASS
  1
XRECORD
  2
AcDbXrecord
  3
AutoCAD 2000
 90
        0
280
     0
281
     0
  0
ENDSEC
  0
SECTION
  2
TABLES
  0
TABLE
  2
VPORT
  5
8
330
0
100
AcDbSymbolTable
 70
     3
  0
VPORT
  5
7E1
330
8
100
AcDbSymbolTableRecord
100
AcDbViewportTableRecord
  2
*ACTIVE
 70
     0
 10
0.0
 20
0.0
 11
1.0
 21
1.0
 12
89.64516722929907
 22
6.645301793088435
 13
0.0
 23
0.0
 14
10.0
 24
10.0
 15
10.0
 25
10.0
 16
0.0
 26
0.0
 36
1.0
 17
0.0
 27
0.0
 37
0.0
 40
99.69576859145369
 41
1.828516377649325
 42
50.0
 43
0.0
 44
0.0
 50
0.0
 51
0.0
 71
     0
 72
   100
 73
     1
 74
     1
 75
     0
 76
     0
 77
     0
 78
     0
  0
ENDTAB
  0
TABLE
  2
LTYPE
  5
5
330
0
100
AcDbSymbolTable
 70
     1
  0
LTYPE
  5
12
330
5
100
AcDbSymbolTableRecord
100
AcDbLinetypeTableRecord
  2
BYBLOCK
 70
     0
  3

 72
    65
 73
     0
 40
0.0
  0
LTYPE
  5
13
330
5
100
AcDbSymbolTableRecord
100
AcDbLinetypeTableRecord
  2
BYLAYER
 70
     0
  3

 72
    65
 73
     0
 40
0.0
  0
LTYPE
  5
14
330
5
100
AcDbSymbolTableRecord
100
AcDbLinetypeTableRecord
  2
CONTINUOUS
 70
     0
  3
Solid line
 72
    65
 73
     0
 40
0.0
  0
ENDTAB
  0
TABLE
  2
LAYER
  5
2
330
0
100
AcDbSymbolTable
 70
     3
  0
LAYER
  5
E
330
2
100
AcDbSymbolTableRecord
100
AcDbLayerTableRecord
  2
0
 70
     0
 62
   255
  6
CONTINUOUS
  0
LAYER
  5
1E1
330
2
100
AcDbSymbolTableRecord
100
AcDbLayerTableRecord
  2
DEFPOINTS
 70
     0
 62
     7
  6
CONTINUOUS
  0
LAYER
  5
4D7
330
2
100
AcDbSymbolTableRecord
100
AcDbLayerTableRecord
  2
COTATION-JACOBDELAFON
 70
     0
 62
     8
  6
CONTINUOUS
  0
ENDTAB
  0
TABLE
  2
STYLE
  5
3
330
0
100
AcDbSymbolTable
 70
     2
  0
STYLE
  5
F
330
3
100
AcDbSymbolTableRecord
100
AcDbTextStyleTableRecord
  2
STANDARD
 70
     0
 40
0.0
 41
1.0
 50
0.0
 71
     0
 42
2.5
  3
txt
  4

  0
STYLE
  5
4D8
330
3
100
AcDbSymbolTableRecord
100
AcDbTextStyleTableRecord
  2
JACOB-DELAFON
 70
     0
 40
0.0
 41
1.0
 50
0.0
 71
     0
 42
2.5
  3
ARIAL.TTF
  4

1001
ACAD
1000
Arial
1071
       34
  0
ENDTAB
  0
TABLE
  2
VIEW
  5
6
330
0
100
AcDbSymbolTable
 70
     0
  0
ENDTAB
  0
TABLE
  2
UCS
  5
7
330
0
100
AcDbSymbolTable
 70
     0
  0
ENDTAB
  0
TABLE
  2
APPID
  5
9
330
0
100
AcDbSymbolTable
 70
     2
  0
APPID
  5
10
330
9
100
AcDbSymbolTableRecord
100
AcDbRegAppTableRecord
  2
ACAD
 70
     0
  0
APPID
  5
4DA
330
9
100
AcDbSymbolTableRecord
100
AcDbRegAppTableRecord
  2
PE_URL
 70
     0
  0
ENDTAB
  0
TABLE
  2
DIMSTYLE
  5
A
330
0
100
AcDbSymbolTable
 70
     2
  0
DIMSTYLE
105
1D
330
A
100
AcDbSymbolTableRecord
100
AcDbDimStyleTableRecord
  2
STANDARD
 70
     0
  3

  4

  5

  6

  7

 40
1.0
 41
0.18
 42
0.0625
 43
0.38
 44
0.18
 45
0.0
 46
0.0
 47
0.0
 48
0.0
140
0.18
141
0.09
142
0.0
143
25.4
144
1.0
145
0.0
146
1.0
147
0.09
 71
     0
 72
     0
 73
     1
 74
     1
 75
     0
 76
     0
 77
     0
 78
     0
170
     0
171
     2
172
     0
173
     0
174
     0
175
     0
176
     0
177
     0
178
     0
270
     2
271
     4
272
     4
273
     2
274
     2
340
F
275
     0
280
     0
281
     0
282
     0
283
     1
284
     0
285
     0
286
     0
287
     3
288
     0
  0
DIMSTYLE
105
4D9
102
{ACAD_REACTORS
330
655
330
662
102
}
330
A
100
AcDbSymbolTableRecord
100
AcDbDimStyleTableRecord
  2
COTATION-JACOB-DELAFON
 70
     0
  3

  4

  5
OBLIQUE
  6

  7

 40
1.0
 41
1.8
 42
0.625
 43
3.799999999999999
 44
1.8
 45
0.0
 46
0.0
 47
0.0
 48
0.0
140
3.0
141
0.9
142
0.0
143
25.4
144
1.0
145
0.0
146
1.0
147
0.9
 71
     0
 72
     0
 73
     0
 74
     0
 75
     0
 76
     0
 77
     1
 78
    12
170
     0
171
     2
172
     0
173
     0
174
     0
175
     0
176
     0
177
     0
178
     0
270
     2
271
     2
272
     2
273
     2
274
     2
340
4D8
275
     0
280
     0
281
     0
282
     0
283
     1
284
     0
285
     0
286
     0
287
     5
288
     0
  0
ENDTAB
  0
TABLE
  2
BLOCK_RECORD
  5
1
330
0
100
AcDbSymbolTable
 70
     3
  0
BLOCK_RECORD
  5
18
102
{ACAD_XDICTIONARY
360
805
102
}
330
1
100
AcDbSymbolTableRecord
100
AcDbBlockTableRecord
  2
*MODEL_SPACE
  0
BLOCK_RECORD
  5
15
102
{ACAD_XDICTIONARY
360
803
102
}
330
1
100
AcDbSymbolTableRecord
100
AcDbBlockTableRecord
  2
*PAPER_SPACE
  0
BLOCK_RECORD
  5
4BB
330
1
100
AcDbSymbolTableRecord
100
AcDbBlockTableRecord
  2
_OBLIQUE
  0
BLOCK_RECORD
  5
656
330
1
100
AcDbSymbolTableRecord
100
AcDbBlockTableRecord
  2
*D1
  0
BLOCK_RECORD
  5
663
330
1
100
AcDbSymbolTableRecord
100
AcDbBlockTableRecord
  2
*D2
  0
ENDTAB
  0
ENDSEC
  0
SECTION
  2
BLOCKS
  0
BLOCK
  5
19
330
18
100
AcDbEntity
  8
0
100
AcDbBlockBegin
  2
*MODEL_SPACE
 70
     0
 10
0.0
 20
0.0
 30
0.0
  3
*MODEL_SPACE
  1

  0
ENDBLK
  5
1A
330
18
100
AcDbEntity
  8
0
100
AcDbBlockEnd
  0
BLOCK
  5
16
330
15
100
AcDbEntity
 67
     1
  8
0
100
AcDbBlockBegin
  2
*PAPER_SPACE
 70
     0
 10
0.0
 20
0.0
 30
0.0
  3
*PAPER_SPACE
  1

  0
ENDBLK
  5
17
330
15
100
AcDbEntity
 67
     1
  8
0
100
AcDbBlockEnd
  0
BLOCK
  5
4BD
330
4BB
100
AcDbEntity
  8
0
100
AcDbBlockBegin
  2
_OBLIQUE
 70
     0
 10
0.0
 20
0.0
 30
0.0
  3
_OBLIQUE
  1

  0
LINE
  5
4BC
330
4BB
100
AcDbEntity
  8
0
  6
BYBLOCK
 62
     0
100
AcDbLine
 10
-0.5
 20
-0.5
 30
0.0
 11
0.5
 21
0.5
 31
0.0
  0
ENDBLK
  5
4BE
330
4BB
100
AcDbEntity
  8
0
100
AcDbBlockEnd
  0
BLOCK
  5
660
330
656
100
AcDbEntity
  8
0
100
AcDbBlockBegin
  2
*D1
 70
     1
 10
0.0
 20
0.0
 30
0.0
  3
*D1
  1

  0
LINE
  5
78C
330
656
100
AcDbEntity
  8
COTATION-JACOBDELAFON
 62
     0
100
AcDbLine
 10
170.0
 20
35.625
 30
0.0
 11
170.0
 21
43.73597872674092
 31
0.0
  0
LINE
  5
78D
330
656
100
AcDbEntity
  8
COTATION-JACOBDELAFON
 62
     0
100
AcDbLine
 10
0.0
 20
34.67905476517671
 30
0.0
 11
0.0000000000000006
 21
43.73597872674092
 31
0.0
  0
LINE
  5
78E
330
656
100
AcDbEntity
  8
COTATION-JACOBDELAFON
 62
     0
100
AcDbLine
 10
170.0
 20
41.93597872674092
 30
0.0
 11
0.0000000000000005
 21
41.93597872674092
 31
0.0
  0
INSERT
  5
78F
330
656
100
AcDbEntity
  8
COTATION-JACOBDELAFON
 62
     0
100
AcDbBlockReference
  2
_OBLIQUE
 10
170.0
 20
41.93597872674092
 30
0.0
 41
1.8
 42
1.8
 43
1.8
  0
INSERT
  5
790
330
656
100
AcDbEntity
  8
COTATION-JACOBDELAFON
 62
     0
100
AcDbBlockReference
  2
_OBLIQUE
 10
0.0000000000000005
 20
41.93597872674092
 30
0.0
 41
1.8
 42
1.8
 43
1.8
 50
180.0
  0
MTEXT
  5
791
330
656
100
AcDbEntity
  8
COTATION-JACOBDELAFON
 62
     0
100
AcDbMText
 10
85.0
 20
44.367697689906
 30
0.0
 40
3.0
 41
0.0
 71
     5
 72
     1
  1
\A1;170
  7
JACOB-DELAFON
1001
ACAD
1000
MTEXTBEGIN
1070
    73
1070
     1
1070
    44
1040
1.0
1070
    74
1070
     0
1000
MTEXTEND
  0
POINT
  5
792
330
656
100
AcDbEntity
  8
DEFPOINTS
 62
     0
100
AcDbPoint
 10
170.0
 20
35.0
 30
0.0
  0
POINT
  5
793
330
656
100
AcDbEntity
  8
DEFPOINTS
 62
     0
100
AcDbPoint
 10
0.0
 20
34.05405476517671
 30
0.0
  0
POINT
  5
794
330
656
100
AcDbEntity
  8
DEFPOINTS
 62
     0
100
AcDbPoint
 10
0.0000000000000005
 20
41.93597872674092
 30
0.0
  0
ENDBLK
  5
661
330
656
100
AcDbEntity
  8
0
100
AcDbBlockEnd
  0
BLOCK
  5
66D
330
663
100
AcDbEntity
  8
0
100
AcDbBlockBegin
  2
*D2
 70
     1
 10
0.0
 20
0.0
 30
0.0
  3
*D2
  1

  0
LINE
  5
795
330
663
100
AcDbEntity
  8
COTATION-JACOBDELAFON
 62
     0
100
AcDbLine
 10
170.625
 20
35.0
 30
0.0
 11
180.2071172291901
 21
34.99999999999999
 31
0.0
  0
LINE
  5
796
330
663
100
AcDbEntity
  8
COTATION-JACOBDELAFON
 62
     0
100
AcDbLine
 10
170.625
 20
-34.99999999999997
 30
0.0
 11
180.2071172291901
 21
-34.99999999999998
 31
0.0
  0
LINE
  5
797
330
663
100
AcDbEntity
  8
COTATION-JACOBDELAFON
 62
     0
100
AcDbLine
 10
178.4071172291901
 20
34.99999999999999
 30
0.0
 11
178.4071172291901
 21
-34.99999999999998
 31
0.0
  0
INSERT
  5
798
330
663
100
AcDbEntity
  8
COTATION-JACOBDELAFON
 62
     0
100
AcDbBlockReference
  2
_OBLIQUE
 10
178.4071172291901
 20
34.99999999999999
 30
0.0
 41
1.8
 42
1.8
 43
1.8
 50
90.0
  0
INSERT
  5
799
330
663
100
AcDbEntity
  8
COTATION-JACOBDELAFON
 62
     0
100
AcDbBlockReference
  2
_OBLIQUE
 10
178.4071172291901
 20
-34.99999999999998
 30
0.0
 41
1.8
 42
1.8
 43
1.8
 50
270.0
  0
MTEXT
  5
79A
330
663
100
AcDbEntity
  8
COTATION-JACOBDELAFON
 62
     0
100
AcDbMText
 10
175.975398266025
 20
0.0000000000000391
 30
0.0
 40
3.0
 41
0.0
 71
     5
 72
     1
  1
\A1;70
  7
JACOB-DELAFON
 11
0.0000000000000001
 21
1.0
 31
0.0
1001
ACAD
1000
MTEXTBEGIN
1070
    73
1070
     1
1070
    44
1040
1.0
1070
    74
1070
     0
1000
MTEXTEND
  0
POINT
  5
79B
330
663
100
AcDbEntity
  8
DEFPOINTS
 62
     0
100
AcDbPoint
 10
170.0
 20
35.0
 30
0.0
  0
POINT
  5
79C
330
663
100
AcDbEntity
  8
DEFPOINTS
 62
     0
100
AcDbPoint
 10
170.0
 20
-34.99999999999997
 30
0.0
  0
POINT
  5
79D
330
663
100
AcDbEntity
  8
DEFPOINTS
 62
     0
100
AcDbPoint
 10
178.4071172291901
 20
-34.99999999999998
 30
0.0
  0
ENDBLK
  5
66E
330
663
100
AcDbEntity
  8
0
100
AcDbBlockEnd
  0
ENDSEC
  0
SECTION
  2
ENTITIES
  0
LWPOLYLINE
  5
A3
330
18
100
AcDbEntity
  8
0
100
AcDbPolyline
 90
        5
 70
     0
 43
0.0
 10
0.0
 20
-35.0
 10
170.0
 20
-35.0
 10
170.0
 20
35.0
 10
0.0
 20
35.0
 10
0.0
 20
-35.0
  0
LINE
  5
A5
330
18
100
AcDbEntity
  8
0
100
AcDbLine
 10
113.3694688327421
 20
19.99999999999985
 30
0.0
 11
29.94146997558923
 21
19.99999999999991
 31
0.0
  0
LINE
  5
A6
330
18
100
AcDbEntity
  8
0
100
AcDbLine
 10
11.0
 20
0.0
 30
0.0
 11
11.0
 21
-4.054053011074273
 31
0.0
  0
LINE
  5
A7
330
18
100
AcDbEntity
  8
0
100
AcDbLine
 10
15.83934124058503
 20
2.79892593545037
 30
0.0
 11
15.84449347778928
 21
-4.190993540559503
 31
0.0
  0
SPLINE
  5
A8
330
18
100
AcDbEntity
  8
0
100
AcDbSpline
210
0.0
220
0.0
230
1.0
 70
     8
 71
     3
 72
    13
 73
     9
 74
     0
 42
0.0000000001
 43
0.0000000001
 40
0.0
 40
0.0
 40
0.0
 40
0.0
 40
4.471141285596255
 40
9.135959257742555
 40
14.60581637989061
 40
19.86237555346782
 40
24.41591443902861
 40
27.63897048607057
 40
27.63897048607057
 40
27.63897048607057
 40
27.63897048607057
 10
113.3694688327421
 20
19.99999999999988
 30
0.0
 10
114.8378357950698
 20
19.6167131145014
 30
0.0
 10
117.8381750566488
 20
18.83353648324131
 30
0.0
 10
122.130108844523
 20
16.23653144154403
 30
0.0
 10
125.6799977766529
 20
12.32818517691799
 30
0.0
 10
128.2013855982421
 20
7.835327856800375
 30
0.0
 10
130.049676710233
 20
3.720639508228828
 30
0.0
 10
130.0944960956824
 20
1.098227823931836
 30
0.0
 10
130.141256625764
 20
-0.0000000000009663
 30
0.0
  0
SPLINE
  5
AB
330
18
100
AcDbEntity
  8
0
100
AcDbSpline
210
0.0
220
0.0
230
1.0
 70
     8
 71
     3
 72
    11
 73
     7
 74
     0
 42
0.0000000001
 43
0.0000000001
 40
1.244165952887735
 40
1.244165952887735
 40
1.244165952887735
 40
1.244165952887735
 40
3.606071357437609
 40
7.371080136480967
 40
13.32603383634436
 40
21.46563907886485
 40
21.46563907886485
 40
21.46563907886485
 40
21.46563907886485
 10
15.83934124058503
 20
2.79892593545037
 30
0.0
 10
15.95493847658538
 20
7.082400206643747
 30
0.0
 10
17.47267625267335
 20
11.03393795851438
 30
0.0
 10
18.18227683363699
 20
13.52790271106796
 30
0.0
 10
22.32145252514452
 20
19.26446534124937
 30
0.0
 10
27.15189203274713
 20
19.73073142238967
 30
0.0
 10
29.94146997558911
 20
19.99999999999988
 30
0.0
  0
LINE
  5
AC
330
18
100
AcDbEntity
  8
0
100
AcDbLine
 10
113.3694688327421
 20
-20.0
 30
0.0
 11
29.94146997558923
 21
-20.00000000000008
 31
0.0
  0
SPLINE
  5
B0
330
18
100
AcDbEntity
  8
0
100
AcDbSpline
210
0.0
220
0.0
230
1.0
 70
     8
 71
     3
 72
    14
 73
    10
 74
     0
 42
0.0000000001
 43
0.0000000001
 40
0.0
 40
0.0
 40
0.0
 40
0.0
 40
5.179166750682901
 40
11.42285243492422
 40
17.50305330370207
 40
25.87298197520917
 40
32.31302512706437
 40
38.49309829126706
 40
40.08837449939346
 40
40.08837449939346
 40
40.08837449939346
 40
40.08837449939346
 10
138.3487739092146
 20
-27.56756889499638
 30
0.0
 10
140.0657115335156
 20
-27.23809453778454
 30
0.0
 10
143.8524838207323
 20
-26.51142610931074
 30
0.0
 10
149.583665314916
 20
-24.70732260223897
 30
0.0
 10
155.0896228465343
 20
-20.17902890958004
 30
0.0
 10
159.2868730457488
 20
-14.46841062070211
 30
0.0
 10
162.5295624798802
 20
-8.033536882572349
 30
0.0
 10
162.9572831620515
 20
-3.173789769329971
 30
0.0
 10
162.9972495629321
 20
-0.5397516778686509
 30
0.0
 10
163.0000000000001
 20
0.0
 30
0.0
  0
SPLINE
  5
B1
330
18
100
AcDbEntity
  8
0
100
AcDbSpline
210
0.0
220
0.0
230
1.0
 70
     8
 71
     3
 72
    13
 73
     9
 74
     0
 42
0.0000000001
 43
0.0000000001
 40
0.0
 40
0.0
 40
0.0
 40
0.0
 40
4.471141285596255
 40
9.135959257742555
 40
14.60581637989061
 40
19.86237555346782
 40
24.41591443902872
 40
27.63897048607052
 40
27.63897048607052
 40
27.63897048607052
 40
27.63897048607052
 10
113.3694688327421
 20
-20.00000000000003
 30
0.0
 10
114.8378357950698
 20
-19.61671311450158
 30
0.0
 10
117.8381750566488
 20
-18.83353648324151
 30
0.0
 10
122.130108844523
 20
-16.23653144154411
 30
0.0
 10
125.6799977766529
 20
-12.32818517691816
 30
0.0
 10
128.2013855982419
 20
-7.835327856800461
 30
0.0
 10
130.0496767102331
 20
-3.720639508228856
 30
0.0
 10
130.0944960956825
 20
-1.098227823931949
 30
0.0
 10
130.1412566257641
 20
0.0000000000007958
 30
0.0
  0
SPLINE
  5
B2
330
18
100
AcDbEntity
  8
0
100
AcDbSpline
210
0.0
220
0.0
230
1.0
 70
     8
 71
     3
 72
    12
 73
     8
 74
     6
 42
0.0000000001
 43
0.0000000001
 44
0.0000000001
 40
0.0
 40
0.0
 40
0.0
 40
0.0
 40
4.196055863838972
 40
9.445762876068908
 40
14.47697865385892
 40
18.47115819011388
 40
22.03014963106679
 40
22.03014963106679
 40
22.03014963106679
 40
22.03014963106679
 10
10.99999999999988
 20
-13.78378444749827
 30
0.0
 10
11.27778329725354
 20
-15.16237351611955
 30
0.0
 10
11.90310270241275
 20
-18.26572243908255
 30
0.0
 10
14.79554001471092
 20
-22.38741717686745
 30
0.0
 10
18.81756686125631
 20
-24.92083266576443
 30
0.0
 10
22.39921917405801
 20
-27.28996898392945
 30
0.0
 10
24.95086315106584
 20
-27.47865949371894
 30
0.0
 10
26.15317660351291
 20
-27.56756889499641
 30
0.0
 11
10.99999999999988
 21
-13.78378444749827
 31
0.0
 11
12.08236997990886
 21
-17.83783921267465
 31
0.0
 11
15.05888664585569
 21
-22.16216254142759
 31
0.0
 11
19.11777329171124
 21
-25.13513603589044
 31
0.0
 11
22.63547339000783
 21
-27.02702825963948
 31
0.0
 11
26.15317660351291
 21
-27.56756889499641
 31
0.0
  0
SPLINE
  5
B3
330
18
100
AcDbEntity
  8
0
100
AcDbSpline
210
0.0
220
0.0
230
1.0
 70
     8
 71
     3
 72
    11
 73
     7
 74
     0
 42
0.0000000001
 43
0.0000000001
 40
1.277372507711701
 40
1.277372507711701
 40
1.277372507711701
 40
1.277372507711701
 40
3.606071357437719
 40
7.371080136481078
 40
13.32603383634447
 40
21.46563907886498
 40
21.46563907886498
 40
21.46563907886498
 40
21.46563907886498
 10
15.84449347778928
 20
-4.190993540559503
 30
0.0
 10
15.9713560882151
 20
-7.125154250700051
 30
0.0
 10
17.47462656290865
 20
-11.04079252587801
 30
0.0
 10
18.182276833637
 20
-13.52790271106808
 30
0.0
 10
22.32145252514452
 20
-19.26446534124948
 30
0.0
 10
27.15189203274713
 20
-19.7307314223898
 30
0.0
 10
29.94146997558911
 20
-20.00000000000003
 30
0.0
  0
LINE
  5
B4
330
18
100
AcDbEntity
  8
0
100
AcDbLine
 10
11.0
 20
-13.78378444749827
 30
0.0
 11
11.0
 21
0.0
 31
0.0
  0
CIRCLE
  5
B6
330
18
100
AcDbEntity
  8
0
100
AcDbCircle
 10
27.77673001577165
 20
0.0
 30
0.0
 40
3.16387195417105
  0
CIRCLE
  5
B7
330
18
100
AcDbEntity
  8
0
100
AcDbCircle
 10
27.77673001577165
 20
0.0
 30
0.0
 40
4.223818231329554
  0
ELLIPSE
  5
B8
330
18
100
AcDbEntity
  8
0
100
AcDbEllipse
 10
13.43533167599281
 20
0.0
 30
0.0
 11
0.0
 21
-3.022432849748236
 31
0.0
210
0.0
220
0.0
230
-1.0
 40
0.4476399520989863
 41
0.0
 42
6.283185307179586
  0
DIMENSION
  5
655
330
18
100
AcDbEntity
  8
COTATION-JACOBDELAFON
100
AcDbDimension
  2
*D1
 10
0.0000000000000005
 20
41.93597872674092
 30
0.0
 11
85.0
 21
44.367697689906
 31
0.0
 70
    32
  3
COTATION-JACOB-DELAFON
100
AcDbAlignedDimension
 13
170.0
 23
35.0
 33
0.0
 14
0.0
 24
34.05405476517671
 34
0.0
 50
180.0
100
AcDbRotatedDimension
  0
DIMENSION
  5
662
330
18
100
AcDbEntity
  8
COTATION-JACOBDELAFON
100
AcDbDimension
  2
*D2
 10
178.4071172291901
 20
-34.99999999999998
 30
0.0
 11
175.975398266025
 21
0.0000000000000391
 31
0.0
 70
    32
  3
COTATION-JACOB-DELAFON
100
AcDbAlignedDimension
 13
170.0
 23
35.0
 33
0.0
 14
170.0
 24
-34.99999999999997
 34
0.0
 50
90.0
100
AcDbRotatedDimension
  0
LINE
  5
731
330
18
100
AcDbEntity
  8
0
100
AcDbLine
 10
134.2860328496044
 20
-27.99999999999997
 30
0.0
 11
30.74763815480159
 21
-28.0
 31
0.0
  0
LINE
  5
732
330
18
100
AcDbEntity
  8
0
100
AcDbLine
 10
138.3487739092146
 20
-27.56756889499635
 30
0.0
 11
135.5347360828175
 21
-27.92173070766196
 31
0.0
  0
ARC
  5
733
330
18
100
AcDbEntity
  8
0
100
AcDbCircle
 10
134.2860328496044
 20
-17.99999999999997
 30
0.0
 40
10.0
100
AcDbArc
 50
270.0
 51
277.1732671811931
  0
LINE
  5
734
330
18
100
AcDbEntity
  8
0
100
AcDbLine
 10
26.15317660351291
 20
-27.56756889499641
 30
0.0
 11
29.68953825810444
 21
-27.94386366603089
 31
0.0
  0
ARC
  5
735
330
18
100
AcDbEntity
  8
0
100
AcDbCircle
 10
30.74763815480159
 20
-18.0
 30
0.0
 40
10.0
100
AcDbArc
 50
263.9261644738319
 51
270.0
  0
SPLINE
  5
736
330
18
100
AcDbEntity
  8
0
100
AcDbSpline
210
0.0
220
0.0
230
1.0
 70
     8
 71
     3
 72
    12
 73
     8
 74
     6
 42
0.0000000001
 43
0.0000000001
 44
0.0000000001
 40
0.0
 40
0.0
 40
0.0
 40
0.0
 40
4.196055863838966
 40
9.445762876068902
 40
14.47697865385889
 40
18.47115819011388
 40
22.03014963106678
 40
22.03014963106678
 40
22.03014963106678
 40
22.03014963106678
 10
11.00000000000017
 20
13.78378444749861
 30
0.0
 10
11.27778329725385
 20
15.16237351611988
 30
0.0
 10
11.90310270241313
 20
18.26572243908287
 30
0.0
 10
14.79554001471137
 20
22.38741717686771
 30
0.0
 10
18.81756686125683
 20
24.92083266576457
 30
0.0
 10
22.39921917405858
 20
27.28996898392953
 30
0.0
 10
24.9508631510664
 20
27.47865949371899
 30
0.0
 10
26.15317660351348
 20
27.56756889499644
 30
0.0
 11
11.00000000000017
 21
13.78378444749861
 31
0.0
 11
12.08236997990923
 21
17.83783921267496
 31
0.0
 11
15.05888664585614
 21
22.16216254142784
 31
0.0
 11
19.11777329171175
 21
25.13513603589058
 31
0.0
 11
22.6354733900084
 21
27.02702825963956
 31
0.0
 11
26.15317660351348
 21
27.56756889499644
 31
0.0
  0
LINE
  5
737
330
18
100
AcDbEntity
  8
0
100
AcDbLine
 10
11.00000000000028
 20
13.78378444749861
 30
0.0
 11
11.0
 21
0.0000000000003411
 31
0.0
  0
LINE
  5
738
330
18
100
AcDbEntity
  8
0
100
AcDbLine
 10
134.286032849605
 20
27.99999999999778
 30
0.0
 11
30.74763815480216
 21
27.99999999999994
 31
0.0
  0
SPLINE
  5
739
330
18
100
AcDbEntity
  8
0
100
AcDbSpline
210
0.0
220
0.0
230
1.0
 70
     8
 71
     3
 72
    14
 73
    10
 74
     0
 42
0.0000000001
 43
0.0000000001
 40
0.0
 40
0.0
 40
0.0
 40
0.0
 40
5.179166750682901
 40
11.42285243492422
 40
17.50305330370207
 40
25.87298197520917
 40
32.31302512706437
 40
38.49309829126706
 40
40.08837449939346
 40
40.08837449939346
 40
40.08837449939346
 40
40.08837449939346
 10
138.3487739092152
 20
27.56756889499411
 30
0.0
 10
140.0657115335161
 20
27.23809453778221
 30
0.0
 10
143.8524838207328
 20
26.51142610930833
 30
0.0
 10
149.5836653149165
 20
24.70732260223644
 30
0.0
 10
155.0896228465347
 20
20.17902890957742
 30
0.0
 10
159.2868730457491
 20
14.46841062069941
 30
0.0
 10
162.5295624798804
 20
8.033536882569592
 30
0.0
 10
162.9572831620515
 20
3.173789769327214
 30
0.0
 10
162.9972495629321
 20
0.539751677865894
 30
0.0
 10
163.0000000000001
 20
-0.0000000000027569
 30
0.0
  0
LINE
  5
73A
330
18
100
AcDbEntity
  8
0
100
AcDbLine
 10
138.3487739092152
 20
27.56756889499411
 30
0.0
 11
135.5347360828181
 21
27.92173070765977
 31
0.0
  0
ARC
  5
73B
330
18
100
AcDbEntity
  8
0
100
AcDbCircle
 10
134.2860328496048
 20
17.99999999999778
 30
0.0
 40
10.0
100
AcDbArc
 50
82.82673281880569
 51
89.99999999999884
  0
ARC
  5
73C
330
18
100
AcDbEntity
  8
0
100
AcDbCircle
 10
30.74763815480196
 20
17.99999999999994
 30
0.0
 40
10.0
100
AcDbArc
 50
89.99999999999884
 51
96.07383552616688
  0
LINE
  5
73D
330
18
100
AcDbEntity
  8
0
100
AcDbLine
 10
26.15317660351348
 20
27.56756889499644
 30
0.0
 11
29.68953825810501
 21
27.94386366603089
 31
0.0
  0
ENDSEC
  0
SECTION
  2
OBJECTS
  0
DICTIONARY
  5
C
330
0
100
AcDbDictionary
  3
ACAD_GROUP
350
D
  3
ACAD_IMAGE_DICT
350
21
  3
ACAD_IMAGE_VARS
350
20
  3
ACAD_LAYOUT
350
34C
  3
ACAD_MLINESTYLE
350
1B
  3
ACAD_PLOTSETTINGS
350
34D
  3
ACAD_PLOTSTYLENAME
350
34A
  3
ACDBHEADERROUNDTRIPXREC
350
7E2
  3
ACDBVARIABLEDICTIONARY
350
353
  0
DICTIONARY
  5
805
330
18
100
AcDbDictionary
280
     1
  3
ACAD_LAYOUTSELFREF
360
806
  0
DICTIONARY
  5
803
330
15
100
AcDbDictionary
280
     1
  3
ACAD_LAYOUTSELFREF
360
804
  0
DICTIONARY
  5
D
102
{ACAD_REACTORS
330
C
102
}
330
C
100
AcDbDictionary
  0
DICTIONARY
  5
21
102
{ACAD_REACTORS
330
C
102
}
330
C
100
AcDbDictionary
  0
RASTERVARIABLES
  5
20
102
{ACAD_REACTORS
330
C
102
}
330
C
100
AcDbRasterVariables
 90
        0
 70
     1
 71
     1
 72
     0
  0
DICTIONARY
  5
34C
102
{ACAD_REACTORS
330
C
102
}
330
C
100
AcDbDictionary
  0
DICTIONARY
  5
1B
102
{ACAD_REACTORS
330
C
102
}
330
C
100
AcDbDictionary
  3
STANDARD
350
1C
  0
DICTIONARY
  5
34D
102
{ACAD_REACTORS
330
C
102
}
330
C
100
AcDbDictionary
  0
ACDBDICTIONARYWDFLT
  5
34A
102
{ACAD_REACTORS
330
C
102
}
330
C
100
AcDbDictionary
281
     1
  3
Normal
350
34B
100
AcDbDictionaryWithDefault
340
34B
  0
DICTIONARY
  5
7E2
102
{ACAD_REACTORS
330
C
102
}
330
C
100
AcDbDictionary
  3
CEPSNTYPE
350
7EC
  3
DIMSTYLEDATA
350
7F0
  3
FINGERPRINTGUID
350
7ED
  3
HYPERLINKBASE
350
7E5
  3
INSUNITS
350
7EB
  3
LAYOUTDICT
350
7E7
  3
LWETCUNION
350
7EA
  3
PLOTSETDICT
350
7E8
  3
PLOTSTYLNAMDICT
350
7E9
  3
PSVPSCALE
350
7EF
  3
PUCSBASE
350
7F3
  3
PUCSORGBACK
350
7F9
  3
PUCSORGBOTTOM
350
7F5
  3
PUCSORGFRONT
350
7F8
  3
PUCSORGLEFT
350
7F6
  3
PUCSORGRIGHT
350
7F7
  3
PUCSORGTOP
350
7F4
  3
PUCSORTHOREF
350
7F1
  3
PUCSORTHOVIEW
350
7F2
  3
STYLESHEET
350
7E6
  3
TSTACKALIGN
350
7E3
  3
TSTACKSIZE
350
7E4
  3
UCSBASE
350
7FC
  3
UCSORGBACK
350
802
  3
UCSORGBOTTOM
350
7FE
  3
UCSORGFRONT
350
801
  3
UCSORGLEFT
350
7FF
  3
UCSORGRIGHT
350
800
  3
UCSORGTOP
350
7FD
  3
UCSORTHOREF
350
7FA
  3
UCSORTHOVIEW
350
7FB
  3
VERSIONGUID
350
7EE
  0
DICTIONARY
  5
353
102
{ACAD_REACTORS
330
C
102
}
330
C
100
AcDbDictionary
  3
DIMASSOC
350
354
  0
XRECORD
  5
806
102
{ACAD_REACTORS
330
805
102
}
330
805
100
AcDbXrecord
340
18
  0
XRECORD
  5
804
102
{ACAD_REACTORS
330
803
102
}
330
803
100
AcDbXrecord
340
15
  0
MLINESTYLE
  5
1C
102
{ACAD_REACTORS
330
1B
102
}
330
1B
100
AcDbMlineStyle
  2
STANDARD
 70
     0
  3

 62
   256
 51
90.0
 52
90.0
 71
     2
 49
0.5
 62
   256
  6
BYLAYER
 49
-0.5
 62
   256
  6
BYLAYER
  0
ACDBPLACEHOLDER
  5
34B
102
{ACAD_REACTORS
330
34A
102
}
330
34A
100
AcDbPlaceHolder
280
     0
  0
XRECORD
  5
7EC
102
{ACAD_REACTORS
330
7E2
102
}
330
7E2
100
AcDbXrecord
 90
        0
  0
XRECORD
  5
7F0
102
{ACAD_REACTORS
330
7E2
102
}
330
7E2
100
AcDbXrecord
1000
DSTYLE
1002
{
1070
    79
 70
     3
1070
   279
 70
     2
1070
   342
340
4BB
1002
}
  0
XRECORD
  5
7ED
102
{ACAD_REACTORS
330
7E2
102
}
330
7E2
100
AcDbXrecord
  1
{09FD3E7F-EBD2-4D58-A3C7-0BF60499D6DD}
  0
XRECORD
  5
7E5
102
{ACAD_REACTORS
330
7E2
102
}
330
7E2
100
AcDbXrecord
  1

  0
XRECORD
  5
7EB
102
{ACAD_REACTORS
330
7E2
102
}
330
7E2
100
AcDbXrecord
 90
        0
  0
XRECORD
  5
7E7
102
{ACAD_REACTORS
330
7E2
102
}
330
7E2
100
AcDbXrecord
340
34C
  0
XRECORD
  5
7EA
102
{ACAD_REACTORS
330
7E2
102
}
330
7E2
100
AcDbXrecord
 90
    14877
  0
XRECORD
  5
7E8
102
{ACAD_REACTORS
330
7E2
102
}
330
7E2
100
AcDbXrecord
340
34D
  0
XRECORD
  5
7E9
102
{ACAD_REACTORS
330
7E2
102
}
330
7E2
100
AcDbXrecord
340
34A
  0
XRECORD
  5
7EF
102
{ACAD_REACTORS
330
7E2
102
}
330
7E2
100
AcDbXrecord
 40
0.0
  0
XRECORD
  5
7F3
102
{ACAD_REACTORS
330
7E2
102
}
330
7E2
100
AcDbXrecord
340
0
  0
XRECORD
  5
7F9
102
{ACAD_REACTORS
330
7E2
102
}
330
7E2
100
AcDbXrecord
 10
0.0
 20
0.0
 30
0.0
  0
XRECORD
  5
7F5
102
{ACAD_REACTORS
330
7E2
102
}
330
7E2
100
AcDbXrecord
 10
0.0
 20
0.0
 30
0.0
  0
XRECORD
  5
7F8
102
{ACAD_REACTORS
330
7E2
102
}
330
7E2
100
AcDbXrecord
 10
0.0
 20
0.0
 30
0.0
  0
XRECORD
  5
7F6
102
{ACAD_REACTORS
330
7E2
102
}
330
7E2
100
AcDbXrecord
 10
0.0
 20
0.0
 30
0.0
  0
XRECORD
  5
7F7
102
{ACAD_REACTORS
330
7E2
102
}
330
7E2
100
AcDbXrecord
 10
0.0
 20
0.0
 30
0.0
  0
XRECORD
  5
7F4
102
{ACAD_REACTORS
330
7E2
102
}
330
7E2
100
AcDbXrecord
 10
0.0
 20
0.0
 30
0.0
  0
XRECORD
  5
7F1
102
{ACAD_REACTORS
330
7E2
102
}
330
7E2
100
AcDbXrecord
340
0
  0
XRECORD
  5
7F2
102
{ACAD_REACTORS
330
7E2
102
}
330
7E2
100
AcDbXrecord
 70
     0
  0
XRECORD
  5
7E6
102
{ACAD_REACTORS
330
7E2
102
}
330
7E2
100
AcDbXrecord
  1

  0
XRECORD
  5
7E3
102
{ACAD_REACTORS
330
7E2
102
}
330
7E2
100
AcDbXrecord
 90
        1
  0
XRECORD
  5
7E4
102
{ACAD_REACTORS
330
7E2
102
}
330
7E2
100
AcDbXrecord
 90
       70
  0
XRECORD
  5
7FC
102
{ACAD_REACTORS
330
7E2
102
}
330
7E2
100
AcDbXrecord
340
0
  0
XRECORD
  5
802
102
{ACAD_REACTORS
330
7E2
102
}
330
7E2
100
AcDbXrecord
 10
0.0
 20
0.0
 30
0.0
  0
XRECORD
  5
7FE
102
{ACAD_REACTORS
330
7E2
102
}
330
7E2
100
AcDbXrecord
 10
0.0
 20
0.0
 30
0.0
  0
XRECORD
  5
801
102
{ACAD_REACTORS
330
7E2
102
}
330
7E2
100
AcDbXrecord
 10
0.0
 20
0.0
 30
0.0
  0
XRECORD
  5
7FF
102
{ACAD_REACTORS
330
7E2
102
}
330
7E2
100
AcDbXrecord
 10
0.0
 20
0.0
 30
0.0
  0
XRECORD
  5
800
102
{ACAD_REACTORS
330
7E2
102
}
330
7E2
100
AcDbXrecord
 10
0.0
 20
0.0
 30
0.0
  0
XRECORD
  5
7FD
102
{ACAD_REACTORS
330
7E2
102
}
330
7E2
100
AcDbXrecord
 10
0.0
 20
0.0
 30
0.0
  0
XRECORD
  5
7FA
102
{ACAD_REACTORS
330
7E2
102
}
330
7E2
100
AcDbXrecord
340
0
  0
XRECORD
  5
7FB
102
{ACAD_REACTORS
330
7E2
102
}
330
7E2
100
AcDbXrecord
 70
     0
  0
XRECORD
  5
7EE
102
{ACAD_REACTORS
330
7E2
102
}
330
7E2
100
AcDbXrecord
  1
{1E63CED7-9D75-429A-BECB-B9E2CD44E695}
  0
DICTIONARYVAR
  5
354
102
{ACAD_REACTORS
330
353
102
}
330
353
100
DictionaryVariables
280
     0
  1
1
  0
ENDSEC
  0
EOF
