  0
SECTION
  2
HEADER
  9
$ACADVER
  1
AC1014
  9
$ACADMAINTVER
 70
     9
  9
$DWGCODEPAGE
  3
ANSI_1252
  9
$INSBASE
 10
0.0
 20
0.0
 30
0.0
  9
$EXTMIN
 10
-0.8999999999999852
 20
-40.9
 30
0.0
  9
$EXTMAX
 10
180.3341829719182
 20
54.76228563945969
 30
0.0
  9
$LIMMIN
 10
0.0
 20
0.0
  9
$LIMMAX
 10
420.0
 20
297.0
  9
$ORTHOMODE
 70
     1
  9
$REGENMODE
 70
     1
  9
$FILLMODE
 70
     1
  9
$QTEXTMODE
 70
     0
  9
$MIRRTEXT
 70
     1
  9
$DRAGMODE
 70
     2
  9
$LTSCALE
 40
1.0
  9
$OSMODE
 70
   167
  9
$ATTMODE
 70
     1
  9
$TEXTSIZE
 40
2.5
  9
$TRACEWID
 40
1.0
  9
$TEXTSTYLE
  7
STANDARD
  9
$CLAYER
  8
0
  9
$CELTYPE
  6
BYLAYER
  9
$CECOLOR
 62
   256
  9
$CELTSCALE
 40
1.0
  9
$DELOBJ
 70
     1
  9
$DISPSILH
 70
     0
  9
$DIMSCALE
 40
1.0
  9
$DIMASZ
 40
1.8
  9
$DIMEXO
 40
0.625
  9
$DIMDLI
 40
3.799999999999999
  9
$DIMRND
 40
0.0
  9
$DIMDLE
 40
0.0
  9
$DIMEXE
 40
1.8
  9
$DIMTP
 40
0.0
  9
$DIMTM
 40
0.0
  9
$DIMTXT
 40
3.0
  9
$DIMCEN
 40
0.9
  9
$DIMTSZ
 40
0.0
  9
$DIMTOL
 70
     0
  9
$DIMLIM
 70
     0
  9
$DIMTIH
 70
     0
  9
$DIMTOH
 70
     0
  9
$DIMSE1
 70
     0
  9
$DIMSE2
 70
     0
  9
$DIMTAD
 70
     1
  9
$DIMZIN
 70
    12
  9
$DIMBLK
  1
OBLIQUE
  9
$DIMASO
 70
     1
  9
$DIMSHO
 70
     1
  9
$DIMPOST
  1

  9
$DIMAPOST
  1

  9
$DIMALT
 70
     0
  9
$DIMALTD
 70
     2
  9
$DIMALTF
 40
25.4
  9
$DIMLFAC
 40
1.0
  9
$DIMTOFL
 70
     0
  9
$DIMTVP
 40
0.0
  9
$DIMTIX
 70
     0
  9
$DIMSOXD
 70
     0
  9
$DIMSAH
 70
     0
  9
$DIMBLK1
  1

  9
$DIMBLK2
  1

  9
$DIMSTYLE
  2
COTATION-JACOB-DELAFON
  9
$DIMCLRD
 70
     0
  9
$DIMCLRE
 70
     0
  9
$DIMCLRT
 70
     0
  9
$DIMTFAC
 40
1.0
  9
$DIMGAP
 40
0.9
  9
$DIMJUST
 70
     0
  9
$DIMSD1
 70
     0
  9
$DIMSD2
 70
     0
  9
$DIMTOLJ
 70
     1
  9
$DIMTZIN
 70
     0
  9
$DIMALTZ
 70
     0
  9
$DIMALTTZ
 70
     0
  9
$DIMFIT
 70
     5
  9
$DIMUPT
 70
     0
  9
$DIMUNIT
 70
     2
  9
$DIMDEC
 70
     2
  9
$DIMTDEC
 70
     2
  9
$DIMALTU
 70
     2
  9
$DIMALTTD
 70
     2
  9
$DIMTXSTY
  7
JACOB-DELAFON
  9
$DIMAUNIT
 70
     0
  9
$LUNITS
 70
     2
  9
$LUPREC
 70
     4
  9
$SKETCHINC
 40
1.0
  9
$FILLETRAD
 40
0.0
  9
$AUNITS
 70
     0
  9
$AUPREC
 70
     0
  9
$MENU
  1
.
  9
$ELEVATION
 40
0.0
  9
$PELEVATION
 40
0.0
  9
$THICKNESS
 40
0.0
  9
$LIMCHECK
 70
     0
  9
$BLIPMODE
 70
     0
  9
$CHAMFERA
 40
10.0
  9
$CHAMFERB
 40
10.0
  9
$CHAMFERC
 40
20.0
  9
$CHAMFERD
 40
0.0
  9
$SKPOLY
 70
     0
  9
$TDCREATE
 40
2451204.814370833
  9
$TDUPDATE
 40
2452285.677509456
  9
$TDINDWG
 40
0.1576827546
  9
$TDUSRTIMER
 40
0.1576827546
  9
$USRTIMER
 70
     1
  9
$ANGBASE
 50
0.0
  9
$ANGDIR
 70
     0
  9
$PDMODE
 70
     0
  9
$PDSIZE
 40
0.0
  9
$PLINEWID
 40
0.0
  9
$COORDS
 70
     0
  9
$SPLFRAME
 70
     0
  9
$SPLINETYPE
 70
     6
  9
$SPLINESEGS
 70
     8
  9
$ATTDIA
 70
     0
  9
$ATTREQ
 70
     1
  9
$HANDLING
 70
 22529
  9
$HANDSEED
  5
71D
  9
$SURFTAB1
 70
     6
  9
$SURFTAB2
 70
     6
  9
$SURFTYPE
 70
     6
  9
$SURFU
 70
     6
  9
$SURFV
 70
     6
  9
$UCSNAME
  2

  9
$UCSORG
 10
0.0
 20
0.0
 30
0.0
  9
$UCSXDIR
 10
1.0
 20
0.0
 30
0.0
  9
$UCSYDIR
 10
0.0
 20
1.0
 30
0.0
  9
$PUCSNAME
  2

  9
$PUCSORG
 10
0.0
 20
0.0
 30
0.0
  9
$PUCSXDIR
 10
1.0
 20
0.0
 30
0.0
  9
$PUCSYDIR
 10
0.0
 20
1.0
 30
0.0
  9
$USERI1
 70
     0
  9
$USERI2
 70
     0
  9
$USERI3
 70
     0
  9
$USERI4
 70
     0
  9
$USERI5
 70
     0
  9
$USERR1
 40
0.0
  9
$USERR2
 40
0.0
  9
$USERR3
 40
0.0
  9
$USERR4
 40
0.0
  9
$USERR5
 40
0.0
  9
$WORLDVIEW
 70
     1
  9
$SHADEDGE
 70
     3
  9
$SHADEDIF
 70
    70
  9
$TILEMODE
 70
     1
  9
$MAXACTVP
 70
    48
  9
$PINSBASE
 10
0.0
 20
0.0
 30
0.0
  9
$PLIMCHECK
 70
     0
  9
$PEXTMIN
 10
1.000000000000000E+20
 20
1.000000000000000E+20
 30
1.000000000000000E+20
  9
$PEXTMAX
 10
-1.000000000000000E+20
 20
-1.000000000000000E+20
 30
-1.000000000000000E+20
  9
$PLIMMIN
 10
0.0
 20
0.0
  9
$PLIMMAX
 10
420.0
 20
297.0
  9
$UNITMODE
 70
     0
  9
$VISRETAIN
 70
     1
  9
$PLINEGEN
 70
     0
  9
$PSLTSCALE
 70
     1
  9
$TREEDEPTH
 70
  3020
  9
$PICKSTYLE
 70
     1
  9
$CMLSTYLE
  2
STANDARD
  9
$CMLJUST
 70
     0
  9
$CMLSCALE
 40
20.0
  9
$PROXYGRAPHICS
 70
     1
  9
$MEASUREMENT
 70
     1
  0
ENDSEC
  0
SECTION
  2
CLASSES
  0
CLASS
  1
LWPOLYLINE
  2
AcDbPolyline
  3
AutoCAD 2000
 90
        0
280
     0
281
     1
  0
CLASS
  1
RASTERVARIABLES
  2
AcDbRasterVariables
  3
ISM
 90
        0
280
     0
281
     0
  0
CLASS
  1
IMAGEDEF
  2
AcDbRasterImageDef
  3
ISM
 90
        0
280
     0
281
     0
  0
CLASS
  1
IMAGEDEF_REACTOR
  2
AcDbRasterImageDefReactor
  3
ISM
 90
        1
280
     0
281
     0
  0
CLASS
  1
IMAGE
  2
AcDbRasterImage
  3
ISM
 90
      127
280
     0
281
     1
  0
CLASS
  1
ACDBDICTIONARYWDFLT
  2
AcDbDictionaryWithDefault
  3
AutoCAD 2000
 90
        0
280
     0
281
     0
  0
CLASS
  1
ACDBPLACEHOLDER
  2
AcDbPlaceHolder
  3
AutoCAD 2000
 90
        0
280
     0
281
     0
  0
CLASS
  1
LAYOUT
  2
AcDbLayout
  3
AutoCAD 2000
 90
        0
280
     0
281
     0
  0
CLASS
  1
DICTIONARYVAR
  2
AcDbDictionaryVar
  3
AutoCAD 2000
 90
        0
280
     0
281
     0
  0
CLASS
  1
LONG_TRANSACTION
  2
AcDbLongTransaction
  3
AutoCAD 2000
 90
        0
280
     0
281
     0
  0
CLASS
  1
LWPOLYLINE
  2
AcDbPolyline
  3
AutoCAD 2000
 90
        0
280
     0
281
     1
  0
CLASS
  1
HATCH
  2
AcDbHatch
  3
AutoCAD 2000
 90
        0
280
     0
281
     1
  0
CLASS
  1
XRECORD
  2
AcDbXrecord
  3
AutoCAD 2000
 90
        0
280
     0
281
     0
  0
ENDSEC
  0
SECTION
  2
TABLES
  0
TABLE
  2
VPORT
  5
8
330
0
100
AcDbSymbolTable
 70
     3
  0
VPORT
  5
6F7
330
8
100
AcDbSymbolTableRecord
100
AcDbViewportTableRecord
  2
*ACTIVE
 70
     0
 10
0.0
 20
0.0
 11
1.0
 21
1.0
 12
89.71173263250083
 22
8.181519073462474
 13
0.0
 23
0.0
 14
10.0
 24
10.0
 15
10.0
 25
10.0
 16
0.0
 26
0.0
 36
1.0
 17
0.0
 27
0.0
 37
0.0
 40
125.7048522307371
 41
1.828516377649325
 42
50.0
 43
0.0
 44
0.0
 50
0.0
 51
0.0
 71
     0
 72
   100
 73
     1
 74
     1
 75
     0
 76
     0
 77
     0
 78
     0
  0
ENDTAB
  0
TABLE
  2
LTYPE
  5
5
330
0
100
AcDbSymbolTable
 70
     1
  0
LTYPE
  5
12
330
5
100
AcDbSymbolTableRecord
100
AcDbLinetypeTableRecord
  2
BYBLOCK
 70
     0
  3

 72
    65
 73
     0
 40
0.0
  0
LTYPE
  5
13
330
5
100
AcDbSymbolTableRecord
100
AcDbLinetypeTableRecord
  2
BYLAYER
 70
     0
  3

 72
    65
 73
     0
 40
0.0
  0
LTYPE
  5
14
330
5
100
AcDbSymbolTableRecord
100
AcDbLinetypeTableRecord
  2
CONTINUOUS
 70
     0
  3
Solid line
 72
    65
 73
     0
 40
0.0
  0
ENDTAB
  0
TABLE
  2
LAYER
  5
2
330
0
100
AcDbSymbolTable
 70
     3
  0
LAYER
  5
E
330
2
100
AcDbSymbolTableRecord
100
AcDbLayerTableRecord
  2
0
 70
     0
 62
   255
  6
CONTINUOUS
  0
LAYER
  5
270
330
2
100
AcDbSymbolTableRecord
100
AcDbLayerTableRecord
  2
DEFPOINTS
 70
     0
 62
     7
  6
CONTINUOUS
  0
LAYER
  5
4AD
330
2
100
AcDbSymbolTableRecord
100
AcDbLayerTableRecord
  2
COTATION-JACOBDELAFON
 70
     0
 62
     8
  6
CONTINUOUS
  0
ENDTAB
  0
TABLE
  2
STYLE
  5
3
330
0
100
AcDbSymbolTable
 70
     2
  0
STYLE
  5
F
330
3
100
AcDbSymbolTableRecord
100
AcDbTextStyleTableRecord
  2
STANDARD
 70
     0
 40
0.0
 41
1.0
 50
0.0
 71
     0
 42
2.5
  3
txt
  4

  0
STYLE
  5
4AE
330
3
100
AcDbSymbolTableRecord
100
AcDbTextStyleTableRecord
  2
JACOB-DELAFON
 70
     0
 40
0.0
 41
1.0
 50
0.0
 71
     0
 42
2.5
  3
ARIAL.TTF
  4

1001
ACAD
1000
Arial
1071
       34
  0
ENDTAB
  0
TABLE
  2
VIEW
  5
6
330
0
100
AcDbSymbolTable
 70
     0
  0
ENDTAB
  0
TABLE
  2
UCS
  5
7
330
0
100
AcDbSymbolTable
 70
     0
  0
ENDTAB
  0
TABLE
  2
APPID
  5
9
330
0
100
AcDbSymbolTable
 70
     2
  0
APPID
  5
10
330
9
100
AcDbSymbolTableRecord
100
AcDbRegAppTableRecord
  2
ACAD
 70
     0
  0
APPID
  5
4B0
330
9
100
AcDbSymbolTableRecord
100
AcDbRegAppTableRecord
  2
PE_URL
 70
     0
  0
ENDTAB
  0
TABLE
  2
DIMSTYLE
  5
A
330
0
100
AcDbSymbolTable
 70
     2
  0
DIMSTYLE
105
1D
330
A
100
AcDbSymbolTableRecord
100
AcDbDimStyleTableRecord
  2
STANDARD
 70
     0
  3

  4

  5

  6

  7

 40
1.0
 41
0.18
 42
0.0625
 43
0.38
 44
0.18
 45
0.0
 46
0.0
 47
0.0
 48
0.0
140
0.18
141
0.09
142
0.0
143
25.4
144
1.0
145
0.0
146
1.0
147
0.09
 71
     0
 72
     0
 73
     1
 74
     1
 75
     0
 76
     0
 77
     0
 78
     0
170
     0
171
     2
172
     0
173
     0
174
     0
175
     0
176
     0
177
     0
178
     0
270
     2
271
     4
272
     4
273
     2
274
     2
340
F
275
     0
280
     0
281
     0
282
     0
283
     1
284
     0
285
     0
286
     0
287
     3
288
     0
  0
DIMSTYLE
105
4AF
102
{ACAD_REACTORS
330
5A0
330
5AD
102
}
330
A
100
AcDbSymbolTableRecord
100
AcDbDimStyleTableRecord
  2
COTATION-JACOB-DELAFON
 70
     0
  3

  4

  5
OBLIQUE
  6

  7

 40
1.0
 41
1.8
 42
0.625
 43
3.799999999999999
 44
1.8
 45
0.0
 46
0.0
 47
0.0
 48
0.0
140
3.0
141
0.9
142
0.0
143
25.4
144
1.0
145
0.0
146
1.0
147
0.9
 71
     0
 72
     0
 73
     0
 74
     0
 75
     0
 76
     0
 77
     1
 78
    12
170
     0
171
     2
172
     0
173
     0
174
     0
175
     0
176
     0
177
     0
178
     0
270
     2
271
     2
272
     2
273
     2
274
     2
340
4AE
275
     0
280
     0
281
     0
282
     0
283
     1
284
     0
285
     0
286
     0
287
     5
288
     0
  0
ENDTAB
  0
TABLE
  2
BLOCK_RECORD
  5
1
330
0
100
AcDbSymbolTable
 70
     3
  0
BLOCK_RECORD
  5
18
102
{ACAD_XDICTIONARY
360
71B
102
}
330
1
100
AcDbSymbolTableRecord
100
AcDbBlockTableRecord
  2
*MODEL_SPACE
  0
BLOCK_RECORD
  5
15
102
{ACAD_XDICTIONARY
360
719
102
}
330
1
100
AcDbSymbolTableRecord
100
AcDbBlockTableRecord
  2
*PAPER_SPACE
  0
BLOCK_RECORD
  5
491
330
1
100
AcDbSymbolTableRecord
100
AcDbBlockTableRecord
  2
_OBLIQUE
  0
BLOCK_RECORD
  5
5A1
330
1
100
AcDbSymbolTableRecord
100
AcDbBlockTableRecord
  2
*D1
  0
BLOCK_RECORD
  5
5AE
330
1
100
AcDbSymbolTableRecord
100
AcDbBlockTableRecord
  2
*D2
  0
ENDTAB
  0
ENDSEC
  0
SECTION
  2
BLOCKS
  0
BLOCK
  5
19
330
18
100
AcDbEntity
  8
0
100
AcDbBlockBegin
  2
*MODEL_SPACE
 70
     0
 10
0.0
 20
0.0
 30
0.0
  3
*MODEL_SPACE
  1

  0
ENDBLK
  5
1A
330
18
100
AcDbEntity
  8
0
100
AcDbBlockEnd
  0
BLOCK
  5
16
330
15
100
AcDbEntity
 67
     1
  8
0
100
AcDbBlockBegin
  2
*PAPER_SPACE
 70
     0
 10
0.0
 20
0.0
 30
0.0
  3
*PAPER_SPACE
  1

  0
ENDBLK
  5
17
330
15
100
AcDbEntity
 67
     1
  8
0
100
AcDbBlockEnd
  0
BLOCK
  5
493
330
491
100
AcDbEntity
  8
0
100
AcDbBlockBegin
  2
_OBLIQUE
 70
     0
 10
0.0
 20
0.0
 30
0.0
  3
_OBLIQUE
  1

  0
LINE
  5
492
330
491
100
AcDbEntity
  8
0
  6
BYBLOCK
 62
     0
100
AcDbLine
 10
-0.5
 20
-0.5
 30
0.0
 11
0.5
 21
0.5
 31
0.0
  0
ENDBLK
  5
494
330
491
100
AcDbEntity
  8
0
100
AcDbBlockEnd
  0
BLOCK
  5
5AB
330
5A1
100
AcDbEntity
  8
0
100
AcDbBlockBegin
  2
*D1
 70
     1
 10
0.0
 20
0.0
 30
0.0
  3
*D1
  1

  0
LINE
  5
6A5
330
5A1
100
AcDbEntity
  8
COTATION-JACOBDELAFON
 62
     0
100
AcDbLine
 10
170.0
 20
40.76388888888888
 30
0.0
 11
170.0
 21
51.81098959580349
 31
0.0
  0
LINE
  5
6A6
330
5A1
100
AcDbEntity
  8
COTATION-JACOBDELAFON
 62
     0
100
AcDbLine
 10
0.0000000000000142
 20
40.625
 30
0.0
 11
0.0000000000000149
 21
51.81098959580349
 31
0.0
  0
LINE
  5
6A7
330
5A1
100
AcDbEntity
  8
COTATION-JACOBDELAFON
 62
     0
100
AcDbLine
 10
170.0
 20
50.0109895958035
 30
0.0
 11
0.0000000000000148
 21
50.0109895958035
 31
0.0
  0
INSERT
  5
6A8
330
5A1
100
AcDbEntity
  8
COTATION-JACOBDELAFON
 62
     0
100
AcDbBlockReference
  2
_OBLIQUE
 10
170.0
 20
50.0109895958035
 30
0.0
 41
1.8
 42
1.8
 43
1.8
  0
INSERT
  5
6A9
330
5A1
100
AcDbEntity
  8
COTATION-JACOBDELAFON
 62
     0
100
AcDbBlockReference
  2
_OBLIQUE
 10
0.0000000000000148
 20
50.0109895958035
 30
0.0
 41
1.8
 42
1.8
 43
1.8
 50
180.0
  0
MTEXT
  5
6AA
330
5A1
100
AcDbEntity
  8
COTATION-JACOBDELAFON
 62
     0
100
AcDbMText
 10
85.00000000000001
 20
52.44270855896857
 30
0.0
 40
3.0
 41
0.0
 71
     5
 72
     1
  1
\A1;170
  7
JACOB-DELAFON
1001
ACAD
1000
MTEXTBEGIN
1070
    73
1070
     1
1070
    44
1040
1.0
1070
    74
1070
     0
1000
MTEXTEND
  0
POINT
  5
6AB
330
5A1
100
AcDbEntity
  8
DEFPOINTS
 62
     0
100
AcDbPoint
 10
170.0
 20
40.13888888888888
 30
0.0
  0
POINT
  5
6AC
330
5A1
100
AcDbEntity
  8
DEFPOINTS
 62
     0
100
AcDbPoint
 10
0.0000000000000142
 20
40.0
 30
0.0
  0
POINT
  5
6AD
330
5A1
100
AcDbEntity
  8
DEFPOINTS
 62
     0
100
AcDbPoint
 10
0.0000000000000148
 20
50.0109895958035
 30
0.0
  0
ENDBLK
  5
5AC
330
5A1
100
AcDbEntity
  8
0
100
AcDbBlockEnd
  0
BLOCK
  5
5B8
330
5AE
100
AcDbEntity
  8
0
100
AcDbBlockBegin
  2
*D2
 70
     1
 10
0.0
 20
0.0
 30
0.0
  3
*D2
  1

  0
LINE
  5
6AE
330
5AE
100
AcDbEntity
  8
COTATION-JACOBDELAFON
 62
     0
100
AcDbLine
 10
170.625
 20
40.0
 30
0.0
 11
180.3341829719182
 21
39.99999999999999
 31
0.0
  0
LINE
  5
6AF
330
5AE
100
AcDbEntity
  8
COTATION-JACOBDELAFON
 62
     0
100
AcDbLine
 10
170.625
 20
-40.0
 30
0.0
 11
180.3341829719182
 21
-40.0
 31
0.0
  0
LINE
  5
6B0
330
5AE
100
AcDbEntity
  8
COTATION-JACOBDELAFON
 62
     0
100
AcDbLine
 10
178.5341829719182
 20
39.99999999999999
 30
0.0
 11
178.5341829719182
 21
-40.0
 31
0.0
  0
INSERT
  5
6B1
330
5AE
100
AcDbEntity
  8
COTATION-JACOBDELAFON
 62
     0
100
AcDbBlockReference
  2
_OBLIQUE
 10
178.5341829719182
 20
39.99999999999999
 30
0.0
 41
1.8
 42
1.8
 43
1.8
 50
90.0
  0
INSERT
  5
6B2
330
5AE
100
AcDbEntity
  8
COTATION-JACOBDELAFON
 62
     0
100
AcDbBlockReference
  2
_OBLIQUE
 10
178.5341829719182
 20
-40.0
 30
0.0
 41
1.8
 42
1.8
 43
1.8
 50
270.0
  0
MTEXT
  5
6B3
330
5AE
100
AcDbEntity
  8
COTATION-JACOBDELAFON
 62
     0
100
AcDbMText
 10
176.1024640087531
 20
0.0000000000000249
 30
0.0
 40
3.0
 41
0.0
 71
     5
 72
     1
  1
\A1;80
  7
JACOB-DELAFON
 11
0.0000000000000001
 21
1.0
 31
0.0
1001
ACAD
1000
MTEXTBEGIN
1070
    73
1070
     1
1070
    44
1040
1.0
1070
    74
1070
     0
1000
MTEXTEND
  0
POINT
  5
6B4
330
5AE
100
AcDbEntity
  8
DEFPOINTS
 62
     0
100
AcDbPoint
 10
170.0
 20
40.0
 30
0.0
  0
POINT
  5
6B5
330
5AE
100
AcDbEntity
  8
DEFPOINTS
 62
     0
100
AcDbPoint
 10
170.0
 20
-40.0
 30
0.0
  0
POINT
  5
6B6
330
5AE
100
AcDbEntity
  8
DEFPOINTS
 62
     0
100
AcDbPoint
 10
178.5341829719182
 20
-40.0
 30
0.0
  0
ENDBLK
  5
5B9
330
5AE
100
AcDbEntity
  8
0
100
AcDbBlockEnd
  0
ENDSEC
  0
SECTION
  2
ENTITIES
  0
SPLINE
  5
24A
330
18
100
AcDbEntity
  8
0
100
AcDbSpline
210
0.0
220
0.0
230
1.0
 70
     8
 71
     3
 72
    14
 73
    10
 74
     0
 42
0.0000000001
 43
0.0000000001
 40
1.792049978285959
 40
1.792049978285959
 40
1.792049978285959
 40
1.792049978285959
 40
4.79357964866207
 40
11.36757747202056
 40
13.96549176484355
 40
15.82622375223103
 40
19.03743788295755
 40
23.56479417446801
 40
27.58328531157524
 40
27.58328531157524
 40
27.58328531157524
 40
27.58328531157524
 10
165.6456635090082
 20
-0.0000000000000191
 30
0.0
 10
165.5782272488182
 20
2.300912348103397
 30
0.0
 10
164.834367357952
 20
9.661701933911089
 30
0.0
 10
165.0300933563498
 20
19.18381500303204
 30
0.0
 10
161.5332166959485
 20
27.09770758733303
 30
0.0
 10
156.7952609761602
 20
31.16209534647472
 30
0.0
 10
148.9545561728965
 20
30.25433421399435
 30
0.0
 10
140.1685136289919
 20
31.88378554082001
 30
0.0
 10
133.5931767694715
 20
32.1388512247462
 30
0.0
 10
130.4980838790234
 20
32.24776108585034
 30
0.0
  0
SPLINE
  5
24B
330
18
100
AcDbEntity
  8
0
100
AcDbSpline
210
0.0
220
0.0
230
1.0
 70
     8
 71
     3
 72
    13
 73
     9
 74
     0
 42
0.0000000001
 43
0.0000000001
 40
1.784534210856077
 40
1.784534210856077
 40
1.784534210856077
 40
1.784534210856077
 40
4.791374990086865
 40
8.867167413858926
 40
12.28479315512394
 40
13.85587447502989
 40
15.48073147689809
 40
16.50860187564317
 40
16.50860187564317
 40
16.50860187564317
 40
16.50860187564317
 10
157.1865718788179
 20
-0.0000000000000191
 30
0.0
 10
157.2087062155258
 20
2.312170266228609
 30
0.0
 10
157.2491650571204
 20
7.757476114106367
 30
0.0
 10
156.6140211150391
 20
15.76924630722802
 30
0.0
 10
155.7149577669669
 20
22.79765649360125
 30
0.0
 10
153.0288423280604
 20
27.26678506595216
 30
0.0
 10
149.9571624028469
 20
28.90536885437271
 30
0.0
 10
147.8389040839631
 20
28.72047669758956
 30
0.0
 10
147.1066090316042
 20
29.01615839297724
 30
0.0
  0
SPLINE
  5
24C
330
18
100
AcDbEntity
  8
0
100
AcDbSpline
210
0.0
220
0.0
230
1.0
 70
     8
 71
     3
 72
    22
 73
    18
 74
     0
 42
0.0000000001
 43
0.0000000001
 40
0.9180135720971563
 40
0.9180135720971563
 40
0.9180135720971563
 40
0.9180135720971563
 40
4.068008128176244
 40
7.868137383628142
 40
9.622871437145965
 40
11.26652386594539
 40
12.92381766389692
 40
15.54443566820766
 40
20.63225580735259
 40
33.13375493889482
 40
40.69837496448685
 40
48.99569367446961
 40
55.26160136505608
 40
57.03000034124748
 40
59.17573465763744
 40
61.71191018261987
 40
68.94165298461827
 40
68.94165298461827
 40
68.94165298461827
 40
68.94165298461827
 10
134.5329912086794
 20
-0.0000000000000058
 30
0.0
 10
134.6841769072998
 20
2.411301684075702
 30
0.0
 10
134.7929614442751
 20
7.739318148226324
 30
0.0
 10
134.4806375418563
 20
14.54642062038927
 30
0.0
 10
132.27513123291
 20
19.67244071348356
 30
0.0
 10
129.5409637991619
 20
22.68093540450757
 30
0.0
 10
124.8902917903054
 20
23.67251660456017
 30
0.0
 10
117.7622240983704
 20
22.55142872833043
 30
0.0
 10
102.1844307697277
 20
23.43098285548254
 30
0.0
 10
82.88382431076557
 20
22.54031703019654
 30
0.0
 10
61.09401229817359
 20
23.81810051856736
 30
0.0
 10
44.14493314535088
 20
24.05692135495624
 30
0.0
 10
31.55767085982118
 20
26.2599132189649
 30
0.0
 10
23.85185191986708
 20
25.1393415471668
 30
0.0
 10
18.97229926962539
 20
22.97038956441676
 30
0.0
 10
16.19148984813061
 20
13.58489172064665
 30
0.0
 10
16.12591962474026
 20
6.183367201731089
 30
0.0
 10
16.31926055665049
 20
0.6558719928257815
 30
0.0
  0
SPLINE
  5
24D
330
18
100
AcDbEntity
  8
0
100
AcDbSpline
210
0.0
220
0.0
230
1.0
 70
     8
 71
     3
 72
    12
 73
     8
 74
     0
 42
0.0000000001
 43
0.0000000001
 40
0.0
 40
0.0
 40
0.0
 40
0.0
 40
1.954416822632142
 40
3.385827505666141
 40
9.101404218478508
 40
18.01143672977906
 40
20.07750498207575
 40
20.07750498207575
 40
20.07750498207575
 40
20.07750498207575
 10
136.0494738259496
 20
23.66150456558926
 30
0.0
 10
135.6918831285771
 20
25.11992898505184
 30
0.0
 10
133.4171535853859
 20
27.01609295885516
 30
0.0
 10
127.0452331193602
 20
29.68620647540769
 30
0.0
 10
114.3316240206927
 20
29.77510441123301
 30
0.0
 10
101.7869974541985
 20
31.83093559164784
 30
0.0
 10
93.3382275385189
 20
32.20290419344912
 30
0.0
 10
91.7460054342812
 20
32.25014461291296
 30
0.0
  0
SPLINE
  5
24E
330
18
100
AcDbEntity
  8
0
100
AcDbSpline
210
0.0
220
0.0
230
1.0
 70
     8
 71
     3
 72
    16
 73
    12
 74
     0
 42
0.0000000001
 43
0.0000000001
 40
0.3281434484788809
 40
0.3281434484788809
 40
0.3281434484788809
 40
0.3281434484788809
 40
1.224358563157152
 40
2.502024758892879
 40
2.844114196038004
 40
3.409856319926415
 40
6.067963796682374
 40
6.245182922569176
 40
6.581184763110368
 40
7.265916946465317
 40
8.885376249304041
 40
8.885376249304041
 40
8.885376249304041
 40
8.885376249304041
 10
92.09935163736922
 20
34.25084810779064
 30
0.0
 10
91.94249351083795
 20
33.11547093307082
 30
0.0
 10
91.58905430787909
 20
31.48492973041955
 30
0.0
 10
91.04659960403601
 20
29.61014601678877
 30
0.0
 10
90.02793691721274
 20
28.20771739342765
 30
0.0
 10
87.22147878641109
 20
27.51425429088504
 30
0.0
 10
84.69551018252364
 20
27.62371748660607
 30
0.0
 10
82.2037371919721
 20
28.03133154767609
 30
0.0
 10
81.7153405506615
 20
28.9701821993945
 30
0.0
 10
82.17046681254979
 20
30.99884628258959
 30
0.0
 10
82.79218882287258
 20
32.64681498075765
 30
0.0
 10
83.15905402577861
 20
34.45053415487572
 30
0.0
  0
SPLINE
  5
24F
330
18
100
AcDbEntity
  8
0
100
AcDbSpline
210
0.0
220
0.0
230
1.0
 70
     8
 71
     3
 72
    22
 73
    18
 74
     0
 42
0.0000000001
 43
0.0000000001
 40
24.00826839880123
 40
24.00826839880123
 40
24.00826839880123
 40
24.00826839880123
 40
25.13586300713596
 40
33.85904679981379
 40
41.73221266323796
 40
47.38505869038623
 40
49.72467587866559
 40
50.13787950460632
 40
51.39276420650993
 40
54.06821274700322
 40
61.6062008059239
 40
71.66271166103084
 40
83.88124333259153
 40
93.76614969516273
 40
95.80127775082083
 40
96.84825404539921
 40
98.93463118366145
 40
98.93463118366145
 40
98.93463118366145
 40
98.93463118366145
 10
82.67356864835146
 20
32.35469345890467
 30
0.0
 10
81.81093567626309
 20
32.35676989377076
 30
0.0
 10
74.29570231754592
 20
32.3747692234038
 30
0.0
 10
61.21706183139659
 20
32.67155190042403
 30
0.0
 10
41.8873912737405
 20
33.10086578711387
 30
0.0
 10
34.62663021477381
 20
32.1633813560565
 30
0.0
 10
21.76001688284979
 20
32.4743922877729
 30
0.0
 10
25.01055427987519
 20
30.90509470236028
 30
0.0
 10
28.1616292984094
 20
30.56016092193513
 30
0.0
 10
37.12185184205869
 20
30.12213855048824
 30
0.0
 10
52.48014017468675
 20
28.34340350520076
 30
0.0
 10
75.40215323172812
 20
26.80809481324305
 30
0.0
 10
100.0405629389281
 20
25.7804158239777
 30
0.0
 10
118.6925410320129
 20
26.07521214541996
 30
0.0
 10
128.552711584328
 20
25.96953876026371
 30
0.0
 10
132.6523587314482
 20
26.09157343128341
 30
0.0
 10
134.4829647367883
 20
24.00164476687715
 30
0.0
 10
136.0494738259496
 20
23.66150456558926
 30
0.0
  0
SPLINE
  5
252
330
18
100
AcDbEntity
  8
0
100
AcDbSpline
210
0.0
220
0.0
230
1.0
 70
     8
 71
     3
 72
     8
 73
     4
 74
     0
 42
0.0000000001
 43
0.0000000001
 40
90.81929636751571
 40
90.81929636751571
 40
90.81929636751571
 40
90.81929636751571
 40
91.13295609767906
 40
91.13295609767906
 40
91.13295609767906
 40
91.13295609767906
 10
10.69013444333107
 20
-0.000000000000274
 30
0.0
 10
10.69154561461969
 20
0.2394288644326603
 30
0.0
 10
10.69356902589426
 20
0.4788883262114086
 30
0.0
 10
10.69622807865646
 20
0.7183915008180071
 30
0.0
  0
CIRCLE
  5
259
330
18
100
AcDbEntity
  8
0
100
AcDbCircle
 10
28.72571737957658
 20
-0.0000000000000036
 30
0.0
 40
3.555001411553852
  0
ELLIPSE
  5
25A
330
18
100
AcDbEntity
  8
0
100
AcDbEllipse
 10
13.69450280480633
 20
-0.4549483681726131
 30
0.0
 11
0.0
 21
-2.653623636441578
 31
0.0
210
0.0
220
0.0
230
-1.0
 40
0.5149461966295205
 41
0.0
 42
6.283185307179586
  0
LINE
  5
460
330
18
100
AcDbEntity
  8
0
100
AcDbLine
 10
170.0
 20
40.0
 30
0.0
 11
0.0000000000000142
 21
40.0
 31
0.0
  0
LINE
  5
461
330
18
100
AcDbEntity
  8
0
100
AcDbLine
 10
0.0000000000000142
 20
40.0
 30
0.0
 11
-0.0000000000000142
 21
-40.0
 31
0.0
  0
LINE
  5
463
330
18
100
AcDbEntity
  8
0
100
AcDbLine
 10
170.0
 20
-40.0
 30
0.0
 11
170.0
 21
40.0
 31
0.0
  0
DIMENSION
  5
5A0
330
18
100
AcDbEntity
  8
COTATION-JACOBDELAFON
100
AcDbDimension
  2
*D1
 10
0.0000000000000148
 20
50.0109895958035
 30
0.0
 11
85.00000000000001
 21
52.44270855896857
 31
0.0
 70
    32
  3
COTATION-JACOB-DELAFON
100
AcDbAlignedDimension
 13
170.0
 23
40.13888888888888
 33
0.0
 14
0.0000000000000142
 24
40.0
 34
0.0
 50
180.0
100
AcDbRotatedDimension
  0
DIMENSION
  5
5AD
330
18
100
AcDbEntity
  8
COTATION-JACOBDELAFON
100
AcDbDimension
  2
*D2
 10
178.5341829719182
 20
-40.0
 30
0.0
 11
176.1024640087531
 21
0.0000000000000249
 31
0.0
 70
    32
  3
COTATION-JACOB-DELAFON
100
AcDbAlignedDimension
 13
170.0
 23
40.0
 33
0.0
 14
170.0
 24
-40.0
 34
0.0
 50
90.0
100
AcDbRotatedDimension
  0
SPLINE
  5
5E9
330
18
100
AcDbEntity
  8
0
100
AcDbSpline
210
0.0
220
0.0
230
1.0
 70
     8
 71
     3
 72
     8
 73
     4
 74
     0
 42
0.0000000001
 43
0.0000000001
 40
68.65532664989856
 40
68.65532664989856
 40
68.65532664989856
 40
68.65532664989856
 40
68.94165298461827
 40
68.94165298461827
 40
68.94165298461827
 40
68.94165298461827
 10
16.28289611241489
 20
-0.0000000000000058
 30
0.0
 10
16.29459658666347
 20
0.2185665166045703
 30
0.0
 10
16.30673808622025
 20
0.4371857432963724
 30
0.0
 10
16.31926055665032
 20
0.6558719928256203
 30
0.0
  0
ARC
  5
5EA
330
18
100
AcDbEntity
  8
0
100
AcDbCircle
 10
69.34889425368772
 20
-784.0910653310293
 30
0.0
 40
818.6580913921723
100
AcDbArc
 50
85.65925495517507
 51
92.87507711485545
  0
SPLINE
  5
5F1
330
18
100
AcDbEntity
  8
0
100
AcDbSpline
210
0.0
220
0.0
230
1.0
 70
     8
 71
     3
 72
    13
 73
     9
 74
     0
 42
0.0000000001
 43
0.0000000001
 40
68.60413438747094
 40
68.60413438747094
 40
68.60413438747094
 40
68.60413438747094
 40
74.76344115554443
 40
76.38862343713083
 40
78.13814562477027
 40
79.50835389150523
 40
83.21023870799784
 40
91.13295609767906
 40
91.13295609767906
 40
91.13295609767906
 40
91.13295609767906
 10
33.92024904111117
 20
33.7359055435203
 30
0.0
 10
28.48371699625651
 20
33.55981442937404
 30
0.0
 10
21.99989662524329
 20
33.28206624112697
 30
0.0
 10
17.82318487399943
 20
33.11560596890819
 30
0.0
 10
15.16460990205494
 20
30.29591670280124
 30
0.0
 10
12.30908100983863
 20
25.89203753253665
 30
0.0
 10
11.45640531347736
 20
15.59011762777417
 30
0.0
 10
10.76358773261397
 20
6.767989535458145
 30
0.0
 10
10.69622807865663
 20
0.7183915008179263
 30
0.0
  0
LINE
  5
64A
330
18
100
AcDbEntity
  8
0
100
AcDbLine
 10
-0.0000000000000142
 20
-40.0
 30
0.0
 11
170.0
 21
-40.0
 31
0.0
  0
ARC
  5
665
330
18
100
AcDbEntity
  8
0
100
AcDbCircle
 10
69.34889425368772
 20
784.0910653310293
 30
0.0
 40
818.6580913921723
100
AcDbArc
 50
267.1249228851445
 51
274.3407450448249
  0
SPLINE
  5
666
330
18
100
AcDbEntity
  8
0
100
AcDbSpline
210
0.0
220
0.0
230
1.0
 70
     8
 71
     3
 72
    22
 73
    18
 74
     0
 42
0.0000000001
 43
0.0000000001
 40
0.9180135720971563
 40
0.9180135720971563
 40
0.9180135720971563
 40
0.9180135720971563
 40
4.068008128176244
 40
7.868137383628142
 40
9.622871437145965
 40
11.26652386594539
 40
12.92381766389692
 40
15.54443566820766
 40
20.63225580735259
 40
33.13375493889482
 40
40.69837496448685
 40
48.99569367446961
 40
55.26160136505608
 40
57.03000034124748
 40
59.17573465763744
 40
61.71191018261987
 40
68.94165298461827
 40
68.94165298461827
 40
68.94165298461827
 40
68.94165298461827
 10
134.5329912086794
 20
-0.0000000000000013
 30
0.0
 10
134.6841769072998
 20
-2.411301684075709
 30
0.0
 10
134.7929614442751
 20
-7.739318148226331
 30
0.0
 10
134.4806375418563
 20
-14.54642062038928
 30
0.0
 10
132.27513123291
 20
-19.67244071348356
 30
0.0
 10
129.5409637991619
 20
-22.68093540450758
 30
0.0
 10
124.8902917903054
 20
-23.67251660456018
 30
0.0
 10
117.7622240983704
 20
-22.55142872833043
 30
0.0
 10
102.1844307697277
 20
-23.43098285548255
 30
0.0
 10
82.88382431076557
 20
-22.54031703019655
 30
0.0
 10
61.09401229817359
 20
-23.81810051856737
 30
0.0
 10
44.14493314535088
 20
-24.05692135495625
 30
0.0
 10
31.55767085982118
 20
-26.25991321896491
 30
0.0
 10
23.85185191986708
 20
-25.13934154716681
 30
0.0
 10
18.97229926962539
 20
-22.97038956441677
 30
0.0
 10
16.19148984813061
 20
-13.58489172064665
 30
0.0
 10
16.12591962474026
 20
-6.183367201731096
 30
0.0
 10
16.31926055665049
 20
-0.6558719928257886
 30
0.0
  0
SPLINE
  5
667
330
18
100
AcDbEntity
  8
0
100
AcDbSpline
210
0.0
220
0.0
230
1.0
 70
     8
 71
     3
 72
    12
 73
     8
 74
     0
 42
0.0000000001
 43
0.0000000001
 40
0.0
 40
0.0
 40
0.0
 40
0.0
 40
1.954416822632142
 40
3.385827505666141
 40
9.101404218478508
 40
18.01143672977906
 40
20.07750498207575
 40
20.07750498207575
 40
20.07750498207575
 40
20.07750498207575
 10
136.0494738259496
 20
-23.66150456558926
 30
0.0
 10
135.6918831285771
 20
-25.11992898505184
 30
0.0
 10
133.4171535853859
 20
-27.01609295885516
 30
0.0
 10
127.0452331193602
 20
-29.6862064754077
 30
0.0
 10
114.3316240206927
 20
-29.77510441123302
 30
0.0
 10
101.7869974541985
 20
-31.83093559164785
 30
0.0
 10
93.3382275385189
 20
-32.20290419344914
 30
0.0
 10
91.7460054342812
 20
-32.25014461291296
 30
0.0
  0
SPLINE
  5
668
330
18
100
AcDbEntity
  8
0
100
AcDbSpline
210
0.0
220
0.0
230
1.0
 70
     8
 71
     3
 72
    22
 73
    18
 74
     0
 42
0.0000000001
 43
0.0000000001
 40
24.00826839880123
 40
24.00826839880123
 40
24.00826839880123
 40
24.00826839880123
 40
25.13586300713596
 40
33.85904679981379
 40
41.73221266323796
 40
47.38505869038623
 40
49.72467587866559
 40
50.13787950460632
 40
51.39276420650993
 40
54.06821274700322
 40
61.6062008059239
 40
71.66271166103084
 40
83.88124333259153
 40
93.76614969516273
 40
95.80127775082083
 40
96.84825404539921
 40
98.93463118366145
 40
98.93463118366145
 40
98.93463118366145
 40
98.93463118366145
 10
82.67356864835146
 20
-32.35469345890469
 30
0.0
 10
81.81093567626309
 20
-32.35676989377077
 30
0.0
 10
74.29570231754592
 20
-32.37476922340381
 30
0.0
 10
61.21706183139659
 20
-32.67155190042403
 30
0.0
 10
41.8873912737405
 20
-33.10086578711387
 30
0.0
 10
34.62663021477381
 20
-32.1633813560565
 30
0.0
 10
21.76001688284979
 20
-32.4743922877729
 30
0.0
 10
25.01055427987519
 20
-30.90509470236029
 30
0.0
 10
28.1616292984094
 20
-30.56016092193514
 30
0.0
 10
37.12185184205869
 20
-30.12213855048825
 30
0.0
 10
52.48014017468675
 20
-28.34340350520077
 30
0.0
 10
75.40215323172812
 20
-26.80809481324306
 30
0.0
 10
100.0405629389281
 20
-25.78041582397771
 30
0.0
 10
118.6925410320129
 20
-26.07521214541996
 30
0.0
 10
128.552711584328
 20
-25.96953876026372
 30
0.0
 10
132.6523587314482
 20
-26.09157343128341
 30
0.0
 10
134.4829647367883
 20
-24.00164476687716
 30
0.0
 10
136.0494738259496
 20
-23.66150456558926
 30
0.0
  0
SPLINE
  5
669
330
18
100
AcDbEntity
  8
0
100
AcDbSpline
210
0.0
220
0.0
230
1.0
 70
     8
 71
     3
 72
    13
 73
     9
 74
     0
 42
0.0000000001
 43
0.0000000001
 40
1.784534210856077
 40
1.784534210856077
 40
1.784534210856077
 40
1.784534210856077
 40
4.791374990086865
 40
8.867167413858926
 40
12.28479315512394
 40
13.85587447502989
 40
15.48073147689809
 40
16.50860187564317
 40
16.50860187564317
 40
16.50860187564317
 40
16.50860187564317
 10
157.1865718788179
 20
0.000000000000012
 30
0.0
 10
157.2087062155258
 20
-2.312170266228616
 30
0.0
 10
157.2491650571204
 20
-7.757476114106374
 30
0.0
 10
156.6140211150391
 20
-15.76924630722803
 30
0.0
 10
155.7149577669669
 20
-22.79765649360125
 30
0.0
 10
153.0288423280604
 20
-27.26678506595217
 30
0.0
 10
149.9571624028469
 20
-28.90536885437271
 30
0.0
 10
147.8389040839631
 20
-28.72047669758957
 30
0.0
 10
147.1066090316042
 20
-29.01615839297725
 30
0.0
  0
SPLINE
  5
66A
330
18
100
AcDbEntity
  8
0
100
AcDbSpline
210
0.0
220
0.0
230
1.0
 70
     8
 71
     3
 72
    13
 73
     9
 74
     0
 42
0.0000000001
 43
0.0000000001
 40
68.60413438747094
 40
68.60413438747094
 40
68.60413438747094
 40
68.60413438747094
 40
74.76344115554443
 40
76.38862343713083
 40
78.13814562477027
 40
79.50835389150523
 40
83.21023870799784
 40
91.13295609767906
 40
91.13295609767906
 40
91.13295609767906
 40
91.13295609767906
 10
33.92024904111117
 20
-33.7359055435203
 30
0.0
 10
28.48371699625651
 20
-33.55981442937405
 30
0.0
 10
21.99989662524329
 20
-33.28206624112697
 30
0.0
 10
17.82318487399943
 20
-33.11560596890821
 30
0.0
 10
15.16460990205494
 20
-30.29591670280125
 30
0.0
 10
12.30908100983863
 20
-25.89203753253666
 30
0.0
 10
11.45640531347736
 20
-15.59011762777418
 30
0.0
 10
10.76358773261397
 20
-6.767989535458152
 30
0.0
 10
10.69622807865663
 20
-0.7183915008179334
 30
0.0
  0
SPLINE
  5
66B
330
18
100
AcDbEntity
  8
0
100
AcDbSpline
210
0.0
220
0.0
230
1.0
 70
     8
 71
     3
 72
     8
 73
     4
 74
     0
 42
0.0000000001
 43
0.0000000001
 40
68.65532664989856
 40
68.65532664989856
 40
68.65532664989856
 40
68.65532664989856
 40
68.94165298461827
 40
68.94165298461827
 40
68.94165298461827
 40
68.94165298461827
 10
16.28289611241489
 20
-0.0000000000000013
 30
0.0
 10
16.29459658666347
 20
-0.2185665166045774
 30
0.0
 10
16.30673808622025
 20
-0.4371857432963795
 30
0.0
 10
16.31926055665032
 20
-0.6558719928256274
 30
0.0
  0
SPLINE
  5
66C
330
18
100
AcDbEntity
  8
0
100
AcDbSpline
210
0.0
220
0.0
230
1.0
 70
     8
 71
     3
 72
     8
 73
     4
 74
     0
 42
0.0000000001
 43
0.0000000001
 40
90.81929636751571
 40
90.81929636751571
 40
90.81929636751571
 40
90.81929636751571
 40
91.13295609767906
 40
91.13295609767906
 40
91.13295609767906
 40
91.13295609767906
 10
10.69013444333107
 20
0.0000000000002669
 30
0.0
 10
10.69154561461969
 20
-0.2394288644326674
 30
0.0
 10
10.69356902589426
 20
-0.4788883262114157
 30
0.0
 10
10.69622807865646
 20
-0.7183915008180142
 30
0.0
  0
SPLINE
  5
66D
330
18
100
AcDbEntity
  8
0
100
AcDbSpline
210
0.0
220
0.0
230
1.0
 70
     8
 71
     3
 72
    16
 73
    12
 74
     0
 42
0.0000000001
 43
0.0000000001
 40
0.3281434484788809
 40
0.3281434484788809
 40
0.3281434484788809
 40
0.3281434484788809
 40
1.224358563157152
 40
2.502024758892879
 40
2.844114196038004
 40
3.409856319926415
 40
6.067963796682374
 40
6.245182922569176
 40
6.581184763110368
 40
7.265916946465317
 40
8.885376249304041
 40
8.885376249304041
 40
8.885376249304041
 40
8.885376249304041
 10
92.09935163736922
 20
-34.25084810779064
 30
0.0
 10
91.94249351083795
 20
-33.11547093307082
 30
0.0
 10
91.58905430787909
 20
-31.48492973041955
 30
0.0
 10
91.04659960403601
 20
-29.61014601678878
 30
0.0
 10
90.02793691721274
 20
-28.20771739342765
 30
0.0
 10
87.22147878641109
 20
-27.51425429088504
 30
0.0
 10
84.69551018252364
 20
-27.62371748660607
 30
0.0
 10
82.2037371919721
 20
-28.0313315476761
 30
0.0
 10
81.7153405506615
 20
-28.97018219939451
 30
0.0
 10
82.17046681254979
 20
-30.9988462825896
 30
0.0
 10
82.79218882287258
 20
-32.64681498075765
 30
0.0
 10
83.15905402577861
 20
-34.45053415487574
 30
0.0
  0
SPLINE
  5
66E
330
18
100
AcDbEntity
  8
0
100
AcDbSpline
210
0.0
220
0.0
230
1.0
 70
     8
 71
     3
 72
    14
 73
    10
 74
     0
 42
0.0000000001
 43
0.0000000001
 40
1.792049978285959
 40
1.792049978285959
 40
1.792049978285959
 40
1.792049978285959
 40
4.79357964866207
 40
11.36757747202056
 40
13.96549176484355
 40
15.82622375223103
 40
19.03743788295755
 40
23.56479417446801
 40
27.58328531157524
 40
27.58328531157524
 40
27.58328531157524
 40
27.58328531157524
 10
165.6456635090082
 20
0.000000000000012
 30
0.0
 10
165.5782272488182
 20
-2.300912348103404
 30
0.0
 10
164.834367357952
 20
-9.661701933911096
 30
0.0
 10
165.0300933563498
 20
-19.18381500303205
 30
0.0
 10
161.5332166959485
 20
-27.09770758733303
 30
0.0
 10
156.7952609761602
 20
-31.16209534647473
 30
0.0
 10
148.9545561728965
 20
-30.25433421399436
 30
0.0
 10
140.1685136289919
 20
-31.88378554082001
 30
0.0
 10
133.5931767694715
 20
-32.13885122474621
 30
0.0
 10
130.4980838790234
 20
-32.24776108585034
 30
0.0
  0
ENDSEC
  0
SECTION
  2
OBJECTS
  0
DICTIONARY
  5
C
330
0
100
AcDbDictionary
  3
ACAD_GROUP
350
D
  3
ACAD_IMAGE_DICT
350
48
  3
ACAD_IMAGE_VARS
350
47
  3
ACAD_LAYOUT
350
488
  3
ACAD_MLINESTYLE
350
1B
  3
ACAD_PLOTSETTINGS
350
489
  3
ACAD_PLOTSTYLENAME
350
486
  3
ACDBHEADERROUNDTRIPXREC
350
6F8
  3
ACDBVARIABLEDICTIONARY
350
48F
  0
DICTIONARY
  5
71B
330
18
100
AcDbDictionary
280
     1
  3
ACAD_LAYOUTSELFREF
360
71C
  0
DICTIONARY
  5
719
330
15
100
AcDbDictionary
280
     1
  3
ACAD_LAYOUTSELFREF
360
71A
  0
DICTIONARY
  5
D
102
{ACAD_REACTORS
330
C
102
}
330
C
100
AcDbDictionary
  0
DICTIONARY
  5
48
102
{ACAD_REACTORS
330
C
102
}
330
C
100
AcDbDictionary
  0
RASTERVARIABLES
  5
47
102
{ACAD_REACTORS
330
C
102
}
330
C
100
AcDbRasterVariables
 90
        0
 70
     1
 71
     1
 72
     0
  0
DICTIONARY
  5
488
102
{ACAD_REACTORS
330
C
102
}
330
C
100
AcDbDictionary
  0
DICTIONARY
  5
1B
102
{ACAD_REACTORS
330
C
102
}
330
C
100
AcDbDictionary
  3
STANDARD
350
1C
  0
DICTIONARY
  5
489
102
{ACAD_REACTORS
330
C
102
}
330
C
100
AcDbDictionary
  0
ACDBDICTIONARYWDFLT
  5
486
102
{ACAD_REACTORS
330
C
102
}
330
C
100
AcDbDictionary
281
     1
  3
Normal
350
487
100
AcDbDictionaryWithDefault
340
487
  0
DICTIONARY
  5
6F8
102
{ACAD_REACTORS
330
C
102
}
330
C
100
AcDbDictionary
  3
CEPSNTYPE
350
702
  3
DIMSTYLEDATA
350
706
  3
FINGERPRINTGUID
350
703
  3
HYPERLINKBASE
350
6FB
  3
INSUNITS
350
701
  3
LAYOUTDICT
350
6FD
  3
LWETCUNION
350
700
  3
PLOTSETDICT
350
6FE
  3
PLOTSTYLNAMDICT
350
6FF
  3
PSVPSCALE
350
705
  3
PUCSBASE
350
709
  3
PUCSORGBACK
350
70F
  3
PUCSORGBOTTOM
350
70B
  3
PUCSORGFRONT
350
70E
  3
PUCSORGLEFT
350
70C
  3
PUCSORGRIGHT
350
70D
  3
PUCSORGTOP
350
70A
  3
PUCSORTHOREF
350
707
  3
PUCSORTHOVIEW
350
708
  3
STYLESHEET
350
6FC
  3
TSTACKALIGN
350
6F9
  3
TSTACKSIZE
350
6FA
  3
UCSBASE
350
712
  3
UCSORGBACK
350
718
  3
UCSORGBOTTOM
350
714
  3
UCSORGFRONT
350
717
  3
UCSORGLEFT
350
715
  3
UCSORGRIGHT
350
716
  3
UCSORGTOP
350
713
  3
UCSORTHOREF
350
710
  3
UCSORTHOVIEW
350
711
  3
VERSIONGUID
350
704
  0
DICTIONARY
  5
48F
102
{ACAD_REACTORS
330
C
102
}
330
C
100
AcDbDictionary
  3
DIMASSOC
350
490
  0
XRECORD
  5
71C
102
{ACAD_REACTORS
330
71B
102
}
330
71B
100
AcDbXrecord
340
18
  0
XRECORD
  5
71A
102
{ACAD_REACTORS
330
719
102
}
330
719
100
AcDbXrecord
340
15
  0
MLINESTYLE
  5
1C
102
{ACAD_REACTORS
330
1B
102
}
330
1B
100
AcDbMlineStyle
  2
STANDARD
 70
     0
  3

 62
   256
 51
90.0
 52
90.0
 71
     2
 49
0.5
 62
   256
  6
BYLAYER
 49
-0.5
 62
   256
  6
BYLAYER
  0
ACDBPLACEHOLDER
  5
487
102
{ACAD_REACTORS
330
486
102
}
330
486
100
AcDbPlaceHolder
280
     0
  0
XRECORD
  5
702
102
{ACAD_REACTORS
330
6F8
102
}
330
6F8
100
AcDbXrecord
 90
        0
  0
XRECORD
  5
706
102
{ACAD_REACTORS
330
6F8
102
}
330
6F8
100
AcDbXrecord
1000
DSTYLE
1002
{
1070
    79
 70
     3
1070
   279
 70
     2
1070
   342
340
491
1002
}
  0
XRECORD
  5
703
102
{ACAD_REACTORS
330
6F8
102
}
330
6F8
100
AcDbXrecord
  1
{8C0D10A8-382B-40E5-800D-97D890504C19}
  0
XRECORD
  5
6FB
102
{ACAD_REACTORS
330
6F8
102
}
330
6F8
100
AcDbXrecord
  1

  0
XRECORD
  5
701
102
{ACAD_REACTORS
330
6F8
102
}
330
6F8
100
AcDbXrecord
 90
        0
  0
XRECORD
  5
6FD
102
{ACAD_REACTORS
330
6F8
102
}
330
6F8
100
AcDbXrecord
340
488
  0
XRECORD
  5
700
102
{ACAD_REACTORS
330
6F8
102
}
330
6F8
100
AcDbXrecord
 90
    14877
  0
XRECORD
  5
6FE
102
{ACAD_REACTORS
330
6F8
102
}
330
6F8
100
AcDbXrecord
340
489
  0
XRECORD
  5
6FF
102
{ACAD_REACTORS
330
6F8
102
}
330
6F8
100
AcDbXrecord
340
486
  0
XRECORD
  5
705
102
{ACAD_REACTORS
330
6F8
102
}
330
6F8
100
AcDbXrecord
 40
0.0
  0
XRECORD
  5
709
102
{ACAD_REACTORS
330
6F8
102
}
330
6F8
100
AcDbXrecord
340
0
  0
XRECORD
  5
70F
102
{ACAD_REACTORS
330
6F8
102
}
330
6F8
100
AcDbXrecord
 10
0.0
 20
0.0
 30
0.0
  0
XRECORD
  5
70B
102
{ACAD_REACTORS
330
6F8
102
}
330
6F8
100
AcDbXrecord
 10
0.0
 20
0.0
 30
0.0
  0
XRECORD
  5
70E
102
{ACAD_REACTORS
330
6F8
102
}
330
6F8
100
AcDbXrecord
 10
0.0
 20
0.0
 30
0.0
  0
XRECORD
  5
70C
102
{ACAD_REACTORS
330
6F8
102
}
330
6F8
100
AcDbXrecord
 10
0.0
 20
0.0
 30
0.0
  0
XRECORD
  5
70D
102
{ACAD_REACTORS
330
6F8
102
}
330
6F8
100
AcDbXrecord
 10
0.0
 20
0.0
 30
0.0
  0
XRECORD
  5
70A
102
{ACAD_REACTORS
330
6F8
102
}
330
6F8
100
AcDbXrecord
 10
0.0
 20
0.0
 30
0.0
  0
XRECORD
  5
707
102
{ACAD_REACTORS
330
6F8
102
}
330
6F8
100
AcDbXrecord
340
0
  0
XRECORD
  5
708
102
{ACAD_REACTORS
330
6F8
102
}
330
6F8
100
AcDbXrecord
 70
     0
  0
XRECORD
  5
6FC
102
{ACAD_REACTORS
330
6F8
102
}
330
6F8
100
AcDbXrecord
  1

  0
XRECORD
  5
6F9
102
{ACAD_REACTORS
330
6F8
102
}
330
6F8
100
AcDbXrecord
 90
        1
  0
XRECORD
  5
6FA
102
{ACAD_REACTORS
330
6F8
102
}
330
6F8
100
AcDbXrecord
 90
       70
  0
XRECORD
  5
712
102
{ACAD_REACTORS
330
6F8
102
}
330
6F8
100
AcDbXrecord
340
0
  0
XRECORD
  5
718
102
{ACAD_REACTORS
330
6F8
102
}
330
6F8
100
AcDbXrecord
 10
0.0
 20
0.0
 30
0.0
  0
XRECORD
  5
714
102
{ACAD_REACTORS
330
6F8
102
}
330
6F8
100
AcDbXrecord
 10
0.0
 20
0.0
 30
0.0
  0
XRECORD
  5
717
102
{ACAD_REACTORS
330
6F8
102
}
330
6F8
100
AcDbXrecord
 10
0.0
 20
0.0
 30
0.0
  0
XRECORD
  5
715
102
{ACAD_REACTORS
330
6F8
102
}
330
6F8
100
AcDbXrecord
 10
0.0
 20
0.0
 30
0.0
  0
XRECORD
  5
716
102
{ACAD_REACTORS
330
6F8
102
}
330
6F8
100
AcDbXrecord
 10
0.0
 20
0.0
 30
0.0
  0
XRECORD
  5
713
102
{ACAD_REACTORS
330
6F8
102
}
330
6F8
100
AcDbXrecord
 10
0.0
 20
0.0
 30
0.0
  0
XRECORD
  5
710
102
{ACAD_REACTORS
330
6F8
102
}
330
6F8
100
AcDbXrecord
340
0
  0
XRECORD
  5
711
102
{ACAD_REACTORS
330
6F8
102
}
330
6F8
100
AcDbXrecord
 70
     0
  0
XRECORD
  5
704
102
{ACAD_REACTORS
330
6F8
102
}
330
6F8
100
AcDbXrecord
  1
{FFE8AC50-F6B2-49A3-9D91-20D6FE709F62}
  0
DICTIONARYVAR
  5
490
102
{ACAD_REACTORS
330
48F
102
}
330
48F
100
DictionaryVariables
280
     0
  1
1
  0
ENDSEC
  0
EOF
