  0
SECTION
  2
HEADER
  9
$ACADVER
  1
AC1014
  9
$ACADMAINTVER
 70
     9
  9
$DWGCODEPAGE
  3
ANSI_1252
  9
$INSBASE
 10
0.0
 20
0.0
 30
0.0
  9
$EXTMIN
 10
-55.44340696100366
 20
-0.8999999999999975
 30
0.0
  9
$EXTMAX
 10
38.40000066663143
 20
71.42554149787557
 30
0.0
  9
$LIMMIN
 10
0.0
 20
0.0
  9
$LIMMAX
 10
420.0
 20
297.0
  9
$ORTHOMODE
 70
     1
  9
$REGENMODE
 70
     1
  9
$FILLMODE
 70
     1
  9
$QTEXTMODE
 70
     0
  9
$MIRRTEXT
 70
     1
  9
$DRAGMODE
 70
     2
  9
$LTSCALE
 40
1.0
  9
$OSMODE
 70
   167
  9
$ATTMODE
 70
     1
  9
$TEXTSIZE
 40
2.5
  9
$TRACEWID
 40
1.0
  9
$TEXTSTYLE
  7
STANDARD
  9
$CLAYER
  8
0
  9
$CELTYPE
  6
BYLAYER
  9
$CECOLOR
 62
   256
  9
$CELTSCALE
 40
1.0
  9
$DELOBJ
 70
     1
  9
$DISPSILH
 70
     0
  9
$DIMSCALE
 40
1.0
  9
$DIMASZ
 40
1.8
  9
$DIMEXO
 40
0.625
  9
$DIMDLI
 40
3.799999999999999
  9
$DIMRND
 40
0.0
  9
$DIMDLE
 40
0.0
  9
$DIMEXE
 40
1.8
  9
$DIMTP
 40
0.0
  9
$DIMTM
 40
0.0
  9
$DIMTXT
 40
3.0
  9
$DIMCEN
 40
0.9
  9
$DIMTSZ
 40
0.0
  9
$DIMTOL
 70
     0
  9
$DIMLIM
 70
     0
  9
$DIMTIH
 70
     0
  9
$DIMTOH
 70
     0
  9
$DIMSE1
 70
     0
  9
$DIMSE2
 70
     0
  9
$DIMTAD
 70
     1
  9
$DIMZIN
 70
    12
  9
$DIMBLK
  1
OBLIQUE
  9
$DIMASO
 70
     1
  9
$DIMSHO
 70
     1
  9
$DIMPOST
  1

  9
$DIMAPOST
  1

  9
$DIMALT
 70
     0
  9
$DIMALTD
 70
     2
  9
$DIMALTF
 40
25.4
  9
$DIMLFAC
 40
1.0
  9
$DIMTOFL
 70
     0
  9
$DIMTVP
 40
0.0
  9
$DIMTIX
 70
     0
  9
$DIMSOXD
 70
     0
  9
$DIMSAH
 70
     0
  9
$DIMBLK1
  1

  9
$DIMBLK2
  1

  9
$DIMSTYLE
  2
COTATION-JACOB-DELAFON
  9
$DIMCLRD
 70
     0
  9
$DIMCLRE
 70
     0
  9
$DIMCLRT
 70
     0
  9
$DIMTFAC
 40
1.0
  9
$DIMGAP
 40
0.9
  9
$DIMJUST
 70
     0
  9
$DIMSD1
 70
     0
  9
$DIMSD2
 70
     0
  9
$DIMTOLJ
 70
     1
  9
$DIMTZIN
 70
     0
  9
$DIMALTZ
 70
     0
  9
$DIMALTTZ
 70
     0
  9
$DIMFIT
 70
     5
  9
$DIMUPT
 70
     0
  9
$DIMUNIT
 70
     2
  9
$DIMDEC
 70
     2
  9
$DIMTDEC
 70
     2
  9
$DIMALTU
 70
     2
  9
$DIMALTTD
 70
     2
  9
$DIMTXSTY
  7
JACOB-DELAFON
  9
$DIMAUNIT
 70
     0
  9
$LUNITS
 70
     2
  9
$LUPREC
 70
     4
  9
$SKETCHINC
 40
1.0
  9
$FILLETRAD
 40
10.0
  9
$AUNITS
 70
     0
  9
$AUPREC
 70
     0
  9
$MENU
  1
.
  9
$ELEVATION
 40
0.0
  9
$PELEVATION
 40
0.0
  9
$THICKNESS
 40
0.0
  9
$LIMCHECK
 70
     0
  9
$BLIPMODE
 70
     0
  9
$CHAMFERA
 40
10.0
  9
$CHAMFERB
 40
10.0
  9
$CHAMFERC
 40
20.0
  9
$CHAMFERD
 40
0.0
  9
$SKPOLY
 70
     0
  9
$TDCREATE
 40
2451204.814370833
  9
$TDUPDATE
 40
2452285.671167580
  9
$TDINDWG
 40
0.1709287963
  9
$TDUSRTIMER
 40
0.1709287963
  9
$USRTIMER
 70
     1
  9
$ANGBASE
 50
0.0
  9
$ANGDIR
 70
     0
  9
$PDMODE
 70
     0
  9
$PDSIZE
 40
0.0
  9
$PLINEWID
 40
0.0
  9
$COORDS
 70
     0
  9
$SPLFRAME
 70
     0
  9
$SPLINETYPE
 70
     6
  9
$SPLINESEGS
 70
     8
  9
$ATTDIA
 70
     0
  9
$ATTREQ
 70
     1
  9
$HANDLING
 70
 22529
  9
$HANDSEED
  5
952
  9
$SURFTAB1
 70
     6
  9
$SURFTAB2
 70
     6
  9
$SURFTYPE
 70
     6
  9
$SURFU
 70
     6
  9
$SURFV
 70
     6
  9
$UCSNAME
  2

  9
$UCSORG
 10
0.0
 20
0.0
 30
0.0
  9
$UCSXDIR
 10
1.0
 20
0.0
 30
0.0
  9
$UCSYDIR
 10
0.0
 20
1.0
 30
0.0
  9
$PUCSNAME
  2

  9
$PUCSORG
 10
0.0
 20
0.0
 30
0.0
  9
$PUCSXDIR
 10
1.0
 20
0.0
 30
0.0
  9
$PUCSYDIR
 10
0.0
 20
1.0
 30
0.0
  9
$USERI1
 70
     0
  9
$USERI2
 70
     0
  9
$USERI3
 70
     0
  9
$USERI4
 70
     0
  9
$USERI5
 70
     0
  9
$USERR1
 40
0.0
  9
$USERR2
 40
0.0
  9
$USERR3
 40
0.0
  9
$USERR4
 40
0.0
  9
$USERR5
 40
0.0
  9
$WORLDVIEW
 70
     1
  9
$SHADEDGE
 70
     3
  9
$SHADEDIF
 70
    70
  9
$TILEMODE
 70
     1
  9
$MAXACTVP
 70
    48
  9
$PINSBASE
 10
0.0
 20
0.0
 30
0.0
  9
$PLIMCHECK
 70
     0
  9
$PEXTMIN
 10
1.000000000000000E+20
 20
1.000000000000000E+20
 30
1.000000000000000E+20
  9
$PEXTMAX
 10
-1.000000000000000E+20
 20
-1.000000000000000E+20
 30
-1.000000000000000E+20
  9
$PLIMMIN
 10
0.0
 20
0.0
  9
$PLIMMAX
 10
420.0
 20
297.0
  9
$UNITMODE
 70
     0
  9
$VISRETAIN
 70
     1
  9
$PLINEGEN
 70
     0
  9
$PSLTSCALE
 70
     1
  9
$TREEDEPTH
 70
  3020
  9
$PICKSTYLE
 70
     1
  9
$CMLSTYLE
  2
STANDARD
  9
$CMLJUST
 70
     0
  9
$CMLSCALE
 40
20.0
  9
$PROXYGRAPHICS
 70
     1
  9
$MEASUREMENT
 70
     1
  0
ENDSEC
  0
SECTION
  2
CLASSES
  0
CLASS
  1
LWPOLYLINE
  2
AcDbPolyline
  3
AutoCAD 2000
 90
        0
280
     0
281
     1
  0
CLASS
  1
RASTERVARIABLES
  2
AcDbRasterVariables
  3
ISM
 90
        0
280
     0
281
     0
  0
CLASS
  1
IMAGEDEF
  2
AcDbRasterImageDef
  3
ISM
 90
        0
280
     0
281
     0
  0
CLASS
  1
IMAGEDEF_REACTOR
  2
AcDbRasterImageDefReactor
  3
ISM
 90
        1
280
     0
281
     0
  0
CLASS
  1
IMAGE
  2
AcDbRasterImage
  3
ISM
 90
      127
280
     0
281
     1
  0
CLASS
  1
ACDBDICTIONARYWDFLT
  2
AcDbDictionaryWithDefault
  3
AutoCAD 2000
 90
        0
280
     0
281
     0
  0
CLASS
  1
ACDBPLACEHOLDER
  2
AcDbPlaceHolder
  3
AutoCAD 2000
 90
        0
280
     0
281
     0
  0
CLASS
  1
LAYOUT
  2
AcDbLayout
  3
AutoCAD 2000
 90
        0
280
     0
281
     0
  0
CLASS
  1
DICTIONARYVAR
  2
AcDbDictionaryVar
  3
AutoCAD 2000
 90
        0
280
     0
281
     0
  0
CLASS
  1
LONG_TRANSACTION
  2
AcDbLongTransaction
  3
AutoCAD 2000
 90
        0
280
     0
281
     0
  0
CLASS
  1
LWPOLYLINE
  2
AcDbPolyline
  3
AutoCAD 2000
 90
        0
280
     0
281
     1
  0
CLASS
  1
HATCH
  2
AcDbHatch
  3
AutoCAD 2000
 90
        0
280
     0
281
     1
  0
CLASS
  1
XRECORD
  2
AcDbXrecord
  3
AutoCAD 2000
 90
        0
280
     0
281
     0
  0
ENDSEC
  0
SECTION
  2
TABLES
  0
TABLE
  2
VPORT
  5
8
330
0
100
AcDbSymbolTable
 70
     3
  0
VPORT
  5
92C
330
8
100
AcDbSymbolTableRecord
100
AcDbViewportTableRecord
  2
*ACTIVE
 70
     0
 10
0.0
 20
0.0
 11
1.0
 21
1.0
 12
-8.531933952155497
 22
36.21269836963527
 13
0.0
 23
0.0
 14
10.0
 24
10.0
 15
10.0
 25
10.0
 16
0.0
 26
0.0
 36
1.0
 17
0.0
 27
0.0
 37
0.0
 40
75.08354753016575
 41
1.828516377649325
 42
50.0
 43
0.0
 44
0.0
 50
0.0
 51
0.0
 71
     0
 72
   100
 73
     1
 74
     1
 75
     0
 76
     0
 77
     0
 78
     0
  0
ENDTAB
  0
TABLE
  2
LTYPE
  5
5
330
0
100
AcDbSymbolTable
 70
     1
  0
LTYPE
  5
12
330
5
100
AcDbSymbolTableRecord
100
AcDbLinetypeTableRecord
  2
BYBLOCK
 70
     0
  3

 72
    65
 73
     0
 40
0.0
  0
LTYPE
  5
13
330
5
100
AcDbSymbolTableRecord
100
AcDbLinetypeTableRecord
  2
BYLAYER
 70
     0
  3

 72
    65
 73
     0
 40
0.0
  0
LTYPE
  5
14
330
5
100
AcDbSymbolTableRecord
100
AcDbLinetypeTableRecord
  2
CONTINUOUS
 70
     0
  3
Solid line
 72
    65
 73
     0
 40
0.0
  0
ENDTAB
  0
TABLE
  2
LAYER
  5
2
330
0
100
AcDbSymbolTable
 70
     3
  0
LAYER
  5
E
330
2
100
AcDbSymbolTableRecord
100
AcDbLayerTableRecord
  2
0
 70
     0
 62
   255
  6
CONTINUOUS
  0
LAYER
  5
270
330
2
100
AcDbSymbolTableRecord
100
AcDbLayerTableRecord
  2
DEFPOINTS
 70
     0
 62
     7
  6
CONTINUOUS
  0
LAYER
  5
4AD
330
2
100
AcDbSymbolTableRecord
100
AcDbLayerTableRecord
  2
COTATION-JACOBDELAFON
 70
     0
 62
     8
  6
CONTINUOUS
  0
ENDTAB
  0
TABLE
  2
STYLE
  5
3
330
0
100
AcDbSymbolTable
 70
     2
  0
STYLE
  5
F
330
3
100
AcDbSymbolTableRecord
100
AcDbTextStyleTableRecord
  2
STANDARD
 70
     0
 40
0.0
 41
1.0
 50
0.0
 71
     0
 42
2.5
  3
txt
  4

  0
STYLE
  5
4AE
330
3
100
AcDbSymbolTableRecord
100
AcDbTextStyleTableRecord
  2
JACOB-DELAFON
 70
     0
 40
0.0
 41
1.0
 50
0.0
 71
     0
 42
2.5
  3
ARIAL.TTF
  4

1001
ACAD
1000
Arial
1071
       34
  0
ENDTAB
  0
TABLE
  2
VIEW
  5
6
330
0
100
AcDbSymbolTable
 70
     0
  0
ENDTAB
  0
TABLE
  2
UCS
  5
7
330
0
100
AcDbSymbolTable
 70
     0
  0
ENDTAB
  0
TABLE
  2
APPID
  5
9
330
0
100
AcDbSymbolTable
 70
     2
  0
APPID
  5
10
330
9
100
AcDbSymbolTableRecord
100
AcDbRegAppTableRecord
  2
ACAD
 70
     0
  0
APPID
  5
4B0
330
9
100
AcDbSymbolTableRecord
100
AcDbRegAppTableRecord
  2
PE_URL
 70
     0
  0
ENDTAB
  0
TABLE
  2
DIMSTYLE
  5
A
330
0
100
AcDbSymbolTable
 70
     2
  0
DIMSTYLE
105
1D
330
A
100
AcDbSymbolTableRecord
100
AcDbDimStyleTableRecord
  2
STANDARD
 70
     0
  3

  4

  5

  6

  7

 40
1.0
 41
0.18
 42
0.0625
 43
0.38
 44
0.18
 45
0.0
 46
0.0
 47
0.0
 48
0.0
140
0.18
141
0.09
142
0.0
143
25.4
144
1.0
145
0.0
146
1.0
147
0.09
 71
     0
 72
     0
 73
     1
 74
     1
 75
     0
 76
     0
 77
     0
 78
     0
170
     0
171
     2
172
     0
173
     0
174
     0
175
     0
176
     0
177
     0
178
     0
270
     2
271
     4
272
     4
273
     2
274
     2
340
F
275
     0
280
     0
281
     0
282
     0
283
     1
284
     0
285
     0
286
     0
287
     3
288
     0
  0
DIMSTYLE
105
4AF
102
{ACAD_REACTORS
330
6D1
330
6D7
102
}
330
A
100
AcDbSymbolTableRecord
100
AcDbDimStyleTableRecord
  2
COTATION-JACOB-DELAFON
 70
     0
  3

  4

  5
OBLIQUE
  6

  7

 40
1.0
 41
1.8
 42
0.625
 43
3.799999999999999
 44
1.8
 45
0.0
 46
0.0
 47
0.0
 48
0.0
140
3.0
141
0.9
142
0.0
143
25.4
144
1.0
145
0.0
146
1.0
147
0.9
 71
     0
 72
     0
 73
     0
 74
     0
 75
     0
 76
     0
 77
     1
 78
    12
170
     0
171
     2
172
     0
173
     0
174
     0
175
     0
176
     0
177
     0
178
     0
270
     2
271
     2
272
     2
273
     2
274
     2
340
4AE
275
     0
280
     0
281
     0
282
     0
283
     1
284
     0
285
     0
286
     0
287
     5
288
     0
  0
ENDTAB
  0
TABLE
  2
BLOCK_RECORD
  5
1
330
0
100
AcDbSymbolTable
 70
     3
  0
BLOCK_RECORD
  5
18
102
{ACAD_XDICTIONARY
360
950
102
}
330
1
100
AcDbSymbolTableRecord
100
AcDbBlockTableRecord
  2
*MODEL_SPACE
  0
BLOCK_RECORD
  5
15
102
{ACAD_XDICTIONARY
360
94E
102
}
330
1
100
AcDbSymbolTableRecord
100
AcDbBlockTableRecord
  2
*PAPER_SPACE
  0
BLOCK_RECORD
  5
491
330
1
100
AcDbSymbolTableRecord
100
AcDbBlockTableRecord
  2
_OBLIQUE
  0
BLOCK_RECORD
  5
6FB
330
1
100
AcDbSymbolTableRecord
100
AcDbBlockTableRecord
  2
*D1
  0
BLOCK_RECORD
  5
707
330
1
100
AcDbSymbolTableRecord
100
AcDbBlockTableRecord
  2
*D2
  0
ENDTAB
  0
ENDSEC
  0
SECTION
  2
BLOCKS
  0
BLOCK
  5
19
330
18
100
AcDbEntity
  8
0
100
AcDbBlockBegin
  2
*MODEL_SPACE
 70
     0
 10
0.0
 20
0.0
 30
0.0
  3
*MODEL_SPACE
  1

  0
ENDBLK
  5
1A
330
18
100
AcDbEntity
  8
0
100
AcDbBlockEnd
  0
BLOCK
  5
16
330
15
100
AcDbEntity
 67
     1
  8
0
100
AcDbBlockBegin
  2
*PAPER_SPACE
 70
     0
 10
0.0
 20
0.0
 30
0.0
  3
*PAPER_SPACE
  1

  0
ENDBLK
  5
17
330
15
100
AcDbEntity
 67
     1
  8
0
100
AcDbBlockEnd
  0
BLOCK
  5
493
330
491
100
AcDbEntity
  8
0
100
AcDbBlockBegin
  2
_OBLIQUE
 70
     0
 10
0.0
 20
0.0
 30
0.0
  3
_OBLIQUE
  1

  0
LINE
  5
492
330
491
100
AcDbEntity
  8
0
  6
BYBLOCK
 62
     0
100
AcDbLine
 10
-0.5
 20
-0.5
 30
0.0
 11
0.5
 21
0.5
 31
0.0
  0
ENDBLK
  5
494
330
491
100
AcDbEntity
  8
0
100
AcDbBlockEnd
  0
BLOCK
  5
705
330
6FB
100
AcDbEntity
  8
0
100
AcDbBlockBegin
  2
*D1
 70
     1
 10
0.0
 20
0.0
 30
0.0
  3
*D1
  1

  0
LINE
  5
8DD
330
6FB
100
AcDbEntity
  8
COTATION-JACOBDELAFON
 62
     0
100
AcDbLine
 10
-37.50000066663143
 20
58.62166826125353
 30
0.0
 11
-37.50000066663143
 21
68.48038460838033
 31
0.0
  0
LINE
  5
8DE
330
6FB
100
AcDbEntity
  8
COTATION-JACOBDELAFON
 62
     0
100
AcDbLine
 10
37.50000066663143
 20
58.62221114293836
 30
0.0
 11
37.50000066663143
 21
68.48038460838033
 31
0.0
  0
LINE
  5
8DF
330
6FB
100
AcDbEntity
  8
COTATION-JACOBDELAFON
 62
     0
100
AcDbLine
 10
-37.50000066663143
 20
66.68038460838033
 30
0.0
 11
37.50000066663143
 21
66.68038460838033
 31
0.0
  0
INSERT
  5
8E0
330
6FB
100
AcDbEntity
  8
COTATION-JACOBDELAFON
 62
     0
100
AcDbBlockReference
  2
_OBLIQUE
 10
-37.50000066663143
 20
66.68038460838033
 30
0.0
 41
1.8
 42
1.8
 43
1.8
 50
180.0
  0
INSERT
  5
8E1
330
6FB
100
AcDbEntity
  8
COTATION-JACOBDELAFON
 62
     0
100
AcDbBlockReference
  2
_OBLIQUE
 10
37.50000066663143
 20
66.68038460838033
 30
0.0
 41
1.8
 42
1.8
 43
1.8
  0
MTEXT
  5
8E2
330
6FB
100
AcDbEntity
  8
COTATION-JACOBDELAFON
 62
     0
100
AcDbMText
 10
0.0000000000000001
 20
69.10596441738443
 30
0.0
 40
3.0
 41
0.0
 71
     5
 72
     1
  1
\A1;75
  7
JACOB-DELAFON
1001
ACAD
1000
MTEXTBEGIN
1070
    73
1070
     1
1070
    44
1040
1.0
1070
    74
1070
     0
1000
MTEXTEND
  0
POINT
  5
8E3
330
6FB
100
AcDbEntity
  8
DEFPOINTS
 62
     0
100
AcDbPoint
 10
-37.50000066663143
 20
57.99666826125353
 30
0.0
  0
POINT
  5
8E4
330
6FB
100
AcDbEntity
  8
DEFPOINTS
 62
     0
100
AcDbPoint
 10
37.50000066663143
 20
57.99721114293836
 30
0.0
  0
POINT
  5
8E5
330
6FB
100
AcDbEntity
  8
DEFPOINTS
 62
     0
100
AcDbPoint
 10
37.50000066663143
 20
66.68038460838033
 30
0.0
  0
ENDBLK
  5
706
330
6FB
100
AcDbEntity
  8
0
100
AcDbBlockEnd
  0
BLOCK
  5
711
330
707
100
AcDbEntity
  8
0
100
AcDbBlockBegin
  2
*D2
 70
     1
 10
0.0
 20
0.0
 30
0.0
  3
*D2
  1

  0
LINE
  5
8E6
330
707
100
AcDbEntity
  8
COTATION-JACOBDELAFON
 62
     0
100
AcDbLine
 10
-38.12500066663143
 20
57.99666826125353
 30
0.0
 11
-52.49211091734744
 21
57.99666826125353
 31
0.0
  0
LINE
  5
8E7
330
707
100
AcDbEntity
  8
COTATION-JACOBDELAFON
 62
     0
100
AcDbLine
 10
-42.09038600517291
 20
0.0000000000000002
 30
0.0
 11
-52.49211091734746
 21
0.0000000000000031
 31
0.0
  0
LINE
  5
8E8
330
707
100
AcDbEntity
  8
COTATION-JACOBDELAFON
 62
     0
100
AcDbLine
 10
-50.69211091734745
 20
57.99666826125353
 30
0.0
 11
-50.69211091734747
 21
0.0000000000000026
 31
0.0
  0
INSERT
  5
8E9
330
707
100
AcDbEntity
  8
COTATION-JACOBDELAFON
 62
     0
100
AcDbBlockReference
  2
_OBLIQUE
 10
-50.69211091734745
 20
57.99666826125353
 30
0.0
 41
1.8
 42
1.8
 43
1.8
 50
90.0
  0
INSERT
  5
8EA
330
707
100
AcDbEntity
  8
COTATION-JACOBDELAFON
 62
     0
100
AcDbBlockReference
  2
_OBLIQUE
 10
-50.69211091734747
 20
0.0000000000000026
 30
0.0
 41
1.8
 42
1.8
 43
1.8
 50
270.0
  0
MTEXT
  5
8EB
330
707
100
AcDbEntity
  8
COTATION-JACOBDELAFON
 62
     0
100
AcDbMText
 10
-53.12382988051254
 20
28.99833413062676
 30
0.0
 40
3.0
 41
0.0
 71
     5
 72
     1
  1
\A1;58
  7
JACOB-DELAFON
 11
0.0000000000000001
 21
1.0
 31
0.0
1001
ACAD
1000
MTEXTBEGIN
1070
    73
1070
     1
1070
    44
1040
1.0
1070
    74
1070
     0
1000
MTEXTEND
  0
POINT
  5
8EC
330
707
100
AcDbEntity
  8
DEFPOINTS
 62
     0
100
AcDbPoint
 10
-37.50000066663143
 20
57.99666826125353
 30
0.0
  0
POINT
  5
8ED
330
707
100
AcDbEntity
  8
DEFPOINTS
 62
     0
100
AcDbPoint
 10
-41.46538600517291
 20
0.0
 30
0.0
  0
POINT
  5
8EE
330
707
100
AcDbEntity
  8
DEFPOINTS
 62
     0
100
AcDbPoint
 10
-50.69211091734747
 20
0.0000000000000026
 30
0.0
  0
ENDBLK
  5
712
330
707
100
AcDbEntity
  8
0
100
AcDbBlockEnd
  0
ENDSEC
  0
SECTION
  2
ENTITIES
  0
LWPOLYLINE
  5
6D0
330
18
100
AcDbEntity
  8
0
100
AcDbPolyline
 90
        3
 70
     0
 43
0.0
 10
18.26699621727875
 20
12.868111817545
 10
16.84107437009669
 20
12.889346662536
 10
16.88687027214041
 20
15.96454581107337
  0
DIMENSION
  5
6D1
330
18
100
AcDbEntity
  8
COTATION-JACOBDELAFON
100
AcDbDimension
  2
*D1
 10
37.50000066663143
 20
66.68038460838033
 30
0.0
 11
0.0000000000000001
 21
69.10596441738443
 31
0.0
 70
    32
  3
COTATION-JACOB-DELAFON
100
AcDbAlignedDimension
 13
-37.50000066663143
 23
57.99666826125353
 33
0.0
 14
37.50000066663143
 24
57.99721114293836
 34
0.0
100
AcDbRotatedDimension
  0
LINE
  5
6D3
330
18
100
AcDbEntity
  8
0
100
AcDbLine
 10
-37.50000066663143
 20
57.99666826125353
 30
0.0
 11
37.50000066663143
 21
57.99721114293836
 31
0.0
  0
LINE
  5
6D4
330
18
100
AcDbEntity
  8
0
100
AcDbLine
 10
-24.19399268372581
 20
0.0
 30
0.0
 11
-18.80600063271356
 21
0.0
 31
0.0
  0
DIMENSION
  5
6D7
330
18
100
AcDbEntity
  8
COTATION-JACOBDELAFON
100
AcDbDimension
  2
*D2
 10
-50.69211091734747
 20
0.0000000000000026
 30
0.0
 11
-53.12382988051254
 21
28.99833413062676
 31
0.0
 70
    32
  3
COTATION-JACOB-DELAFON
100
AcDbAlignedDimension
 13
-37.50000066663143
 23
57.99666826125353
 33
0.0
 14
-41.46538600517291
 24
0.0
 34
0.0
 50
90.0
100
AcDbRotatedDimension
  0
SPLINE
  5
6E1
330
18
100
AcDbEntity
  8
0
100
AcDbSpline
210
0.0
220
0.0
230
1.0
 70
     8
 71
     3
 72
    10
 73
     6
 74
     0
 42
0.0000000001
 43
0.0000000001
 40
0.4665414966320577
 40
0.4665414966320577
 40
0.4665414966320577
 40
0.4665414966320577
 40
1.493886633928278
 40
4.725951495779938
 40
4.838508797149558
 40
4.838508797149558
 40
4.838508797149558
 40
4.838508797149558
 10
-25.63237023531862
 20
24.2643972320482
 30
0.0
 10
-25.34571962271271
 20
23.47707366547459
 30
0.0
 10
-23.91852799219931
 20
20.29890872712622
 30
0.0
 10
-21.03430354208827
 20
17.37821220247865
 30
0.0
 10
-18.42890932195196
 20
16.68506337102083
 30
0.0
 10
-18.34080787473953
 20
16.66337156865631
 30
0.0
  0
LINE
  5
6E2
330
18
100
AcDbEntity
  8
0
100
AcDbLine
 10
-28.97197211007076
 20
44.00981526783517
 30
0.0
 11
-26.11043730920747
 21
26.10717675222776
 31
0.0
  0
LINE
  5
6E7
330
18
100
AcDbEntity
  8
0
100
AcDbLine
 10
-34.60445520122329
 20
55.99665302827045
 30
0.0
 11
-33.35417831794686
 21
49.0029205975103
 31
0.0
  0
LINE
  5
6E8
330
18
100
AcDbEntity
  8
0
100
AcDbLine
 10
-33.35417831794686
 20
49.0029205975103
 30
0.0
 11
-28.97197211007076
 21
44.00981526783517
 31
0.0
  0
LINE
  5
6E9
330
18
100
AcDbEntity
  8
0
100
AcDbLine
 10
-37.50000066663143
 20
57.99666826125353
 30
0.0
 11
-37.35231264774326
 21
55.99666933022938
 31
0.0
  0
SPLINE
  5
6EA
330
18
100
AcDbEntity
  8
0
100
AcDbSpline
210
0.0
220
0.0
230
1.0
 70
     8
 71
     3
 72
    11
 73
     7
 74
     0
 42
0.0000000001
 43
0.0000000001
 40
0.2819855740933925
 40
0.2819855740933925
 40
0.2819855740933925
 40
0.2819855740933925
 40
0.5914484696365498
 40
1.304800928159023
 40
2.079862982334065
 40
2.747345845086312
 40
2.747345845086312
 40
2.747345845086312
 40
2.747345845086312
 10
5.087330267210266
 20
14.29743030248905
 30
0.0
 10
5.052111403404072
 20
13.76214728509392
 30
0.0
 10
4.892088896972939
 20
12.93860371692281
 30
0.0
 10
3.529696194206369
 20
11.88653797940173
 30
0.0
 10
1.733295427174741
 20
12.15523403997633
 30
0.0
 10
0.5462913263963604
 20
12.0955449974524
 30
0.0
 10
0.0000033417825055
 20
12.08288207418854
 30
0.0
  0
SPLINE
  5
6EB
330
18
100
AcDbEntity
  8
0
100
AcDbSpline
210
0.0
220
0.0
230
1.0
 70
     8
 71
     3
 72
    11
 73
     7
 74
     0
 42
0.0000000001
 43
0.0000000001
 40
0.2884001537053787
 40
0.2884001537053787
 40
0.2884001537053787
 40
0.2884001537053787
 40
0.5914484696365498
 40
1.304800928159023
 40
2.079862982334065
 40
2.747345845086312
 40
2.747345845086312
 40
2.747345845086312
 40
2.747345845086312
 10
-5.087323583649659
 20
14.29743030248904
 30
0.0
 10
-5.049342582299384
 20
13.75403611214447
 30
0.0
 10
-4.886848108011331
 20
12.93698858018378
 30
0.0
 10
-3.529775089723468
 20
11.88808253496267
 30
0.0
 10
-1.733256917608767
 20
12.1559924937593
 30
0.0
 10
-0.5462790494379103
 20
12.09578404306671
 30
0.0
 10
0.0000033417828465
 20
12.08288207418843
 30
0.0
  0
LINE
  5
6EC
330
18
100
AcDbEntity
  8
0
100
AcDbLine
 10
20.8424572672522
 20
7.036062802909661
 30
0.0
 11
19.39500638540312
 21
11.99650651470084
 31
0.0
  0
LINE
  5
6ED
330
18
100
AcDbEntity
  8
0
100
AcDbLine
 10
17.96625684704566
 20
11.82782655576465
 30
0.0
 11
19.56847844489999
 21
5.477102683128912
 31
0.0
  0
LWPOLYLINE
  5
6EE
330
18
100
AcDbEntity
  8
0
100
AcDbPolyline
 90
        4
 70
     1
 43
0.0
 10
22.67103746859322
 20
2.129414047995389
 10
20.32896921496734
 20
2.129414047995389
 10
20.32896921496734
 20
4.490612325530825
 10
22.67103746859322
 20
4.490612325530825
  0
LWPOLYLINE
  5
6EF
330
18
100
AcDbEntity
  8
0
100
AcDbPolyline
 90
        4
 70
     1
 43
0.0
 10
24.06556376385487
 20
-0.0000000000000071
 10
18.67757171284262
 20
-0.0000000000000071
 10
18.67757171284262
 20
2.129414047995389
 10
24.06556376385487
 20
2.129414047995389
  0
LINE
  5
6F0
330
18
100
AcDbEntity
  8
0
100
AcDbLine
 10
23.59782256643621
 20
6.900050563980236
 30
0.0
 11
20.8424572672522
 21
7.036062802909661
 31
0.0
  0
LWPOLYLINE
  5
6F1
330
18
100
AcDbEntity
  8
0
100
AcDbPolyline
 90
        4
 70
     1
 43
0.0
 10
19.56847844489999
 20
4.490612325530825
 10
23.48155071292757
 20
4.490612325530825
 10
23.48155071292757
 20
5.477102683128912
 10
19.56847844489999
 20
5.477102683128912
  0
LINE
  5
6F2
330
18
100
AcDbEntity
  8
0
100
AcDbLine
 10
23.76532028062388
 20
5.377899175785721
 30
0.0
 11
23.59782256643621
 21
6.900050563980236
 31
0.0
  0
LINE
  5
6F3
330
18
100
AcDbEntity
  8
0
100
AcDbLine
 10
23.76532028062388
 20
5.377899175785721
 30
0.0
 11
23.48155071292757
 21
5.377899175785721
 31
0.0
  0
LINE
  5
6F4
330
18
100
AcDbEntity
  8
0
100
AcDbLine
 10
28.9859462530969
 20
43.99494662165728
 30
0.0
 11
26.12471927602488
 21
26.14435481021509
 31
0.0
  0
LINE
  5
6F5
330
18
100
AcDbEntity
  8
0
100
AcDbLine
 10
19.69716236901604
 20
13.13174998660598
 30
0.0
 11
21.06125914619265
 21
17.95230414976383
 31
0.0
  0
LINE
  5
6F6
330
18
100
AcDbEntity
  8
0
100
AcDbLine
 10
19.39500638540312
 20
11.99650651470084
 30
0.0
 11
19.69716236901604
 21
13.13174998660598
 31
0.0
  0
LINE
  5
6F7
330
18
100
AcDbEntity
  8
0
100
AcDbLine
 10
19.47500333538041
 20
17.04672002608375
 30
0.0
 11
17.96625684704566
 21
11.82782655576465
 31
0.0
  0
LINE
  5
6F8
330
18
100
AcDbEntity
  8
0
100
AcDbLine
 10
33.36954456536725
 20
48.98613406377762
 30
0.0
 11
28.9859462530969
 21
43.99494662165728
 31
0.0
  0
LINE
  5
6F9
330
18
100
AcDbEntity
  8
0
100
AcDbLine
 10
34.6260911586034
 20
55.9972265324269
 30
0.0
 11
33.36954456536725
 21
48.98613406377762
 31
0.0
  0
LINE
  5
6FA
330
18
100
AcDbEntity
  8
0
100
AcDbLine
 10
37.50000066663143
 20
57.99721114293836
 30
0.0
 11
37.35820205191191
 21
55.99721011648772
 31
0.0
  0
LINE
  5
7DC
330
18
100
AcDbEntity
  8
0
100
AcDbLine
 10
-37.35231264774326
 20
55.99666933022938
 30
0.0
 11
37.35820205191191
 21
55.99721011648772
 31
0.0
  0
ARC
  5
844
330
18
100
AcDbEntity
  8
0
100
AcDbCircle
 10
0.0000033417243404
 20
179.6503498661894
 30
0.0
 40
164.0156713568508
100
AcDbArc
 50
263.5795552681539
 51
276.4204447318858
  0
SPLINE
  5
845
330
18
100
AcDbEntity
  8
0
100
AcDbSpline
210
0.0
220
0.0
230
1.0
 70
     8
 71
     3
 72
    10
 73
     6
 74
     0
 42
0.0000000001
 43
0.0000000001
 40
0.4239056882392328
 40
0.4239056882392328
 40
0.4239056882392328
 40
0.4239056882392328
 40
1.493886633928278
 40
4.725951495779938
 40
4.838508797149558
 40
4.838508797149558
 40
4.838508797149558
 40
4.838508797149558
 10
25.66776986492809
 20
24.36252869301135
 30
0.0
 10
25.37415954045684
 20
23.54073253724981
 30
0.0
 10
23.94666188544799
 20
20.32739161570057
 30
0.0
 10
21.03431022564961
 20
17.37821220249328
 30
0.0
 10
18.42891600551378
 20
16.68506337103365
 30
0.0
 10
18.34081455830137
 20
16.66337156866907
 30
0.0
  0
SPLINE
  5
846
330
18
100
AcDbEntity
  8
0
100
AcDbSpline
210
0.0
220
0.0
230
1.0
 70
     8
 71
     3
 72
    10
 73
     6
 74
     0
 42
0.0000000001
 43
0.0000000001
 40
0.0
 40
0.0
 40
0.0
 40
0.0
 40
1.419415496880952
 40
4.720441333205157
 40
5.206297684244893
 40
5.206297684244893
 40
5.206297684244893
 40
5.206297684244893
 10
-18.34080787473946
 20
16.6633715686563
 30
0.0
 10
-16.63177270388796
 20
15.70824240501306
 30
0.0
 10
-12.80913998081675
 20
15.00849896111837
 30
0.0
 10
-8.581618110043557
 20
14.47021655280396
 30
0.0
 10
-5.484899169725405
 20
14.31451189292353
 30
0.0
 10
-5.087323583649673
 20
14.29743030248905
 30
0.0
  0
SPLINE
  5
849
330
18
100
AcDbEntity
  8
0
100
AcDbSpline
210
0.0
220
0.0
230
1.0
 70
     8
 71
     3
 72
    10
 73
     6
 74
     0
 42
0.0000000001
 43
0.0000000001
 40
0.0
 40
0.0
 40
0.0
 40
0.0
 40
1.419415496880952
 40
4.720441333205157
 40
5.206297684244893
 40
5.206297684244893
 40
5.206297684244893
 40
5.206297684244893
 10
18.34081455830935
 20
16.66337156866994
 30
0.0
 10
16.63177938744856
 20
15.70824240501306
 30
0.0
 10
12.80914666437735
 20
15.00849896111837
 30
0.0
 10
8.581624793604152
 20
14.47021655280396
 30
0.0
 10
5.484905853285997
 20
14.31451189292353
 30
0.0
 10
5.087330267210266
 20
14.29743030248905
 30
0.0
  0
LINE
  5
84A
330
18
100
AcDbEntity
  8
0
100
AcDbLine
 10
-20.97088618712317
 20
7.036062802909583
 30
0.0
 11
-19.52343530527411
 21
11.99650651470077
 31
0.0
  0
LINE
  5
84B
330
18
100
AcDbEntity
  8
0
100
AcDbLine
 10
-18.09468576691664
 20
11.82782655576458
 30
0.0
 11
-19.69690736477096
 21
5.477102683128833
 31
0.0
  0
LWPOLYLINE
  5
84C
330
18
100
AcDbEntity
  8
0
100
AcDbPolyline
 90
        4
 70
     1
 43
0.0
 10
-24.19399268372581
 20
-0.0000000000000995
 10
-18.80600063271356
 20
-0.0000000000000782
 10
-18.80600063271357
 20
2.129414047995318
 10
-24.19399268372582
 20
2.129414047995297
  0
LWPOLYLINE
  5
84D
330
18
100
AcDbEntity
  8
0
100
AcDbPolyline
 90
        4
 70
     1
 43
0.0
 10
-19.69690736477095
 20
4.490612325530747
 10
-23.60997963279853
 20
4.490612325530733
 10
-23.60997963279854
 20
5.477102683128819
 10
-19.69690736477096
 20
5.477102683128833
  0
LWPOLYLINE
  5
84E
330
18
100
AcDbEntity
  8
0
100
AcDbPolyline
 90
        4
 70
     1
 43
0.0
 10
-22.79946638846418
 20
2.129414047995304
 10
-20.4573981348383
 20
2.129414047995311
 10
-20.4573981348383
 20
4.490612325530747
 10
-22.79946638846419
 20
4.49061232553074
  0
LINE
  5
84F
330
18
100
AcDbEntity
  8
0
100
AcDbLine
 10
-23.89374920049485
 20
5.377899175785628
 30
0.0
 11
-23.72625148630717
 21
6.900050563980144
 31
0.0
  0
LINE
  5
850
330
18
100
AcDbEntity
  8
0
100
AcDbLine
 10
-23.89374920049485
 20
5.377899175785628
 30
0.0
 11
-23.60997963279854
 21
5.377899175785628
 31
0.0
  0
LINE
  5
851
330
18
100
AcDbEntity
  8
0
100
AcDbLine
 10
-23.72625148630717
 20
6.900050563980144
 30
0.0
 11
-20.97088618712317
 21
7.036062802909583
 31
0.0
  0
LINE
  5
852
330
18
100
AcDbEntity
  8
0
100
AcDbLine
 10
-19.52343530527411
 20
11.99650651470077
 30
0.0
 11
-19.82559128888704
 21
13.13174998660591
 31
0.0
  0
LINE
  5
853
330
18
100
AcDbEntity
  8
0
100
AcDbLine
 10
-19.62239039886418
 20
17.11229799605742
 30
0.0
 11
-18.09468576691664
 21
11.82782655576458
 31
0.0
  0
LWPOLYLINE
  5
854
330
18
100
AcDbEntity
  8
0
100
AcDbPolyline
 90
        3
 70
     0
 43
0.0
 10
-18.39542513714974
 20
12.86811181754493
 10
-16.96950328996769
 20
12.88934666253594
 10
-17.01607743340953
 20
16.0168047944762
  0
LINE
  5
855
330
18
100
AcDbEntity
  8
0
100
AcDbLine
 10
-19.82559128888704
 20
13.13174998660591
 30
0.0
 11
-21.22315507433059
 21
18.07057253711637
 31
0.0
  0
LINE
  5
86B
330
18
100
AcDbEntity
  8
0
100
AcDbLine
 10
-5.087323583649659
 20
14.29743030248903
 30
0.0
 11
5.08733026721028
 21
14.29743030248906
 31
0.0
  0
ARC
  5
886
330
18
100
AcDbEntity
  8
0
100
AcDbCircle
 10
16.25075623067968
 20
27.72702779575979
 30
0.0
 40
10.0
100
AcDbArc
 50
340.3392696212203
 51
350.8936616766979
  0
ARC
  5
887
330
18
100
AcDbEntity
  8
0
100
AcDbCircle
 10
-16.23578265697747
 20
27.68552889899257
 30
0.0
 40
10.0
100
AcDbArc
 50
189.0812666118659
 51
200.0056720062915
  0
LINE
  5
8A2
330
18
100
AcDbEntity
  8
0
100
AcDbLine
 10
18.67757171284262
 20
0.0
 30
0.0
 11
24.06556376385487
 21
0.0
 31
0.0
  0
ENDSEC
  0
SECTION
  2
OBJECTS
  0
DICTIONARY
  5
C
330
0
100
AcDbDictionary
  3
ACAD_GROUP
350
D
  3
ACAD_IMAGE_DICT
350
48
  3
ACAD_IMAGE_VARS
350
47
  3
ACAD_LAYOUT
350
488
  3
ACAD_MLINESTYLE
350
1B
  3
ACAD_PLOTSETTINGS
350
489
  3
ACAD_PLOTSTYLENAME
350
486
  3
ACADDIM
350
88F
  3
ACDBHEADERROUNDTRIPXREC
350
92D
  3
ACDBVARIABLEDICTIONARY
350
48F
  0
DICTIONARY
  5
950
330
18
100
AcDbDictionary
280
     1
  3
ACAD_LAYOUTSELFREF
360
951
  0
DICTIONARY
  5
94E
330
15
100
AcDbDictionary
280
     1
  3
ACAD_LAYOUTSELFREF
360
94F
  0
DICTIONARY
  5
D
102
{ACAD_REACTORS
330
C
102
}
330
C
100
AcDbDictionary
  0
DICTIONARY
  5
48
102
{ACAD_REACTORS
330
C
102
}
330
C
100
AcDbDictionary
  0
RASTERVARIABLES
  5
47
102
{ACAD_REACTORS
330
C
102
}
330
C
100
AcDbRasterVariables
 90
        0
 70
     1
 71
     1
 72
     0
  0
DICTIONARY
  5
488
102
{ACAD_REACTORS
330
C
102
}
330
C
100
AcDbDictionary
  0
DICTIONARY
  5
1B
102
{ACAD_REACTORS
330
C
102
}
330
C
100
AcDbDictionary
  3
STANDARD
350
1C
  0
DICTIONARY
  5
489
102
{ACAD_REACTORS
330
C
102
}
330
C
100
AcDbDictionary
  0
ACDBDICTIONARYWDFLT
  5
486
102
{ACAD_REACTORS
330
C
102
}
330
C
100
AcDbDictionary
281
     1
  3
Normal
350
487
100
AcDbDictionaryWithDefault
340
487
  0
XRECORD
  5
88F
102
{ACAD_REACTORS
330
C
102
}
330
C
100
AcDbXrecord
 90
   990106
  3

 60
     0
 61
     0
 62
     1
 63
     3
 64
     0
 65
     0
 66
     0
 67
     3
 68
     1
 69
     0
 70
     0
 71
     0
 72
     0
 40
0.0
170
     0
  0
DICTIONARY
  5
92D
102
{ACAD_REACTORS
330
C
102
}
330
C
100
AcDbDictionary
  3
CEPSNTYPE
350
937
  3
DIMSTYLEDATA
350
93B
  3
FINGERPRINTGUID
350
938
  3
HYPERLINKBASE
350
930
  3
INSUNITS
350
936
  3
LAYOUTDICT
350
932
  3
LWETCUNION
350
935
  3
PLOTSETDICT
350
933
  3
PLOTSTYLNAMDICT
350
934
  3
PSVPSCALE
350
93A
  3
PUCSBASE
350
93E
  3
PUCSORGBACK
350
944
  3
PUCSORGBOTTOM
350
940
  3
PUCSORGFRONT
350
943
  3
PUCSORGLEFT
350
941
  3
PUCSORGRIGHT
350
942
  3
PUCSORGTOP
350
93F
  3
PUCSORTHOREF
350
93C
  3
PUCSORTHOVIEW
350
93D
  3
STYLESHEET
350
931
  3
TSTACKALIGN
350
92E
  3
TSTACKSIZE
350
92F
  3
UCSBASE
350
947
  3
UCSORGBACK
350
94D
  3
UCSORGBOTTOM
350
949
  3
UCSORGFRONT
350
94C
  3
UCSORGLEFT
350
94A
  3
UCSORGRIGHT
350
94B
  3
UCSORGTOP
350
948
  3
UCSORTHOREF
350
945
  3
UCSORTHOVIEW
350
946
  3
VERSIONGUID
350
939
  0
DICTIONARY
  5
48F
102
{ACAD_REACTORS
330
C
102
}
330
C
100
AcDbDictionary
  3
DIMASSOC
350
490
  0
XRECORD
  5
951
102
{ACAD_REACTORS
330
950
102
}
330
950
100
AcDbXrecord
340
18
  0
XRECORD
  5
94F
102
{ACAD_REACTORS
330
94E
102
}
330
94E
100
AcDbXrecord
340
15
  0
MLINESTYLE
  5
1C
102
{ACAD_REACTORS
330
1B
102
}
330
1B
100
AcDbMlineStyle
  2
STANDARD
 70
     0
  3

 62
   256
 51
90.0
 52
90.0
 71
     2
 49
0.5
 62
   256
  6
BYLAYER
 49
-0.5
 62
   256
  6
BYLAYER
  0
ACDBPLACEHOLDER
  5
487
102
{ACAD_REACTORS
330
486
102
}
330
486
100
AcDbPlaceHolder
280
     0
  0
XRECORD
  5
937
102
{ACAD_REACTORS
330
92D
102
}
330
92D
100
AcDbXrecord
 90
        0
  0
XRECORD
  5
93B
102
{ACAD_REACTORS
330
92D
102
}
330
92D
100
AcDbXrecord
1000
DSTYLE
1002
{
1070
    79
 70
     3
1070
   279
 70
     2
1070
   342
340
491
1002
}
  0
XRECORD
  5
938
102
{ACAD_REACTORS
330
92D
102
}
330
92D
100
AcDbXrecord
  1
{8C0D10A8-382B-40E5-800D-97D890504C19}
  0
XRECORD
  5
930
102
{ACAD_REACTORS
330
92D
102
}
330
92D
100
AcDbXrecord
  1

  0
XRECORD
  5
936
102
{ACAD_REACTORS
330
92D
102
}
330
92D
100
AcDbXrecord
 90
        0
  0
XRECORD
  5
932
102
{ACAD_REACTORS
330
92D
102
}
330
92D
100
AcDbXrecord
340
488
  0
XRECORD
  5
935
102
{ACAD_REACTORS
330
92D
102
}
330
92D
100
AcDbXrecord
 90
    14877
  0
XRECORD
  5
933
102
{ACAD_REACTORS
330
92D
102
}
330
92D
100
AcDbXrecord
340
489
  0
XRECORD
  5
934
102
{ACAD_REACTORS
330
92D
102
}
330
92D
100
AcDbXrecord
340
486
  0
XRECORD
  5
93A
102
{ACAD_REACTORS
330
92D
102
}
330
92D
100
AcDbXrecord
 40
0.0
  0
XRECORD
  5
93E
102
{ACAD_REACTORS
330
92D
102
}
330
92D
100
AcDbXrecord
340
0
  0
XRECORD
  5
944
102
{ACAD_REACTORS
330
92D
102
}
330
92D
100
AcDbXrecord
 10
0.0
 20
0.0
 30
0.0
  0
XRECORD
  5
940
102
{ACAD_REACTORS
330
92D
102
}
330
92D
100
AcDbXrecord
 10
0.0
 20
0.0
 30
0.0
  0
XRECORD
  5
943
102
{ACAD_REACTORS
330
92D
102
}
330
92D
100
AcDbXrecord
 10
0.0
 20
0.0
 30
0.0
  0
XRECORD
  5
941
102
{ACAD_REACTORS
330
92D
102
}
330
92D
100
AcDbXrecord
 10
0.0
 20
0.0
 30
0.0
  0
XRECORD
  5
942
102
{ACAD_REACTORS
330
92D
102
}
330
92D
100
AcDbXrecord
 10
0.0
 20
0.0
 30
0.0
  0
XRECORD
  5
93F
102
{ACAD_REACTORS
330
92D
102
}
330
92D
100
AcDbXrecord
 10
0.0
 20
0.0
 30
0.0
  0
XRECORD
  5
93C
102
{ACAD_REACTORS
330
92D
102
}
330
92D
100
AcDbXrecord
340
0
  0
XRECORD
  5
93D
102
{ACAD_REACTORS
330
92D
102
}
330
92D
100
AcDbXrecord
 70
     0
  0
XRECORD
  5
931
102
{ACAD_REACTORS
330
92D
102
}
330
92D
100
AcDbXrecord
  1

  0
XRECORD
  5
92E
102
{ACAD_REACTORS
330
92D
102
}
330
92D
100
AcDbXrecord
 90
        1
  0
XRECORD
  5
92F
102
{ACAD_REACTORS
330
92D
102
}
330
92D
100
AcDbXrecord
 90
       70
  0
XRECORD
  5
947
102
{ACAD_REACTORS
330
92D
102
}
330
92D
100
AcDbXrecord
340
0
  0
XRECORD
  5
94D
102
{ACAD_REACTORS
330
92D
102
}
330
92D
100
AcDbXrecord
 10
0.0
 20
0.0
 30
0.0
  0
XRECORD
  5
949
102
{ACAD_REACTORS
330
92D
102
}
330
92D
100
AcDbXrecord
 10
0.0
 20
0.0
 30
0.0
  0
XRECORD
  5
94C
102
{ACAD_REACTORS
330
92D
102
}
330
92D
100
AcDbXrecord
 10
0.0
 20
0.0
 30
0.0
  0
XRECORD
  5
94A
102
{ACAD_REACTORS
330
92D
102
}
330
92D
100
AcDbXrecord
 10
0.0
 20
0.0
 30
0.0
  0
XRECORD
  5
94B
102
{ACAD_REACTORS
330
92D
102
}
330
92D
100
AcDbXrecord
 10
0.0
 20
0.0
 30
0.0
  0
XRECORD
  5
948
102
{ACAD_REACTORS
330
92D
102
}
330
92D
100
AcDbXrecord
 10
0.0
 20
0.0
 30
0.0
  0
XRECORD
  5
945
102
{ACAD_REACTORS
330
92D
102
}
330
92D
100
AcDbXrecord
340
0
  0
XRECORD
  5
946
102
{ACAD_REACTORS
330
92D
102
}
330
92D
100
AcDbXrecord
 70
     0
  0
XRECORD
  5
939
102
{ACAD_REACTORS
330
92D
102
}
330
92D
100
AcDbXrecord
  1
{6EC8A371-273F-47D8-ACA9-AC04AE65C115}
  0
DICTIONARYVAR
  5
490
102
{ACAD_REACTORS
330
48F
102
}
330
48F
100
DictionaryVariables
280
     0
  1
1
  0
ENDSEC
  0
EOF
