  0
SECTION
  2
HEADER
  9
$ACADVER
  1
AC1014
  9
$ACADMAINTVER
 70
     9
  9
$DWGCODEPAGE
  3
ANSI_1252
  9
$INSBASE
 10
0.0
 20
0.0
 30
0.0
  9
$EXTMIN
 10
-0.8999999999999847
 20
-0.8999999999999761
 30
0.0
  9
$EXTMAX
 10
194.6093335942378
 20
82.47930741881745
 30
0.0
  9
$LIMMIN
 10
0.0
 20
0.0
  9
$LIMMAX
 10
420.0
 20
297.0
  9
$ORTHOMODE
 70
     1
  9
$REGENMODE
 70
     1
  9
$FILLMODE
 70
     1
  9
$QTEXTMODE
 70
     0
  9
$MIRRTEXT
 70
     1
  9
$DRAGMODE
 70
     2
  9
$LTSCALE
 40
1.0
  9
$OSMODE
 70
   167
  9
$ATTMODE
 70
     1
  9
$TEXTSIZE
 40
2.5
  9
$TRACEWID
 40
1.0
  9
$TEXTSTYLE
  7
STANDARD
  9
$CLAYER
  8
0
  9
$CELTYPE
  6
BYLAYER
  9
$CECOLOR
 62
   256
  9
$CELTSCALE
 40
1.0
  9
$DELOBJ
 70
     1
  9
$DISPSILH
 70
     0
  9
$DIMSCALE
 40
1.0
  9
$DIMASZ
 40
1.8
  9
$DIMEXO
 40
0.625
  9
$DIMDLI
 40
3.799999999999999
  9
$DIMRND
 40
0.0
  9
$DIMDLE
 40
0.0
  9
$DIMEXE
 40
1.8
  9
$DIMTP
 40
0.0
  9
$DIMTM
 40
0.0
  9
$DIMTXT
 40
3.0
  9
$DIMCEN
 40
0.9
  9
$DIMTSZ
 40
0.0
  9
$DIMTOL
 70
     0
  9
$DIMLIM
 70
     0
  9
$DIMTIH
 70
     0
  9
$DIMTOH
 70
     0
  9
$DIMSE1
 70
     0
  9
$DIMSE2
 70
     0
  9
$DIMTAD
 70
     1
  9
$DIMZIN
 70
    12
  9
$DIMBLK
  1
OBLIQUE
  9
$DIMASO
 70
     1
  9
$DIMSHO
 70
     1
  9
$DIMPOST
  1

  9
$DIMAPOST
  1

  9
$DIMALT
 70
     0
  9
$DIMALTD
 70
     2
  9
$DIMALTF
 40
25.4
  9
$DIMLFAC
 40
1.0
  9
$DIMTOFL
 70
     0
  9
$DIMTVP
 40
0.0
  9
$DIMTIX
 70
     0
  9
$DIMSOXD
 70
     0
  9
$DIMSAH
 70
     0
  9
$DIMBLK1
  1

  9
$DIMBLK2
  1

  9
$DIMSTYLE
  2
COTATION-JACOB-DELAFON
  9
$DIMCLRD
 70
     0
  9
$DIMCLRE
 70
     0
  9
$DIMCLRT
 70
     0
  9
$DIMTFAC
 40
1.0
  9
$DIMGAP
 40
0.9
  9
$DIMJUST
 70
     0
  9
$DIMSD1
 70
     0
  9
$DIMSD2
 70
     0
  9
$DIMTOLJ
 70
     1
  9
$DIMTZIN
 70
     0
  9
$DIMALTZ
 70
     0
  9
$DIMALTTZ
 70
     0
  9
$DIMFIT
 70
     5
  9
$DIMUPT
 70
     0
  9
$DIMUNIT
 70
     2
  9
$DIMDEC
 70
     2
  9
$DIMTDEC
 70
     2
  9
$DIMALTU
 70
     2
  9
$DIMALTTD
 70
     2
  9
$DIMTXSTY
  7
JACOB-DELAFON
  9
$DIMAUNIT
 70
     0
  9
$LUNITS
 70
     2
  9
$LUPREC
 70
     4
  9
$SKETCHINC
 40
1.0
  9
$FILLETRAD
 40
10.0
  9
$AUNITS
 70
     0
  9
$AUPREC
 70
     0
  9
$MENU
  1
.
  9
$ELEVATION
 40
0.0
  9
$PELEVATION
 40
0.0
  9
$THICKNESS
 40
0.0
  9
$LIMCHECK
 70
     0
  9
$BLIPMODE
 70
     0
  9
$CHAMFERA
 40
10.0
  9
$CHAMFERB
 40
10.0
  9
$CHAMFERC
 40
20.0
  9
$CHAMFERD
 40
0.0
  9
$SKPOLY
 70
     0
  9
$TDCREATE
 40
2451204.814370833
  9
$TDUPDATE
 40
2452285.664008217
  9
$TDINDWG
 40
0.1660729630
  9
$TDUSRTIMER
 40
0.1660729630
  9
$USRTIMER
 70
     1
  9
$ANGBASE
 50
0.0
  9
$ANGDIR
 70
     0
  9
$PDMODE
 70
     0
  9
$PDSIZE
 40
0.0
  9
$PLINEWID
 40
0.0
  9
$COORDS
 70
     0
  9
$SPLFRAME
 70
     0
  9
$SPLINETYPE
 70
     6
  9
$SPLINESEGS
 70
     8
  9
$ATTDIA
 70
     0
  9
$ATTREQ
 70
     1
  9
$HANDLING
 70
 22529
  9
$HANDSEED
  5
88C
  9
$SURFTAB1
 70
     6
  9
$SURFTAB2
 70
     6
  9
$SURFTYPE
 70
     6
  9
$SURFU
 70
     6
  9
$SURFV
 70
     6
  9
$UCSNAME
  2

  9
$UCSORG
 10
0.0
 20
0.0
 30
0.0
  9
$UCSXDIR
 10
1.0
 20
0.0
 30
0.0
  9
$UCSYDIR
 10
0.0
 20
1.0
 30
0.0
  9
$PUCSNAME
  2

  9
$PUCSORG
 10
0.0
 20
0.0
 30
0.0
  9
$PUCSXDIR
 10
1.0
 20
0.0
 30
0.0
  9
$PUCSYDIR
 10
0.0
 20
1.0
 30
0.0
  9
$USERI1
 70
     0
  9
$USERI2
 70
     0
  9
$USERI3
 70
     0
  9
$USERI4
 70
     0
  9
$USERI5
 70
     0
  9
$USERR1
 40
0.0
  9
$USERR2
 40
0.0
  9
$USERR3
 40
0.0
  9
$USERR4
 40
0.0
  9
$USERR5
 40
0.0
  9
$WORLDVIEW
 70
     1
  9
$SHADEDGE
 70
     3
  9
$SHADEDIF
 70
    70
  9
$TILEMODE
 70
     1
  9
$MAXACTVP
 70
    48
  9
$PINSBASE
 10
0.0
 20
0.0
 30
0.0
  9
$PLIMCHECK
 70
     0
  9
$PEXTMIN
 10
1.000000000000000E+20
 20
1.000000000000000E+20
 30
1.000000000000000E+20
  9
$PEXTMAX
 10
-1.000000000000000E+20
 20
-1.000000000000000E+20
 30
-1.000000000000000E+20
  9
$PLIMMIN
 10
0.0
 20
0.0
  9
$PLIMMAX
 10
420.0
 20
297.0
  9
$UNITMODE
 70
     0
  9
$VISRETAIN
 70
     1
  9
$PLINEGEN
 70
     0
  9
$PSLTSCALE
 70
     1
  9
$TREEDEPTH
 70
  3020
  9
$PICKSTYLE
 70
     1
  9
$CMLSTYLE
  2
STANDARD
  9
$CMLJUST
 70
     0
  9
$CMLSCALE
 40
20.0
  9
$PROXYGRAPHICS
 70
     1
  9
$MEASUREMENT
 70
     1
  0
ENDSEC
  0
SECTION
  2
CLASSES
  0
CLASS
  1
LWPOLYLINE
  2
AcDbPolyline
  3
AutoCAD 2000
 90
        0
280
     0
281
     1
  0
CLASS
  1
RASTERVARIABLES
  2
AcDbRasterVariables
  3
ISM
 90
        0
280
     0
281
     0
  0
CLASS
  1
IMAGEDEF
  2
AcDbRasterImageDef
  3
ISM
 90
        0
280
     0
281
     0
  0
CLASS
  1
IMAGEDEF_REACTOR
  2
AcDbRasterImageDefReactor
  3
ISM
 90
        1
280
     0
281
     0
  0
CLASS
  1
IMAGE
  2
AcDbRasterImage
  3
ISM
 90
      127
280
     0
281
     1
  0
CLASS
  1
ACDBDICTIONARYWDFLT
  2
AcDbDictionaryWithDefault
  3
AutoCAD 2000
 90
        0
280
     0
281
     0
  0
CLASS
  1
ACDBPLACEHOLDER
  2
AcDbPlaceHolder
  3
AutoCAD 2000
 90
        0
280
     0
281
     0
  0
CLASS
  1
LAYOUT
  2
AcDbLayout
  3
AutoCAD 2000
 90
        0
280
     0
281
     0
  0
CLASS
  1
DICTIONARYVAR
  2
AcDbDictionaryVar
  3
AutoCAD 2000
 90
        0
280
     0
281
     0
  0
CLASS
  1
LONG_TRANSACTION
  2
AcDbLongTransaction
  3
AutoCAD 2000
 90
        0
280
     0
281
     0
  0
CLASS
  1
LWPOLYLINE
  2
AcDbPolyline
  3
AutoCAD 2000
 90
        0
280
     0
281
     1
  0
CLASS
  1
HATCH
  2
AcDbHatch
  3
AutoCAD 2000
 90
        0
280
     0
281
     1
  0
CLASS
  1
XRECORD
  2
AcDbXrecord
  3
AutoCAD 2000
 90
        0
280
     0
281
     0
  0
ENDSEC
  0
SECTION
  2
TABLES
  0
TABLE
  2
VPORT
  5
8
330
0
100
AcDbSymbolTable
 70
     3
  0
VPORT
  5
866
330
8
100
AcDbSymbolTableRecord
100
AcDbViewportTableRecord
  2
*ACTIVE
 70
     0
 10
0.0
 20
0.0
 11
1.0
 21
1.0
 12
96.85589940508073
 22
42.13762201938939
 13
0.0
 23
0.0
 14
10.0
 24
10.0
 15
10.0
 25
10.0
 16
0.0
 26
0.0
 36
1.0
 17
0.0
 27
0.0
 37
0.0
 40
107.630718233328
 41
1.828516377649325
 42
50.0
 43
0.0
 44
0.0
 50
0.0
 51
0.0
 71
     0
 72
   100
 73
     1
 74
     1
 75
     0
 76
     0
 77
     0
 78
     0
  0
ENDTAB
  0
TABLE
  2
LTYPE
  5
5
330
0
100
AcDbSymbolTable
 70
     1
  0
LTYPE
  5
12
330
5
100
AcDbSymbolTableRecord
100
AcDbLinetypeTableRecord
  2
BYBLOCK
 70
     0
  3

 72
    65
 73
     0
 40
0.0
  0
LTYPE
  5
13
330
5
100
AcDbSymbolTableRecord
100
AcDbLinetypeTableRecord
  2
BYLAYER
 70
     0
  3

 72
    65
 73
     0
 40
0.0
  0
LTYPE
  5
14
330
5
100
AcDbSymbolTableRecord
100
AcDbLinetypeTableRecord
  2
CONTINUOUS
 70
     0
  3
Solid line
 72
    65
 73
     0
 40
0.0
  0
ENDTAB
  0
TABLE
  2
LAYER
  5
2
330
0
100
AcDbSymbolTable
 70
     3
  0
LAYER
  5
E
330
2
100
AcDbSymbolTableRecord
100
AcDbLayerTableRecord
  2
0
 70
     0
 62
   255
  6
CONTINUOUS
  0
LAYER
  5
270
330
2
100
AcDbSymbolTableRecord
100
AcDbLayerTableRecord
  2
DEFPOINTS
 70
     0
 62
     7
  6
CONTINUOUS
  0
LAYER
  5
4AD
330
2
100
AcDbSymbolTableRecord
100
AcDbLayerTableRecord
  2
COTATION-JACOBDELAFON
 70
     0
 62
     8
  6
CONTINUOUS
  0
ENDTAB
  0
TABLE
  2
STYLE
  5
3
330
0
100
AcDbSymbolTable
 70
     2
  0
STYLE
  5
F
330
3
100
AcDbSymbolTableRecord
100
AcDbTextStyleTableRecord
  2
STANDARD
 70
     0
 40
0.0
 41
1.0
 50
0.0
 71
     0
 42
2.5
  3
txt
  4

  0
STYLE
  5
4AE
330
3
100
AcDbSymbolTableRecord
100
AcDbTextStyleTableRecord
  2
JACOB-DELAFON
 70
     0
 40
0.0
 41
1.0
 50
0.0
 71
     0
 42
2.5
  3
ARIAL.TTF
  4

1001
ACAD
1000
Arial
1071
       34
  0
ENDTAB
  0
TABLE
  2
VIEW
  5
6
330
0
100
AcDbSymbolTable
 70
     0
  0
ENDTAB
  0
TABLE
  2
UCS
  5
7
330
0
100
AcDbSymbolTable
 70
     0
  0
ENDTAB
  0
TABLE
  2
APPID
  5
9
330
0
100
AcDbSymbolTable
 70
     2
  0
APPID
  5
10
330
9
100
AcDbSymbolTableRecord
100
AcDbRegAppTableRecord
  2
ACAD
 70
     0
  0
APPID
  5
4B0
330
9
100
AcDbSymbolTableRecord
100
AcDbRegAppTableRecord
  2
PE_URL
 70
     0
  0
ENDTAB
  0
TABLE
  2
DIMSTYLE
  5
A
330
0
100
AcDbSymbolTable
 70
     2
  0
DIMSTYLE
105
1D
330
A
100
AcDbSymbolTableRecord
100
AcDbDimStyleTableRecord
  2
STANDARD
 70
     0
  3

  4

  5

  6

  7

 40
1.0
 41
0.18
 42
0.0625
 43
0.38
 44
0.18
 45
0.0
 46
0.0
 47
0.0
 48
0.0
140
0.18
141
0.09
142
0.0
143
25.4
144
1.0
145
0.0
146
1.0
147
0.09
 71
     0
 72
     0
 73
     1
 74
     1
 75
     0
 76
     0
 77
     0
 78
     0
170
     0
171
     2
172
     0
173
     0
174
     0
175
     0
176
     0
177
     0
178
     0
270
     2
271
     4
272
     4
273
     2
274
     2
340
F
275
     0
280
     0
281
     0
282
     0
283
     1
284
     0
285
     0
286
     0
287
     3
288
     0
  0
DIMSTYLE
105
4AF
102
{ACAD_REACTORS
330
642
330
648
102
}
330
A
100
AcDbSymbolTableRecord
100
AcDbDimStyleTableRecord
  2
COTATION-JACOB-DELAFON
 70
     0
  3

  4

  5
OBLIQUE
  6

  7

 40
1.0
 41
1.8
 42
0.625
 43
3.799999999999999
 44
1.8
 45
0.0
 46
0.0
 47
0.0
 48
0.0
140
3.0
141
0.9
142
0.0
143
25.4
144
1.0
145
0.0
146
1.0
147
0.9
 71
     0
 72
     0
 73
     0
 74
     0
 75
     0
 76
     0
 77
     1
 78
    12
170
     0
171
     2
172
     0
173
     0
174
     0
175
     0
176
     0
177
     0
178
     0
270
     2
271
     2
272
     2
273
     2
274
     2
340
4AE
275
     0
280
     0
281
     0
282
     0
283
     1
284
     0
285
     0
286
     0
287
     5
288
     0
  0
ENDTAB
  0
TABLE
  2
BLOCK_RECORD
  5
1
330
0
100
AcDbSymbolTable
 70
     3
  0
BLOCK_RECORD
  5
18
102
{ACAD_XDICTIONARY
360
88A
102
}
330
1
100
AcDbSymbolTableRecord
100
AcDbBlockTableRecord
  2
*MODEL_SPACE
  0
BLOCK_RECORD
  5
15
102
{ACAD_XDICTIONARY
360
888
102
}
330
1
100
AcDbSymbolTableRecord
100
AcDbBlockTableRecord
  2
*PAPER_SPACE
  0
BLOCK_RECORD
  5
491
330
1
100
AcDbSymbolTableRecord
100
AcDbBlockTableRecord
  2
_OBLIQUE
  0
BLOCK_RECORD
  5
65F
330
1
100
AcDbSymbolTableRecord
100
AcDbBlockTableRecord
  2
*D1
  0
BLOCK_RECORD
  5
66B
330
1
100
AcDbSymbolTableRecord
100
AcDbBlockTableRecord
  2
*D2
  0
ENDTAB
  0
ENDSEC
  0
SECTION
  2
BLOCKS
  0
BLOCK
  5
19
330
18
100
AcDbEntity
  8
0
100
AcDbBlockBegin
  2
*MODEL_SPACE
 70
     0
 10
0.0
 20
0.0
 30
0.0
  3
*MODEL_SPACE
  1

  0
ENDBLK
  5
1A
330
18
100
AcDbEntity
  8
0
100
AcDbBlockEnd
  0
BLOCK
  5
16
330
15
100
AcDbEntity
 67
     1
  8
0
100
AcDbBlockBegin
  2
*PAPER_SPACE
 70
     0
 10
0.0
 20
0.0
 30
0.0
  3
*PAPER_SPACE
  1

  0
ENDBLK
  5
17
330
15
100
AcDbEntity
 67
     1
  8
0
100
AcDbBlockEnd
  0
BLOCK
  5
493
330
491
100
AcDbEntity
  8
0
100
AcDbBlockBegin
  2
_OBLIQUE
 70
     0
 10
0.0
 20
0.0
 30
0.0
  3
_OBLIQUE
  1

  0
LINE
  5
492
330
491
100
AcDbEntity
  8
0
  6
BYBLOCK
 62
     0
100
AcDbLine
 10
-0.5
 20
-0.5
 30
0.0
 11
0.5
 21
0.5
 31
0.0
  0
ENDBLK
  5
494
330
491
100
AcDbEntity
  8
0
100
AcDbBlockEnd
  0
BLOCK
  5
669
330
65F
100
AcDbEntity
  8
0
100
AcDbBlockBegin
  2
*D1
 70
     1
 10
0.0
 20
0.0
 30
0.0
  3
*D1
  1

  0
LINE
  5
80B
330
65F
100
AcDbEntity
  8
COTATION-JACOBDELAFON
 62
     0
100
AcDbLine
 10
179.9951808410838
 20
56.62226543675835
 30
0.0
 11
179.9951808410838
 21
79.52801137516124
 31
0.0
  0
LINE
  5
80C
330
65F
100
AcDbEntity
  8
COTATION-JACOBDELAFON
 62
     0
100
AcDbLine
 10
0.0000000000000142
 20
58.52750379414855
 30
0.0
 11
0.0000000000000155
 21
79.52801137516124
 31
0.0
  0
LINE
  5
80D
330
65F
100
AcDbEntity
  8
COTATION-JACOBDELAFON
 62
     0
100
AcDbLine
 10
179.9951808410838
 20
77.72801137516125
 30
0.0
 11
0.0000000000000154
 21
77.72801137516125
 31
0.0
  0
INSERT
  5
80E
330
65F
100
AcDbEntity
  8
COTATION-JACOBDELAFON
 62
     0
100
AcDbBlockReference
  2
_OBLIQUE
 10
179.9951808410838
 20
77.72801137516125
 30
0.0
 41
1.8
 42
1.8
 43
1.8
  0
INSERT
  5
80F
330
65F
100
AcDbEntity
  8
COTATION-JACOBDELAFON
 62
     0
100
AcDbBlockReference
  2
_OBLIQUE
 10
0.0000000000000154
 20
77.72801137516125
 30
0.0
 41
1.8
 42
1.8
 43
1.8
 50
180.0
  0
MTEXT
  5
810
330
65F
100
AcDbEntity
  8
COTATION-JACOBDELAFON
 62
     0
100
AcDbMText
 10
89.99759042054192
 20
80.15973033832633
 30
0.0
 40
3.0
 41
0.0
 71
     5
 72
     1
  1
\A1;180
  7
JACOB-DELAFON
1001
ACAD
1000
MTEXTBEGIN
1070
    73
1070
     1
1070
    44
1040
1.0
1070
    74
1070
     0
1000
MTEXTEND
  0
POINT
  5
811
330
65F
100
AcDbEntity
  8
DEFPOINTS
 62
     0
100
AcDbPoint
 10
179.9951808410838
 20
55.99726543675835
 30
0.0
  0
POINT
  5
812
330
65F
100
AcDbEntity
  8
DEFPOINTS
 62
     0
100
AcDbPoint
 10
0.0000000000000142
 20
57.90250379414855
 30
0.0
  0
POINT
  5
813
330
65F
100
AcDbEntity
  8
DEFPOINTS
 62
     0
100
AcDbPoint
 10
0.0000000000000154
 20
77.72801137516125
 30
0.0
  0
ENDBLK
  5
66A
330
65F
100
AcDbEntity
  8
0
100
AcDbBlockEnd
  0
BLOCK
  5
675
330
66B
100
AcDbEntity
  8
0
100
AcDbBlockBegin
  2
*D2
 70
     1
 10
0.0
 20
0.0
 30
0.0
  3
*D2
  1

  0
LINE
  5
814
330
66B
100
AcDbEntity
  8
COTATION-JACOBDELAFON
 62
     0
100
AcDbLine
 10
177.0621823607988
 20
58.00250379414855
 30
0.0
 11
194.6093335942378
 21
58.00250379414855
 31
0.0
  0
LINE
  5
815
330
66B
100
AcDbEntity
  8
COTATION-JACOBDELAFON
 62
     0
100
AcDbLine
 10
153.0836397612133
 20
0.0000000000000354
 30
0.0
 11
194.6093335942378
 21
0.0000000000000236
 31
0.0
  0
LINE
  5
816
330
66B
100
AcDbEntity
  8
COTATION-JACOBDELAFON
 62
     0
100
AcDbLine
 10
192.8093335942378
 20
58.00250379414855
 30
0.0
 11
192.8093335942378
 21
0.0000000000000241
 31
0.0
  0
INSERT
  5
817
330
66B
100
AcDbEntity
  8
COTATION-JACOBDELAFON
 62
     0
100
AcDbBlockReference
  2
_OBLIQUE
 10
192.8093335942378
 20
58.00250379414855
 30
0.0
 41
1.8
 42
1.8
 43
1.8
 50
90.0
  0
INSERT
  5
818
330
66B
100
AcDbEntity
  8
COTATION-JACOBDELAFON
 62
     0
100
AcDbBlockReference
  2
_OBLIQUE
 10
192.8093335942378
 20
0.0000000000000241
 30
0.0
 41
1.8
 42
1.8
 43
1.8
 50
270.0
  0
MTEXT
  5
819
330
66B
100
AcDbEntity
  8
COTATION-JACOBDELAFON
 62
     0
100
AcDbMText
 10
190.3776146310727
 20
29.00125189707432
 30
0.0
 40
3.0
 41
0.0
 71
     5
 72
     1
  1
\A1;58
  7
JACOB-DELAFON
 11
0.0000000000000001
 21
1.0
 31
0.0
1001
ACAD
1000
MTEXTBEGIN
1070
    73
1070
     1
1070
    44
1040
1.0
1070
    74
1070
     0
1000
MTEXTEND
  0
POINT
  5
81A
330
66B
100
AcDbEntity
  8
DEFPOINTS
 62
     0
100
AcDbPoint
 10
176.4371823607988
 20
58.00250379414855
 30
0.0
  0
POINT
  5
81B
330
66B
100
AcDbEntity
  8
DEFPOINTS
 62
     0
100
AcDbPoint
 10
152.4586397612133
 20
0.0000000000000355
 30
0.0
  0
POINT
  5
81C
330
66B
100
AcDbEntity
  8
DEFPOINTS
 62
     0
100
AcDbPoint
 10
192.8093335942378
 20
0.0000000000000241
 30
0.0
  0
ENDBLK
  5
676
330
66B
100
AcDbEntity
  8
0
100
AcDbBlockEnd
  0
ENDSEC
  0
SECTION
  2
ENTITIES
  0
LINE
  5
641
330
18
100
AcDbEntity
  8
0
100
AcDbLine
 10
179.9951808410838
 20
55.99726543675835
 30
0.0
 11
0.3718975509363958
 21
55.99726543675835
 31
0.0
  0
DIMENSION
  5
642
330
18
100
AcDbEntity
  8
COTATION-JACOBDELAFON
100
AcDbDimension
  2
*D1
 10
0.0000000000000154
 20
77.72801137516125
 30
0.0
 11
89.99759042054192
 21
80.15973033832633
 31
0.0
 70
    32
  3
COTATION-JACOB-DELAFON
100
AcDbAlignedDimension
 13
179.9951808410838
 23
55.99726543675835
 33
0.0
 14
0.0000000000000142
 24
57.90250379414855
 34
0.0
 50
180.0
100
AcDbRotatedDimension
  0
LINE
  5
644
330
18
100
AcDbEntity
  8
0
100
AcDbLine
 10
123.5636857935463
 20
16.38811361122228
 30
0.0
 11
19.5370624976371
 21
14.94896860554903
 31
0.0
  0
LINE
  5
645
330
18
100
AcDbEntity
  8
0
100
AcDbLine
 10
126.6996389643465
 20
0.0000000000000284
 30
0.0
 11
122.6499728628566
 21
0.0000000000000284
 31
0.0
  0
DIMENSION
  5
648
330
18
100
AcDbEntity
  8
COTATION-JACOBDELAFON
100
AcDbDimension
  2
*D2
 10
192.8093335942378
 20
0.0000000000000241
 30
0.0
 11
190.3776146310727
 21
29.00125189707432
 31
0.0
 70
    32
  3
COTATION-JACOB-DELAFON
100
AcDbAlignedDimension
 13
176.4371823607988
 23
58.00250379414855
 33
0.0
 14
152.4586397612133
 24
0.0000000000000355
 34
0.0
 50
90.0
100
AcDbRotatedDimension
  0
LINE
  5
649
330
18
100
AcDbEntity
  8
0
100
AcDbLine
 10
122.8177802650699
 20
16.37660549937272
 30
0.0
 11
123.2103311967313
 21
4.29920245385049
 31
0.0
  0
LINE
  5
64A
330
18
100
AcDbEntity
  8
0
100
AcDbLine
 10
126.7744208651839
 20
16.68831231512428
 30
0.0
 11
126.3717385501061
 21
4.299202453850433
 31
0.0
  0
LINE
  5
64B
330
18
100
AcDbEntity
  8
0
100
AcDbLine
 10
123.2103311967313
 20
4.29920245385049
 30
0.0
 11
126.3717385501061
 21
4.299202453850433
 31
0.0
  0
LWPOLYLINE
  5
64C
330
18
100
AcDbEntity
  8
0
100
AcDbPolyline
 90
        4
 70
     0
 43
0.0
 10
126.6996389643465
 20
0.0000000000000284
 10
126.6996389643466
 20
3.308530707178967
 10
122.6499728628566
 20
3.308530707178967
 10
122.6499728628566
 20
0.0000000000000213
  0
LWPOLYLINE
  5
64D
330
18
100
AcDbEntity
  8
0
100
AcDbPolyline
 90
        2
 70
     0
 43
0.0
 10
125.8731765580316
 20
3.308530707179023
 10
125.8731765580316
 20
4.299202453850433
  0
LWPOLYLINE
  5
64E
330
18
100
AcDbEntity
  8
0
100
AcDbPolyline
 90
        2
 70
     0
 43
0.0
 10
123.4764352691716
 20
4.29073522154173
 10
123.4764352691717
 20
3.308530707179023
  0
SPLINE
  5
64F
330
18
100
AcDbEntity
  8
0
100
AcDbSpline
210
0.0
220
0.0
230
1.0
 70
     8
 71
     3
 72
    16
 73
    12
 74
     0
 42
0.0000000001
 43
0.0000000001
 40
0.0
 40
0.0
 40
0.0
 40
0.0
 40
1.480687580501405
 40
3.539211976648467
 40
6.048874004101887
 40
10.04533253121696
 40
13.86609103517722
 40
18.20336852676847
 40
18.71962672371326
 40
19.39329721205103
 40
21.06085217746751
 40
21.06085217746751
 40
21.06085217746751
 40
21.06085217746751
 10
123.5636857935463
 20
16.38811361122234
 30
0.0
 10
126.8688257278733
 20
16.61631490533088
 30
0.0
 10
129.297086405663
 20
17.01888276269014
 30
0.0
 10
133.8447468905194
 20
21.34085464572931
 30
0.0
 10
137.1210882222724
 20
27.82227825764111
 30
0.0
 10
143.8558387186463
 20
33.56808369678052
 30
0.0
 10
150.4081029385194
 20
41.50002293888198
 30
0.0
 10
154.236341499686
 20
47.62835272259591
 30
0.0
 10
154.9286575197294
 20
52.70364282735815
 30
0.0
 10
157.647993313187
 20
53.20075844852992
 30
0.0
 10
159.3093968880663
 20
54.16564229550742
 30
0.0
 10
161.5713970048717
 20
55.99726543675835
 30
0.0
  0
LINE
  5
651
330
18
100
AcDbEntity
  8
0
100
AcDbLine
 10
176.4371823607988
 20
57.90250379414855
 30
0.0
 11
179.7297079588099
 21
57.90250379414855
 31
0.0
  0
LINE
  5
652
330
18
100
AcDbEntity
  8
0
100
AcDbLine
 10
179.7297079588099
 20
57.90250379414855
 30
0.0
 11
179.9951808410838
 21
55.99726543675835
 31
0.0
  0
LINE
  5
653
330
18
100
AcDbEntity
  8
0
100
AcDbLine
 10
43.72462684415494
 20
15.15632649438161
 30
0.0
 11
43.3717385501062
 21
4.299202453850377
 31
0.0
  0
LINE
  5
654
330
18
100
AcDbEntity
  8
0
100
AcDbLine
 10
39.85938119734827
 20
15.09669202656835
 30
0.0
 11
40.21033119673136
 21
4.299202453850433
 31
0.0
  0
LWPOLYLINE
  5
655
330
18
100
AcDbEntity
  8
0
100
AcDbPolyline
 90
        4
 70
     0
 43
0.0
 10
43.69963896434659
 20
-0.0000000000000071
 10
43.69963896434659
 20
3.30853070717891
 10
39.64997286285664
 20
3.30853070717891
 10
39.64997286285664
 20
-0.0000000000000071
  0
LINE
  5
656
330
18
100
AcDbEntity
  8
0
100
AcDbLine
 10
40.21033119673136
 20
4.299202453850433
 30
0.0
 11
43.3717385501062
 21
4.299202453850377
 31
0.0
  0
LWPOLYLINE
  5
657
330
18
100
AcDbEntity
  8
0
100
AcDbPolyline
 90
        2
 70
     0
 43
0.0
 10
42.8731765580316
 20
3.308530707178967
 10
42.8731765580316
 20
4.299202453850377
  0
LWPOLYLINE
  5
658
330
18
100
AcDbEntity
  8
0
100
AcDbPolyline
 90
        2
 70
     0
 43
0.0
 10
40.47643526917163
 20
4.290735221541673
 10
40.47643526917169
 20
3.308530707178967
  0
LINE
  5
659
330
18
100
AcDbEntity
  8
0
100
AcDbLine
 10
6.971397004871775
 20
55.99726543675835
 30
0.0
 11
11.52651733039736
 21
24.33205948516028
 31
0.0
  0
LINE
  5
65A
330
18
100
AcDbEntity
  8
0
100
AcDbLine
 10
22.84605990214303
 20
12.8127316508396
 30
0.0
 11
20.72672710898449
 21
14.35620008859158
 31
0.0
  0
LINE
  5
65B
330
18
100
AcDbEntity
  8
0
100
AcDbLine
 10
30.38315144667846
 20
15.08710958350517
 30
0.0
 11
28.23808446647346
 21
12.8856439712649
 31
0.0
  0
LINE
  5
65C
330
18
100
AcDbEntity
  8
0
100
AcDbLine
 10
28.23808446647346
 20
12.88564397126496
 30
0.0
 11
22.84605990214303
 21
12.8127316508396
 31
0.0
  0
SPLINE
  5
65D
330
18
100
AcDbEntity
  8
0
100
AcDbSpline
210
0.0
220
0.0
230
1.0
 70
     8
 71
     3
 72
    11
 73
     7
 74
     5
 42
0.0000000001
 43
0.0000000001
 44
0.0000000001
 12
-0.7665480245706742
 22
0.6421869868089804
 32
0.0
 13
-0.1496025837029006
 23
0.9887462095752461
 33
0.0
 40
0.0
 40
0.0
 40
0.0
 40
0.0
 40
2.959457797989105
 40
7.056473153868177
 40
12.21957173200696
 40
14.37652946168848
 40
14.37652946168848
 40
14.37652946168848
 40
14.37652946168848
 10
20.72672710898449
 20
14.35620008859152
 30
0.0
 10
19.97053826603488
 20
14.98970851721785
 30
0.0
 10
17.37327851494308
 20
15.15212948862962
 30
0.0
 10
14.53527280376235
 20
18.21199002473711
 30
0.0
 10
11.65784635535471
 20
21.09957143302957
 30
0.0
 10
11.63407948016346
 20
23.62116489201479
 30
0.0
 10
11.52651733039736
 20
24.33205948516033
 30
0.0
 11
20.72672710898449
 21
14.35620008859152
 31
0.0
 11
17.96055057109849
 21
15.40817813937375
 31
0.0
 11
14.74702128554763
 21
17.9495880546011
 31
0.0
 11
11.80620607574097
 21
22.19331198875946
 31
0.0
 11
11.52651733039736
 21
24.33205948516033
 31
0.0
  0
LINE
  5
65E
330
18
100
AcDbEntity
  8
0
100
AcDbLine
 10
0.0120000000000147
 20
57.90250379414855
 30
0.0
 11
0.3718975509363958
 21
55.99726543675829
 31
0.0
  0
LINE
  5
799
330
18
100
AcDbEntity
  8
0
100
AcDbLine
 10
0.0120000000000147
 20
57.90250379414855
 30
0.0
 11
179.7297079588099
 21
57.90250379414855
 31
0.0
  0
LINE
  5
7DF
330
18
100
AcDbEntity
  8
0
100
AcDbLine
 10
43.69963896434659
 20
-0.0000000000000071
 30
0.0
 11
39.64997286285664
 21
-0.0000000000000071
 31
0.0
  0
ENDSEC
  0
SECTION
  2
OBJECTS
  0
DICTIONARY
  5
C
330
0
100
AcDbDictionary
  3
ACAD_GROUP
350
D
  3
ACAD_IMAGE_DICT
350
48
  3
ACAD_IMAGE_VARS
350
47
  3
ACAD_LAYOUT
350
488
  3
ACAD_MLINESTYLE
350
1B
  3
ACAD_PLOTSETTINGS
350
489
  3
ACAD_PLOTSTYLENAME
350
486
  3
ACDBHEADERROUNDTRIPXREC
350
867
  3
ACDBVARIABLEDICTIONARY
350
48F
  0
DICTIONARY
  5
88A
330
18
100
AcDbDictionary
280
     1
  3
ACAD_LAYOUTSELFREF
360
88B
  0
DICTIONARY
  5
888
330
15
100
AcDbDictionary
280
     1
  3
ACAD_LAYOUTSELFREF
360
889
  0
DICTIONARY
  5
D
102
{ACAD_REACTORS
330
C
102
}
330
C
100
AcDbDictionary
  0
DICTIONARY
  5
48
102
{ACAD_REACTORS
330
C
102
}
330
C
100
AcDbDictionary
  0
RASTERVARIABLES
  5
47
102
{ACAD_REACTORS
330
C
102
}
330
C
100
AcDbRasterVariables
 90
        0
 70
     1
 71
     1
 72
     0
  0
DICTIONARY
  5
488
102
{ACAD_REACTORS
330
C
102
}
330
C
100
AcDbDictionary
  0
DICTIONARY
  5
1B
102
{ACAD_REACTORS
330
C
102
}
330
C
100
AcDbDictionary
  3
STANDARD
350
1C
  0
DICTIONARY
  5
489
102
{ACAD_REACTORS
330
C
102
}
330
C
100
AcDbDictionary
  0
ACDBDICTIONARYWDFLT
  5
486
102
{ACAD_REACTORS
330
C
102
}
330
C
100
AcDbDictionary
281
     1
  3
Normal
350
487
100
AcDbDictionaryWithDefault
340
487
  0
DICTIONARY
  5
867
102
{ACAD_REACTORS
330
C
102
}
330
C
100
AcDbDictionary
  3
CEPSNTYPE
350
871
  3
DIMSTYLEDATA
350
875
  3
FINGERPRINTGUID
350
872
  3
HYPERLINKBASE
350
86A
  3
INSUNITS
350
870
  3
LAYOUTDICT
350
86C
  3
LWETCUNION
350
86F
  3
PLOTSETDICT
350
86D
  3
PLOTSTYLNAMDICT
350
86E
  3
PSVPSCALE
350
874
  3
PUCSBASE
350
878
  3
PUCSORGBACK
350
87E
  3
PUCSORGBOTTOM
350
87A
  3
PUCSORGFRONT
350
87D
  3
PUCSORGLEFT
350
87B
  3
PUCSORGRIGHT
350
87C
  3
PUCSORGTOP
350
879
  3
PUCSORTHOREF
350
876
  3
PUCSORTHOVIEW
350
877
  3
STYLESHEET
350
86B
  3
TSTACKALIGN
350
868
  3
TSTACKSIZE
350
869
  3
UCSBASE
350
881
  3
UCSORGBACK
350
887
  3
UCSORGBOTTOM
350
883
  3
UCSORGFRONT
350
886
  3
UCSORGLEFT
350
884
  3
UCSORGRIGHT
350
885
  3
UCSORGTOP
350
882
  3
UCSORTHOREF
350
87F
  3
UCSORTHOVIEW
350
880
  3
VERSIONGUID
350
873
  0
DICTIONARY
  5
48F
102
{ACAD_REACTORS
330
C
102
}
330
C
100
AcDbDictionary
  3
DIMASSOC
350
490
  0
XRECORD
  5
88B
102
{ACAD_REACTORS
330
88A
102
}
330
88A
100
AcDbXrecord
340
18
  0
XRECORD
  5
889
102
{ACAD_REACTORS
330
888
102
}
330
888
100
AcDbXrecord
340
15
  0
MLINESTYLE
  5
1C
102
{ACAD_REACTORS
330
1B
102
}
330
1B
100
AcDbMlineStyle
  2
STANDARD
 70
     0
  3

 62
   256
 51
90.0
 52
90.0
 71
     2
 49
0.5
 62
   256
  6
BYLAYER
 49
-0.5
 62
   256
  6
BYLAYER
  0
ACDBPLACEHOLDER
  5
487
102
{ACAD_REACTORS
330
486
102
}
330
486
100
AcDbPlaceHolder
280
     0
  0
XRECORD
  5
871
102
{ACAD_REACTORS
330
867
102
}
330
867
100
AcDbXrecord
 90
        0
  0
XRECORD
  5
875
102
{ACAD_REACTORS
330
867
102
}
330
867
100
AcDbXrecord
1000
DSTYLE
1002
{
1070
    79
 70
     3
1070
   279
 70
     2
1070
   342
340
491
1002
}
  0
XRECORD
  5
872
102
{ACAD_REACTORS
330
867
102
}
330
867
100
AcDbXrecord
  1
{8C0D10A8-382B-40E5-800D-97D890504C19}
  0
XRECORD
  5
86A
102
{ACAD_REACTORS
330
867
102
}
330
867
100
AcDbXrecord
  1

  0
XRECORD
  5
870
102
{ACAD_REACTORS
330
867
102
}
330
867
100
AcDbXrecord
 90
        0
  0
XRECORD
  5
86C
102
{ACAD_REACTORS
330
867
102
}
330
867
100
AcDbXrecord
340
488
  0
XRECORD
  5
86F
102
{ACAD_REACTORS
330
867
102
}
330
867
100
AcDbXrecord
 90
    14877
  0
XRECORD
  5
86D
102
{ACAD_REACTORS
330
867
102
}
330
867
100
AcDbXrecord
340
489
  0
XRECORD
  5
86E
102
{ACAD_REACTORS
330
867
102
}
330
867
100
AcDbXrecord
340
486
  0
XRECORD
  5
874
102
{ACAD_REACTORS
330
867
102
}
330
867
100
AcDbXrecord
 40
0.0
  0
XRECORD
  5
878
102
{ACAD_REACTORS
330
867
102
}
330
867
100
AcDbXrecord
340
0
  0
XRECORD
  5
87E
102
{ACAD_REACTORS
330
867
102
}
330
867
100
AcDbXrecord
 10
0.0
 20
0.0
 30
0.0
  0
XRECORD
  5
87A
102
{ACAD_REACTORS
330
867
102
}
330
867
100
AcDbXrecord
 10
0.0
 20
0.0
 30
0.0
  0
XRECORD
  5
87D
102
{ACAD_REACTORS
330
867
102
}
330
867
100
AcDbXrecord
 10
0.0
 20
0.0
 30
0.0
  0
XRECORD
  5
87B
102
{ACAD_REACTORS
330
867
102
}
330
867
100
AcDbXrecord
 10
0.0
 20
0.0
 30
0.0
  0
XRECORD
  5
87C
102
{ACAD_REACTORS
330
867
102
}
330
867
100
AcDbXrecord
 10
0.0
 20
0.0
 30
0.0
  0
XRECORD
  5
879
102
{ACAD_REACTORS
330
867
102
}
330
867
100
AcDbXrecord
 10
0.0
 20
0.0
 30
0.0
  0
XRECORD
  5
876
102
{ACAD_REACTORS
330
867
102
}
330
867
100
AcDbXrecord
340
0
  0
XRECORD
  5
877
102
{ACAD_REACTORS
330
867
102
}
330
867
100
AcDbXrecord
 70
     0
  0
XRECORD
  5
86B
102
{ACAD_REACTORS
330
867
102
}
330
867
100
AcDbXrecord
  1

  0
XRECORD
  5
868
102
{ACAD_REACTORS
330
867
102
}
330
867
100
AcDbXrecord
 90
        1
  0
XRECORD
  5
869
102
{ACAD_REACTORS
330
867
102
}
330
867
100
AcDbXrecord
 90
       70
  0
XRECORD
  5
881
102
{ACAD_REACTORS
330
867
102
}
330
867
100
AcDbXrecord
340
0
  0
XRECORD
  5
887
102
{ACAD_REACTORS
330
867
102
}
330
867
100
AcDbXrecord
 10
0.0
 20
0.0
 30
0.0
  0
XRECORD
  5
883
102
{ACAD_REACTORS
330
867
102
}
330
867
100
AcDbXrecord
 10
0.0
 20
0.0
 30
0.0
  0
XRECORD
  5
886
102
{ACAD_REACTORS
330
867
102
}
330
867
100
AcDbXrecord
 10
0.0
 20
0.0
 30
0.0
  0
XRECORD
  5
884
102
{ACAD_REACTORS
330
867
102
}
330
867
100
AcDbXrecord
 10
0.0
 20
0.0
 30
0.0
  0
XRECORD
  5
885
102
{ACAD_REACTORS
330
867
102
}
330
867
100
AcDbXrecord
 10
0.0
 20
0.0
 30
0.0
  0
XRECORD
  5
882
102
{ACAD_REACTORS
330
867
102
}
330
867
100
AcDbXrecord
 10
0.0
 20
0.0
 30
0.0
  0
XRECORD
  5
87F
102
{ACAD_REACTORS
330
867
102
}
330
867
100
AcDbXrecord
340
0
  0
XRECORD
  5
880
102
{ACAD_REACTORS
330
867
102
}
330
867
100
AcDbXrecord
 70
     0
  0
XRECORD
  5
873
102
{ACAD_REACTORS
330
867
102
}
330
867
100
AcDbXrecord
  1
{F861D702-E9B8-4884-BF90-78B839054192}
  0
DICTIONARYVAR
  5
490
102
{ACAD_REACTORS
330
48F
102
}
330
48F
100
DictionaryVariables
280
     0
  1
1
  0
ENDSEC
  0
EOF
