  0
SECTION
  2
HEADER
  9
$ACADVER
  1
AC1014
  9
$ACADMAINTVER
 70
     9
  9
$DWGCODEPAGE
  3
ANSI_1252
  9
$INSBASE
 10
0.0
 20
0.0
 30
0.0
  9
$EXTMIN
 10
-61.21052456191686
 20
-0.899999999999996
 30
0.0
  9
$EXTMAX
 10
43.40077696833106
 20
71.9456359460328
 30
0.0
  9
$LIMMIN
 10
0.0
 20
0.0
  9
$LIMMAX
 10
420.0
 20
297.0
  9
$ORTHOMODE
 70
     1
  9
$REGENMODE
 70
     1
  9
$FILLMODE
 70
     1
  9
$QTEXTMODE
 70
     0
  9
$MIRRTEXT
 70
     1
  9
$DRAGMODE
 70
     2
  9
$LTSCALE
 40
1.0
  9
$OSMODE
 70
   167
  9
$ATTMODE
 70
     1
  9
$TEXTSIZE
 40
2.5
  9
$TRACEWID
 40
1.0
  9
$TEXTSTYLE
  7
STANDARD
  9
$CLAYER
  8
0
  9
$CELTYPE
  6
BYLAYER
  9
$CECOLOR
 62
   256
  9
$CELTSCALE
 40
1.0
  9
$DELOBJ
 70
     1
  9
$DISPSILH
 70
     0
  9
$DIMSCALE
 40
1.0
  9
$DIMASZ
 40
1.8
  9
$DIMEXO
 40
0.625
  9
$DIMDLI
 40
3.799999999999999
  9
$DIMRND
 40
0.0
  9
$DIMDLE
 40
0.0
  9
$DIMEXE
 40
1.8
  9
$DIMTP
 40
0.0
  9
$DIMTM
 40
0.0
  9
$DIMTXT
 40
3.0
  9
$DIMCEN
 40
0.9
  9
$DIMTSZ
 40
0.0
  9
$DIMTOL
 70
     0
  9
$DIMLIM
 70
     0
  9
$DIMTIH
 70
     0
  9
$DIMTOH
 70
     0
  9
$DIMSE1
 70
     0
  9
$DIMSE2
 70
     0
  9
$DIMTAD
 70
     1
  9
$DIMZIN
 70
    12
  9
$DIMBLK
  1
OBLIQUE
  9
$DIMASO
 70
     1
  9
$DIMSHO
 70
     1
  9
$DIMPOST
  1

  9
$DIMAPOST
  1

  9
$DIMALT
 70
     0
  9
$DIMALTD
 70
     2
  9
$DIMALTF
 40
25.4
  9
$DIMLFAC
 40
1.0
  9
$DIMTOFL
 70
     0
  9
$DIMTVP
 40
0.0
  9
$DIMTIX
 70
     0
  9
$DIMSOXD
 70
     0
  9
$DIMSAH
 70
     0
  9
$DIMBLK1
  1

  9
$DIMBLK2
  1

  9
$DIMSTYLE
  2
COTATION-JACOB-DELAFON
  9
$DIMCLRD
 70
     0
  9
$DIMCLRE
 70
     0
  9
$DIMCLRT
 70
     0
  9
$DIMTFAC
 40
1.0
  9
$DIMGAP
 40
0.9
  9
$DIMJUST
 70
     0
  9
$DIMSD1
 70
     0
  9
$DIMSD2
 70
     0
  9
$DIMTOLJ
 70
     1
  9
$DIMTZIN
 70
     0
  9
$DIMALTZ
 70
     0
  9
$DIMALTTZ
 70
     0
  9
$DIMFIT
 70
     5
  9
$DIMUPT
 70
     0
  9
$DIMUNIT
 70
     2
  9
$DIMDEC
 70
     2
  9
$DIMTDEC
 70
     2
  9
$DIMALTU
 70
     2
  9
$DIMALTTD
 70
     2
  9
$DIMTXSTY
  7
JACOB-DELAFON
  9
$DIMAUNIT
 70
     0
  9
$LUNITS
 70
     2
  9
$LUPREC
 70
     4
  9
$SKETCHINC
 40
1.0
  9
$FILLETRAD
 40
0.0
  9
$AUNITS
 70
     0
  9
$AUPREC
 70
     0
  9
$MENU
  1
.
  9
$ELEVATION
 40
0.0
  9
$PELEVATION
 40
0.0
  9
$THICKNESS
 40
0.0
  9
$LIMCHECK
 70
     0
  9
$BLIPMODE
 70
     0
  9
$CHAMFERA
 40
10.0
  9
$CHAMFERB
 40
10.0
  9
$CHAMFERC
 40
20.0
  9
$CHAMFERD
 40
0.0
  9
$SKPOLY
 70
     0
  9
$TDCREATE
 40
2451211.735678009
  9
$TDUPDATE
 40
2452285.663077361
  9
$TDINDWG
 40
0.0402855556
  9
$TDUSRTIMER
 40
0.0402855556
  9
$USRTIMER
 70
     1
  9
$ANGBASE
 50
0.0
  9
$ANGDIR
 70
     0
  9
$PDMODE
 70
     0
  9
$PDSIZE
 40
0.0
  9
$PLINEWID
 40
0.0
  9
$COORDS
 70
     0
  9
$SPLFRAME
 70
     0
  9
$SPLINETYPE
 70
     6
  9
$SPLINESEGS
 70
     8
  9
$ATTDIA
 70
     0
  9
$ATTREQ
 70
     1
  9
$HANDLING
 70
 22529
  9
$HANDSEED
  5
843
  9
$SURFTAB1
 70
     6
  9
$SURFTAB2
 70
     6
  9
$SURFTYPE
 70
     6
  9
$SURFU
 70
     6
  9
$SURFV
 70
     6
  9
$UCSNAME
  2

  9
$UCSORG
 10
0.0
 20
0.0
 30
0.0
  9
$UCSXDIR
 10
1.0
 20
0.0
 30
0.0
  9
$UCSYDIR
 10
0.0
 20
1.0
 30
0.0
  9
$PUCSNAME
  2

  9
$PUCSORG
 10
0.0
 20
0.0
 30
0.0
  9
$PUCSXDIR
 10
1.0
 20
0.0
 30
0.0
  9
$PUCSYDIR
 10
0.0
 20
1.0
 30
0.0
  9
$USERI1
 70
     0
  9
$USERI2
 70
     0
  9
$USERI3
 70
     0
  9
$USERI4
 70
     0
  9
$USERI5
 70
     0
  9
$USERR1
 40
0.0
  9
$USERR2
 40
0.0
  9
$USERR3
 40
0.0
  9
$USERR4
 40
0.0
  9
$USERR5
 40
0.0
  9
$WORLDVIEW
 70
     1
  9
$SHADEDGE
 70
     3
  9
$SHADEDIF
 70
    70
  9
$TILEMODE
 70
     1
  9
$MAXACTVP
 70
    48
  9
$PINSBASE
 10
0.0
 20
0.0
 30
0.0
  9
$PLIMCHECK
 70
     0
  9
$PEXTMIN
 10
1.000000000000000E+20
 20
1.000000000000000E+20
 30
1.000000000000000E+20
  9
$PEXTMAX
 10
-1.000000000000000E+20
 20
-1.000000000000000E+20
 30
-1.000000000000000E+20
  9
$PLIMMIN
 10
0.0
 20
0.0
  9
$PLIMMAX
 10
420.0
 20
297.0
  9
$UNITMODE
 70
     0
  9
$VISRETAIN
 70
     1
  9
$PLINEGEN
 70
     0
  9
$PSLTSCALE
 70
     1
  9
$TREEDEPTH
 70
  3020
  9
$PICKSTYLE
 70
     1
  9
$CMLSTYLE
  2
STANDARD
  9
$CMLJUST
 70
     0
  9
$CMLSCALE
 40
20.0
  9
$PROXYGRAPHICS
 70
     1
  9
$MEASUREMENT
 70
     1
  0
ENDSEC
  0
SECTION
  2
CLASSES
  0
CLASS
  1
LWPOLYLINE
  2
AcDbPolyline
  3
AutoCAD 2000
 90
        0
280
     0
281
     1
  0
CLASS
  1
ACDBDICTIONARYWDFLT
  2
AcDbDictionaryWithDefault
  3
AutoCAD 2000
 90
        0
280
     0
281
     0
  0
CLASS
  1
ACDBPLACEHOLDER
  2
AcDbPlaceHolder
  3
AutoCAD 2000
 90
        0
280
     0
281
     0
  0
CLASS
  1
LAYOUT
  2
AcDbLayout
  3
AutoCAD 2000
 90
        0
280
     0
281
     0
  0
CLASS
  1
DICTIONARYVAR
  2
AcDbDictionaryVar
  3
AutoCAD 2000
 90
        0
280
     0
281
     0
  0
CLASS
  1
RASTERVARIABLES
  2
AcDbRasterVariables
  3
ISM
 90
        0
280
     0
281
     0
  0
CLASS
  1
IMAGEDEF
  2
AcDbRasterImageDef
  3
ISM
 90
        0
280
     0
281
     0
  0
CLASS
  1
IMAGEDEF_REACTOR
  2
AcDbRasterImageDefReactor
  3
ISM
 90
        1
280
     0
281
     0
  0
CLASS
  1
IMAGE
  2
AcDbRasterImage
  3
ISM
 90
      127
280
     0
281
     1
  0
CLASS
  1
LONG_TRANSACTION
  2
AcDbLongTransaction
  3
AutoCAD 2000
 90
        0
280
     0
281
     0
  0
CLASS
  1
LWPOLYLINE
  2
AcDbPolyline
  3
AutoCAD 2000
 90
        0
280
     0
281
     1
  0
CLASS
  1
HATCH
  2
AcDbHatch
  3
AutoCAD 2000
 90
        0
280
     0
281
     1
  0
CLASS
  1
XRECORD
  2
AcDbXrecord
  3
AutoCAD 2000
 90
        0
280
     0
281
     0
  0
ENDSEC
  0
SECTION
  2
TABLES
  0
TABLE
  2
VPORT
  5
8
330
0
100
AcDbSymbolTable
 70
     3
  0
VPORT
  5
81D
330
8
100
AcDbSymbolTableRecord
100
AcDbViewportTableRecord
  2
*ACTIVE
 70
     0
 10
0.0
 20
0.0
 11
1.0
 21
1.0
 12
-8.915694037712739
 22
36.20812888448485
 13
0.0
 23
0.0
 14
10.0
 24
10.0
 15
10.0
 25
10.0
 16
0.0
 26
0.0
 36
1.0
 17
0.0
 27
0.0
 37
0.0
 40
75.08486313546288
 41
1.828516377649325
 42
50.0
 43
0.0
 44
0.0
 50
0.0
 51
0.0
 71
     0
 72
   100
 73
     1
 74
     1
 75
     0
 76
     0
 77
     0
 78
     0
  0
ENDTAB
  0
TABLE
  2
LTYPE
  5
5
330
0
100
AcDbSymbolTable
 70
     1
  0
LTYPE
  5
12
330
5
100
AcDbSymbolTableRecord
100
AcDbLinetypeTableRecord
  2
BYBLOCK
 70
     0
  3

 72
    65
 73
     0
 40
0.0
  0
LTYPE
  5
13
330
5
100
AcDbSymbolTableRecord
100
AcDbLinetypeTableRecord
  2
BYLAYER
 70
     0
  3

 72
    65
 73
     0
 40
0.0
  0
LTYPE
  5
14
330
5
100
AcDbSymbolTableRecord
100
AcDbLinetypeTableRecord
  2
CONTINUOUS
 70
     0
  3
Solid line
 72
    65
 73
     0
 40
0.0
  0
ENDTAB
  0
TABLE
  2
LAYER
  5
2
330
0
100
AcDbSymbolTable
 70
     3
  0
LAYER
  5
E
330
2
100
AcDbSymbolTableRecord
100
AcDbLayerTableRecord
  2
0
 70
     0
 62
     7
  6
CONTINUOUS
  0
LAYER
  5
12C
330
2
100
AcDbSymbolTableRecord
100
AcDbLayerTableRecord
  2
DEFPOINTS
 70
     0
 62
     7
  6
CONTINUOUS
  0
LAYER
  5
1E8
330
2
100
AcDbSymbolTableRecord
100
AcDbLayerTableRecord
  2
COTATION-JACOBDELAFON
 70
     0
 62
     8
  6
CONTINUOUS
  0
ENDTAB
  0
TABLE
  2
STYLE
  5
3
330
0
100
AcDbSymbolTable
 70
     2
  0
STYLE
  5
F
330
3
100
AcDbSymbolTableRecord
100
AcDbTextStyleTableRecord
  2
STANDARD
 70
     0
 40
0.0
 41
1.0
 50
0.0
 71
     0
 42
2.5
  3
txt
  4

  0
STYLE
  5
1E9
330
3
100
AcDbSymbolTableRecord
100
AcDbTextStyleTableRecord
  2
JACOB-DELAFON
 70
     0
 40
0.0
 41
1.0
 50
0.0
 71
     0
 42
2.5
  3
ARIAL.TTF
  4

1001
ACAD
1000
Arial
1071
       34
  0
ENDTAB
  0
TABLE
  2
VIEW
  5
6
330
0
100
AcDbSymbolTable
 70
     0
  0
ENDTAB
  0
TABLE
  2
UCS
  5
7
330
0
100
AcDbSymbolTable
 70
     0
  0
ENDTAB
  0
TABLE
  2
APPID
  5
9
330
0
100
AcDbSymbolTable
 70
     2
  0
APPID
  5
10
330
9
100
AcDbSymbolTableRecord
100
AcDbRegAppTableRecord
  2
ACAD
 70
     0
  0
APPID
  5
1EB
330
9
100
AcDbSymbolTableRecord
100
AcDbRegAppTableRecord
  2
PE_URL
 70
     0
  0
ENDTAB
  0
TABLE
  2
DIMSTYLE
  5
A
330
0
100
AcDbSymbolTable
 70
     2
  0
DIMSTYLE
105
1D
330
A
100
AcDbSymbolTableRecord
100
AcDbDimStyleTableRecord
  2
STANDARD
 70
     0
  3

  4

  5

  6

  7

 40
1.0
 41
0.18
 42
0.0625
 43
0.38
 44
0.18
 45
0.0
 46
0.0
 47
0.0
 48
0.0
140
0.18
141
0.09
142
0.0
143
25.4
144
1.0
145
0.0
146
1.0
147
0.09
 71
     0
 72
     0
 73
     1
 74
     1
 75
     0
 76
     0
 77
     0
 78
     0
170
     0
171
     2
172
     0
173
     0
174
     0
175
     0
176
     0
177
     0
178
     0
270
     2
271
     4
272
     4
273
     2
274
     2
340
F
275
     0
280
     0
281
     0
282
     0
283
     1
284
     0
285
     0
286
     0
287
     3
288
     0
  0
DIMSTYLE
105
1EA
102
{ACAD_REACTORS
330
685
330
6B1
102
}
330
A
100
AcDbSymbolTableRecord
100
AcDbDimStyleTableRecord
  2
COTATION-JACOB-DELAFON
 70
     0
  3

  4

  5
OBLIQUE
  6

  7

 40
1.0
 41
1.8
 42
0.625
 43
3.799999999999999
 44
1.8
 45
0.0
 46
0.0
 47
0.0
 48
0.0
140
3.0
141
0.9
142
0.0
143
25.4
144
1.0
145
0.0
146
1.0
147
0.9
 71
     0
 72
     0
 73
     0
 74
     0
 75
     0
 76
     0
 77
     1
 78
    12
170
     0
171
     2
172
     0
173
     0
174
     0
175
     0
176
     0
177
     0
178
     0
270
     2
271
     2
272
     2
273
     2
274
     2
340
1E9
275
     0
280
     0
281
     0
282
     0
283
     1
284
     0
285
     0
286
     0
287
     5
288
     0
  0
ENDTAB
  0
TABLE
  2
BLOCK_RECORD
  5
1
330
0
100
AcDbSymbolTable
 70
     3
  0
BLOCK_RECORD
  5
18
102
{ACAD_XDICTIONARY
360
841
102
}
330
1
100
AcDbSymbolTableRecord
100
AcDbBlockTableRecord
  2
*MODEL_SPACE
  0
BLOCK_RECORD
  5
15
102
{ACAD_XDICTIONARY
360
83F
102
}
330
1
100
AcDbSymbolTableRecord
100
AcDbBlockTableRecord
  2
*PAPER_SPACE
  0
BLOCK_RECORD
  5
1CC
330
1
100
AcDbSymbolTableRecord
100
AcDbBlockTableRecord
  2
_OBLIQUE
  0
BLOCK_RECORD
  5
686
330
1
100
AcDbSymbolTableRecord
100
AcDbBlockTableRecord
  2
*D1
  0
BLOCK_RECORD
  5
6B2
330
1
100
AcDbSymbolTableRecord
100
AcDbBlockTableRecord
  2
*D2
  0
ENDTAB
  0
ENDSEC
  0
SECTION
  2
BLOCKS
  0
BLOCK
  5
19
330
18
100
AcDbEntity
  8
0
100
AcDbBlockBegin
  2
*MODEL_SPACE
 70
     0
 10
0.0
 20
0.0
 30
0.0
  3
*MODEL_SPACE
  1

  0
ENDBLK
  5
1A
330
18
100
AcDbEntity
  8
0
100
AcDbBlockEnd
  0
BLOCK
  5
16
330
15
100
AcDbEntity
 67
     1
  8
0
100
AcDbBlockBegin
  2
*PAPER_SPACE
 70
     0
 10
0.0
 20
0.0
 30
0.0
  3
*PAPER_SPACE
  1

  0
ENDBLK
  5
17
330
15
100
AcDbEntity
 67
     1
  8
0
100
AcDbBlockEnd
  0
BLOCK
  5
1CE
330
1CC
100
AcDbEntity
  8
0
100
AcDbBlockBegin
  2
_OBLIQUE
 70
     0
 10
0.0
 20
0.0
 30
0.0
  3
_OBLIQUE
  1

  0
LINE
  5
1CD
330
1CC
100
AcDbEntity
  8
0
  6
BYBLOCK
 62
     0
100
AcDbLine
 10
-0.5
 20
-0.5
 30
0.0
 11
0.5
 21
0.5
 31
0.0
  0
ENDBLK
  5
1CF
330
1CC
100
AcDbEntity
  8
0
100
AcDbBlockEnd
  0
BLOCK
  5
690
330
686
100
AcDbEntity
  8
0
 62
     1
100
AcDbBlockBegin
  2
*D1
 70
     1
 10
0.0
 20
0.0
 30
0.0
  3
*D1
  1

  0
LINE
  5
7D2
330
686
100
AcDbEntity
  8
COTATION-JACOBDELAFON
 62
     0
100
AcDbLine
 10
-45.62417364239963
 20
57.99661397909654
 30
0.0
 11
-58.25922851826064
 21
57.99661397909654
 31
0.0
  0
LINE
  5
7D3
330
686
100
AcDbEntity
  8
COTATION-JACOBDELAFON
 62
     0
100
AcDbLine
 10
-42.09038934695582
 20
0.0000000000000002
 30
0.0
 11
-58.25922851826065
 21
0.0000000000000048
 31
0.0
  0
LINE
  5
7D4
330
686
100
AcDbEntity
  8
COTATION-JACOBDELAFON
 62
     0
100
AcDbLine
 10
-56.45922851826064
 20
57.99661397909654
 30
0.0
 11
-56.45922851826066
 21
0.0000000000000042
 31
0.0
  0
INSERT
  5
7D5
330
686
100
AcDbEntity
  8
COTATION-JACOBDELAFON
 62
     0
100
AcDbBlockReference
  2
_OBLIQUE
 10
-56.45922851826064
 20
57.99661397909654
 30
0.0
 41
1.8
 42
1.8
 43
1.8
 50
90.0
  0
INSERT
  5
7D6
330
686
100
AcDbEntity
  8
COTATION-JACOBDELAFON
 62
     0
100
AcDbBlockReference
  2
_OBLIQUE
 10
-56.45922851826066
 20
0.0000000000000042
 30
0.0
 41
1.8
 42
1.8
 43
1.8
 50
270.0
  0
MTEXT
  5
7D7
330
686
100
AcDbEntity
  8
COTATION-JACOBDELAFON
 62
     0
100
AcDbMText
 10
-58.89094748142573
 20
28.99830698954826
 30
0.0
 40
3.0
 41
0.0
 71
     5
 72
     1
  1
\A1;58
  7
JACOB-DELAFON
 11
0.0000000000000001
 21
1.0
 31
0.0
1001
ACAD
1000
MTEXTBEGIN
1070
    73
1070
     1
1070
    44
1040
1.0
1070
    74
1070
     0
1000
MTEXTEND
  0
POINT
  5
7D8
330
686
100
AcDbEntity
  8
DEFPOINTS
 62
     0
100
AcDbPoint
 10
-44.99917364239963
 20
57.99661397909654
 30
0.0
  0
POINT
  5
7D9
330
686
100
AcDbEntity
  8
DEFPOINTS
 62
     0
100
AcDbPoint
 10
-41.46538934695582
 20
0.0
 30
0.0
  0
POINT
  5
7DA
330
686
100
AcDbEntity
  8
DEFPOINTS
 62
     0
100
AcDbPoint
 10
-56.45922851826066
 20
0.0000000000000042
 30
0.0
  0
ENDBLK
  5
691
330
686
100
AcDbEntity
  8
0
 62
     1
100
AcDbBlockEnd
  0
BLOCK
  5
6BC
330
6B2
100
AcDbEntity
  8
0
 62
     1
100
AcDbBlockBegin
  2
*D2
 70
     1
 10
0.0
 20
0.0
 30
0.0
  3
*D2
  1

  0
LINE
  5
7C9
330
6B2
100
AcDbEntity
  8
COTATION-JACOBDELAFON
 62
     0
100
AcDbLine
 10
-42.49917364239963
 20
58.62161397909654
 30
0.0
 11
-42.49917364239963
 21
68.48038460838033
 31
0.0
  0
LINE
  5
7CA
330
6B2
100
AcDbEntity
  8
COTATION-JACOBDELAFON
 62
     0
100
AcDbLine
 10
42.50077696833106
 20
58.62224734069341
 30
0.0
 11
42.50077696833106
 21
68.48038460838033
 31
0.0
  0
LINE
  5
7CB
330
6B2
100
AcDbEntity
  8
COTATION-JACOBDELAFON
 62
     0
100
AcDbLine
 10
-42.49917364239963
 20
66.68038460838033
 30
0.0
 11
42.50077696833106
 21
66.68038460838033
 31
0.0
  0
INSERT
  5
7CC
330
6B2
100
AcDbEntity
  8
COTATION-JACOBDELAFON
 62
     0
100
AcDbBlockReference
  2
_OBLIQUE
 10
-42.49917364239963
 20
66.68038460838033
 30
0.0
 41
1.8
 42
1.8
 43
1.8
 50
180.0
  0
INSERT
  5
7CD
330
6B2
100
AcDbEntity
  8
COTATION-JACOBDELAFON
 62
     0
100
AcDbBlockReference
  2
_OBLIQUE
 10
42.50077696833106
 20
66.68038460838033
 30
0.0
 41
1.8
 42
1.8
 43
1.8
  0
MTEXT
  5
7CE
330
6B2
100
AcDbEntity
  8
COTATION-JACOBDELAFON
 62
     0
100
AcDbMText
 10
0.0008016629657172
 20
69.11210357154542
 30
0.0
 40
3.0
 41
0.0
 71
     5
 72
     1
  1
\A1;85
  7
JACOB-DELAFON
1001
ACAD
1000
MTEXTBEGIN
1070
    73
1070
     1
1070
    44
1040
1.0
1070
    74
1070
     0
1000
MTEXTEND
  0
POINT
  5
7CF
330
6B2
100
AcDbEntity
  8
DEFPOINTS
 62
     0
100
AcDbPoint
 10
-42.49917364239963
 20
57.99661397909654
 30
0.0
  0
POINT
  5
7D0
330
6B2
100
AcDbEntity
  8
DEFPOINTS
 62
     0
100
AcDbPoint
 10
42.50077696833106
 20
57.99724734069341
 30
0.0
  0
POINT
  5
7D1
330
6B2
100
AcDbEntity
  8
DEFPOINTS
 62
     0
100
AcDbPoint
 10
42.50077696833106
 20
66.68038460838033
 30
0.0
  0
ENDBLK
  5
6BD
330
6B2
100
AcDbEntity
  8
0
 62
     1
100
AcDbBlockEnd
  0
ENDSEC
  0
SECTION
  2
ENTITIES
  0
SPLINE
  5
296
330
18
100
AcDbEntity
  8
0
100
AcDbSpline
210
0.0
220
0.0
230
1.0
 70
     8
 71
     3
 72
    11
 73
     7
 74
     0
 42
0.0000000001
 43
0.0000000001
 40
0.0
 40
0.0
 40
0.0
 40
0.0
 40
1.493886633928278
 40
4.725951495779938
 40
6.59020995850752
 40
14.28911296890267
 40
14.28911296890267
 40
14.28911296890267
 40
14.28911296890267
 10
-30.86485554913036
 20
24.57072110538604
 30
0.0
 10
-30.51721983401074
 20
23.39800180728633
 30
0.0
 10
-29.10175299906626
 20
19.83129805776082
 30
0.0
 10
-24.75413477890191
 20
15.4287026128606
 30
0.0
 10
-13.98762992767518
 20
15.86501059787252
 30
0.0
 10
-6.295524416588309
 20
15.56605450207479
 30
0.0
 10
0.0007782513288795
 20
15.63992012987404
 30
0.0
  0
LINE
  5
29A
330
18
100
AcDbEntity
  8
0
100
AcDbLine
 10
-33.97197545185366
 20
44.00981526783517
 30
0.0
 11
-30.86485554913025
 21
24.57072110538604
 31
0.0
  0
LINE
  5
29F
330
18
100
AcDbEntity
  8
0
100
AcDbLine
 10
-39.60445854301556
 20
55.99665302832281
 30
0.0
 11
-38.35418165972976
 21
49.00292059751023
 31
0.0
  0
LINE
  5
2A0
330
18
100
AcDbEntity
  8
0
100
AcDbLine
 10
-42.49917497868494
 20
57.99663207514271
 30
0.0
 11
-42.35148695980067
 21
55.99663314417096
 31
0.0
  0
LINE
  5
2A1
330
18
100
AcDbEntity
  8
0
100
AcDbLine
 10
-38.35418165972976
 20
49.00292059751023
 30
0.0
 11
-33.97197545185366
 21
44.00981526783517
 31
0.0
  0
LINE
  5
2A2
330
18
100
AcDbEntity
  8
0
100
AcDbLine
 10
33.98594291131399
 20
43.99494662165722
 30
0.0
 11
30.87031707143541
 21
24.55721394594769
 31
0.0
  0
SPLINE
  5
2A3
330
18
100
AcDbEntity
  8
0
100
AcDbSpline
210
0.0
220
0.0
230
1.0
 70
     8
 71
     3
 72
    10
 73
     6
 74
     0
 42
0.0000000001
 43
0.0000000001
 40
0.0
 40
0.0
 40
0.0
 40
0.0
 40
1.419415496880952
 40
4.720441333205157
 40
9.311307998792095
 40
9.311307998792095
 40
9.311307998792095
 40
9.311307998792095
 10
22.80388426481074
 20
15.19445018860085
 30
0.0
 10
21.68867212062793
 20
14.8673784194595
 30
0.0
 10
17.83561058545461
 20
14.36133629775793
 30
0.0
 10
10.23587986182616
 20
13.78122041365776
 30
0.0
 10
3.751906222573379
 20
14.31720390251962
 30
0.0
 10
0.0004504361862111
 20
14.14162402266373
 30
0.0
  0
SPLINE
  5
2A4
330
18
100
AcDbEntity
  8
0
100
AcDbSpline
210
0.0
220
0.0
230
1.0
 70
     8
 71
     3
 72
    11
 73
     7
 74
     0
 42
0.0000000001
 43
0.0000000001
 40
0.0
 40
0.0
 40
0.0
 40
0.0
 40
1.493886633928278
 40
4.725951495779938
 40
6.59020995850752
 40
14.28911296890267
 40
14.28911296890267
 40
14.28911296890267
 40
14.28911296890267
 10
30.87031707143553
 20
24.55721394594775
 30
0.0
 10
30.52216822651502
 20
23.38464687991597
 30
0.0
 10
29.10514079495107
 20
19.81856285736347
 30
0.0
 10
24.75559648614336
 20
15.41787028170222
 30
0.0
 10
13.98928358704966
 20
15.8588894741211
 30
0.0
 10
6.297047994029808
 20
15.5632993484715
 30
0.0
 10
0.0007782513288795
 20
15.63992012987404
 30
0.0
  0
SPLINE
  5
2A5
330
18
100
AcDbEntity
  8
0
100
AcDbSpline
210
0.0
220
0.0
230
1.0
 70
     8
 71
     3
 72
    10
 73
     6
 74
     0
 42
0.0000000001
 43
0.0000000001
 40
0.0
 40
0.0
 40
0.0
 40
0.0
 40
1.419415496880952
 40
4.720441333205157
 40
9.311307998792095
 40
9.311307998792095
 40
9.311307998792095
 40
9.311307998792095
 10
-22.91866629942711
 20
15.171562137237
 30
0.0
 10
-21.68745159338886
 20
14.87686876659802
 30
0.0
 10
-17.83461186299229
 20
14.36914065565247
 30
0.0
 10
-10.23513571633162
 20
13.78569930728571
 30
0.0
 10
-3.750928160108005
 20
14.3188454623621
 30
0.0
 10
0.0004504361867795
 20
14.14162402266373
 30
0.0
  0
LINE
  5
2A6
330
18
100
AcDbEntity
  8
0
100
AcDbLine
 10
-20.61054473827443
 20
11.82782655576466
 30
0.0
 11
-22.21276633612876
 21
5.477102683128919
 31
0.0
  0
LINE
  5
2A7
330
18
100
AcDbEntity
  8
0
100
AcDbLine
 10
-23.48674515848097
 20
7.036062802909611
 30
0.0
 11
-22.03929427663189
 21
11.99650651470079
 31
0.0
  0
LINE
  5
2A8
330
18
100
AcDbEntity
  8
0
100
AcDbLine
 10
-26.40960817185265
 20
5.377899175785728
 30
0.0
 11
-26.24211045766497
 21
6.900050563980244
 31
0.0
  0
LINE
  5
2A9
330
18
100
AcDbEntity
  8
0
100
AcDbLine
 10
-26.24211045766497
 20
6.900050563980244
 30
0.0
 11
-23.48674515848097
 21
7.036062802909611
 31
0.0
  0
LINE
  5
2AF
330
18
100
AcDbEntity
  8
0
100
AcDbLine
 10
-22.03929427663189
 20
11.99650651470079
 30
0.0
 11
-22.34145026024481
 21
13.13174998660594
 31
0.0
  0
LINE
  5
2B1
330
18
100
AcDbEntity
  8
0
100
AcDbLine
 10
-21.49720668085598
 20
14.8948721186191
 30
0.0
 11
-20.61054473827443
 21
11.82782655576466
 31
0.0
  0
LINE
  5
2B2
330
18
100
AcDbEntity
  8
0
100
AcDbLine
 10
-22.34145026024481
 20
13.13174998660594
 30
0.0
 11
-23.11334440799527
 21
15.85953118931303
 31
0.0
  0
LWPOLYLINE
  5
2B5
330
18
100
AcDbEntity
  8
0
100
AcDbPolyline
 90
        3
 70
     0
 43
0.0
 10
-20.91128410850751
 20
12.86811181754495
 10
-19.48536226132546
 20
12.88934666253595
 10
-19.510941414407
 20
14.60698920840298
  0
SPLINE
  5
2B6
330
18
100
AcDbEntity
  8
0
100
AcDbSpline
210
0.0
220
0.0
230
1.0
 70
     8
 71
     3
 72
    11
 73
     7
 74
     0
 42
0.0000000001
 43
0.0000000001
 40
0.2240407608096083
 40
0.2240407608096083
 40
0.2240407608096083
 40
0.2240407608096083
 40
0.5914484696365498
 40
1.304800928159023
 40
2.079862982334065
 40
2.747345845086312
 40
2.747345845086312
 40
2.747345845086312
 40
2.747345845086312
 10
5.111434381403396
 20
14.15774486855377
 30
0.0
 10
5.06826536440502
 20
13.85618071550868
 30
0.0
 10
4.935994884279521
 20
12.97251134179396
 30
0.0
 10
3.529692852423463
 20
11.88653797940168
 30
0.0
 10
1.733292085391835
 20
12.15523403997633
 30
0.0
 10
0.5462879846134549
 20
12.09554499745235
 30
0.0
 10
-0.0000000000004001
 20
12.08288207418849
 30
0.0
  0
SPLINE
  5
2B7
330
18
100
AcDbEntity
  8
0
100
AcDbSpline
210
0.0
220
0.0
230
1.0
 70
     8
 71
     3
 72
    11
 73
     7
 74
     0
 42
0.0000000001
 43
0.0000000001
 40
0.2240407608096083
 40
0.2240407608096083
 40
0.2240407608096083
 40
0.2240407608096083
 40
0.5914484696365498
 40
1.304800928159023
 40
2.079862982334065
 40
2.747345845086312
 40
2.747345845086312
 40
2.747345845086312
 40
2.747345845086312
 10
-5.110525965482965
 20
14.15998135129632
 30
0.0
 10
-5.067488912235889
 20
13.85839833705631
 30
0.0
 10
-4.935605124264329
 20
12.97467116851123
 30
0.0
 10
-3.529778431506374
 20
11.88808253496262
 30
0.0
 10
-1.733260259391672
 20
12.1559924937593
 30
0.0
 10
-0.5462823912208158
 20
12.09578404306665
 30
0.0
 10
-0.000000000000059
 20
12.08288207418843
 30
0.0
  0
LINE
  5
2CB
330
18
100
AcDbEntity
  8
0
100
AcDbLine
 10
38.36954122358434
 20
48.98613406377762
 30
0.0
 11
33.98594291131399
 21
43.99494662165722
 31
0.0
  0
LINE
  5
2CC
330
18
100
AcDbEntity
  8
0
100
AcDbLine
 10
39.62608781682991
 20
55.99722653247925
 30
0.0
 11
38.36954122358434
 21
48.98613406377762
 31
0.0
  0
LINE
  5
2CD
330
18
100
AcDbEntity
  8
0
100
AcDbLine
 10
42.50077696833104
 20
57.99724734069341
 30
0.0
 11
42.35897835361529
 21
55.99724631429515
 31
0.0
  0
LINE
  5
680
330
18
100
AcDbEntity
  8
0
100
AcDbLine
 10
-26.70985165508364
 20
0.0
 30
0.0
 11
-21.32185960407139
 21
0.0
 31
0.0
  0
LINE
  5
684
330
18
100
AcDbEntity
  8
0
100
AcDbLine
 10
-42.49917497868494
 20
57.99663207514271
 30
0.0
 11
42.50077696833104
 21
57.99724734069341
 31
0.0
  0
DIMENSION
  5
685
330
18
100
AcDbEntity
  8
COTATION-JACOBDELAFON
100
AcDbDimension
  2
*D1
 10
-56.45922851826066
 20
0.0000000000000042
 30
0.0
 11
-58.89094748142573
 21
28.99830698954826
 31
0.0
 70
    32
  3
COTATION-JACOB-DELAFON
100
AcDbAlignedDimension
 13
-44.99917364239963
 23
57.99661397909654
 33
0.0
 14
-41.46538934695582
 24
0.0
 34
0.0
 50
90.0
100
AcDbRotatedDimension
  0
DIMENSION
  5
6B1
330
18
100
AcDbEntity
  8
COTATION-JACOBDELAFON
100
AcDbDimension
  2
*D2
 10
42.50077696833106
 20
66.68038460838033
 30
0.0
 11
0.0008016629657172
 21
69.11210357154542
 31
0.0
 70
    32
  3
COTATION-JACOB-DELAFON
100
AcDbAlignedDimension
 13
-42.49917364239963
 23
57.99661397909654
 33
0.0
 14
42.50077696833106
 24
57.99724734069341
 34
0.0
100
AcDbRotatedDimension
  0
LWPOLYLINE
  5
738
330
18
100
AcDbEntity
  8
0
100
AcDbPolyline
 90
        4
 70
     1
 43
0.0
 10
-26.70985165508364
 20
0.0
 10
-21.32185960407139
 20
0.0
 10
-21.32185960407139
 20
2.129414047995339
 10
-26.70985165508364
 20
2.129414047995339
  0
LWPOLYLINE
  5
739
330
18
100
AcDbEntity
  8
0
100
AcDbPolyline
 90
        4
 70
     1
 43
0.0
 10
-25.31532535982199
 20
2.129414047995339
 10
-22.97325710619611
 20
2.129414047995339
 10
-22.97325710619611
 20
4.490612325530833
 10
-25.31532535982199
 20
4.490612325530833
  0
LWPOLYLINE
  5
73A
330
18
100
AcDbEntity
  8
0
100
AcDbPolyline
 90
        4
 70
     1
 43
0.0
 10
-22.21276633612876
 20
4.490612325530833
 10
-26.12583860415634
 20
4.490612325530833
 10
-26.12583860415634
 20
5.477102683128919
 10
-22.21276633612876
 20
5.477102683128919
  0
LINE
  5
73B
330
18
100
AcDbEntity
  8
0
100
AcDbLine
 10
-26.40960817185265
 20
5.377899175785728
 30
0.0
 11
-26.12583860415634
 21
5.377899175785728
 31
0.0
  0
LWPOLYLINE
  5
73C
330
18
100
AcDbEntity
  8
0
100
AcDbPolyline
 90
        4
 70
     1
 43
0.0
 10
25.315325359822
 20
2.129414047995339
 10
22.97325710619612
 20
2.129414047995339
 10
22.97325710619612
 20
4.490612325530833
 10
25.315325359822
 20
4.490612325530833
  0
LWPOLYLINE
  5
73D
330
18
100
AcDbEntity
  8
0
100
AcDbPolyline
 90
        4
 70
     1
 43
0.0
 10
26.70985165508364
 20
0.0
 10
21.32185960407139
 20
0.0
 10
21.32185960407139
 20
2.129414047995339
 10
26.70985165508364
 20
2.129414047995339
  0
LINE
  5
73E
330
18
100
AcDbEntity
  8
0
100
AcDbLine
 10
21.49720668085598
 20
14.8948721186191
 30
0.0
 11
20.61054473827443
 21
11.82782655576466
 31
0.0
  0
LINE
  5
73F
330
18
100
AcDbEntity
  8
0
100
AcDbLine
 10
22.0392942766319
 20
11.99650651470079
 30
0.0
 11
22.34145026024481
 21
13.13174998660594
 31
0.0
  0
LINE
  5
740
330
18
100
AcDbEntity
  8
0
100
AcDbLine
 10
20.61054473827443
 20
11.82782655576466
 30
0.0
 11
22.21276633612877
 21
5.477102683128919
 31
0.0
  0
LINE
  5
741
330
18
100
AcDbEntity
  8
0
100
AcDbLine
 10
23.48674515848097
 20
7.036062802909611
 30
0.0
 11
22.0392942766319
 21
11.99650651470079
 31
0.0
  0
LINE
  5
742
330
18
100
AcDbEntity
  8
0
100
AcDbLine
 10
26.40960817185266
 20
5.377899175785728
 30
0.0
 11
26.12583860415635
 21
5.377899175785728
 31
0.0
  0
LWPOLYLINE
  5
743
330
18
100
AcDbEntity
  8
0
100
AcDbPolyline
 90
        4
 70
     1
 43
0.0
 10
22.21276633612877
 20
4.490612325530833
 10
26.12583860415635
 20
4.490612325530833
 10
26.12583860415635
 20
5.477102683128919
 10
22.21276633612877
 20
5.477102683128919
  0
LINE
  5
744
330
18
100
AcDbEntity
  8
0
100
AcDbLine
 10
26.24211045766498
 20
6.900050563980244
 30
0.0
 11
23.48674515848097
 21
7.036062802909611
 31
0.0
  0
LINE
  5
745
330
18
100
AcDbEntity
  8
0
100
AcDbLine
 10
26.40960817185266
 20
5.377899175785728
 30
0.0
 11
26.24211045766498
 21
6.900050563980244
 31
0.0
  0
LINE
  5
746
330
18
100
AcDbEntity
  8
0
100
AcDbLine
 10
22.34145026024481
 20
13.13174998660594
 30
0.0
 11
23.11334440799527
 21
15.85953118931303
 31
0.0
  0
LWPOLYLINE
  5
747
330
18
100
AcDbEntity
  8
0
100
AcDbPolyline
 90
        3
 70
     0
 43
0.0
 10
20.91128410850751
 20
12.86811181754495
 10
19.48536226132546
 20
12.88934666253595
 10
19.510941414407
 20
14.60698920840298
  0
LINE
  5
774
330
18
100
AcDbEntity
  8
0
100
AcDbLine
 10
-42.35148695980067
 20
55.99663314417096
 30
0.0
 11
42.35897835361529
 21
55.99724631429515
 31
0.0
  0
LINE
  5
78F
330
18
100
AcDbEntity
  8
0
100
AcDbLine
 10
21.32185960407139
 20
0.0
 30
0.0
 11
26.70985165508364
 21
0.0
 31
0.0
  0
ENDSEC
  0
SECTION
  2
OBJECTS
  0
DICTIONARY
  5
C
330
0
100
AcDbDictionary
  3
ACAD_GROUP
350
D
  3
ACAD_IMAGE_DICT
350
24B
  3
ACAD_IMAGE_VARS
350
24C
  3
ACAD_LAYOUT
350
1C2
  3
ACAD_MLINESTYLE
350
1B
  3
ACAD_PLOTSETTINGS
350
1C3
  3
ACAD_PLOTSTYLENAME
350
1C0
  3
ACDBHEADERROUNDTRIPXREC
350
81E
  3
ACDBVARIABLEDICTIONARY
350
1C9
  0
DICTIONARY
  5
841
330
18
100
AcDbDictionary
280
     1
  3
ACAD_LAYOUTSELFREF
360
842
  0
DICTIONARY
  5
83F
330
15
100
AcDbDictionary
280
     1
  3
ACAD_LAYOUTSELFREF
360
840
  0
DICTIONARY
  5
D
102
{ACAD_REACTORS
330
C
102
}
330
C
100
AcDbDictionary
  0
DICTIONARY
  5
24B
102
{ACAD_REACTORS
330
C
102
}
330
C
100
AcDbDictionary
  0
RASTERVARIABLES
  5
24C
102
{ACAD_REACTORS
330
C
102
}
330
C
100
AcDbRasterVariables
 90
        0
 70
     1
 71
     1
 72
     0
  0
DICTIONARY
  5
1C2
102
{ACAD_REACTORS
330
C
102
}
330
C
100
AcDbDictionary
  0
DICTIONARY
  5
1B
102
{ACAD_REACTORS
330
C
102
}
330
C
100
AcDbDictionary
  3
STANDARD
350
1C
  0
DICTIONARY
  5
1C3
102
{ACAD_REACTORS
330
C
102
}
330
C
100
AcDbDictionary
  0
ACDBDICTIONARYWDFLT
  5
1C0
102
{ACAD_REACTORS
330
C
102
}
330
C
100
AcDbDictionary
281
     1
  3
Normal
350
1C1
100
AcDbDictionaryWithDefault
340
1C1
  0
DICTIONARY
  5
81E
102
{ACAD_REACTORS
330
C
102
}
330
C
100
AcDbDictionary
  3
CEPSNTYPE
350
828
  3
DIMSTYLEDATA
350
82C
  3
FINGERPRINTGUID
350
829
  3
HYPERLINKBASE
350
821
  3
INSUNITS
350
827
  3
LAYOUTDICT
350
823
  3
LWETCUNION
350
826
  3
PLOTSETDICT
350
824
  3
PLOTSTYLNAMDICT
350
825
  3
PSVPSCALE
350
82B
  3
PUCSBASE
350
82F
  3
PUCSORGBACK
350
835
  3
PUCSORGBOTTOM
350
831
  3
PUCSORGFRONT
350
834
  3
PUCSORGLEFT
350
832
  3
PUCSORGRIGHT
350
833
  3
PUCSORGTOP
350
830
  3
PUCSORTHOREF
350
82D
  3
PUCSORTHOVIEW
350
82E
  3
STYLESHEET
350
822
  3
TSTACKALIGN
350
81F
  3
TSTACKSIZE
350
820
  3
UCSBASE
350
838
  3
UCSORGBACK
350
83E
  3
UCSORGBOTTOM
350
83A
  3
UCSORGFRONT
350
83D
  3
UCSORGLEFT
350
83B
  3
UCSORGRIGHT
350
83C
  3
UCSORGTOP
350
839
  3
UCSORTHOREF
350
836
  3
UCSORTHOVIEW
350
837
  3
VERSIONGUID
350
82A
  0
DICTIONARY
  5
1C9
102
{ACAD_REACTORS
330
C
102
}
330
C
100
AcDbDictionary
  3
DIMASSOC
350
1CA
  0
XRECORD
  5
842
102
{ACAD_REACTORS
330
841
102
}
330
841
100
AcDbXrecord
340
18
  0
XRECORD
  5
840
102
{ACAD_REACTORS
330
83F
102
}
330
83F
100
AcDbXrecord
340
15
  0
MLINESTYLE
  5
1C
102
{ACAD_REACTORS
330
1B
102
}
330
1B
100
AcDbMlineStyle
  2
STANDARD
 70
     0
  3

 62
   256
 51
90.0
 52
90.0
 71
     2
 49
0.5
 62
   256
  6
BYLAYER
 49
-0.5
 62
   256
  6
BYLAYER
  0
ACDBPLACEHOLDER
  5
1C1
102
{ACAD_REACTORS
330
1C0
102
}
330
1C0
100
AcDbPlaceHolder
280
     0
  0
XRECORD
  5
828
102
{ACAD_REACTORS
330
81E
102
}
330
81E
100
AcDbXrecord
 90
        0
  0
XRECORD
  5
82C
102
{ACAD_REACTORS
330
81E
102
}
330
81E
100
AcDbXrecord
1000
DSTYLE
1002
{
1070
    79
 70
     3
1070
   279
 70
     2
1070
   342
340
1CC
1002
}
  0
XRECORD
  5
829
102
{ACAD_REACTORS
330
81E
102
}
330
81E
100
AcDbXrecord
  1
{BD8D0C0B-ACA1-485E-A2EA-361CD57FA353}
  0
XRECORD
  5
821
102
{ACAD_REACTORS
330
81E
102
}
330
81E
100
AcDbXrecord
  1

  0
XRECORD
  5
827
102
{ACAD_REACTORS
330
81E
102
}
330
81E
100
AcDbXrecord
 90
        0
  0
XRECORD
  5
823
102
{ACAD_REACTORS
330
81E
102
}
330
81E
100
AcDbXrecord
340
1C2
  0
XRECORD
  5
826
102
{ACAD_REACTORS
330
81E
102
}
330
81E
100
AcDbXrecord
 90
    14877
  0
XRECORD
  5
824
102
{ACAD_REACTORS
330
81E
102
}
330
81E
100
AcDbXrecord
340
1C3
  0
XRECORD
  5
825
102
{ACAD_REACTORS
330
81E
102
}
330
81E
100
AcDbXrecord
340
1C0
  0
XRECORD
  5
82B
102
{ACAD_REACTORS
330
81E
102
}
330
81E
100
AcDbXrecord
 40
0.0
  0
XRECORD
  5
82F
102
{ACAD_REACTORS
330
81E
102
}
330
81E
100
AcDbXrecord
340
0
  0
XRECORD
  5
835
102
{ACAD_REACTORS
330
81E
102
}
330
81E
100
AcDbXrecord
 10
0.0
 20
0.0
 30
0.0
  0
XRECORD
  5
831
102
{ACAD_REACTORS
330
81E
102
}
330
81E
100
AcDbXrecord
 10
0.0
 20
0.0
 30
0.0
  0
XRECORD
  5
834
102
{ACAD_REACTORS
330
81E
102
}
330
81E
100
AcDbXrecord
 10
0.0
 20
0.0
 30
0.0
  0
XRECORD
  5
832
102
{ACAD_REACTORS
330
81E
102
}
330
81E
100
AcDbXrecord
 10
0.0
 20
0.0
 30
0.0
  0
XRECORD
  5
833
102
{ACAD_REACTORS
330
81E
102
}
330
81E
100
AcDbXrecord
 10
0.0
 20
0.0
 30
0.0
  0
XRECORD
  5
830
102
{ACAD_REACTORS
330
81E
102
}
330
81E
100
AcDbXrecord
 10
0.0
 20
0.0
 30
0.0
  0
XRECORD
  5
82D
102
{ACAD_REACTORS
330
81E
102
}
330
81E
100
AcDbXrecord
340
0
  0
XRECORD
  5
82E
102
{ACAD_REACTORS
330
81E
102
}
330
81E
100
AcDbXrecord
 70
     0
  0
XRECORD
  5
822
102
{ACAD_REACTORS
330
81E
102
}
330
81E
100
AcDbXrecord
  1

  0
XRECORD
  5
81F
102
{ACAD_REACTORS
330
81E
102
}
330
81E
100
AcDbXrecord
 90
        1
  0
XRECORD
  5
820
102
{ACAD_REACTORS
330
81E
102
}
330
81E
100
AcDbXrecord
 90
       70
  0
XRECORD
  5
838
102
{ACAD_REACTORS
330
81E
102
}
330
81E
100
AcDbXrecord
340
0
  0
XRECORD
  5
83E
102
{ACAD_REACTORS
330
81E
102
}
330
81E
100
AcDbXrecord
 10
0.0
 20
0.0
 30
0.0
  0
XRECORD
  5
83A
102
{ACAD_REACTORS
330
81E
102
}
330
81E
100
AcDbXrecord
 10
0.0
 20
0.0
 30
0.0
  0
XRECORD
  5
83D
102
{ACAD_REACTORS
330
81E
102
}
330
81E
100
AcDbXrecord
 10
0.0
 20
0.0
 30
0.0
  0
XRECORD
  5
83B
102
{ACAD_REACTORS
330
81E
102
}
330
81E
100
AcDbXrecord
 10
0.0
 20
0.0
 30
0.0
  0
XRECORD
  5
83C
102
{ACAD_REACTORS
330
81E
102
}
330
81E
100
AcDbXrecord
 10
0.0
 20
0.0
 30
0.0
  0
XRECORD
  5
839
102
{ACAD_REACTORS
330
81E
102
}
330
81E
100
AcDbXrecord
 10
0.0
 20
0.0
 30
0.0
  0
XRECORD
  5
836
102
{ACAD_REACTORS
330
81E
102
}
330
81E
100
AcDbXrecord
340
0
  0
XRECORD
  5
837
102
{ACAD_REACTORS
330
81E
102
}
330
81E
100
AcDbXrecord
 70
     0
  0
XRECORD
  5
82A
102
{ACAD_REACTORS
330
81E
102
}
330
81E
100
AcDbXrecord
  1
{2D8628CD-59C6-4F48-9FA4-290EA58B2D4F}
  0
DICTIONARYVAR
  5
1CA
102
{ACAD_REACTORS
330
1C9
102
}
330
1C9
100
DictionaryVariables
280
     0
  1
1
  0
ENDSEC
  0
EOF
