  0
SECTION
  2
HEADER
  9
$ACADVER
  1
AC1014
  9
$ACADMAINTVER
 70
     9
  9
$DWGCODEPAGE
  3
ANSI_1252
  9
$INSBASE
 10
0.0
 20
0.0
 30
0.0
  9
$EXTMIN
 10
-101.7889455046757
 20
-1.798528401719352
 30
0.0
  9
$EXTMAX
 10
88.40000000000046
 20
87.52603115856079
 30
0.0
  9
$LIMMIN
 10
0.0
 20
0.0
  9
$LIMMAX
 10
420.0
 20
297.0
  9
$ORTHOMODE
 70
     1
  9
$REGENMODE
 70
     1
  9
$FILLMODE
 70
     1
  9
$QTEXTMODE
 70
     0
  9
$MIRRTEXT
 70
     1
  9
$DRAGMODE
 70
     2
  9
$LTSCALE
 40
1.0
  9
$OSMODE
 70
   167
  9
$ATTMODE
 70
     1
  9
$TEXTSIZE
 40
2.5
  9
$TRACEWID
 40
1.0
  9
$TEXTSTYLE
  7
STANDARD
  9
$CLAYER
  8
0
  9
$CELTYPE
  6
BYLAYER
  9
$CECOLOR
 62
   256
  9
$CELTSCALE
 40
1.0
  9
$DELOBJ
 70
     1
  9
$DISPSILH
 70
     0
  9
$DIMSCALE
 40
1.0
  9
$DIMASZ
 40
2.5
  9
$DIMEXO
 40
0.625
  9
$DIMDLI
 40
3.75
  9
$DIMRND
 40
0.0
  9
$DIMDLE
 40
0.0
  9
$DIMEXE
 40
1.25
  9
$DIMTP
 40
0.0
  9
$DIMTM
 40
0.0
  9
$DIMTXT
 40
2.5
  9
$DIMCEN
 40
2.5
  9
$DIMTSZ
 40
0.0
  9
$DIMTOL
 70
     0
  9
$DIMLIM
 70
     0
  9
$DIMTIH
 70
     0
  9
$DIMTOH
 70
     0
  9
$DIMSE1
 70
     0
  9
$DIMSE2
 70
     0
  9
$DIMTAD
 70
     1
  9
$DIMZIN
 70
     8
  9
$DIMBLK
  1

  9
$DIMASO
 70
     1
  9
$DIMSHO
 70
     1
  9
$DIMPOST
  1

  9
$DIMAPOST
  1

  9
$DIMALT
 70
     0
  9
$DIMALTD
 70
     4
  9
$DIMALTF
 40
0.0394
  9
$DIMLFAC
 40
1.0
  9
$DIMTOFL
 70
     1
  9
$DIMTVP
 40
0.0
  9
$DIMTIX
 70
     0
  9
$DIMSOXD
 70
     0
  9
$DIMSAH
 70
     0
  9
$DIMBLK1
  1

  9
$DIMBLK2
  1

  9
$DIMSTYLE
  2
STANDARD
  9
$DIMCLRD
 70
     0
  9
$DIMCLRE
 70
     0
  9
$DIMCLRT
 70
     0
  9
$DIMTFAC
 40
1.0
  9
$DIMGAP
 40
0.625
  9
$DIMJUST
 70
     0
  9
$DIMSD1
 70
     0
  9
$DIMSD2
 70
     0
  9
$DIMTOLJ
 70
     1
  9
$DIMTZIN
 70
     0
  9
$DIMALTZ
 70
     0
  9
$DIMALTTZ
 70
     0
  9
$DIMFIT
 70
     3
  9
$DIMUPT
 70
     0
  9
$DIMUNIT
 70
     8
  9
$DIMDEC
 70
     4
  9
$DIMTDEC
 70
     4
  9
$DIMALTU
 70
     8
  9
$DIMALTTD
 70
     4
  9
$DIMTXSTY
  7
STANDARD
  9
$DIMAUNIT
 70
     0
  9
$LUNITS
 70
     2
  9
$LUPREC
 70
     2
  9
$SKETCHINC
 40
1.0
  9
$FILLETRAD
 40
0.0
  9
$AUNITS
 70
     0
  9
$AUPREC
 70
     0
  9
$MENU
  1
.
  9
$ELEVATION
 40
0.0
  9
$PELEVATION
 40
0.0
  9
$THICKNESS
 40
0.0
  9
$LIMCHECK
 70
     0
  9
$BLIPMODE
 70
     0
  9
$CHAMFERA
 40
10.0
  9
$CHAMFERB
 40
10.0
  9
$CHAMFERC
 40
20.0
  9
$CHAMFERD
 40
0.0
  9
$SKPOLY
 70
     0
  9
$TDCREATE
 40
2451164.545970139
  9
$TDUPDATE
 40
2452285.655144780
  9
$TDINDWG
 40
0.9749973032
  9
$TDUSRTIMER
 40
0.9749973032
  9
$USRTIMER
 70
     1
  9
$ANGBASE
 50
0.0
  9
$ANGDIR
 70
     0
  9
$PDMODE
 70
    35
  9
$PDSIZE
 40
-1.0
  9
$PLINEWID
 40
0.0
  9
$COORDS
 70
     0
  9
$SPLFRAME
 70
     0
  9
$SPLINETYPE
 70
     6
  9
$SPLINESEGS
 70
     8
  9
$ATTDIA
 70
     0
  9
$ATTREQ
 70
     1
  9
$HANDLING
 70
 22529
  9
$HANDSEED
  5
24AD
  9
$SURFTAB1
 70
     6
  9
$SURFTAB2
 70
     6
  9
$SURFTYPE
 70
     6
  9
$SURFU
 70
     6
  9
$SURFV
 70
     6
  9
$UCSNAME
  2

  9
$UCSORG
 10
0.0
 20
0.0
 30
0.0
  9
$UCSXDIR
 10
1.0
 20
0.0
 30
0.0
  9
$UCSYDIR
 10
0.0
 20
1.0
 30
0.0
  9
$PUCSNAME
  2

  9
$PUCSORG
 10
0.0
 20
0.0
 30
0.0
  9
$PUCSXDIR
 10
1.0
 20
0.0
 30
0.0
  9
$PUCSYDIR
 10
0.0
 20
1.0
 30
0.0
  9
$USERI1
 70
     0
  9
$USERI2
 70
     0
  9
$USERI3
 70
     0
  9
$USERI4
 70
     0
  9
$USERI5
 70
     0
  9
$USERR1
 40
0.0
  9
$USERR2
 40
0.0
  9
$USERR3
 40
0.0
  9
$USERR4
 40
0.0
  9
$USERR5
 40
0.0
  9
$WORLDVIEW
 70
     1
  9
$SHADEDGE
 70
     3
  9
$SHADEDIF
 70
    70
  9
$TILEMODE
 70
     1
  9
$MAXACTVP
 70
    48
  9
$PINSBASE
 10
0.0
 20
0.0
 30
0.0
  9
$PLIMCHECK
 70
     0
  9
$PEXTMIN
 10
1.000000000000000E+20
 20
1.000000000000000E+20
 30
1.000000000000000E+20
  9
$PEXTMAX
 10
-1.000000000000000E+20
 20
-1.000000000000000E+20
 30
-1.000000000000000E+20
  9
$PLIMMIN
 10
0.0
 20
0.0
  9
$PLIMMAX
 10
420.0
 20
297.0
  9
$UNITMODE
 70
     0
  9
$VISRETAIN
 70
     1
  9
$PLINEGEN
 70
     0
  9
$PSLTSCALE
 70
     1
  9
$TREEDEPTH
 70
  3020
  9
$PICKSTYLE
 70
     1
  9
$CMLSTYLE
  2
STANDARD
  9
$CMLJUST
 70
     0
  9
$CMLSCALE
 40
20.0
  9
$PROXYGRAPHICS
 70
     1
  9
$MEASUREMENT
 70
     1
  0
ENDSEC
  0
SECTION
  2
CLASSES
  0
CLASS
  1
RASTERVARIABLES
  2
AcDbRasterVariables
  3
ISM
 90
        0
280
     0
281
     0
  0
CLASS
  1
IMAGEDEF
  2
AcDbRasterImageDef
  3
ISM
 90
        0
280
     0
281
     0
  0
CLASS
  1
IMAGEDEF_REACTOR
  2
AcDbRasterImageDefReactor
  3
ISM
 90
        1
280
     0
281
     0
  0
CLASS
  1
IMAGE
  2
AcDbRasterImage
  3
ISM
 90
      127
280
     0
281
     1
  0
CLASS
  1
LWPOLYLINE
  2
AcDbPolyline
  3
AutoCAD 2000
 90
        0
280
     0
281
     1
  0
CLASS
  1
DICTIONARYVAR
  2
AcDbDictionaryVar
  3
AutoCAD 2000
 90
        0
280
     0
281
     0
  0
CLASS
  1
SORTENTSTABLE
  2
AcDbSortentsTable
  3
AutoCAD 2000
 90
        0
280
     0
281
     0
  0
CLASS
  1
HATCH
  2
AcDbHatch
  3
AutoCAD 2000
 90
        0
280
     0
281
     1
  0
CLASS
  1
ACDBDICTIONARYWDFLT
  2
AcDbDictionaryWithDefault
  3
AutoCAD 2000
 90
        0
280
     0
281
     0
  0
CLASS
  1
ACDBPLACEHOLDER
  2
AcDbPlaceHolder
  3
AutoCAD 2000
 90
        0
280
     0
281
     0
  0
CLASS
  1
LAYOUT
  2
AcDbLayout
  3
AutoCAD 2000
 90
        0
280
     0
281
     0
  0
CLASS
  1
LONG_TRANSACTION
  2
AcDbLongTransaction
  3
AutoCAD 2000
 90
        0
280
     0
281
     0
  0
CLASS
  1
LWPOLYLINE
  2
AcDbPolyline
  3
AutoCAD 2000
 90
        0
280
     0
281
     1
  0
CLASS
  1
HATCH
  2
AcDbHatch
  3
AutoCAD 2000
 90
        0
280
     0
281
     1
  0
CLASS
  1
XRECORD
  2
AcDbXrecord
  3
AutoCAD 2000
 90
        0
280
     0
281
     0
  0
ENDSEC
  0
SECTION
  2
TABLES
  0
TABLE
  2
VPORT
  5
8
330
0
100
AcDbSymbolTable
 70
     3
  0
VPORT
  5
2488
330
8
100
AcDbSymbolTableRecord
100
AcDbViewportTableRecord
  2
*ACTIVE
 70
     0
 10
0.0
 20
0.0
 11
1.0
 21
1.0
 12
-3.458007415436156
 22
41.19802532954031
 13
0.0
 23
0.0
 14
10.0
 24
10.0
 15
10.0
 25
10.0
 16
0.0
 26
0.0
 36
1.0
 17
0.0
 27
0.0
 37
0.0
 40
108.2721929755535
 41
1.828516377649325
 42
50.0
 43
0.0
 44
0.0
 50
0.0
 51
0.0
 71
     0
 72
   100
 73
     1
 74
     1
 75
     0
 76
     0
 77
     0
 78
     0
  0
ENDTAB
  0
TABLE
  2
LTYPE
  5
5
330
0
100
AcDbSymbolTable
 70
     1
  0
LTYPE
  5
12
330
5
100
AcDbSymbolTableRecord
100
AcDbLinetypeTableRecord
  2
BYBLOCK
 70
     0
  3

 72
    65
 73
     0
 40
0.0
  0
LTYPE
  5
13
330
5
100
AcDbSymbolTableRecord
100
AcDbLinetypeTableRecord
  2
BYLAYER
 70
     0
  3

 72
    65
 73
     0
 40
0.0
  0
LTYPE
  5
14
330
5
100
AcDbSymbolTableRecord
100
AcDbLinetypeTableRecord
  2
CONTINUOUS
 70
     0
  3
Solid line
 72
    65
 73
     0
 40
0.0
  0
ENDTAB
  0
TABLE
  2
LAYER
  5
2
330
0
100
AcDbSymbolTable
 70
     3
  0
LAYER
  5
E
330
2
100
AcDbSymbolTableRecord
100
AcDbLayerTableRecord
  2
0
 70
     0
 62
     7
  6
CONTINUOUS
  0
LAYER
  5
45F
330
2
100
AcDbSymbolTableRecord
100
AcDbLayerTableRecord
  2
DEFPOINTS
 70
     0
 62
     7
  6
CONTINUOUS
  0
LAYER
  5
21E3
330
2
100
AcDbSymbolTableRecord
100
AcDbLayerTableRecord
  2
COTATION-JACOBDELAFON
 70
     0
 62
     8
  6
CONTINUOUS
  0
ENDTAB
  0
TABLE
  2
STYLE
  5
3
330
0
100
AcDbSymbolTable
 70
     2
  0
STYLE
  5
F
330
3
100
AcDbSymbolTableRecord
100
AcDbTextStyleTableRecord
  2
STANDARD
 70
     0
 40
0.0
 41
1.0
 50
0.0
 71
     0
 42
2.5
  3
txt
  4

  0
STYLE
  5
23C6
330
3
100
AcDbSymbolTableRecord
100
AcDbTextStyleTableRecord
  2
JACOB-DELAFON
 70
     0
 40
0.0
 41
1.0
 50
0.0
 71
     0
 42
2.5
  3
ARIAL.TTF
  4

1001
ACAD
1000
Arial
1071
       34
  0
ENDTAB
  0
TABLE
  2
VIEW
  5
6
330
0
100
AcDbSymbolTable
 70
     0
  0
ENDTAB
  0
TABLE
  2
UCS
  5
7
330
0
100
AcDbSymbolTable
 70
     0
  0
ENDTAB
  0
TABLE
  2
APPID
  5
9
330
0
100
AcDbSymbolTable
 70
     2
  0
APPID
  5
10
330
9
100
AcDbSymbolTableRecord
100
AcDbRegAppTableRecord
  2
ACAD
 70
     0
  0
APPID
  5
21E6
330
9
100
AcDbSymbolTableRecord
100
AcDbRegAppTableRecord
  2
PE_URL
 70
     0
  0
ENDTAB
  0
TABLE
  2
DIMSTYLE
  5
A
330
0
100
AcDbSymbolTable
 70
     2
  0
DIMSTYLE
105
1D
330
A
100
AcDbSymbolTableRecord
100
AcDbDimStyleTableRecord
  2
STANDARD
 70
     0
  3

  4

  5

  6

  7

 40
1.0
 41
0.18
 42
0.0625
 43
0.38
 44
0.18
 45
0.0
 46
0.0
 47
0.0
 48
0.0
140
0.18
141
0.09
142
0.0
143
25.4
144
1.0
145
0.0
146
1.0
147
0.09
 71
     0
 72
     0
 73
     1
 74
     1
 75
     0
 76
     0
 77
     0
 78
     0
170
     0
171
     2
172
     0
173
     0
174
     0
175
     0
176
     0
177
     0
178
     0
270
     2
271
     4
272
     4
273
     2
274
     2
340
F
275
     0
280
     0
281
     0
282
     0
283
     1
284
     0
285
     0
286
     0
287
     3
288
     0
  0
DIMSTYLE
105
23C7
102
{ACAD_REACTORS
330
22F4
330
2329
102
}
330
A
100
AcDbSymbolTableRecord
100
AcDbDimStyleTableRecord
  2
COTATION-JACOB-DELAFON
 70
     0
  3

  4

  5
OBLIQUE
  6

  7

 40
1.0
 41
1.8
 42
0.625
 43
3.799999999999999
 44
1.8
 45
0.0
 46
0.0
 47
0.0
 48
0.0
140
3.0
141
0.9
142
0.0
143
25.4
144
1.0
145
0.0
146
1.0
147
0.9
 71
     0
 72
     0
 73
     0
 74
     0
 75
     0
 76
     0
 77
     1
 78
    12
170
     0
171
     2
172
     0
173
     0
174
     0
175
     0
176
     0
177
     0
178
     0
270
     2
271
     2
272
     2
273
     2
274
     2
340
23C6
275
     0
280
     0
281
     0
282
     0
283
     1
284
     0
285
     0
286
     0
287
     5
288
     0
  0
ENDTAB
  0
TABLE
  2
BLOCK_RECORD
  5
1
330
0
100
AcDbSymbolTable
 70
     3
  0
BLOCK_RECORD
  5
18
102
{ACAD_XDICTIONARY
360
A6
102
}
330
1
100
AcDbSymbolTableRecord
100
AcDbBlockTableRecord
  2
*MODEL_SPACE
  0
BLOCK_RECORD
  5
15
102
{ACAD_XDICTIONARY
360
24AA
102
}
330
1
100
AcDbSymbolTableRecord
100
AcDbBlockTableRecord
  2
*PAPER_SPACE
  0
BLOCK_RECORD
  5
22F5
330
1
100
AcDbSymbolTableRecord
100
AcDbBlockTableRecord
  2
*D0
  0
BLOCK_RECORD
  5
232A
330
1
100
AcDbSymbolTableRecord
100
AcDbBlockTableRecord
  2
*D1
  0
BLOCK_RECORD
  5
23B6
330
1
100
AcDbSymbolTableRecord
100
AcDbBlockTableRecord
  2
_OBLIQUE
  0
ENDTAB
  0
ENDSEC
  0
SECTION
  2
BLOCKS
  0
BLOCK
  5
19
330
18
100
AcDbEntity
  8
0
100
AcDbBlockBegin
  2
*MODEL_SPACE
 70
     0
 10
0.0
 20
0.0
 30
0.0
  3
*MODEL_SPACE
  1

  0
ENDBLK
  5
1A
330
18
100
AcDbEntity
  8
0
100
AcDbBlockEnd
  0
BLOCK
  5
16
330
15
100
AcDbEntity
 67
     1
  8
0
100
AcDbBlockBegin
  2
*PAPER_SPACE
 70
     0
 10
0.0
 20
0.0
 30
0.0
  3
*PAPER_SPACE
  1

  0
ENDBLK
  5
17
330
15
100
AcDbEntity
 67
     1
  8
0
100
AcDbBlockEnd
  0
BLOCK
  5
22FF
330
22F5
100
AcDbEntity
  8
0
100
AcDbBlockBegin
  2
*D0
 70
     1
 10
0.0
 20
0.0
 30
0.0
  3
*D0
  1

  0
LINE
  5
2443
330
22F5
100
AcDbEntity
  8
COTATION-JACOBDELAFON
 62
     0
100
AcDbLine
 10
-87.50000000000046
 20
63.46820955409221
 30
0.0
 11
-87.50000000000046
 21
80.34421976840242
 31
0.0
  0
LINE
  5
2444
330
22F5
100
AcDbEntity
  8
COTATION-JACOBDELAFON
 62
     0
100
AcDbLine
 10
87.50000000000046
 20
63.46820955409221
 30
0.0
 11
87.50000000000046
 21
80.34421976840242
 31
0.0
  0
LINE
  5
2445
330
22F5
100
AcDbEntity
  8
COTATION-JACOBDELAFON
 62
     0
100
AcDbLine
 10
-87.50000000000046
 20
78.54421976840242
 30
0.0
 11
87.50000000000046
 21
78.54421976840242
 31
0.0
  0
INSERT
  5
2446
330
22F5
100
AcDbEntity
  8
COTATION-JACOBDELAFON
 62
     0
100
AcDbBlockReference
  2
_OBLIQUE
 10
-87.50000000000046
 20
78.54421976840242
 30
0.0
 41
1.8
 42
1.8
 43
1.8
 50
180.0
  0
INSERT
  5
2447
330
22F5
100
AcDbEntity
  8
COTATION-JACOBDELAFON
 62
     0
100
AcDbBlockReference
  2
_OBLIQUE
 10
87.50000000000046
 20
78.54421976840242
 30
0.0
 41
1.8
 42
1.8
 43
1.8
  0
MTEXT
  5
2448
330
22F5
100
AcDbEntity
  8
COTATION-JACOBDELAFON
 62
     0
100
AcDbMText
 10
0.0000000000000001
 20
80.97593873156752
 30
0.0
 40
3.0
 41
0.0
 71
     5
 72
     1
  1
\A1;175
  7
JACOB-DELAFON
1001
ACAD
1000
MTEXTBEGIN
1070
    73
1070
     1
1070
    44
1040
1.0
1070
    74
1070
     0
1000
MTEXTEND
  0
POINT
  5
2449
330
22F5
100
AcDbEntity
  8
DEFPOINTS
 62
     0
100
AcDbPoint
 10
-87.50000000000046
 20
62.84320955409221
 30
0.0
  0
POINT
  5
244A
330
22F5
100
AcDbEntity
  8
DEFPOINTS
 62
     0
100
AcDbPoint
 10
87.50000000000046
 20
62.84320955409221
 30
0.0
  0
POINT
  5
244B
330
22F5
100
AcDbEntity
  8
DEFPOINTS
 62
     0
100
AcDbPoint
 10
87.50000000000046
 20
78.54421976840242
 30
0.0
  0
ENDBLK
  5
2300
330
22F5
100
AcDbEntity
  8
0
100
AcDbBlockEnd
  0
BLOCK
  5
2334
330
232A
100
AcDbEntity
  8
0
100
AcDbBlockBegin
  2
*D1
 70
     1
 10
0.0
 20
0.0
 30
0.0
  3
*D1
  1

  0
LINE
  5
243A
330
232A
100
AcDbEntity
  8
COTATION-JACOBDELAFON
 62
     0
100
AcDbLine
 10
-81.75902754199251
 20
66.00000000000065
 30
0.0
 11
-98.83764946101956
 21
66.00000000000067
 31
0.0
  0
LINE
  5
243B
330
232A
100
AcDbEntity
  8
COTATION-JACOBDELAFON
 62
     0
100
AcDbLine
 10
-81.75902754199205
 20
-0.0000000000002681
 30
0.0
 11
-98.83764946101958
 21
-0.0000000000002632
 31
0.0
  0
LINE
  5
243C
330
232A
100
AcDbEntity
  8
COTATION-JACOBDELAFON
 62
     0
100
AcDbLine
 10
-97.03764946101957
 20
66.00000000000067
 30
0.0
 11
-97.03764946101959
 21
-0.0000000000002637
 31
0.0
  0
INSERT
  5
243D
330
232A
100
AcDbEntity
  8
COTATION-JACOBDELAFON
 62
     0
100
AcDbBlockReference
  2
_OBLIQUE
 10
-97.03764946101957
 20
66.00000000000067
 30
0.0
 41
1.8
 42
1.8
 43
1.8
 50
90.0
  0
INSERT
  5
243E
330
232A
100
AcDbEntity
  8
COTATION-JACOBDELAFON
 62
     0
100
AcDbBlockReference
  2
_OBLIQUE
 10
-97.03764946101959
 20
-0.0000000000002637
 30
0.0
 41
1.8
 42
1.8
 43
1.8
 50
270.0
  0
MTEXT
  5
243F
330
232A
100
AcDbEntity
  8
COTATION-JACOBDELAFON
 62
     0
100
AcDbMText
 10
-99.46936842418466
 20
33.00000000000018
 30
0.0
 40
3.0
 41
0.0
 71
     5
 72
     1
  1
\A1;66
  7
JACOB-DELAFON
 11
0.0000000000000001
 21
1.0
 31
0.0
1001
ACAD
1000
MTEXTBEGIN
1070
    73
1070
     1
1070
    44
1040
1.0
1070
    74
1070
     0
1000
MTEXTEND
  0
POINT
  5
2440
330
232A
100
AcDbEntity
  8
DEFPOINTS
 62
     0
100
AcDbPoint
 10
-81.13402754199251
 20
66.00000000000065
 30
0.0
  0
POINT
  5
2441
330
232A
100
AcDbEntity
  8
DEFPOINTS
 62
     0
100
AcDbPoint
 10
-81.13402754199205
 20
-0.0000000000002682
 30
0.0
  0
POINT
  5
2442
330
232A
100
AcDbEntity
  8
DEFPOINTS
 62
     0
100
AcDbPoint
 10
-97.03764946101959
 20
-0.0000000000002637
 30
0.0
  0
ENDBLK
  5
2335
330
232A
100
AcDbEntity
  8
0
100
AcDbBlockEnd
  0
BLOCK
  5
23B8
330
23B6
100
AcDbEntity
  8
0
100
AcDbBlockBegin
  2
_OBLIQUE
 70
     0
 10
0.0
 20
0.0
 30
0.0
  3
_OBLIQUE
  1

  0
LINE
  5
23B7
330
23B6
100
AcDbEntity
  8
0
  6
BYBLOCK
 62
     0
100
AcDbLine
 10
-0.5
 20
-0.5
 30
0.0
 11
0.5
 21
0.5
 31
0.0
  0
ENDBLK
  5
23B9
330
23B6
100
AcDbEntity
  8
0
100
AcDbBlockEnd
  0
ENDSEC
  0
SECTION
  2
ENTITIES
  0
MTEXT
  5
CBF
330
18
100
AcDbEntity
  8
0
 62
     3
100
AcDbMText
 10
-317.6025081536208
 20
975.0845162308905
 30
0.0
 40
2.5
 41
0.0
 71
     4
 72
     1
  1
\A1;
1001
ACAD
1000
MTEXTBEGIN
1070
    73
1070
     1
1070
    44
1040
1.0
1070
    74
1070
     0
1000
MTEXTEND
  0
MTEXT
  5
F99
330
18
100
AcDbEntity
  8
0
 62
     1
100
AcDbMText
 10
-7.943815168982837
 20
2951.264687571253
 30
0.0
 40
2.5
 41
0.0
 71
     4
 72
     1
  1
\A1;
1001
ACAD
1000
MTEXTBEGIN
1070
    73
1070
     1
1070
    44
1040
1.0
1070
    74
1070
     0
1000
MTEXTEND
  0
MTEXT
  5
13BA
330
18
100
AcDbEntity
  8
0
 62
     3
100
AcDbMText
 10
-2304.438227623541
 20
2865.861345300901
 30
0.0
 40
2.5
 41
0.0
 71
     6
 72
     1
  1
\A1;\P 
1001
ACAD
1000
MTEXTBEGIN
1070
    73
1070
     1
1070
    44
1040
1.0
1070
    74
1070
     0
1000
MTEXTEND
  0
MTEXT
  5
13BC
330
18
100
AcDbEntity
  8
0
 62
     3
100
AcDbMText
 10
-2314.89632121961
 20
2910.521764035614
 30
0.0
 40
2.5
 41
0.0
 71
     6
 72
     1
  1
\A1;
1001
ACAD
1000
MTEXTBEGIN
1070
    73
1070
     1
1070
    44
1040
1.0
1070
    74
1070
     0
1000
MTEXTEND
  0
MTEXT
  5
14EB
330
18
100
AcDbEntity
  8
0
 62
     3
100
AcDbMText
 10
-761.8070700646294
 20
2866.229576250665
 30
0.0
 40
2.5
 41
0.0
 71
     6
 72
     1
  1
\A1;\P 
1001
ACAD
1000
MTEXTBEGIN
1070
    73
1070
     1
1070
    44
1040
1.0
1070
    74
1070
     0
1000
MTEXTEND
  0
MTEXT
  5
14ED
330
18
100
AcDbEntity
  8
0
 62
     3
100
AcDbMText
 10
-772.2651636606988
 20
2910.889994985378
 30
0.0
 40
2.5
 41
0.0
 71
     6
 72
     1
  1
\A1;
1001
ACAD
1000
MTEXTBEGIN
1070
    73
1070
     1
1070
    44
1040
1.0
1070
    74
1070
     0
1000
MTEXTEND
  0
MTEXT
  5
15FB
330
18
100
AcDbEntity
  8
0
 62
     3
100
AcDbMText
 10
-1499.132842608497
 20
2865.190350112468
 30
0.0
 40
2.5
 41
0.0
 71
     6
 72
     1
  1
\A1;\P 
1001
ACAD
1000
MTEXTBEGIN
1070
    73
1070
     1
1070
    44
1040
1.0
1070
    74
1070
     0
1000
MTEXTEND
  0
MTEXT
  5
15FD
330
18
100
AcDbEntity
  8
0
 62
     3
100
AcDbMText
 10
-1509.590936204566
 20
2909.850768847182
 30
0.0
 40
2.5
 41
0.0
 71
     6
 72
     1
  1
\A1;
1001
ACAD
1000
MTEXTBEGIN
1070
    73
1070
     1
1070
    44
1040
1.0
1070
    74
1070
     0
1000
MTEXTEND
  0
LINE
  5
2076
330
18
100
AcDbEntity
  8
0
100
AcDbLine
 10
4.175040255565825
 20
13.96323937889675
 30
0.0
 11
3.290380260745685
 21
12.81554315294416
 31
0.0
  0
ARC
  5
207B
330
18
100
AcDbEntity
  8
0
100
AcDbCircle
 10
-3354.608052374756
 20
94184.09539516702
 30
0.0
 40
94230.01227900769
100
AcDbArc
 50
272.0427129872421
 51
272.0717489191908
  0
ARC
  5
2088
330
18
100
AcDbEntity
  8
0
100
AcDbCircle
 10
50.43733117450575
 20
40.15326676547029
 30
0.0
 40
24.51930938182016
100
AcDbArc
 50
273.4139715160102
 51
329.887213187016
  0
LINE
  5
2091
330
18
100
AcDbEntity
  8
0
100
AcDbLine
 10
71.64750171104515
 20
27.85183602053958
 30
0.0
 11
80.48834311242035
 21
62.15901769346119
 31
0.0
  0
ARC
  5
2092
330
18
100
AcDbEntity
  8
0
100
AcDbCircle
 10
83.47105327041663
 20
61.8314213265382
 30
0.0
 40
4.168623630195303
100
AcDbArc
 50
18.58085850086962
 51
90.2660964277339
  0
ARC
  5
2094
330
18
100
AcDbEntity
  8
0
100
AcDbCircle
 10
86.81580813936898
 20
62.84320955409221
 30
0.0
 40
0.6841918606315045
100
AcDbArc
 50
270.0
 51
27.55556907129124
  0
LINE
  5
22E1
330
18
100
AcDbEntity
  8
0
100
AcDbLine
 10
-62.49021508345882
 20
-0.0000000000000728
 30
0.0
 11
-53.22483249710756
 21
0.0
 31
0.0
  0
DIMENSION
  5
22F4
330
18
100
AcDbEntity
  8
COTATION-JACOBDELAFON
 48
10.0
100
AcDbDimension
  2
*D0
 10
87.50000000000046
 20
78.54421976840242
 30
0.0
 11
0.0000000000000001
 21
80.97593873156752
 31
0.0
 70
    32
  3
COTATION-JACOB-DELAFON
100
AcDbAlignedDimension
 13
-87.50000000000046
 23
62.84320955409221
 33
0.0
 14
87.50000000000046
 24
62.84320955409221
 34
0.0
100
AcDbRotatedDimension
  0
LINE
  5
230E
330
18
100
AcDbEntity
  8
0
100
AcDbLine
 10
0.0000000000000071
 20
65.9999933449562
 30
0.0
 11
83.49041336774916
 21
66.00000000000156
 31
0.0
  0
LINE
  5
2311
330
18
100
AcDbEntity
  8
0
100
AcDbLine
 10
-4.175040255565811
 20
13.96323937889675
 30
0.0
 11
-3.290380260745671
 21
12.81554315294416
 31
0.0
  0
LINE
  5
2312
330
18
100
AcDbEntity
  8
0
100
AcDbLine
 10
-3.290380260745671
 20
12.81554315294416
 30
0.0
 11
3.290380260745685
 21
12.81554315294416
 31
0.0
  0
ARC
  5
2316
330
18
100
AcDbEntity
  8
0
100
AcDbCircle
 10
-152.5886646058471
 20
-3458.406441854875
 30
0.0
 40
3475.539930290589
100
AcDbArc
 50
87.55259300079872
 51
88.34146380656932
  0
ARC
  5
2317
330
18
100
AcDbEntity
  8
0
100
AcDbCircle
 10
-50.53642723860047
 20
40.15326676547029
 30
0.0
 40
24.51930938182016
100
AcDbArc
 50
210.1127868129839
 51
266.5860284839897
  0
ARC
  5
2318
330
18
100
AcDbEntity
  8
0
100
AcDbCircle
 10
-56.77728897718179
 20
6.459150034842155
 30
0.0
 40
8.623116830264102
100
AcDbArc
 50
134.0866087164496
 51
228.5081966989219
  0
ARC
  5
2319
330
18
100
AcDbEntity
  8
0
100
AcDbCircle
 10
-59.12842551897301
 20
6.106206918548837
 30
0.0
 40
8.493419423291902
100
AcDbArc
 50
314.0334709974018
 51
52.76333703103887
  0
LINE
  5
231A
330
18
100
AcDbEntity
  8
0
100
AcDbLine
 10
-64.2227227762287
 20
19.8091804744101
 30
0.0
 11
-62.77677884161311
 21
12.65303938120469
 31
0.0
  0
LINE
  5
231B
330
18
100
AcDbEntity
  8
0
100
AcDbLine
 10
-62.77677884161311
 20
12.65303938120469
 30
0.0
 11
-53.98898368439949
 21
12.868182305149
 31
0.0
  0
LINE
  5
231C
330
18
100
AcDbEntity
  8
0
100
AcDbLine
 10
-53.98898368439949
 20
12.868182305149
 30
0.0
 11
-52.80199113380149
 21
15.59702040670272
 31
0.0
  0
LINE
  5
231F
330
18
100
AcDbEntity
  8
0
100
AcDbLine
 10
-71.74659777513989
 20
27.85183602053958
 30
0.0
 11
-80.58313412711232
 21
62.15901769346074
 31
0.0
  0
LINE
  5
2325
330
18
100
AcDbEntity
  8
0
100
AcDbLine
 10
0.0000000000000071
 20
65.9999933449562
 30
0.0
 11
-83.58950943226227
 21
65.99952118803523
 31
0.0
  0
LINE
  5
2326
330
18
100
AcDbEntity
  8
0
100
AcDbLine
 10
86.81580813936898
 20
62.15901769346074
 30
0.0
 11
-86.91490420346372
 21
62.15901769346074
 31
0.0
  0
DIMENSION
  5
2329
330
18
100
AcDbEntity
  8
COTATION-JACOBDELAFON
 48
10.0
100
AcDbDimension
  2
*D1
 10
-97.03764946101959
 20
-0.0000000000002637
 30
0.0
 11
-99.46936842418466
 21
33.00000000000018
 31
0.0
 70
    32
  3
COTATION-JACOB-DELAFON
100
AcDbAlignedDimension
 13
-81.13402754199251
 23
66.00000000000065
 33
0.0
 14
-81.13402754199205
 24
-0.0000000000002682
 34
0.0
 50
90.0
100
AcDbRotatedDimension
  0
ARC
  5
233A
330
18
100
AcDbEntity
  8
0
100
AcDbCircle
 10
56.67819291308706
 20
6.459150034842155
 30
0.0
 40
8.623116830264102
100
AcDbArc
 50
311.491803301078
 51
45.91339128355034
  0
ARC
  5
233B
330
18
100
AcDbEntity
  8
0
100
AcDbCircle
 10
59.02932945487829
 20
6.106206918548837
 30
0.0
 40
8.493419423291902
100
AcDbArc
 50
127.2366629689611
 51
225.9665290025981
  0
LINE
  5
233C
330
18
100
AcDbEntity
  8
0
100
AcDbLine
 10
64.12362671213395
 20
19.8091804744101
 30
0.0
 11
62.67768277751839
 21
12.65303938120469
 31
0.0
  0
LINE
  5
233D
330
18
100
AcDbEntity
  8
0
100
AcDbLine
 10
62.67768277751839
 20
12.65303938120469
 30
0.0
 11
53.88988762030477
 21
12.868182305149
 31
0.0
  0
LINE
  5
233E
330
18
100
AcDbEntity
  8
0
100
AcDbLine
 10
53.88988762030477
 20
12.868182305149
 30
0.0
 11
52.70289506970676
 21
15.59702040670272
 31
0.0
  0
ARC
  5
235A
330
18
100
AcDbEntity
  8
0
100
AcDbCircle
 10
-83.47105327041663
 20
61.8314213265382
 30
0.0
 40
4.168623630195303
100
AcDbArc
 50
89.73390357226611
 51
161.4191414991303
  0
ARC
  5
235B
330
18
100
AcDbEntity
  8
0
100
AcDbCircle
 10
-86.81580813936898
 20
62.84320955409221
 30
0.0
 40
0.6841918606315045
100
AcDbArc
 50
152.4444309287087
 51
270.0
  0
LINE
  5
2394
330
18
100
AcDbEntity
  8
0
100
AcDbLine
 10
53.12573643301199
 20
0.0000000000008287
 30
0.0
 11
62.3911190193652
 21
0.0000000000009006
 31
0.0
  0
LINE
  5
2417
330
18
100
AcDbEntity
  8
0
100
AcDbLine
 10
-4.175040255573826
 20
13.96323937889789
 30
0.0
 11
4.175040255567957
 21
13.96323937889971
 31
0.0
  0
VIEWPORT
  5
AFB
330
15
100
AcDbEntity
 67
     1
  8
0
 62
    10
100
AcDbViewport
 10
338.1230769230768
 20
148.5
 30
0.0
 40
676.2461538461537
 41
297.0
 68
     1
 69
     1
1001
ACAD
1000
MVIEW
1002
{
1070
    16
1010
0.0
1020
0.0
1030
0.0
1010
0.0
1020
0.0
1030
1.0
1040
0.0
1040
297.0
1040
338.1230769230768
1040
148.5
1040
50.0
1040
0.0
1040
0.0
1070
     0
1070
   100
1070
     1
1070
     1
1070
     0
1070
     0
1070
     0
1070
     0
1040
0.0
1040
0.0
1040
0.0
1040
10.0
1040
10.0
1040
10.0
1040
10.0
1070
     0
1002
{
1002
}
1002
}
  0
ENDSEC
  0
SECTION
  2
OBJECTS
  0
DICTIONARY
  5
C
330
0
100
AcDbDictionary
  3
ACAD_GROUP
350
D
  3
ACAD_IMAGE_DICT
350
26
  3
ACAD_IMAGE_VARS
350
25
  3
ACAD_LAYOUT
350
21AA
  3
ACAD_MLINESTYLE
350
1B
  3
ACAD_PLOTSETTINGS
350
21AB
  3
ACAD_PLOTSTYLENAME
350
21A8
  3
ACDBHEADERROUNDTRIPXREC
350
2489
  3
ACDBVARIABLEDICTIONARY
350
A4
  3
AEC_PROPERTY_SET_DEFS
350
23CC
  0
DICTIONARY
  5
A6
330
18
100
AcDbDictionary
280
     1
  3
ACAD_LAYOUTSELFREF
360
24AC
  3
ACAD_SORTENTS
360
A7
  0
DICTIONARY
  5
24AA
330
15
100
AcDbDictionary
280
     1
  3
ACAD_LAYOUTSELFREF
360
24AB
  0
DICTIONARY
  5
D
102
{ACAD_REACTORS
330
C
102
}
330
C
100
AcDbDictionary
  0
DICTIONARY
  5
26
102
{ACAD_REACTORS
330
C
102
}
330
C
100
AcDbDictionary
  0
RASTERVARIABLES
  5
25
102
{ACAD_REACTORS
330
C
102
}
330
C
100
AcDbRasterVariables
 90
        0
 70
     1
 71
     1
 72
     0
  0
DICTIONARY
  5
21AA
102
{ACAD_REACTORS
330
C
102
}
330
C
100
AcDbDictionary
  0
DICTIONARY
  5
1B
102
{ACAD_REACTORS
330
C
102
}
330
C
100
AcDbDictionary
  3
STANDARD
350
1C
  0
DICTIONARY
  5
21AB
102
{ACAD_REACTORS
330
C
102
}
330
C
100
AcDbDictionary
  0
ACDBDICTIONARYWDFLT
  5
21A8
102
{ACAD_REACTORS
330
C
102
}
330
C
100
AcDbDictionary
281
     1
  3
Normal
350
21A9
100
AcDbDictionaryWithDefault
340
21A9
  0
DICTIONARY
  5
2489
102
{ACAD_REACTORS
330
C
102
}
330
C
100
AcDbDictionary
  3
CEPSNTYPE
350
2493
  3
DIMSTYLEDATA
350
2497
  3
FINGERPRINTGUID
350
2494
  3
HYPERLINKBASE
350
248C
  3
INSUNITS
350
2492
  3
LAYOUTDICT
350
248E
  3
LWETCUNION
350
2491
  3
PLOTSETDICT
350
248F
  3
PLOTSTYLNAMDICT
350
2490
  3
PSVPSCALE
350
2496
  3
PUCSBASE
350
249A
  3
PUCSORGBACK
350
24A0
  3
PUCSORGBOTTOM
350
249C
  3
PUCSORGFRONT
350
249F
  3
PUCSORGLEFT
350
249D
  3
PUCSORGRIGHT
350
249E
  3
PUCSORGTOP
350
249B
  3
PUCSORTHOREF
350
2498
  3
PUCSORTHOVIEW
350
2499
  3
STYLESHEET
350
248D
  3
TSTACKALIGN
350
248A
  3
TSTACKSIZE
350
248B
  3
UCSBASE
350
24A3
  3
UCSORGBACK
350
24A9
  3
UCSORGBOTTOM
350
24A5
  3
UCSORGFRONT
350
24A8
  3
UCSORGLEFT
350
24A6
  3
UCSORGRIGHT
350
24A7
  3
UCSORGTOP
350
24A4
  3
UCSORTHOREF
350
24A1
  3
UCSORTHOVIEW
350
24A2
  3
VERSIONGUID
350
2495
  0
DICTIONARY
  5
A4
102
{ACAD_REACTORS
330
C
102
}
330
C
100
AcDbDictionary
  3
DIMASSOC
350
21B2
  3
SORTENTS
350
A5
  0
DICTIONARY
  5
23CC
102
{ACAD_REACTORS
330
C
102
}
330
C
100
AcDbDictionary
  0
XRECORD
  5
24AC
102
{ACAD_REACTORS
330
A6
102
}
330
A6
100
AcDbXrecord
340
18
  0
SORTENTSTABLE
  5
A7
102
{ACAD_REACTORS
330
A6
102
}
330
A6
100
AcDbSortentsTable
330
18
331
F99
  5
13BA
331
CBF
  5
F99
331
13BC
  5
14EB
331
15FD
  5
1700
331
13BA
  5
13BC
331
15FB
  5
15FD
331
14ED
  5
15FB
331
14EB
  5
14ED
  0
XRECORD
  5
24AB
102
{ACAD_REACTORS
330
24AA
102
}
330
24AA
100
AcDbXrecord
340
15
  0
MLINESTYLE
  5
1C
102
{ACAD_REACTORS
330
1B
102
}
330
1B
100
AcDbMlineStyle
  2
STANDARD
 70
     0
  3

 62
   256
 51
90.0
 52
90.0
 71
     2
 49
0.5
 62
   256
  6
BYLAYER
 49
-0.5
 62
   256
  6
BYLAYER
  0
ACDBPLACEHOLDER
  5
21A9
102
{ACAD_REACTORS
330
21A8
102
}
330
21A8
100
AcDbPlaceHolder
280
     0
  0
XRECORD
  5
2493
102
{ACAD_REACTORS
330
2489
102
}
330
2489
100
AcDbXrecord
 90
        0
  0
XRECORD
  5
2497
102
{ACAD_REACTORS
330
2489
102
}
330
2489
100
AcDbXrecord
1000
DSTYLE
1002
{
1070
   277
 70
     6
1002
}
  0
XRECORD
  5
2494
102
{ACAD_REACTORS
330
2489
102
}
330
2489
100
AcDbXrecord
  1
{B9AAF77B-DF2C-4A3C-8B74-42FC8F34DC94}
  0
XRECORD
  5
248C
102
{ACAD_REACTORS
330
2489
102
}
330
2489
100
AcDbXrecord
  1

  0
XRECORD
  5
2492
102
{ACAD_REACTORS
330
2489
102
}
330
2489
100
AcDbXrecord
 90
        0
  0
XRECORD
  5
248E
102
{ACAD_REACTORS
330
2489
102
}
330
2489
100
AcDbXrecord
340
21AA
  0
XRECORD
  5
2491
102
{ACAD_REACTORS
330
2489
102
}
330
2489
100
AcDbXrecord
 90
    14877
  0
XRECORD
  5
248F
102
{ACAD_REACTORS
330
2489
102
}
330
2489
100
AcDbXrecord
340
21AB
  0
XRECORD
  5
2490
102
{ACAD_REACTORS
330
2489
102
}
330
2489
100
AcDbXrecord
340
21A8
  0
XRECORD
  5
2496
102
{ACAD_REACTORS
330
2489
102
}
330
2489
100
AcDbXrecord
 40
0.0
  0
XRECORD
  5
249A
102
{ACAD_REACTORS
330
2489
102
}
330
2489
100
AcDbXrecord
340
0
  0
XRECORD
  5
24A0
102
{ACAD_REACTORS
330
2489
102
}
330
2489
100
AcDbXrecord
 10
0.0
 20
0.0
 30
0.0
  0
XRECORD
  5
249C
102
{ACAD_REACTORS
330
2489
102
}
330
2489
100
AcDbXrecord
 10
0.0
 20
0.0
 30
0.0
  0
XRECORD
  5
249F
102
{ACAD_REACTORS
330
2489
102
}
330
2489
100
AcDbXrecord
 10
0.0
 20
0.0
 30
0.0
  0
XRECORD
  5
249D
102
{ACAD_REACTORS
330
2489
102
}
330
2489
100
AcDbXrecord
 10
0.0
 20
0.0
 30
0.0
  0
XRECORD
  5
249E
102
{ACAD_REACTORS
330
2489
102
}
330
2489
100
AcDbXrecord
 10
0.0
 20
0.0
 30
0.0
  0
XRECORD
  5
249B
102
{ACAD_REACTORS
330
2489
102
}
330
2489
100
AcDbXrecord
 10
0.0
 20
0.0
 30
0.0
  0
XRECORD
  5
2498
102
{ACAD_REACTORS
330
2489
102
}
330
2489
100
AcDbXrecord
340
0
  0
XRECORD
  5
2499
102
{ACAD_REACTORS
330
2489
102
}
330
2489
100
AcDbXrecord
 70
     0
  0
XRECORD
  5
248D
102
{ACAD_REACTORS
330
2489
102
}
330
2489
100
AcDbXrecord
  1

  0
XRECORD
  5
248A
102
{ACAD_REACTORS
330
2489
102
}
330
2489
100
AcDbXrecord
 90
        1
  0
XRECORD
  5
248B
102
{ACAD_REACTORS
330
2489
102
}
330
2489
100
AcDbXrecord
 90
       70
  0
XRECORD
  5
24A3
102
{ACAD_REACTORS
330
2489
102
}
330
2489
100
AcDbXrecord
340
0
  0
XRECORD
  5
24A9
102
{ACAD_REACTORS
330
2489
102
}
330
2489
100
AcDbXrecord
 10
0.0
 20
0.0
 30
0.0
  0
XRECORD
  5
24A5
102
{ACAD_REACTORS
330
2489
102
}
330
2489
100
AcDbXrecord
 10
0.0
 20
0.0
 30
0.0
  0
XRECORD
  5
24A8
102
{ACAD_REACTORS
330
2489
102
}
330
2489
100
AcDbXrecord
 10
0.0
 20
0.0
 30
0.0
  0
XRECORD
  5
24A6
102
{ACAD_REACTORS
330
2489
102
}
330
2489
100
AcDbXrecord
 10
0.0
 20
0.0
 30
0.0
  0
XRECORD
  5
24A7
102
{ACAD_REACTORS
330
2489
102
}
330
2489
100
AcDbXrecord
 10
0.0
 20
0.0
 30
0.0
  0
XRECORD
  5
24A4
102
{ACAD_REACTORS
330
2489
102
}
330
2489
100
AcDbXrecord
 10
0.0
 20
0.0
 30
0.0
  0
XRECORD
  5
24A1
102
{ACAD_REACTORS
330
2489
102
}
330
2489
100
AcDbXrecord
340
0
  0
XRECORD
  5
24A2
102
{ACAD_REACTORS
330
2489
102
}
330
2489
100
AcDbXrecord
 70
     0
  0
XRECORD
  5
2495
102
{ACAD_REACTORS
330
2489
102
}
330
2489
100
AcDbXrecord
  1
{D11E2E4D-018F-4910-BB9B-E0EDEDD15127}
  0
DICTIONARYVAR
  5
21B2
102
{ACAD_REACTORS
330
A4
102
}
330
A4
100
DictionaryVariables
280
     0
  1
1
  0
DICTIONARYVAR
  5
A5
102
{ACAD_REACTORS
330
A4
102
}
330
A4
100
DictionaryVariables
280
     0
  1
127
  0
ENDSEC
  0
EOF
