  0
SECTION
  2
HEADER
  9
$ACADVER
  1
AC1014
  9
$ACADMAINTVER
 70
     9
  9
$DWGCODEPAGE
  3
ANSI_1252
  9
$INSBASE
 10
3993.781986274893
 20
686.5881422506227
 30
0.0
  9
$EXTMIN
 10
3992.881986274893
 20
667.4552565862708
 30
0.0
  9
$EXTMAX
 10
4057.603141786954
 20
719.2291845873577
 30
0.0
  9
$LIMMIN
 10
0.0
 20
0.0
  9
$LIMMAX
 10
420.0
 20
297.0
  9
$ORTHOMODE
 70
     1
  9
$REGENMODE
 70
     1
  9
$FILLMODE
 70
     1
  9
$QTEXTMODE
 70
     0
  9
$MIRRTEXT
 70
     0
  9
$DRAGMODE
 70
     2
  9
$LTSCALE
 40
1.0
  9
$OSMODE
 70
    39
  9
$ATTMODE
 70
     1
  9
$TEXTSIZE
 40
2.5
  9
$TRACEWID
 40
1.0
  9
$TEXTSTYLE
  7
STANDARD
  9
$CLAYER
  8
0
  9
$CELTYPE
  6
BYLAYER
  9
$CECOLOR
 62
   256
  9
$CELTSCALE
 40
1.0
  9
$DELOBJ
 70
     1
  9
$DISPSILH
 70
     0
  9
$DIMSCALE
 40
1.0
  9
$DIMASZ
 40
1.8
  9
$DIMEXO
 40
0.625
  9
$DIMDLI
 40
0.0
  9
$DIMRND
 40
0.0
  9
$DIMDLE
 40
0.0
  9
$DIMEXE
 40
1.8
  9
$DIMTP
 40
0.0
  9
$DIMTM
 40
0.0
  9
$DIMTXT
 40
3.0
  9
$DIMCEN
 40
0.9
  9
$DIMTSZ
 40
0.0
  9
$DIMTOL
 70
     0
  9
$DIMLIM
 70
     0
  9
$DIMTIH
 70
     0
  9
$DIMTOH
 70
     0
  9
$DIMSE1
 70
     0
  9
$DIMSE2
 70
     0
  9
$DIMTAD
 70
     1
  9
$DIMZIN
 70
    12
  9
$DIMBLK
  1
OBLIQUE
  9
$DIMASO
 70
     1
  9
$DIMSHO
 70
     1
  9
$DIMPOST
  1

  9
$DIMAPOST
  1

  9
$DIMALT
 70
     0
  9
$DIMALTD
 70
     3
  9
$DIMALTF
 40
0.03937007874016
  9
$DIMLFAC
 40
1.0
  9
$DIMTOFL
 70
     0
  9
$DIMTVP
 40
0.0
  9
$DIMTIX
 70
     0
  9
$DIMSOXD
 70
     0
  9
$DIMSAH
 70
     0
  9
$DIMBLK1
  1

  9
$DIMBLK2
  1

  9
$DIMSTYLE
  2
COTATION-JACOB-DELAFON
  9
$DIMCLRD
 70
     0
  9
$DIMCLRE
 70
     0
  9
$DIMCLRT
 70
     0
  9
$DIMTFAC
 40
1.0
  9
$DIMGAP
 40
0.9
  9
$DIMJUST
 70
     0
  9
$DIMSD1
 70
     0
  9
$DIMSD2
 70
     0
  9
$DIMTOLJ
 70
     0
  9
$DIMTZIN
 70
     8
  9
$DIMALTZ
 70
     0
  9
$DIMALTTZ
 70
     0
  9
$DIMFIT
 70
     5
  9
$DIMUPT
 70
     0
  9
$DIMUNIT
 70
     2
  9
$DIMDEC
 70
     2
  9
$DIMTDEC
 70
     2
  9
$DIMALTU
 70
     2
  9
$DIMALTTD
 70
     3
  9
$DIMTXSTY
  7
JACOB-DELAFON
  9
$DIMAUNIT
 70
     0
  9
$LUNITS
 70
     2
  9
$LUPREC
 70
     4
  9
$SKETCHINC
 40
1.0
  9
$FILLETRAD
 40
2.0
  9
$AUNITS
 70
     0
  9
$AUPREC
 70
     0
  9
$MENU
  1
.
  9
$ELEVATION
 40
0.0
  9
$PELEVATION
 40
0.0
  9
$THICKNESS
 40
0.0
  9
$LIMCHECK
 70
     0
  9
$BLIPMODE
 70
     0
  9
$CHAMFERA
 40
10.0
  9
$CHAMFERB
 40
10.0
  9
$CHAMFERC
 40
20.0
  9
$CHAMFERD
 40
0.0
  9
$SKPOLY
 70
     0
  9
$TDCREATE
 40
2452278.476416319
  9
$TDUPDATE
 40
2452293.656694340
  9
$TDINDWG
 40
1.4590287731
  9
$TDUSRTIMER
 40
1.4590275000
  9
$USRTIMER
 70
     1
  9
$ANGBASE
 50
0.0
  9
$ANGDIR
 70
     0
  9
$PDMODE
 70
     0
  9
$PDSIZE
 40
0.0
  9
$PLINEWID
 40
0.0
  9
$COORDS
 70
     0
  9
$SPLFRAME
 70
     0
  9
$SPLINETYPE
 70
     6
  9
$SPLINESEGS
 70
     8
  9
$ATTDIA
 70
     0
  9
$ATTREQ
 70
     1
  9
$HANDLING
 70
 22529
  9
$HANDSEED
  5
F1
  9
$SURFTAB1
 70
     6
  9
$SURFTAB2
 70
     6
  9
$SURFTYPE
 70
     6
  9
$SURFU
 70
     6
  9
$SURFV
 70
     6
  9
$UCSNAME
  2

  9
$UCSORG
 10
3993.781986274893
 20
686.5881422506227
 30
0.0
  9
$UCSXDIR
 10
1.0
 20
0.0
 30
0.0
  9
$UCSYDIR
 10
0.0
 20
1.0
 30
0.0
  9
$PUCSNAME
  2

  9
$PUCSORG
 10
0.0
 20
0.0
 30
0.0
  9
$PUCSXDIR
 10
1.0
 20
0.0
 30
0.0
  9
$PUCSYDIR
 10
0.0
 20
1.0
 30
0.0
  9
$USERI1
 70
     0
  9
$USERI2
 70
     0
  9
$USERI3
 70
     0
  9
$USERI4
 70
     0
  9
$USERI5
 70
     0
  9
$USERR1
 40
0.0
  9
$USERR2
 40
0.0
  9
$USERR3
 40
0.0
  9
$USERR4
 40
0.0
  9
$USERR5
 40
0.0
  9
$WORLDVIEW
 70
     1
  9
$SHADEDGE
 70
     3
  9
$SHADEDIF
 70
    70
  9
$TILEMODE
 70
     1
  9
$MAXACTVP
 70
    48
  9
$PINSBASE
 10
0.0
 20
0.0
 30
0.0
  9
$PLIMCHECK
 70
     0
  9
$PEXTMIN
 10
1.049999952316284
 20
0.7999999523162842
 30
0.0
  9
$PEXTMAX
 10
9.449999570846555
 20
7.199999570846556
 30
0.0
  9
$PLIMMIN
 10
-0.2500002402958907
 20
-0.2499999962453767
  9
$PLIMMAX
 10
10.74999951940821
 20
8.249999763458731
  9
$UNITMODE
 70
     0
  9
$VISRETAIN
 70
     1
  9
$PLINEGEN
 70
     0
  9
$PSLTSCALE
 70
     1
  9
$TREEDEPTH
 70
  3020
  9
$PICKSTYLE
 70
     1
  9
$CMLSTYLE
  2
STANDARD
  9
$CMLJUST
 70
     0
  9
$CMLSCALE
 40
20.0
  9
$PROXYGRAPHICS
 70
     1
  9
$MEASUREMENT
 70
     0
  0
ENDSEC
  0
SECTION
  2
CLASSES
  0
CLASS
  1
ACDBDICTIONARYWDFLT
  2
AcDbDictionaryWithDefault
  3
AutoCAD 2000
 90
        0
280
     1
281
     0
  0
CLASS
  1
ACDBPLACEHOLDER
  2
AcDbPlaceHolder
  3
AutoCAD 2000
 90
        0
280
     1
281
     0
  0
CLASS
  1
LAYOUT
  2
AcDbLayout
  3
AutoCAD 2000
 90
        0
280
     1
281
     0
  0
CLASS
  1
RASTERVARIABLES
  2
AcDbRasterVariables
  3
ISM
 90
        0
280
     0
281
     0
  0
CLASS
  1
IMAGEDEF
  2
AcDbRasterImageDef
  3
ISM
 90
        0
280
     0
281
     0
  0
CLASS
  1
IMAGEDEF_REACTOR
  2
AcDbRasterImageDefReactor
  3
ISM
 90
        1
280
     0
281
     0
  0
CLASS
  1
IMAGE
  2
AcDbRasterImage
  3
ISM
 90
      127
280
     0
281
     1
  0
CLASS
  1
LONG_TRANSACTION
  2
AcDbLongTransaction
  3
AutoCAD 2000
 90
        0
280
     1
281
     0
  0
CLASS
  1
LWPOLYLINE
  2
AcDbPolyline
  3
AutoCAD 2000
 90
        0
280
     0
281
     1
  0
CLASS
  1
HATCH
  2
AcDbHatch
  3
AutoCAD 2000
 90
        0
280
     0
281
     1
  0
CLASS
  1
XRECORD
  2
AcDbXrecord
  3
AutoCAD 2000
 90
        0
280
     0
281
     0
  0
CLASS
  1
DICTIONARYVAR
  2
AcDbDictionaryVar
  3
AutoCAD 2000
 90
        0
280
     0
281
     0
  0
CLASS
  1
LONG_TRANSACTION
  2
AcDbLongTransaction
  3
AutoCAD 2000
 90
        0
280
     1
281
     0
  0
CLASS
  1
LWPOLYLINE
  2
AcDbPolyline
  3
AutoCAD 2000
 90
        0
280
     0
281
     1
  0
CLASS
  1
HATCH
  2
AcDbHatch
  3
AutoCAD 2000
 90
        0
280
     0
281
     1
  0
CLASS
  1
XRECORD
  2
AcDbXrecord
  3
AutoCAD 2000
 90
        0
280
     0
281
     0
  0
CLASS
  1
LONG_TRANSACTION
  2
AcDbLongTransaction
  3
AutoCAD 2000
 90
        0
280
     0
281
     0
  0
CLASS
  1
LWPOLYLINE
  2
AcDbPolyline
  3
AutoCAD 2000
 90
        0
280
     0
281
     1
  0
CLASS
  1
HATCH
  2
AcDbHatch
  3
AutoCAD 2000
 90
        0
280
     0
281
     1
  0
CLASS
  1
XRECORD
  2
AcDbXrecord
  3
AutoCAD 2000
 90
        0
280
     0
281
     0
  0
ENDSEC
  0
SECTION
  2
TABLES
  0
TABLE
  2
VPORT
  5
20
330
0
100
AcDbSymbolTable
 70
     3
  0
VPORT
  5
CD
330
20
100
AcDbSymbolTableRecord
100
AcDbViewportTableRecord
  2
*ACTIVE
 70
     0
 10
0.0
 20
0.0
 11
1.0
 21
1.0
 12
4030.738338100246
 22
693.3315172977079
 13
0.0
 23
0.0
 14
10.0
 24
10.0
 15
10.0
 25
10.0
 16
0.0
 26
0.0
 36
1.0
 17
0.0
 27
0.0
 37
0.0
 40
59.62671134619643
 41
1.828516377649325
 42
50.0
 43
0.0
 44
0.0
 50
0.0
 51
0.0
 71
     0
 72
   100
 73
     1
 74
     3
 75
     0
 76
     0
 77
     0
 78
     2
  0
ENDTAB
  0
TABLE
  2
LTYPE
  5
17
330
0
100
AcDbSymbolTable
 70
     1
  0
LTYPE
  5
18
330
17
100
AcDbSymbolTableRecord
100
AcDbLinetypeTableRecord
  2
BYBLOCK
 70
     0
  3

 72
    65
 73
     0
 40
0.0
  0
LTYPE
  5
1B
330
17
100
AcDbSymbolTableRecord
100
AcDbLinetypeTableRecord
  2
BYLAYER
 70
     0
  3

 72
    65
 73
     0
 40
0.0
  0
LTYPE
  5
8
330
17
100
AcDbSymbolTableRecord
100
AcDbLinetypeTableRecord
  2
CONTINUOUS
 70
     0
  3
Solid line
 72
    65
 73
     0
 40
0.0
  0
ENDTAB
  0
TABLE
  2
LAYER
  5
12
330
0
100
AcDbSymbolTable
 70
     3
  0
LAYER
  5
7
330
12
100
AcDbSymbolTableRecord
100
AcDbLayerTableRecord
  2
0
 70
     0
 62
     7
  6
CONTINUOUS
  0
LAYER
  5
36
330
12
100
AcDbSymbolTableRecord
100
AcDbLayerTableRecord
  2
COTATION-JACOBDELAFON
 70
     0
 62
     8
  6
CONTINUOUS
  0
LAYER
  5
47
330
12
100
AcDbSymbolTableRecord
100
AcDbLayerTableRecord
  2
DEFPOINTS
 70
     0
 62
     7
  6
CONTINUOUS
  0
ENDTAB
  0
TABLE
  2
STYLE
  5
13
330
0
100
AcDbSymbolTable
 70
     2
  0
STYLE
  5
14
330
13
100
AcDbSymbolTableRecord
100
AcDbTextStyleTableRecord
  2
STANDARD
 70
     0
 40
0.0
 41
1.0
 50
0.0
 71
     0
 42
2.5
  3
txt
  4

  0
STYLE
  5
2D
330
13
100
AcDbSymbolTableRecord
100
AcDbTextStyleTableRecord
  2
JACOB-DELAFON
 70
     0
 40
0.0
 41
1.0
 50
0.0
 71
     0
 42
2.5
  3
ARIAL.TTF
  4

1001
ACAD
1000
Arial
1071
       34
  0
ENDTAB
  0
TABLE
  2
VIEW
  5
1E
330
0
100
AcDbSymbolTable
 70
     0
  0
ENDTAB
  0
TABLE
  2
UCS
  5
1F
330
0
100
AcDbSymbolTable
 70
     0
  0
ENDTAB
  0
TABLE
  2
APPID
  5
22
330
0
100
AcDbSymbolTable
 70
     1
  0
APPID
  5
23
330
22
100
AcDbSymbolTableRecord
100
AcDbRegAppTableRecord
  2
ACAD
 70
     0
  0
ENDTAB
  0
TABLE
  2
DIMSTYLE
  5
24
330
0
100
AcDbSymbolTable
 70
     1
  0
DIMSTYLE
105
31
102
{ACAD_REACTORS
330
35
330
4E
102
}
330
24
100
AcDbSymbolTableRecord
100
AcDbDimStyleTableRecord
  2
COTATION-JACOB-DELAFON
 70
     0
  3

  4

  5
OBLIQUE
  6

  7

 40
1.0
 41
1.8
 42
0.625
 43
3.799999999999999
 44
1.8
 45
0.0
 46
0.0
 47
0.0
 48
0.0
140
3.0
141
0.9
142
0.0
143
0.03937007874016
144
1.0
145
0.0
146
1.0
147
0.9
 71
     0
 72
     0
 73
     0
 74
     0
 75
     0
 76
     0
 77
     1
 78
    12
170
     0
171
     3
172
     0
173
     0
174
     0
175
     0
176
     0
177
     0
178
     0
270
     2
271
     2
272
     2
273
     2
274
     3
340
2D
275
     0
280
     0
281
     0
282
     0
283
     0
284
     8
285
     0
286
     0
287
     5
288
     0
  0
ENDTAB
  0
TABLE
  2
BLOCK_RECORD
  5
1
330
0
100
AcDbSymbolTable
 70
     3
  0
BLOCK_RECORD
  5
2
102
{ACAD_XDICTIONARY
360
3
102
}
330
1
100
AcDbSymbolTableRecord
100
AcDbBlockTableRecord
  2
*MODEL_SPACE
  0
BLOCK_RECORD
  5
C
102
{ACAD_XDICTIONARY
360
D
102
}
330
1
100
AcDbSymbolTableRecord
100
AcDbBlockTableRecord
  2
*PAPER_SPACE
  0
BLOCK_RECORD
  5
3E
330
1
100
AcDbSymbolTableRecord
100
AcDbBlockTableRecord
  2
_OBLIQUE
  0
BLOCK_RECORD
  5
39
330
1
100
AcDbSymbolTableRecord
100
AcDbBlockTableRecord
  2
*D1
  0
BLOCK_RECORD
  5
4F
330
1
100
AcDbSymbolTableRecord
100
AcDbBlockTableRecord
  2
*D2
  0
ENDTAB
  0
ENDSEC
  0
SECTION
  2
BLOCKS
  0
BLOCK
  5
6
330
2
100
AcDbEntity
  8
0
100
AcDbBlockBegin
  2
*MODEL_SPACE
 70
     0
 10
0.0
 20
0.0
 30
0.0
  3
*MODEL_SPACE
  1

  0
ENDBLK
  5
B
330
2
100
AcDbEntity
  8
0
100
AcDbBlockEnd
  0
BLOCK
  5
10
330
C
100
AcDbEntity
 67
     1
  8
0
100
AcDbBlockBegin
  2
*PAPER_SPACE
 70
     0
 10
0.0
 20
0.0
 30
0.0
  3
*PAPER_SPACE
  1

  0
ENDBLK
  5
11
330
C
100
AcDbEntity
 67
     1
  8
0
100
AcDbBlockEnd
  0
BLOCK
  5
42
330
3E
100
AcDbEntity
  8
0
100
AcDbBlockBegin
  2
_OBLIQUE
 70
     0
 10
0.0
 20
0.0
 30
0.0
  3
_OBLIQUE
  1

  0
LINE
  5
3F
330
3E
100
AcDbEntity
  8
0
  6
BYBLOCK
 62
     0
100
AcDbLine
 10
-0.5
 20
-0.5
 30
0.0
 11
0.5
 21
0.5
 31
0.0
  0
ENDBLK
  5
43
330
3E
100
AcDbEntity
  8
0
100
AcDbBlockEnd
  0
BLOCK
  5
4C
330
39
100
AcDbEntity
  8
0
100
AcDbBlockBegin
  2
*D1
 70
     1
 10
0.0
 20
0.0
 30
0.0
  3
*D1
  1

  0
LINE
  5
3A
330
39
100
AcDbEntity
  8
0
  6
BYBLOCK
 62
     0
100
AcDbLine
 10
4028.218406067256
 20
704.3554475980353
 30
0.0
 11
4057.603141786954
 21
704.3554475980353
 31
0.0
  0
LINE
  5
3B
330
39
100
AcDbEntity
  8
0
  6
BYBLOCK
 62
     0
100
AcDbLine
 10
4030.926334766426
 20
668.3552565862708
 30
0.0
 11
4057.603141786954
 21
668.3552565862708
 31
0.0
  0
LINE
  5
3C
330
39
100
AcDbEntity
  8
0
  6
BYBLOCK
 62
     0
100
AcDbLine
 10
4055.803141786955
 20
704.3554475980353
 30
0.0
 11
4055.803141786955
 21
668.3552565862708
 31
0.0
  0
INSERT
  5
3D
330
39
100
AcDbEntity
  8
0
  6
BYBLOCK
 62
     0
100
AcDbBlockReference
  2
_OBLIQUE
 10
4055.803141786955
 20
704.3554475980353
 30
0.0
 41
1.8
 42
1.8
 43
1.8
 50
90.0
  0
INSERT
  5
44
330
39
100
AcDbEntity
  8
0
  6
BYBLOCK
 62
     0
100
AcDbBlockReference
  2
_OBLIQUE
 10
4055.803141786955
 20
668.3552565862708
 30
0.0
 41
1.8
 42
1.8
 43
1.8
 50
270.0
  0
MTEXT
  5
45
330
39
100
AcDbEntity
  8
0
  6
BYBLOCK
 62
     0
100
AcDbMText
 10
4053.370399631429
 20
686.355352092153
 30
0.0
 40
3.0
 41
0.0
 71
     5
 72
     1
  1
36
  7
JACOB-DELAFON
 11
0.0000000000000001
 21
1.0
 31
0.0
1001
ACAD
1000
MTEXTBEGIN
1070
    73
1070
     1
1070
    44
1040
1.0
1070
    74
1070
     0
1000
MTEXTEND
  0
POINT
  5
46
330
39
100
AcDbEntity
  8
DEFPOINTS
  6
BYBLOCK
 62
     0
100
AcDbPoint
 10
4027.593406067256
 20
704.3554475980353
 30
0.0
  0
POINT
  5
4A
330
39
100
AcDbEntity
  8
DEFPOINTS
  6
BYBLOCK
 62
     0
100
AcDbPoint
 10
4030.301334766426
 20
668.3552565862708
 30
0.0
  0
POINT
  5
4B
330
39
100
AcDbEntity
  8
DEFPOINTS
  6
BYBLOCK
 62
     0
100
AcDbPoint
 10
4055.803141786955
 20
668.3552565862708
 30
0.0
  0
ENDBLK
  5
4D
330
39
100
AcDbEntity
  8
0
100
AcDbBlockEnd
  0
BLOCK
  5
59
330
4F
100
AcDbEntity
  8
0
100
AcDbBlockBegin
  2
*D2
 70
     1
 10
0.0
 20
0.0
 30
0.0
  3
*D2
  1

  0
LINE
  5
50
330
4F
100
AcDbEntity
  8
0
  6
BYBLOCK
 62
     0
100
AcDbLine
 10
3993.781986274893
 20
699.2932230369959
 30
0.0
 11
3993.781986274893
 21
716.2840276978625
 31
0.0
  0
LINE
  5
51
330
4F
100
AcDbEntity
  8
0
  6
BYBLOCK
 62
     0
100
AcDbLine
 10
4045.781986274892
 20
695.6556386773866
 30
0.0
 11
4045.781986274892
 21
716.2840276978625
 31
0.0
  0
LINE
  5
52
330
4F
100
AcDbEntity
  8
0
  6
BYBLOCK
 62
     0
100
AcDbLine
 10
3993.781986274893
 20
714.4840276978625
 30
0.0
 11
4045.781986274892
 21
714.4840276978625
 31
0.0
  0
INSERT
  5
53
330
4F
100
AcDbEntity
  8
0
  6
BYBLOCK
 62
     0
100
AcDbBlockReference
  2
_OBLIQUE
 10
3993.781986274893
 20
714.4840276978625
 30
0.0
 41
1.8
 42
1.8
 43
1.8
 50
180.0
  0
INSERT
  5
54
330
4F
100
AcDbEntity
  8
0
  6
BYBLOCK
 62
     0
100
AcDbBlockReference
  2
_OBLIQUE
 10
4045.781986274892
 20
714.4840276978625
 30
0.0
 41
1.8
 42
1.8
 43
1.8
  0
MTEXT
  5
55
330
4F
100
AcDbEntity
  8
0
  6
BYBLOCK
 62
     0
100
AcDbMText
 10
4019.781986274892
 20
716.9157466610275
 30
0.0
 40
3.0
 41
0.0
 71
     5
 72
     1
  1
52
  7
JACOB-DELAFON
1001
ACAD
1000
MTEXTBEGIN
1070
    73
1070
     1
1070
    44
1040
1.0
1070
    74
1070
     0
1000
MTEXTEND
  0
POINT
  5
56
330
4F
100
AcDbEntity
  8
DEFPOINTS
  6
BYBLOCK
 62
     0
100
AcDbPoint
 10
3993.781986274893
 20
698.6682230369958
 30
0.0
  0
POINT
  5
57
330
4F
100
AcDbEntity
  8
DEFPOINTS
  6
BYBLOCK
 62
     0
100
AcDbPoint
 10
4045.781986274892
 20
695.0306386773866
 30
0.0
  0
POINT
  5
58
330
4F
100
AcDbEntity
  8
DEFPOINTS
  6
BYBLOCK
 62
     0
100
AcDbPoint
 10
4045.781986274892
 20
714.4840276978625
 30
0.0
  0
ENDBLK
  5
5A
330
4F
100
AcDbEntity
  8
0
100
AcDbBlockEnd
  0
ENDSEC
  0
SECTION
  2
ENTITIES
  0
ARC
  5
34
330
2
100
AcDbEntity
  8
0
100
AcDbCircle
 10
4024.494245920408
 20
681.4527332788931
 30
0.0
 40
22.73606509453898
100
AcDbArc
 50
27.8005154814118
 51
76.86733405804473
  0
DIMENSION
  5
35
330
2
100
AcDbEntity
  8
COTATION-JACOBDELAFON
100
AcDbDimension
  2
*D1
 10
4055.803141786955
 20
668.3552565862708
 30
0.0
 11
4053.370399631429
 21
686.355352092153
 31
0.0
  3
COTATION-JACOB-DELAFON
100
AcDbAlignedDimension
 13
4027.593406067256
 23
704.3554475980353
 33
0.0
 14
4030.301334766426
 24
668.3552565862708
 34
0.0
 50
90.0
100
AcDbRotatedDimension
1001
ACAD
1000
DSTYLE
1002
{
1070
    43
1040
0.0
1002
}
  0
DIMENSION
  5
4E
330
2
100
AcDbEntity
  8
COTATION-JACOBDELAFON
100
AcDbDimension
  2
*D2
 10
4045.781986274892
 20
714.4840276978625
 30
0.0
 11
4019.781986274892
 21
716.9157466610275
 31
0.0
  3
COTATION-JACOB-DELAFON
100
AcDbAlignedDimension
 13
3993.781986274893
 23
698.6682230369958
 33
0.0
 14
4045.781986274892
 24
695.0306386773866
 34
0.0
100
AcDbRotatedDimension
1001
ACAD
1000
DSTYLE
1002
{
1070
    43
1040
0.0
1002
}
  0
ARC
  5
5B
330
2
100
AcDbEntity
  8
0
100
AcDbCircle
 10
4024.48383778887
 20
682.0033178093989
 30
0.0
 40
16.99933751921155
100
AcDbArc
 50
27.80770940880902
 51
76.36103207371687
  0
LINE
  5
5C
330
2
100
AcDbEntity
  8
0
100
AcDbLine
 10
3996.781986274893
 20
697.4158651335147
 30
0.0
 11
3996.781986274893
 21
675.7604193677305
 31
0.0
  0
ARC
  5
5D
330
2
100
AcDbEntity
  8
0
100
AcDbCircle
 10
4018.102183819968
 20
686.9381683036058
 30
0.0
 40
11.31224917203248
100
AcDbArc
 50
100.0933990384418
 51
181.7731413807514
  0
ARC
  5
5E
330
2
100
AcDbEntity
  8
0
100
AcDbCircle
 10
4024.494245920408
 20
691.7235512223511
 30
0.0
 40
22.73606509453766
100
AcDbArc
 50
283.1326659419559
 51
332.1994845185907
  0
ARC
  5
5F
330
2
100
AcDbEntity
  8
0
100
AcDbCircle
 10
4024.48383778887
 20
691.1729666918464
 30
0.0
 40
16.99933751921155
100
AcDbArc
 50
283.6389679262831
 51
332.1922905911909
  0
ARC
  5
60
330
2
100
AcDbEntity
  8
0
100
AcDbCircle
 10
4017.142016679025
 20
684.3426193474713
 30
0.0
 40
2.488658039695785
100
AcDbArc
 50
185.3836600124141
 51
252.1605195874593
  0
ARC
  5
61
330
2
100
AcDbEntity
  8
0
100
AcDbCircle
 10
4020.098920780557
 20
683.9734465342076
 30
0.0
 40
2.0
100
AcDbArc
 50
273.5177239098898
 51
290.3668612843588
  0
ARC
  5
62
330
2
100
AcDbEntity
  8
0
100
AcDbCircle
 10
4018.102183819968
 20
686.2381161976395
 30
0.0
 40
11.31224917203248
100
AcDbArc
 50
178.2268586192484
 51
259.9066009615581
  0
LINE
  5
63
330
2
100
AcDbEntity
  8
0
100
AcDbLine
 10
3993.781986274893
 20
691.6881422506228
 30
0.0
 11
3993.781986274892
 21
681.4881422506227
 31
0.0
  0
ARC
  5
64
330
2
100
AcDbEntity
  8
0
100
AcDbCircle
 10
4019.266063014222
 20
686.5751504245086
 30
0.0
 40
4.730557050522787
100
AcDbArc
 50
288.8565772899978
 51
0.1573551977714226
  0
LINE
  5
65
330
2
100
AcDbEntity
  8
0
100
AcDbLine
 10
3998.338874211605
 20
673.8101240825573
 30
0.0
 11
4015.111968316759
 21
669.9992343197878
 31
0.0
  0
LINE
  5
66
330
2
100
AcDbEntity
  8
0
100
AcDbLine
 10
3993.781986274893
 20
681.4881422506227
 30
0.0
 11
3996.781986274893
 21
681.4881422506227
 31
0.0
  0
ARC
  5
67
330
2
100
AcDbEntity
  8
0
100
AcDbCircle
 10
3998.781986274893
 20
675.7604193677305
 30
0.0
 40
2.0
100
AcDbArc
 50
180.0
 51
257.1995573312317
  0
ARC
  5
68
330
2
100
AcDbEntity
  8
0
100
AcDbCircle
 10
4018.273659532755
 20
710.7917744874031
 30
0.0
 40
28.88032997980652
100
AcDbArc
 50
266.2396962013252
 51
273.867531888504
  0
ARC
  5
69
330
2
100
AcDbEntity
  8
0
100
AcDbCircle
 10
4023.218517899822
 20
700.0813595987059
 30
0.0
 40
25.96949777693589
100
AcDbArc
 50
254.1361054483784
 51
281.7169713974107
  0
ARC
  5
6A
330
2
100
AcDbEntity
  8
0
100
AcDbCircle
 10
4022.971260275241
 20
693.8111958362202
 30
0.0
 40
25.13539619927136
100
AcDbArc
 50
250.4201843347522
 51
285.4328925110365
  0
ARC
  5
6B
330
2
100
AcDbEntity
  8
0
100
AcDbCircle
 10
4021.122886065666
 20
689.2493644987598
 30
0.0
 40
20.1667707898784
100
AcDbArc
 50
221.1894839176259
 51
252.6588506706112
  0
LINE
  5
6C
330
2
100
AcDbEntity
  8
0
100
AcDbLine
 10
3993.781986274893
 20
691.6881422506227
 30
0.0
 11
3996.781986274893
 21
691.6881422506227
 31
0.0
  0
ARC
  5
6D
330
2
100
AcDbEntity
  8
0
100
AcDbCircle
 10
4032.931060473539
 20
686.5028110981381
 30
0.0
 40
7.351421055999432
100
AcDbArc
 50
333.6745357660864
 51
0.6650720527284344
  0
ARC
  5
6E
330
2
100
AcDbEntity
  8
0
100
AcDbCircle
 10
4032.931060473539
 20
686.6734734031072
 30
0.0
 40
7.351421055999432
100
AcDbArc
 50
359.3349279472715
 51
26.32546423391359
  0
ARC
  5
6F
330
2
100
AcDbEntity
  8
0
100
AcDbCircle
 10
4017.142016679025
 20
688.833665153774
 30
0.0
 40
2.488658039695785
100
AcDbArc
 50
107.8394804125406
 51
174.6163399875858
  0
ARC
  5
70
330
2
100
AcDbEntity
  8
0
100
AcDbCircle
 10
4018.273659532755
 20
662.3845100138423
 30
0.0
 40
28.88032997980652
100
AcDbArc
 50
86.13246811149592
 51
93.76030379867472
  0
ARC
  5
71
330
2
100
AcDbEntity
  8
0
100
AcDbCircle
 10
4020.098920780557
 20
689.2028379670376
 30
0.0
 40
2.0
100
AcDbArc
 50
69.63313871564118
 51
86.48227609011021
  0
LINE
  5
72
330
2
100
AcDbEntity
  8
0
100
AcDbLine
 10
4014.664336700884
 20
684.1091225285111
 30
0.0
 11
4014.548047245503
 21
686.5881422506227
 31
0.0
  0
LINE
  5
73
330
2
100
AcDbEntity
  8
0
100
AcDbLine
 10
4014.664336700884
 20
689.0671619727343
 30
0.0
 11
4014.548047245503
 21
686.5881422506227
 31
0.0
  0
ARC
  5
74
330
2
100
AcDbEntity
  8
0
100
AcDbCircle
 10
4019.266063014222
 20
686.6011340767368
 30
0.0
 40
4.730557050522787
100
AcDbArc
 50
359.8426448022285
 51
71.1434227100022
  0
ARC
  5
75
330
2
100
AcDbEntity
  8
0
100
AcDbCircle
 10
4033.229664490938
 20
686.4752369010347
 30
0.0
 40
12.57398421071863
100
AcDbArc
 50
334.7903227424647
 51
0.5144818730859674
  0
ARC
  5
76
330
2
100
AcDbEntity
  8
0
100
AcDbCircle
 10
4033.229664490939
 20
686.7010476002105
 30
0.0
 40
12.57398421071827
100
AcDbArc
 50
359.485518126915
 51
25.20967725753612
  0
LINE
  5
77
330
2
100
AcDbEntity
  8
0
100
AcDbLine
 10
3998.338874211605
 20
699.3661604186881
 30
0.0
 11
4015.111968316759
 21
703.1770501814576
 31
0.0
  0
ARC
  5
78
330
2
100
AcDbEntity
  8
0
100
AcDbCircle
 10
3998.781986274893
 20
697.4158651335147
 30
0.0
 40
2.0
100
AcDbArc
 50
102.8004426687682
 51
180.0
  0
ARC
  5
79
330
2
100
AcDbEntity
  8
0
100
AcDbCircle
 10
4023.218517899822
 20
673.0949249025394
 30
0.0
 40
25.96949777693589
100
AcDbArc
 50
78.28302860258922
 51
105.8638945516215
  0
ARC
  5
7A
330
2
100
AcDbEntity
  8
0
100
AcDbCircle
 10
4022.971260275241
 20
679.3650886650254
 30
0.0
 40
25.13539619927097
100
AcDbArc
 50
74.56710748896324
 51
109.579815665248
  0
ARC
  5
7B
330
2
100
AcDbEntity
  8
0
100
AcDbCircle
 10
4021.122886065666
 20
683.9269200024855
 30
0.0
 40
20.1667707898784
100
AcDbArc
 50
107.3411493293888
 51
138.8105160823741
  0
ENDSEC
  0
SECTION
  2
OBJECTS
  0
DICTIONARY
  5
2A
330
0
100
AcDbDictionary
  3
ACAD_GROUP
350
26
  3
ACAD_LAYOUT
350
84
  3
ACAD_MLINESTYLE
350
27
  3
ACAD_PLOTSETTINGS
350
85
  3
ACAD_PLOTSTYLENAME
350
82
  3
ACDBHEADERROUNDTRIPXREC
350
CE
  3
ACDBVARIABLEDICTIONARY
350
CB
  0
DICTIONARY
  5
3
330
2
100
AcDbDictionary
280
     1
  3
ACAD_LAYOUTSELFREF
360
EF
  0
DICTIONARY
  5
D
330
C
100
AcDbDictionary
280
     1
  3
ACAD_LAYOUTSELFREF
360
F0
  0
DICTIONARY
  5
26
102
{ACAD_REACTORS
330
2A
102
}
330
2A
100
AcDbDictionary
  0
DICTIONARY
  5
84
102
{ACAD_REACTORS
330
2A
102
}
330
2A
100
AcDbDictionary
  0
DICTIONARY
  5
27
102
{ACAD_REACTORS
330
2A
102
}
330
2A
100
AcDbDictionary
  3
STANDARD
350
30
  0
DICTIONARY
  5
85
102
{ACAD_REACTORS
330
2A
102
}
330
2A
100
AcDbDictionary
  0
ACDBDICTIONARYWDFLT
  5
82
102
{ACAD_REACTORS
330
2A
102
}
330
2A
100
AcDbDictionary
281
     1
  3
Normal
350
83
100
AcDbDictionaryWithDefault
340
83
  0
DICTIONARY
  5
CE
102
{ACAD_REACTORS
330
2A
102
}
330
2A
100
AcDbDictionary
  3
CEPSNTYPE
350
D8
  3
DIMSTYLEDATA
350
DC
  3
FINGERPRINTGUID
350
D9
  3
HYPERLINKBASE
350
D1
  3
INSUNITS
350
D7
  3
LAYOUTDICT
350
D3
  3
LWETCUNION
350
D6
  3
PLOTSETDICT
350
D4
  3
PLOTSTYLNAMDICT
350
D5
  3
PSVPSCALE
350
DB
  3
PUCSBASE
350
DF
  3
PUCSORGBACK
350
E5
  3
PUCSORGBOTTOM
350
E1
  3
PUCSORGFRONT
350
E4
  3
PUCSORGLEFT
350
E2
  3
PUCSORGRIGHT
350
E3
  3
PUCSORGTOP
350
E0
  3
PUCSORTHOREF
350
DD
  3
PUCSORTHOVIEW
350
DE
  3
STYLESHEET
350
D2
  3
TSTACKALIGN
350
CF
  3
TSTACKSIZE
350
D0
  3
UCSBASE
350
E8
  3
UCSORGBACK
350
EE
  3
UCSORGBOTTOM
350
EA
  3
UCSORGFRONT
350
ED
  3
UCSORGLEFT
350
EB
  3
UCSORGRIGHT
350
EC
  3
UCSORGTOP
350
E9
  3
UCSORTHOREF
350
E6
  3
UCSORTHOVIEW
350
E7
  3
VERSIONGUID
350
DA
  0
DICTIONARY
  5
CB
102
{ACAD_REACTORS
330
2A
102
}
330
2A
100
AcDbDictionary
  3
DIMASSOC
350
CC
  0
XRECORD
  5
EF
102
{ACAD_REACTORS
330
3
102
}
330
3
100
AcDbXrecord
340
2
  0
XRECORD
  5
F0
102
{ACAD_REACTORS
330
D
102
}
330
D
100
AcDbXrecord
340
C
  0
MLINESTYLE
  5
30
102
{ACAD_REACTORS
330
27
102
}
330
27
100
AcDbMlineStyle
  2
STANDARD
 70
     0
  3

 62
   256
 51
90.0
 52
90.0
 71
     2
 49
0.5
 62
   256
  6
BYLAYER
 49
-0.5
 62
   256
  6
BYLAYER
  0
ACDBPLACEHOLDER
  5
83
102
{ACAD_REACTORS
330
82
102
}
330
82
100
AcDbPlaceHolder
280
     0
  0
XRECORD
  5
D8
102
{ACAD_REACTORS
330
CE
102
}
330
CE
100
AcDbXrecord
 90
        0
  0
XRECORD
  5
DC
102
{ACAD_REACTORS
330
CE
102
}
330
CE
100
AcDbXrecord
1000
DSTYLE
1002
{
1070
   279
 70
     2
1070
   341
340
3E
1070
   342
340
3E
1002
}
  0
XRECORD
  5
D9
102
{ACAD_REACTORS
330
CE
102
}
330
CE
100
AcDbXrecord
  1
{A6C22C87-81ED-43E0-962C-2684412358A8}
  0
XRECORD
  5
D1
102
{ACAD_REACTORS
330
CE
102
}
330
CE
100
AcDbXrecord
  1

  0
XRECORD
  5
D7
102
{ACAD_REACTORS
330
CE
102
}
330
CE
100
AcDbXrecord
 90
        0
  0
XRECORD
  5
D3
102
{ACAD_REACTORS
330
CE
102
}
330
CE
100
AcDbXrecord
340
84
  0
XRECORD
  5
D6
102
{ACAD_REACTORS
330
CE
102
}
330
CE
100
AcDbXrecord
 90
    14877
  0
XRECORD
  5
D4
102
{ACAD_REACTORS
330
CE
102
}
330
CE
100
AcDbXrecord
340
85
  0
XRECORD
  5
D5
102
{ACAD_REACTORS
330
CE
102
}
330
CE
100
AcDbXrecord
340
82
  0
XRECORD
  5
DB
102
{ACAD_REACTORS
330
CE
102
}
330
CE
100
AcDbXrecord
 40
0.0
  0
XRECORD
  5
DF
102
{ACAD_REACTORS
330
CE
102
}
330
CE
100
AcDbXrecord
340
0
  0
XRECORD
  5
E5
102
{ACAD_REACTORS
330
CE
102
}
330
CE
100
AcDbXrecord
 10
0.0
 20
0.0
 30
0.0
  0
XRECORD
  5
E1
102
{ACAD_REACTORS
330
CE
102
}
330
CE
100
AcDbXrecord
 10
0.0
 20
0.0
 30
0.0
  0
XRECORD
  5
E4
102
{ACAD_REACTORS
330
CE
102
}
330
CE
100
AcDbXrecord
 10
0.0
 20
0.0
 30
0.0
  0
XRECORD
  5
E2
102
{ACAD_REACTORS
330
CE
102
}
330
CE
100
AcDbXrecord
 10
0.0
 20
0.0
 30
0.0
  0
XRECORD
  5
E3
102
{ACAD_REACTORS
330
CE
102
}
330
CE
100
AcDbXrecord
 10
0.0
 20
0.0
 30
0.0
  0
XRECORD
  5
E0
102
{ACAD_REACTORS
330
CE
102
}
330
CE
100
AcDbXrecord
 10
0.0
 20
0.0
 30
0.0
  0
XRECORD
  5
DD
102
{ACAD_REACTORS
330
CE
102
}
330
CE
100
AcDbXrecord
340
0
  0
XRECORD
  5
DE
102
{ACAD_REACTORS
330
CE
102
}
330
CE
100
AcDbXrecord
 70
     0
  0
XRECORD
  5
D2
102
{ACAD_REACTORS
330
CE
102
}
330
CE
100
AcDbXrecord
  1

  0
XRECORD
  5
CF
102
{ACAD_REACTORS
330
CE
102
}
330
CE
100
AcDbXrecord
 90
        1
  0
XRECORD
  5
D0
102
{ACAD_REACTORS
330
CE
102
}
330
CE
100
AcDbXrecord
 90
       70
  0
XRECORD
  5
E8
102
{ACAD_REACTORS
330
CE
102
}
330
CE
100
AcDbXrecord
340
0
  0
XRECORD
  5
EE
102
{ACAD_REACTORS
330
CE
102
}
330
CE
100
AcDbXrecord
 10
0.0
 20
0.0
 30
0.0
  0
XRECORD
  5
EA
102
{ACAD_REACTORS
330
CE
102
}
330
CE
100
AcDbXrecord
 10
0.0
 20
0.0
 30
0.0
  0
XRECORD
  5
ED
102
{ACAD_REACTORS
330
CE
102
}
330
CE
100
AcDbXrecord
 10
0.0
 20
0.0
 30
0.0
  0
XRECORD
  5
EB
102
{ACAD_REACTORS
330
CE
102
}
330
CE
100
AcDbXrecord
 10
0.0
 20
0.0
 30
0.0
  0
XRECORD
  5
EC
102
{ACAD_REACTORS
330
CE
102
}
330
CE
100
AcDbXrecord
 10
0.0
 20
0.0
 30
0.0
  0
XRECORD
  5
E9
102
{ACAD_REACTORS
330
CE
102
}
330
CE
100
AcDbXrecord
 10
0.0
 20
0.0
 30
0.0
  0
XRECORD
  5
E6
102
{ACAD_REACTORS
330
CE
102
}
330
CE
100
AcDbXrecord
340
0
  0
XRECORD
  5
E7
102
{ACAD_REACTORS
330
CE
102
}
330
CE
100
AcDbXrecord
 70
     0
  0
XRECORD
  5
DA
102
{ACAD_REACTORS
330
CE
102
}
330
CE
100
AcDbXrecord
  1
{07239988-E345-4A07-BB5C-15F3B7E56E94}
  0
DICTIONARYVAR
  5
CC
102
{ACAD_REACTORS
330
CB
102
}
330
CB
100
DictionaryVariables
280
     0
  1
1
  0
ENDSEC
  0
EOF
