  0
SECTION
  2
HEADER
  9
$ACADVER
  1
AC1021
  9
$ACADMAINTVER
 70
    50
  9
$DWGCODEPAGE
  3
ANSI_1252
  9
$LASTSAVEDBY
  1
François
  9
$INSBASE
 10
199.999851
 20
157.796053
 30
0.0
  9
$EXTMIN
 10
177.5136437884878
 20
140.663108
 30
-0.0015258207003583
  9
$EXTMAX
 10
209.5403225
 20
174.1734366751063
 30
0.0000000349246037
  9
$LIMMIN
 10
191.340087
 20
141.546571
  9
$LIMMAX
 10
208.659443
 20
158.453377
  9
$ORTHOMODE
 70
     0
  9
$REGENMODE
 70
     1
  9
$FILLMODE
 70
     1
  9
$QTEXTMODE
 70
     0
  9
$MIRRTEXT
 70
     1
  9
$LTSCALE
 40
1.0
  9
$ATTMODE
 70
     1
  9
$TEXTSIZE
 40
0.0
  9
$TRACEWID
 40
0.05
  9
$TEXTSTYLE
  7
Standard
  9
$CLAYER
  8
Cotation-JacobDelafon
  9
$CELTYPE
  6
Continuous
  9
$CECOLOR
 62
   256
  9
$CELTSCALE
 40
1.0
  9
$DISPSILH
 70
     0
  9
$DIMSCALE
 40
1.0
  9
$DIMASZ
 40
1.8
  9
$DIMEXO
 40
0.625
  9
$DIMDLI
 40
3.799999999999998
  9
$DIMRND
 40
0.0
  9
$DIMDLE
 40
0.0
  9
$DIMEXE
 40
1.8
  9
$DIMTP
 40
0.0
  9
$DIMTM
 40
0.0
  9
$DIMTXT
 40
3.0
  9
$DIMCEN
 40
0.9
  9
$DIMTSZ
 40
0.0
  9
$DIMTOL
 70
     0
  9
$DIMLIM
 70
     0
  9
$DIMTIH
 70
     0
  9
$DIMTOH
 70
     0
  9
$DIMSE1
 70
     0
  9
$DIMSE2
 70
     0
  9
$DIMTAD
 70
     1
  9
$DIMZIN
 70
    12
  9
$DIMBLK
  1
Oblique
  9
$DIMASO
 70
     1
  9
$DIMSHO
 70
     1
  9
$DIMPOST
  1

  9
$DIMAPOST
  1

  9
$DIMALT
 70
     0
  9
$DIMALTD
 70
     2
  9
$DIMALTF
 40
25.4
  9
$DIMLFAC
 40
1.0
  9
$DIMTOFL
 70
     0
  9
$DIMTVP
 40
0.0
  9
$DIMTIX
 70
     0
  9
$DIMSOXD
 70
     0
  9
$DIMSAH
 70
     0
  9
$DIMBLK1
  1

  9
$DIMBLK2
  1

  9
$DIMSTYLE
  2
Cotation-Jacob-Delafon
  9
$DIMCLRD
 70
     0
  9
$DIMCLRE
 70
     0
  9
$DIMCLRT
 70
     0
  9
$DIMTFAC
 40
1.0
  9
$DIMGAP
 40
0.9
  9
$DIMJUST
 70
     0
  9
$DIMSD1
 70
     0
  9
$DIMSD2
 70
     0
  9
$DIMTOLJ
 70
     1
  9
$DIMTZIN
 70
     0
  9
$DIMALTZ
 70
     0
  9
$DIMALTTZ
 70
     0
  9
$DIMUPT
 70
     0
  9
$DIMDEC
 70
     2
  9
$DIMTDEC
 70
     2
  9
$DIMALTU
 70
     2
  9
$DIMALTTD
 70
     2
  9
$DIMTXSTY
  7
Jacob-Delafon
  9
$DIMAUNIT
 70
     0
  9
$DIMADEC
 70
     0
  9
$DIMALTRND
 40
0.0
  9
$DIMAZIN
 70
     3
  9
$DIMDSEP
 70
    46
  9
$DIMATFIT
 70
     3
  9
$DIMFRAC
 70
     0
  9
$DIMLDRBLK
  1
Oblique
  9
$DIMLUNIT
 70
     2
  9
$DIMLWD
 70
    -2
  9
$DIMLWE
 70
    -2
  9
$DIMTMOVE
 70
     2
  9
$DIMFXL
 40
1.0
  9
$DIMFXLON
 70
     0
  9
$DIMJOGANG
 40
0.7853981633974483
  9
$DIMTFILL
 70
     0
  9
$DIMTFILLCLR
 70
     0
  9
$DIMARCSYM
 70
     0
  9
$DIMLTYPE
  6

  9
$DIMLTEX1
  6

  9
$DIMLTEX2
  6

  9
$LUNITS
 70
     2
  9
$LUPREC
 70
     4
  9
$SKETCHINC
 40
0.1
  9
$FILLETRAD
 40
0.0
  9
$AUNITS
 70
     0
  9
$AUPREC
 70
     0
  9
$MENU
  1
acad
  9
$ELEVATION
 40
0.0
  9
$PELEVATION
 40
0.0
  9
$THICKNESS
 40
0.0
  9
$LIMCHECK
 70
     0
  9
$CHAMFERA
 40
0.0
  9
$CHAMFERB
 40
0.0
  9
$CHAMFERC
 40
0.0
  9
$CHAMFERD
 40
0.0
  9
$SKPOLY
 70
     0
  9
$TDCREATE
 40
2455398.506837558
  9
$TDUCREATE
 40
2455398.423504225
  9
$TDUPDATE
 40
2455398.514918253
  9
$TDUUPDATE
 40
2455398.431584919
  9
$TDINDWG
 40
0.0080823148
  9
$TDUSRTIMER
 40
0.0080823148
  9
$USRTIMER
 70
     1
  9
$ANGBASE
 50
0.0
  9
$ANGDIR
 70
     0
  9
$PDMODE
 70
     0
  9
$PDSIZE
 40
0.0
  9
$PLINEWID
 40
0.0
  9
$SPLFRAME
 70
     0
  9
$SPLINETYPE
 70
     6
  9
$SPLINESEGS
 70
     8
  9
$HANDSEED
  5
261
  9
$SURFTAB1
 70
     6
  9
$SURFTAB2
 70
     6
  9
$SURFTYPE
 70
     6
  9
$SURFU
 70
     6
  9
$SURFV
 70
     6
  9
$UCSBASE
  2

  9
$UCSNAME
  2

  9
$UCSORG
 10
0.0
 20
0.0
 30
0.0
  9
$UCSXDIR
 10
1.0
 20
0.0
 30
0.0
  9
$UCSYDIR
 10
0.0
 20
1.0
 30
0.0
  9
$UCSORTHOREF
  2

  9
$UCSORTHOVIEW
 70
     0
  9
$UCSORGTOP
 10
0.0
 20
0.0
 30
0.0
  9
$UCSORGBOTTOM
 10
0.0
 20
0.0
 30
0.0
  9
$UCSORGLEFT
 10
0.0
 20
0.0
 30
0.0
  9
$UCSORGRIGHT
 10
0.0
 20
0.0
 30
0.0
  9
$UCSORGFRONT
 10
0.0
 20
0.0
 30
0.0
  9
$UCSORGBACK
 10
0.0
 20
0.0
 30
0.0
  9
$PUCSBASE
  2

  9
$PUCSNAME
  2

  9
$PUCSORG
 10
0.0
 20
0.0
 30
0.0
  9
$PUCSXDIR
 10
1.0
 20
0.0
 30
0.0
  9
$PUCSYDIR
 10
0.0
 20
1.0
 30
0.0
  9
$PUCSORTHOREF
  2

  9
$PUCSORTHOVIEW
 70
     0
  9
$PUCSORGTOP
 10
0.0
 20
0.0
 30
0.0
  9
$PUCSORGBOTTOM
 10
0.0
 20
0.0
 30
0.0
  9
$PUCSORGLEFT
 10
0.0
 20
0.0
 30
0.0
  9
$PUCSORGRIGHT
 10
0.0
 20
0.0
 30
0.0
  9
$PUCSORGFRONT
 10
0.0
 20
0.0
 30
0.0
  9
$PUCSORGBACK
 10
0.0
 20
0.0
 30
0.0
  9
$USERI1
 70
     0
  9
$USERI2
 70
     0
  9
$USERI3
 70
     0
  9
$USERI4
 70
     0
  9
$USERI5
 70
     0
  9
$USERR1
 40
0.0
  9
$USERR2
 40
0.0
  9
$USERR3
 40
0.0
  9
$USERR4
 40
0.0
  9
$USERR5
 40
0.0
  9
$WORLDVIEW
 70
     1
  9
$SHADEDGE
 70
     3
  9
$SHADEDIF
 70
    70
  9
$TILEMODE
 70
     1
  9
$MAXACTVP
 70
    16
  9
$PINSBASE
 10
0.0
 20
0.0
 30
0.0
  9
$PLIMCHECK
 70
     0
  9
$PEXTMIN
 10
1.000000000000000E+20
 20
1.000000000000000E+20
 30
1.000000000000000E+20
  9
$PEXTMAX
 10
-1.000000000000000E+20
 20
-1.000000000000000E+20
 30
-1.000000000000000E+20
  9
$PLIMMIN
 10
0.0
 20
0.0
  9
$PLIMMAX
 10
12.0
 20
9.0
  9
$UNITMODE
 70
     0
  9
$VISRETAIN
 70
     0
  9
$PLINEGEN
 70
     1
  9
$PSLTSCALE
 70
     0
  9
$TREEDEPTH
 70
  3020
  9
$CMLSTYLE
  2
Standard
  9
$CMLJUST
 70
     0
  9
$CMLSCALE
 40
1.0
  9
$PROXYGRAPHICS
 70
     0
  9
$MEASUREMENT
 70
     1
  9
$CELWEIGHT
370
     0
  9
$ENDCAPS
280
     0
  9
$JOINSTYLE
280
     0
  9
$LWDISPLAY
290
     0
  9
$INSUNITS
 70
     0
  9
$HYPERLINKBASE
  1

  9
$STYLESHEET
  1

  9
$XEDIT
290
     1
  9
$CEPSNTYPE
380
     0
  9
$PSTYLEMODE
290
     1
  9
$FINGERPRINTGUID
  2

  9
$VERSIONGUID
  2
{CF5FEF1B-E073-4257-A396-16452CE20D45}
  9
$EXTNAMES
290
     1
  9
$PSVPSCALE
 40
0.0
  9
$OLESTARTUP
290
     0
  9
$SORTENTS
280
   127
  9
$INDEXCTL
280
     0
  9
$HIDETEXT
280
     0
  9
$XCLIPFRAME
290
     0
  9
$HALOGAP
280
     0
  9
$OBSCOLOR
 70
   257
  9
$OBSLTYPE
280
     0
  9
$INTERSECTIONDISPLAY
280
     0
  9
$INTERSECTIONCOLOR
 70
   257
  9
$DIMASSOC
280
     1
  9
$PROJECTNAME
  1

  9
$CAMERADISPLAY
290
     0
  9
$LENSLENGTH
 40
50.0
  9
$CAMERAHEIGHT
 40
0.0
  9
$STEPSPERSEC
 40
2.0
  9
$STEPSIZE
 40
6.0
  9
$3DDWFPREC
 40
2.0
  9
$PSOLWIDTH
 40
0.25
  9
$PSOLHEIGHT
 40
4.0
  9
$LOFTANG1
 40
1.570796326794896
  9
$LOFTANG2
 40
1.570796326794896
  9
$LOFTMAG1
 40
0.0
  9
$LOFTMAG2
 40
0.0
  9
$LOFTPARAM
 70
     7
  9
$LOFTNORMALS
280
     1
  9
$LATITUDE
 40
37.795
  9
$LONGITUDE
 40
-122.394
  9
$NORTHDIRECTION
 40
0.0
  9
$TIMEZONE
 70
 -8000
  9
$LIGHTGLYPHDISPLAY
280
     1
  9
$TILEMODELIGHTSYNCH
280
     1
  9
$CMATERIAL
347
1AA
  9
$SOLIDHIST
280
     1
  9
$SHOWHIST
280
     1
  9
$DWFFRAME
280
     2
  9
$DGNFRAME
280
     0
  9
$REALWORLDSCALE
290
     1
  9
$INTERFERECOLOR
 62
     1
  9
$INTERFEREOBJVS
345
1CC
  9
$INTERFEREVPVS
346
1C9
  9
$CSHADOW
280
     0
  9
$SHADOWPLANELOCATION
 40
0.0
  0
ENDSEC
  0
SECTION
  2
CLASSES
  0
CLASS
  1
IMAGE
  2
AcDbRasterImage
  3
ISM
 90
     2175
 91
        0
280
     0
281
     1
  0
CLASS
  1
DICTIONARYVAR
  2
AcDbDictionaryVar
  3
ObjectDBX Classes
 90
        0
 91
       14
280
     0
281
     0
  0
CLASS
  1
RASTERVARIABLES
  2
AcDbRasterVariables
  3
ISM
 90
        0
 91
        0
280
     0
281
     0
  0
CLASS
  1
IMAGEDEF
  2
AcDbRasterImageDef
  3
ISM
 90
        0
 91
        0
280
     0
281
     0
  0
CLASS
  1
IMAGEDEF_REACTOR
  2
AcDbRasterImageDefReactor
  3
ISM
 90
        1
 91
        0
280
     0
281
     0
  0
CLASS
  1
IDBUFFER
  2
AcDbIdBuffer
  3
ObjectDBX Classes
 90
        0
 91
        0
280
     0
281
     0
  0
CLASS
  1
SPATIAL_FILTER
  2
AcDbSpatialFilter
  3
ObjectDBX Classes
 90
        0
 91
        0
280
     0
281
     0
  0
CLASS
  1
SORTENTSTABLE
  2
AcDbSortentsTable
  3
ObjectDBX Classes
 90
        0
 91
        0
280
     0
281
     0
  0
CLASS
  1
LAYER_INDEX
  2
AcDbLayerIndex
  3
ObjectDBX Classes
 90
        0
 91
        0
280
     0
281
     0
  0
CLASS
  1
SPATIAL_INDEX
  2
AcDbSpatialIndex
  3
ObjectDBX Classes
 90
        0
 91
        0
280
     0
281
     0
  0
CLASS
  1
OBJECT_PTR
  2
CAseDLPNTableRecord
  3
"ASE-LPNTableRecord"
 90
        1
 91
        0
280
     0
281
     0
  0
CLASS
  1
PLOTSETTINGS
  2
AcDbPlotSettings
  3
ObjectDBX Classes
 90
        0
 91
        0
280
     0
281
     0
  0
CLASS
  1
ACDBDICTIONARYWDFLT
  2
AcDbDictionaryWithDefault
  3
ObjectDBX Classes
 90
        0
 91
        1
280
     0
281
     0
  0
CLASS
  1
WIPEOUT
  2
AcDbWipeout
  3
"WipeOut|Product Desc: Object Enabler for WipeOut entity                        |Company: Autodesk, Inc.                        |WEB Address: www.autodesk.com"
 90
     2175
 91
        0
280
     0
281
     1
  0
CLASS
  1
WIPEOUTVARIABLES
  2
AcDbWipeoutVariables
  3
"WipeOut|Product Desc:     WipeOut Dbx Application|Company:          Autodesk, Inc.|WEB Address:      www.autodesk.com"
 90
        0
 91
        1
280
     0
281
     0
  0
CLASS
  1
RTEXT
  2
RText
  3
RText|AutoCAD Express Tool|expresstools@autodesk.com
 90
        0
 91
        0
280
     0
281
     1
  0
CLASS
  1
ARCALIGNEDTEXT
  2
AcDbArcAlignedText
  3
ATEXT|AutoCAD Express Tool|expresstools@autodesk.com
 90
        0
 91
        0
280
     0
281
     1
  0
CLASS
  1
MATERIAL
  2
AcDbMaterial
  3
ObjectDBX Classes
 90
     1153
 91
        3
280
     0
281
     0
  0
CLASS
  1
VISUALSTYLE
  2
AcDbVisualStyle
  3
ObjectDBX Classes
 90
     4095
 91
       16
280
     0
281
     0
  0
CLASS
  1
TABLESTYLE
  2
AcDbTableStyle
  3
ObjectDBX Classes
 90
     4095
 91
        1
280
     0
281
     0
  0
CLASS
  1
SCALE
  2
AcDbScale
  3
ObjectDBX Classes
 90
     1153
 91
       17
280
     0
281
     0
  0
CLASS
  1
MLEADERSTYLE
  2
AcDbMLeaderStyle
  3
ACDB_MLEADERSTYLE_CLASS
 90
     4095
 91
        1
280
     0
281
     0
  0
CLASS
  1
AEC_REFEDIT_STATUS_TRACKER
  2
AecDbRefEditStatusTracker
  3
AecArchBase50|Product Desc: Autodesk Architectural Desktop 2007 |Company: Autodesk,Inc. |WEB Address: www.autodesk.com
 90
      129
 91
        1
280
     0
281
     0
  0
CLASS
  1
NPOCOLLECTION
  2
AcDbImpNonPersistentObjectsCollection
  3
ObjectDBX Classes
 90
     1153
 91
        1
280
     0
281
     0
  0
CLASS
  1
CELLSTYLEMAP
  2
AcDbCellStyleMap
  3
ObjectDBX Classes
 90
     1152
 91
        2
280
     0
281
     0
  0
ENDSEC
  0
SECTION
  2
TABLES
  0
TABLE
  2
VPORT
  5
7
330
0
100
AcDbSymbolTable
 70
     1
  0
VPORT
  5
15
330
7
100
AcDbSymbolTableRecord
100
AcDbViewportTableRecord
  2
*ACTIVE
 70
     0
 10
0.0
 20
0.0
 11
1.0
 21
1.0
 12
183.280578805267
 22
161.3620047275843
 13
0.0
 23
0.0
 14
1.0
 24
1.0
 15
0.0
 25
0.0
 16
0.0
 26
0.0
 36
1.0
 17
0.0
 27
0.0
 37
0.0
 40
55.02738416064811
 41
1.31063829787234
 42
50.0
 43
0.0
 44
0.0
 50
0.0
 51
0.0
 71
     0
 72
   100
 73
     1
 74
     1
 75
     0
 76
     0
 77
     0
 78
     0
281
     0
 65
     0
110
0.0
120
0.0
130
0.0
111
1.0
121
0.0
131
0.0
112
0.0
122
1.0
132
0.0
 79
     0
146
0.0
348
1C8
 60
     3
 61
     5
292
     1
282
     1
141
0.0
142
0.0
 63
   250
421
  3355443
  0
ENDTAB
  0
TABLE
  2
LTYPE
  5
4
330
0
100
AcDbSymbolTable
 70
     1
  0
LTYPE
  5
11
330
4
100
AcDbSymbolTableRecord
100
AcDbLinetypeTableRecord
  2
ByBlock
 70
     0
  3

 72
    65
 73
     0
 40
0.0
  0
LTYPE
  5
12
330
4
100
AcDbSymbolTableRecord
100
AcDbLinetypeTableRecord
  2
ByLayer
 70
     0
  3

 72
    65
 73
     0
 40
0.0
  0
LTYPE
  5
13
330
4
100
AcDbSymbolTableRecord
100
AcDbLinetypeTableRecord
  2
Continuous
 70
     0
  3
Solid line
 72
    65
 73
     0
 40
0.0
  0
ENDTAB
  0
TABLE
  2
LAYER
  5
2
330
0
100
AcDbSymbolTable
 70
     3
  0
LAYER
  5
14
102
{ACAD_XDICTIONARY
360
253
102
}
330
2
100
AcDbSymbolTableRecord
100
AcDbLayerTableRecord
  2
0
 70
     0
 62
     7
  6
Continuous
370
    -3
390
1D
347
1BA
  0
LAYER
  5
1F1
330
2
100
AcDbSymbolTableRecord
100
AcDbLayerTableRecord
  2
Defpoints
 70
     0
 62
     7
  6
Continuous
290
     0
370
    -3
390
1D
347
1BA
  0
LAYER
  5
1F2
102
{ACAD_XDICTIONARY
360
1F3
102
}
330
2
100
AcDbSymbolTableRecord
100
AcDbLayerTableRecord
  2
Cotation-JacobDelafon
 70
     0
 62
     8
  6
Continuous
370
    -3
390
1D
347
1BA
  0
ENDTAB
  0
TABLE
  2
STYLE
  5
3
330
0
100
AcDbSymbolTable
 70
     7
  0
STYLE
  5
17
330
3
100
AcDbSymbolTableRecord
100
AcDbTextStyleTableRecord
  2
Standard
 70
     0
 40
0.0
 41
1.0
 50
0.0
 71
     0
 42
0.0
  3
txt
  4

  0
STYLE
  5
24
330
3
100
AcDbSymbolTableRecord
100
AcDbTextStyleTableRecord
  2
STD
 70
     0
 40
0.0
 41
1.0
 50
0.0
 71
     0
 42
0.0
  3
txt
  4

  0
STYLE
  5
25
330
3
100
AcDbSymbolTableRecord
100
AcDbTextStyleTableRecord
  2
TATESTD
 70
     4
 40
0.0
 41
1.0
 50
0.0
 71
     0
 42
0.0
  3
txt
  4

  0
STYLE
  5
26
330
3
100
AcDbSymbolTableRecord
100
AcDbTextStyleTableRecord
  2
KANJISTD
 70
     0
 40
0.0
 41
1.0
 50
0.0
 71
     0
 42
0.0
  3
txt
  4
extfont
  0
STYLE
  5
27
330
3
100
AcDbSymbolTableRecord
100
AcDbTextStyleTableRecord
  2
KANJITATE
 70
     4
 40
0.0
 41
1.0
 50
0.0
 71
     0
 42
0.0
  3
txt
  4
extfont
  0
STYLE
  5
1F4
330
3
100
AcDbSymbolTableRecord
100
AcDbTextStyleTableRecord
  2
Annotative
 70
     0
 40
0.0
 41
1.0
 50
0.0
 71
     0
 42
0.2
  3
txt
  4

1001
AcadAnnotative
1000
AnnotativeData
1002
{
1070
     1
1070
     1
1002
}
  0
STYLE
  5
202
330
3
100
AcDbSymbolTableRecord
100
AcDbTextStyleTableRecord
  2
Jacob-Delafon
 70
     0
 40
0.0
 41
1.0
 50
0.0
 71
     0
 42
2.5
  3
ARIAL.TTF
  4

1001
ACAD
1000
Arial
1071
       34
  0
ENDTAB
  0
TABLE
  2
VIEW
  5
5
330
0
100
AcDbSymbolTable
 70
     1
  0
ENDTAB
  0
TABLE
  2
UCS
  5
6
330
0
100
AcDbSymbolTable
 70
     0
  0
ENDTAB
  0
TABLE
  2
APPID
  5
8
330
0
100
AcDbSymbolTable
 70
     3
  0
APPID
  5
16
330
8
100
AcDbSymbolTableRecord
100
AcDbRegAppTableRecord
  2
ACAD
 70
     0
  0
APPID
  5
1EA
330
8
100
AcDbSymbolTableRecord
100
AcDbRegAppTableRecord
  2
ACAD_MLEADERVER
 70
     0
  0
APPID
  5
1F6
330
8
100
AcDbSymbolTableRecord
100
AcDbRegAppTableRecord
  2
AcadAnnotative
 70
     0
  0
ENDTAB
  0
TABLE
  2
DIMSTYLE
  5
9
330
0
100
AcDbSymbolTable
 70
     3
100
AcDbDimStyleTable
 71
     1
340
203
  0
DIMSTYLE
105
18
330
9
100
AcDbSymbolTableRecord
100
AcDbDimStyleTableRecord
  2
Standard
 70
     0
340
17
  0
DIMSTYLE
105
1F5
330
9
100
AcDbSymbolTableRecord
100
AcDbDimStyleTableRecord
  2
Annotative
 70
     0
340
17
1001
AcadAnnotative
1000
AnnotativeData
1002
{
1070
     1
1070
     1
1002
}
  0
DIMSTYLE
105
203
102
{ACAD_REACTORS
330
20A
330
217
102
}
330
9
100
AcDbSymbolTableRecord
100
AcDbDimStyleTableRecord
  2
Cotation-Jacob-Delafon
 70
     0
 41
1.8
 42
0.625
 43
3.799999999999998
 44
1.8
 73
     0
 74
     0
 77
     1
 78
    12
 79
     3
140
3.0
141
0.9
147
0.9
271
     2
272
     2
279
     2
340
202
341
1FE
342
1FE
  0
ENDTAB
  0
TABLE
  2
BLOCK_RECORD
  5
1
330
0
100
AcDbSymbolTable
 70
     5
  0
BLOCK_RECORD
  5
A
330
1
100
AcDbSymbolTableRecord
100
AcDbBlockTableRecord
  2
*MODEL_SPACE
340
20
 70
     0
280
     1
281
     0
  0
BLOCK_RECORD
  5
B
330
1
100
AcDbSymbolTableRecord
100
AcDbBlockTableRecord
  2
*PAPER_SPACE
340
21
 70
     0
280
     1
281
     0
  0
BLOCK_RECORD
  5
1FE
330
1
100
AcDbSymbolTableRecord
100
AcDbBlockTableRecord
  2
_Oblique
340
0
102
{BLKREFS
331
23B
331
23C
331
24D
331
24E
102
}
 70
     0
280
     1
281
     0
  0
BLOCK_RECORD
  5
20B
330
1
100
AcDbSymbolTableRecord
100
AcDbBlockTableRecord
  2
*D3
340
0
 70
     0
280
     1
281
     0
  0
BLOCK_RECORD
  5
218
330
1
100
AcDbSymbolTableRecord
100
AcDbBlockTableRecord
  2
*D4
340
0
 70
     0
280
     1
281
     0
  0
ENDTAB
  0
ENDSEC
  0
SECTION
  2
BLOCKS
  0
BLOCK
  5
D
330
A
100
AcDbEntity
  8
0
100
AcDbBlockBegin
  2
*MODEL_SPACE
 70
     0
 10
0.0
 20
0.0
 30
0.0
  3
*MODEL_SPACE
  1

  0
ENDBLK
  5
E
330
A
100
AcDbEntity
  8
0
100
AcDbBlockEnd
  0
BLOCK
  5
F
330
B
100
AcDbEntity
 67
     1
  8
0
100
AcDbBlockBegin
  2
*PAPER_SPACE
 70
     0
 10
0.0
 20
0.0
 30
0.0
  3
*PAPER_SPACE
  1

  0
ENDBLK
  5
10
330
B
100
AcDbEntity
 67
     1
  8
0
100
AcDbBlockEnd
  0
BLOCK
  5
1FF
330
1FE
100
AcDbEntity
  8
0
100
AcDbBlockBegin
  2
_Oblique
 70
     0
 10
0.0
 20
0.0
 30
0.0
  3
_Oblique
  1

  0
LINE
  5
200
330
1FE
100
AcDbEntity
  8
0
  6
ByBlock
 62
     0
370
    -2
380
     1
100
AcDbLine
 10
-0.5
 20
-0.5
 30
0.0
 11
0.5
 21
0.5
 31
0.0
  0
ENDBLK
  5
201
330
1FE
100
AcDbEntity
  8
0
100
AcDbBlockEnd
  0
BLOCK
  5
20C
330
20B
100
AcDbEntity
  8
0
370
     0
100
AcDbBlockBegin
  2
*D3
 70
     1
 10
0.0
 20
0.0
 30
0.0
  3
*D3
  1

  0
LINE
  5
24A
330
20B
100
AcDbEntity
  8
Cotation-JacobDelafon
  6
Continuous
 62
     0
370
    -2
100
AcDbLine
 10
191.366097
 20
158.421053
 30
0.0
 11
191.366097
 21
171.2733002494583
 31
0.0
  0
LINE
  5
24B
330
20B
100
AcDbEntity
  8
Cotation-JacobDelafon
  6
Continuous
 62
     0
370
    -2
100
AcDbLine
 10
208.6403225
 20
155.6499045
 30
0.0
 11
208.6403225
 21
171.2733002494583
 31
0.0
  0
LINE
  5
24C
330
20B
100
AcDbEntity
  8
Cotation-JacobDelafon
  6
Continuous
 62
     0
370
    -2
100
AcDbLine
 10
191.366097
 20
169.4733002494583
 30
0.0
 11
208.6403225
 21
169.4733002494583
 31
0.0
  0
INSERT
  5
24D
330
20B
100
AcDbEntity
  8
Cotation-JacobDelafon
  6
Continuous
 62
     0
370
    -2
100
AcDbBlockReference
  2
_Oblique
 10
191.366097
 20
169.4733002494583
 30
0.0
 41
1.8
 42
1.8
 43
1.8
 50
180.0
  0
INSERT
  5
24E
330
20B
100
AcDbEntity
  8
Cotation-JacobDelafon
  6
Continuous
 62
     0
370
    -2
100
AcDbBlockReference
  2
_Oblique
 10
208.6403225
 20
169.4733002494583
 30
0.0
 41
1.8
 42
1.8
 43
1.8
  0
MTEXT
  5
24F
330
20B
100
AcDbEntity
  8
Cotation-JacobDelafon
  6
Continuous
 62
     0
370
     0
100
AcDbMText
 10
200.00320975
 20
171.8794394036193
 30
0.0
 40
3.0
 41
0.0
 46
0.0
 71
     5
 72
     1
  1
\A1;17.2
  7
Jacob-Delafon
 73
     1
 44
1.0
  0
POINT
  5
250
330
20B
100
AcDbEntity
  8
Defpoints
  6
Continuous
 62
     0
370
     0
100
AcDbPoint
 10
191.366097
 20
157.7960529999999
 30
0.0
  0
POINT
  5
251
330
20B
100
AcDbEntity
  8
Defpoints
  6
Continuous
 62
     0
370
     0
100
AcDbPoint
 10
208.6403225
 20
155.0249045
 30
0.0
  0
POINT
  5
252
330
20B
100
AcDbEntity
  8
Defpoints
  6
Continuous
 62
     0
370
     0
100
AcDbPoint
 10
208.6403225
 20
169.4733002494583
 30
0.0
  0
ENDBLK
  5
20D
330
20B
100
AcDbEntity
  8
0
370
     0
100
AcDbBlockEnd
  0
BLOCK
  5
219
330
218
100
AcDbEntity
  8
0
370
     0
100
AcDbBlockBegin
  2
*D4
 70
     1
 10
0.0
 20
0.0
 30
0.0
  3
*D4
  1

  0
LINE
  5
238
330
218
100
AcDbEntity
  8
Cotation-JacobDelafon
  6
Continuous
 62
     0
370
    -2
100
AcDbLine
 10
190.741097
 20
157.796053
 30
0.0
 11
180.4669862168643
 21
157.796053
 31
0.0
  0
LINE
  5
239
330
218
100
AcDbEntity
  8
Cotation-JacobDelafon
  6
Continuous
 62
     0
370
    -2
100
AcDbLine
 10
199.376573
 20
141.563108
 30
0.0
 11
180.4669862168643
 21
141.563108
 31
0.0
  0
LINE
  5
23A
330
218
100
AcDbEntity
  8
Cotation-JacobDelafon
  6
Continuous
 62
     0
370
    -2
100
AcDbLine
 10
182.2669862168644
 20
157.796053
 30
0.0
 11
182.2669862168644
 21
141.563108
 31
0.0
  0
INSERT
  5
23B
330
218
100
AcDbEntity
  8
Cotation-JacobDelafon
  6
Continuous
 62
     0
370
    -2
100
AcDbBlockReference
  2
_Oblique
 10
182.2669862168644
 20
157.796053
 30
0.0
 41
1.8
 42
1.8
 43
1.8
 50
90.0
  0
INSERT
  5
23C
330
218
100
AcDbEntity
  8
Cotation-JacobDelafon
  6
Continuous
 62
     0
370
    -2
100
AcDbBlockReference
  2
_Oblique
 10
182.2669862168644
 20
141.563108
 30
0.0
 41
1.8
 42
1.8
 43
1.8
 50
270.0
  0
MTEXT
  5
23D
330
218
100
AcDbEntity
  8
Cotation-JacobDelafon
  6
Continuous
 62
     0
370
     0
100
AcDbMText
 10
179.8352672536992
 20
149.6795805
 30
0.0
 40
3.0
 41
0.0
 46
0.0
 71
     5
 72
     1
  1
\A1;16.2
  7
Jacob-Delafon
 11
0.0000000000000001
 21
1.0
 31
0.0
 73
     1
 44
1.0
  0
POINT
  5
23E
330
218
100
AcDbEntity
  8
Defpoints
  6
Continuous
 62
     0
370
     0
100
AcDbPoint
 10
191.366097
 20
157.796053
 30
0.0
  0
POINT
  5
23F
330
218
100
AcDbEntity
  8
Defpoints
  6
Continuous
 62
     0
370
     0
100
AcDbPoint
 10
200.001573
 20
141.563108
 30
0.0
  0
POINT
  5
240
330
218
100
AcDbEntity
  8
Defpoints
  6
Continuous
 62
     0
370
     0
100
AcDbPoint
 10
182.2669862168644
 20
141.563108
 30
0.0
  0
ENDBLK
  5
21A
330
218
100
AcDbEntity
  8
0
370
     0
100
AcDbBlockEnd
  0
ENDSEC
  0
SECTION
  2
ENTITIES
  0
LINE
  5
1A6
330
A
100
AcDbEntity
  8
0
 62
     7
100
AcDbLine
 10
199.126691
 20
153.604578
 30
0.0
 11
195.520538
 21
153.604578
 31
0.0
  0
LINE
  5
1A5
330
A
100
AcDbEntity
  8
0
 62
     7
100
AcDbLine
 10
199.458626
 20
156.54755
 30
0.0
 11
195.520538
 21
156.54755
 31
0.0
  0
LINE
  5
1A4
330
A
100
AcDbEntity
  8
0
 62
     7
100
AcDbLine
 10
195.520538
 20
153.604578
 30
0.0
 11
195.268357
 21
153.67658
 31
0.0
  0
LINE
  5
1A3
330
A
100
AcDbEntity
  8
0
 62
     7
100
AcDbLine
 10
195.772546
 20
153.67658
 30
0.0
 11
195.520538
 21
153.604578
 31
0.0
  0
LINE
  5
1A2
330
A
100
AcDbEntity
  8
0
 62
     7
100
AcDbLine
 10
196.000095
 20
153.885525
 30
0.0
 11
195.772546
 21
153.67658
 31
0.0
  0
LINE
  5
1A1
330
A
100
AcDbEntity
  8
0
 62
     7
100
AcDbLine
 10
196.180618
 20
154.211087
 30
0.0
 11
196.000095
 21
153.885525
 31
0.0
  0
LINE
  5
1A0
330
A
100
AcDbEntity
  8
0
 62
     7
100
AcDbLine
 10
196.296545
 20
154.621398
 30
0.0
 11
196.180618
 21
154.211087
 31
0.0
  0
LINE
  5
19F
330
A
100
AcDbEntity
  8
0
 62
     7
100
AcDbLine
 10
196.336509
 20
155.075978
 30
0.0
 11
196.296545
 21
154.621398
 31
0.0
  0
LINE
  5
19E
330
A
100
AcDbEntity
  8
0
 62
     7
100
AcDbLine
 10
196.296545
 20
155.530731
 30
0.0
 11
196.336509
 21
155.075978
 31
0.0
  0
LINE
  5
19D
330
A
100
AcDbEntity
  8
0
 62
     7
100
AcDbLine
 10
196.180618
 20
155.940869
 30
0.0
 11
196.296545
 21
155.530731
 31
0.0
  0
LINE
  5
19C
330
A
100
AcDbEntity
  8
0
 62
     7
100
AcDbLine
 10
196.000095
 20
156.266431
 30
0.0
 11
196.180618
 21
155.940869
 31
0.0
  0
LINE
  5
19B
330
A
100
AcDbEntity
  8
0
 62
     7
100
AcDbLine
 10
195.772546
 20
156.475548
 30
0.0
 11
196.000095
 21
156.266431
 31
0.0
  0
LINE
  5
19A
330
A
100
AcDbEntity
  8
0
 62
     7
100
AcDbLine
 10
195.520538
 20
156.54755
 30
0.0
 11
195.772546
 21
156.475548
 31
0.0
  0
LINE
  5
199
330
A
100
AcDbEntity
  8
0
 62
     7
100
AcDbLine
 10
195.268357
 20
156.475548
 30
0.0
 11
195.520538
 21
156.54755
 31
0.0
  0
LINE
  5
198
330
A
100
AcDbEntity
  8
0
 62
     7
100
AcDbLine
 10
195.040808
 20
156.266431
 30
0.0
 11
195.268357
 21
156.475548
 31
0.0
  0
LINE
  5
197
330
A
100
AcDbEntity
  8
0
 62
     7
100
AcDbLine
 10
194.860285
 20
155.940869
 30
0.0
 11
195.040808
 21
156.266431
 31
0.0
  0
LINE
  5
196
330
A
100
AcDbEntity
  8
0
 62
     7
100
AcDbLine
 10
194.744358
 20
155.530731
 30
0.0
 11
194.860285
 21
155.940869
 31
0.0
  0
LINE
  5
195
330
A
100
AcDbEntity
  8
0
 62
     7
100
AcDbLine
 10
194.735573
 20
155.430995
 30
0.0
 11
194.744358
 21
155.530731
 31
0.0
  0
LINE
  5
194
330
A
100
AcDbEntity
  8
0
 62
     7
100
AcDbLine
 10
194.744358
 20
154.621398
 30
0.0
 11
194.735573
 21
154.721133
 31
0.0
  0
LINE
  5
193
330
A
100
AcDbEntity
  8
0
 62
     7
100
AcDbLine
 10
194.860285
 20
154.211087
 30
0.0
 11
194.744358
 21
154.621398
 31
0.0
  0
LINE
  5
192
330
A
100
AcDbEntity
  8
0
 62
     7
100
AcDbLine
 10
195.040808
 20
153.885525
 30
0.0
 11
194.860285
 21
154.211087
 31
0.0
  0
LINE
  5
191
330
A
100
AcDbEntity
  8
0
 62
     7
100
AcDbLine
 10
195.268357
 20
153.67658
 30
0.0
 11
195.040808
 21
153.885525
 31
0.0
  0
LINE
  5
190
330
A
100
AcDbEntity
  8
0
 62
     7
100
AcDbLine
 10
196.165632
 20
154.695639
 30
0.0
 11
196.199049
 21
155.075978
 31
0.0
  0
LINE
  5
18F
330
A
100
AcDbEntity
  8
0
 62
     7
100
AcDbLine
 10
196.199049
 20
155.075978
 30
0.0
 11
196.165632
 21
155.4564889999999
 31
0.0
  0
LINE
  5
18E
330
A
100
AcDbEntity
  8
0
 62
     7
100
AcDbLine
 10
196.165632
 20
155.4564889999999
 30
0.0
 11
196.068652
 21
155.799448
 31
0.0
  0
LINE
  5
18D
330
A
100
AcDbEntity
  8
0
 62
     7
100
AcDbLine
 10
196.068652
 20
155.799448
 30
0.0
 11
195.917757
 21
156.071783
 31
0.0
  0
LINE
  5
18C
330
A
100
AcDbEntity
  8
0
 62
     7
100
AcDbLine
 10
195.917757
 20
156.071783
 30
0.0
 11
195.727416
 21
156.246621
 31
0.0
  0
LINE
  5
18B
330
A
100
AcDbEntity
  8
0
 62
     7
100
AcDbLine
 10
195.727416
 20
156.246621
 30
0.0
 11
195.516404
 21
156.306911
 31
0.0
  0
LINE
  5
18A
330
A
100
AcDbEntity
  8
0
 62
     7
100
AcDbLine
 10
195.516404
 20
156.306911
 30
0.0
 11
195.305564
 21
156.246621
 31
0.0
  0
LINE
  5
189
330
A
100
AcDbEntity
  8
0
 62
     7
100
AcDbLine
 10
195.305564
 20
156.246621
 30
0.0
 11
195.115222
 21
156.071783
 31
0.0
  0
LINE
  5
188
330
A
100
AcDbEntity
  8
0
 62
     7
100
AcDbLine
 10
195.115222
 20
156.071783
 30
0.0
 11
194.964327
 21
155.799448
 31
0.0
  0
LINE
  5
187
330
A
100
AcDbEntity
  8
0
 62
     7
100
AcDbLine
 10
194.964327
 20
155.799448
 30
0.0
 11
194.867348
 21
155.4564889999999
 31
0.0
  0
LINE
  5
186
330
A
100
AcDbEntity
  8
0
 62
     7
100
AcDbLine
 10
194.867348
 20
155.4564889999999
 30
0.0
 11
194.865108
 21
155.430995
 31
0.0
  0
LINE
  5
185
330
A
100
AcDbEntity
  8
0
 62
     7
100
AcDbLine
 10
194.865108
 20
154.721133
 30
0.0
 11
194.867348
 21
154.695639
 31
0.0
  0
LINE
  5
184
330
A
100
AcDbEntity
  8
0
 62
     7
100
AcDbLine
 10
194.867348
 20
154.695639
 30
0.0
 11
194.964327
 21
154.352508
 31
0.0
  0
LINE
  5
183
330
A
100
AcDbEntity
  8
0
 62
     7
100
AcDbLine
 10
194.964327
 20
154.352508
 30
0.0
 11
195.115222
 21
154.080173
 31
0.0
  0
LINE
  5
182
330
A
100
AcDbEntity
  8
0
 62
     7
100
AcDbLine
 10
195.115222
 20
154.080173
 30
0.0
 11
195.305564
 21
153.905507
 31
0.0
  0
LINE
  5
181
330
A
100
AcDbEntity
  8
0
 62
     7
100
AcDbLine
 10
195.305564
 20
153.905507
 30
0.0
 11
195.516404
 21
153.845218
 31
0.0
  0
LINE
  5
180
330
A
100
AcDbEntity
  8
0
 62
     7
100
AcDbLine
 10
195.516404
 20
153.845218
 30
0.0
 11
195.727416
 21
153.905507
 31
0.0
  0
LINE
  5
17F
330
A
100
AcDbEntity
  8
0
 62
     7
100
AcDbLine
 10
195.727416
 20
153.905507
 30
0.0
 11
195.917757
 21
154.080173
 31
0.0
  0
LINE
  5
17E
330
A
100
AcDbEntity
  8
0
 62
     7
100
AcDbLine
 10
195.917757
 20
154.080173
 30
0.0
 11
196.068652
 21
154.352508
 31
0.0
  0
LINE
  5
17D
330
A
100
AcDbEntity
  8
0
 62
     7
100
AcDbLine
 10
196.068652
 20
154.352508
 30
0.0
 11
196.165632
 21
154.695639
 31
0.0
  0
LINE
  5
17C
330
A
100
AcDbEntity
  8
0
 62
     7
100
AcDbLine
 10
195.505207
 20
155.272348
 30
0.0
 11
195.492977
 21
155.316273
 31
0.0
  0
LINE
  5
17B
330
A
100
AcDbEntity
  8
0
 62
     7
100
AcDbLine
 10
195.492977
 20
155.316273
 30
0.0
 11
195.442678
 21
155.406707
 31
0.0
  0
LINE
  5
17A
330
A
100
AcDbEntity
  8
0
 62
     7
100
AcDbLine
 10
195.442678
 20
155.406707
 30
0.0
 11
195.379633
 21
155.464757
 31
0.0
  0
LINE
  5
179
330
A
100
AcDbEntity
  8
0
 62
     7
100
AcDbLine
 10
195.379633
 20
155.464757
 30
0.0
 11
195.309526
 21
155.484738
 31
0.0
  0
LINE
  5
178
330
A
100
AcDbEntity
  8
0
 62
     7
100
AcDbLine
 10
195.309526
 20
155.484738
 30
0.0
 11
195.239418
 21
155.464757
 31
0.0
  0
LINE
  5
177
330
A
100
AcDbEntity
  8
0
 62
     7
100
AcDbLine
 10
195.173961
 20
155.430995
 30
0.0
 11
195.239418
 21
155.464757
 31
0.0
  0
LINE
  5
176
330
A
100
AcDbEntity
  8
0
 62
     7
100
AcDbLine
 10
195.239418
 20
154.687371
 30
0.0
 11
195.309526
 21
154.66739
 31
0.0
  0
LINE
  5
175
330
A
100
AcDbEntity
  8
0
 62
     7
100
AcDbLine
 10
195.173961
 20
154.721133
 30
0.0
 11
195.239418
 21
154.687371
 31
0.0
  0
LINE
  5
174
330
A
100
AcDbEntity
  8
0
 62
     7
100
AcDbLine
 10
195.309526
 20
154.66739
 30
0.0
 11
195.379633
 21
154.687371
 31
0.0
  0
LINE
  5
173
330
A
100
AcDbEntity
  8
0
 62
     7
100
AcDbLine
 10
195.379633
 20
154.687371
 30
0.0
 11
195.442678
 21
154.745421
 31
0.0
  0
LINE
  5
172
330
A
100
AcDbEntity
  8
0
 62
     7
100
AcDbLine
 10
195.442678
 20
154.745421
 30
0.0
 11
195.492977
 21
154.835855
 31
0.0
  0
LINE
  5
171
330
A
100
AcDbEntity
  8
0
 62
     7
100
AcDbLine
 10
195.492977
 20
154.835855
 30
0.0
 11
195.505207
 21
154.879607
 31
0.0
  0
LINE
  5
170
330
A
100
AcDbEntity
  8
0
 62
     7
100
AcDbLine
 10
195.54517
 20
154.973831
 30
0.0
 11
195.542069
 21
154.966424
 31
0.0
  0
LINE
  5
16F
330
A
100
AcDbEntity
  8
0
 62
     7
100
AcDbLine
 10
195.542069
 20
155.185704
 30
0.0
 11
195.54517
 21
155.178297
 31
0.0
  0
LINE
  5
16E
330
A
100
AcDbEntity
  8
0
 62
     7
100
AcDbLine
 10
195.54517
 20
154.973831
 30
0.0
 11
195.558606
 21
155.075978
 31
0.0
  0
LINE
  5
16D
330
A
100
AcDbEntity
  8
0
 62
     7
100
AcDbLine
 10
195.558606
 20
155.075978
 30
0.0
 11
195.54517
 21
155.178297
 31
0.0
  0
LINE
  5
16C
330
A
100
AcDbEntity
  8
0
 62
     7
100
AcDbLine
 10
195.500039
 20
155.284751
 30
0.0
 11
195.542069
 21
155.185704
 31
0.0
  0
LINE
  5
16B
330
A
100
AcDbEntity
  8
0
 62
     7
100
AcDbLine
 10
195.434755
 20
155.363299
 30
0.0
 11
195.500039
 21
155.284751
 31
0.0
  0
LINE
  5
16A
330
A
100
AcDbEntity
  8
0
 62
     7
100
AcDbLine
 10
195.352417
 20
155.413597
 30
0.0
 11
195.434755
 21
155.363299
 31
0.0
  0
LINE
  5
169
330
A
100
AcDbEntity
  8
0
 62
     7
100
AcDbLine
 10
195.261294
 20
155.430995
 30
0.0
 11
195.352417
 21
155.413597
 31
0.0
  0
LINE
  5
168
330
A
100
AcDbEntity
  8
0
 62
     7
100
AcDbLine
 10
195.261294
 20
155.430995
 30
0.0
 11
193.81022
 21
155.430995
 31
0.0
  0
LINE
  5
167
330
A
100
AcDbEntity
  8
0
 62
     7
100
AcDbLine
 10
193.100875
 20
155.430995
 30
0.0
 11
191.650145
 21
155.430995
 31
0.0
  0
LINE
  5
166
330
A
100
AcDbEntity
  8
0
 62
     7
100
AcDbLine
 10
195.261294
 20
154.721133
 30
0.0
 11
193.81022
 21
154.721133
 31
0.0
  0
LINE
  5
165
330
A
100
AcDbEntity
  8
0
 62
     7
100
AcDbLine
 10
193.100875
 20
154.721133
 30
0.0
 11
191.650145
 21
154.721133
 31
0.0
  0
LINE
  5
164
330
A
100
AcDbEntity
  8
0
 62
     7
100
AcDbLine
 10
195.352417
 20
154.738359
 30
0.0
 11
195.261294
 21
154.721133
 31
0.0
  0
LINE
  5
163
330
A
100
AcDbEntity
  8
0
 62
     7
100
AcDbLine
 10
195.434755
 20
154.788829
 30
0.0
 11
195.352417
 21
154.738359
 31
0.0
  0
LINE
  5
162
330
A
100
AcDbEntity
  8
0
 62
     7
100
AcDbLine
 10
195.500039
 20
154.867377
 30
0.0
 11
195.434755
 21
154.788829
 31
0.0
  0
LINE
  5
161
330
A
100
AcDbEntity
  8
0
 62
     7
100
AcDbLine
 10
195.542069
 20
154.966424
 30
0.0
 11
195.500039
 21
154.867377
 31
0.0
  0
LINE
  5
160
330
A
100
AcDbEntity
  8
0
 62
     7
100
AcDbLine
 10
191.55885
 20
155.413597
 30
0.0
 11
191.650145
 21
155.430995
 31
0.0
  0
LINE
  5
15F
330
A
100
AcDbEntity
  8
0
 62
     7
100
AcDbLine
 10
191.476512
 20
155.363299
 30
0.0
 11
191.55885
 21
155.413597
 31
0.0
  0
LINE
  5
15E
330
A
100
AcDbEntity
  8
0
 62
     7
100
AcDbLine
 10
191.411228
 20
155.284751
 30
0.0
 11
191.476512
 21
155.363299
 31
0.0
  0
LINE
  5
15D
330
A
100
AcDbEntity
  8
0
 62
     7
100
AcDbLine
 10
191.411228
 20
155.284751
 30
0.0
 11
191.405199
 21
155.270626
 31
0.0
  0
LINE
  5
15C
330
A
100
AcDbEntity
  8
0
 62
     7
100
AcDbLine
 10
191.36937
 20
155.185704
 30
0.0
 11
191.411228
 21
155.284751
 31
0.0
  0
LINE
  5
15B
330
A
100
AcDbEntity
  8
0
 62
     7
100
AcDbLine
 10
191.3549
 20
155.075978
 30
0.0
 11
191.36937
 21
155.185704
 31
0.0
  0
LINE
  5
15A
330
A
100
AcDbEntity
  8
0
 62
     7
100
AcDbLine
 10
191.36937
 20
154.966424
 30
0.0
 11
191.3549
 21
155.075978
 31
0.0
  0
LINE
  5
159
330
A
100
AcDbEntity
  8
0
 62
     7
100
AcDbLine
 10
191.411228
 20
154.867377
 30
0.0
 11
191.36937
 21
154.966424
 31
0.0
  0
LINE
  5
158
330
A
100
AcDbEntity
  8
0
 62
     7
100
AcDbLine
 10
191.411228
 20
154.867377
 30
0.0
 11
191.405199
 21
154.881502
 31
0.0
  0
LINE
  5
157
330
A
100
AcDbEntity
  8
0
 62
     7
100
AcDbLine
 10
191.476512
 20
154.788829
 30
0.0
 11
191.411228
 21
154.867377
 31
0.0
  0
LINE
  5
156
330
A
100
AcDbEntity
  8
0
 62
     7
100
AcDbLine
 10
191.55885
 20
154.738359
 30
0.0
 11
191.476512
 21
154.788829
 31
0.0
  0
LINE
  5
155
330
A
100
AcDbEntity
  8
0
 62
     7
100
AcDbLine
 10
191.650145
 20
154.721133
 30
0.0
 11
191.55885
 21
154.738359
 31
0.0
  0
LINE
  5
154
330
A
100
AcDbEntity
  8
0
 62
     7
100
AcDbLine
 10
191.366097
 20
155.178297
 30
0.0
 11
191.405199
 21
155.270626
 31
0.0
  0
LINE
  5
153
330
A
100
AcDbEntity
  8
0
 62
     7
100
AcDbLine
 10
191.352661
 20
155.075978
 30
0.0
 11
191.366097
 21
155.178297
 31
0.0
  0
LINE
  5
152
330
A
100
AcDbEntity
  8
0
 62
     7
100
AcDbLine
 10
191.366097
 20
154.973831
 30
0.0
 11
191.352661
 21
155.075978
 31
0.0
  0
LINE
  5
151
330
A
100
AcDbEntity
  8
0
 62
     7
100
AcDbLine
 10
191.405199
 20
154.881502
 30
0.0
 11
191.366097
 21
154.973831
 31
0.0
  0
LINE
  5
150
330
A
100
AcDbEntity
  8
0
 62
     7
100
AcDbLine
 10
193.124818
 20
158.366216
 30
0.0
 11
193.100875
 21
158.326426
 31
0.0
  0
LINE
  5
14F
330
A
100
AcDbEntity
  8
0
 62
     7
100
AcDbLine
 10
193.786277
 20
158.366216
 30
0.0
 11
193.81022
 21
158.326426
 31
0.0
  0
LINE
  5
14E
330
A
100
AcDbEntity
  8
0
 62
     7
100
AcDbLine
 10
193.1830399999999
 20
158.411347
 30
0.0
 11
193.124818
 21
158.366216
 31
0.0
  0
LINE
  5
14D
330
A
100
AcDbEntity
  8
0
 62
     7
100
AcDbLine
 10
193.728054
 20
158.411347
 30
0.0
 11
193.786277
 21
158.366216
 31
0.0
  0
LINE
  5
14C
330
A
100
AcDbEntity
  8
0
 62
     7
100
AcDbLine
 10
193.278297
 20
158.440803
 30
0.0
 11
193.1830399999999
 21
158.411347
 31
0.0
  0
LINE
  5
14B
330
A
100
AcDbEntity
  8
0
 62
     7
100
AcDbLine
 10
193.632798
 20
158.440803
 30
0.0
 11
193.728054
 21
158.411347
 31
0.0
  0
LINE
  5
14A
330
A
100
AcDbEntity
  8
0
 62
     7
100
AcDbLine
 10
193.621946
 20
158.440803
 30
0.0
 11
193.632798
 21
158.440803
 31
0.0
  0
LINE
  5
149
330
A
100
AcDbEntity
  8
0
 62
     7
100
AcDbLine
 10
193.594902
 20
158.440803
 30
0.0
 11
193.621946
 21
158.440803
 31
0.0
  0
LINE
  5
148
330
A
100
AcDbEntity
  8
0
 62
     7
100
AcDbLine
 10
193.554077
 20
158.440803
 30
0.0
 11
193.594902
 21
158.440803
 31
0.0
  0
LINE
  5
147
330
A
100
AcDbEntity
  8
0
 62
     7
100
AcDbLine
 10
193.503606
 20
158.440803
 30
0.0
 11
193.554077
 21
158.440803
 31
0.0
  0
LINE
  5
146
330
A
100
AcDbEntity
  8
0
 62
     7
100
AcDbLine
 10
193.448485
 20
158.440803
 30
0.0
 11
193.503606
 21
158.440803
 31
0.0
  0
LINE
  5
145
330
A
100
AcDbEntity
  8
0
 62
     7
100
AcDbLine
 10
193.394052
 20
158.440803
 30
0.0
 11
193.448485
 21
158.440803
 31
0.0
  0
LINE
  5
144
330
A
100
AcDbEntity
  8
0
 62
     7
100
AcDbLine
 10
193.345649
 20
158.440803
 30
0.0
 11
193.394052
 21
158.440803
 31
0.0
  0
LINE
  5
143
330
A
100
AcDbEntity
  8
0
 62
     7
100
AcDbLine
 10
193.307925
 20
158.440803
 30
0.0
 11
193.345649
 21
158.440803
 31
0.0
  0
LINE
  5
142
330
A
100
AcDbEntity
  8
0
 62
     7
100
AcDbLine
 10
193.284843
 20
158.440803
 30
0.0
 11
193.307925
 21
158.440803
 31
0.0
  0
LINE
  5
141
330
A
100
AcDbEntity
  8
0
 62
     7
100
AcDbLine
 10
193.278297
 20
158.440803
 30
0.0
 11
193.284843
 21
158.440803
 31
0.0
  0
LINE
  5
140
330
A
100
AcDbEntity
  8
0
 62
     7
100
AcDbLine
 10
193.100875
 20
158.326426
 30
0.0
 11
193.100875
 21
155.430995
 31
0.0
  0
LINE
  5
13F
330
A
100
AcDbEntity
  8
0
 62
     7
100
AcDbLine
 10
193.100875
 20
154.867377
 30
0.0
 11
193.100875
 21
151.826392
 31
0.0
  0
LINE
  5
13E
330
A
100
AcDbEntity
  8
0
 62
     7
100
AcDbLine
 10
193.81022
 20
158.326426
 30
0.0
 11
193.81022
 21
155.430995
 31
0.0
  0
LINE
  5
13D
330
A
100
AcDbEntity
  8
0
 62
     7
100
AcDbLine
 10
193.81022
 20
154.721133
 30
0.0
 11
193.81022
 21
151.826392
 31
0.0
  0
LINE
  5
13C
330
A
100
AcDbEntity
  8
0
 62
     7
100
AcDbLine
 10
193.100875
 20
151.826392
 30
0.0
 11
193.124818
 21
151.786256
 31
0.0
  0
LINE
  5
13B
330
A
100
AcDbEntity
  8
0
 62
     7
100
AcDbLine
 10
193.113794
 20
151.826392
 30
0.0
 11
193.100875
 21
151.826392
 31
0.0
  0
LINE
  5
13A
330
A
100
AcDbEntity
  8
0
 62
     7
100
AcDbLine
 10
193.160303
 20
151.826392
 30
0.0
 11
193.113794
 21
151.826392
 31
0.0
  0
LINE
  5
139
330
A
100
AcDbEntity
  8
0
 62
     7
100
AcDbLine
 10
193.23575
 20
151.826392
 30
0.0
 11
193.160303
 21
151.826392
 31
0.0
  0
LINE
  5
138
330
A
100
AcDbEntity
  8
0
 62
     7
100
AcDbLine
 10
193.33273
 20
151.826392
 30
0.0
 11
193.23575
 21
151.826392
 31
0.0
  0
LINE
  5
137
330
A
100
AcDbEntity
  8
0
 62
     7
100
AcDbLine
 10
193.441595
 20
151.826392
 30
0.0
 11
193.33273
 21
151.826392
 31
0.0
  0
LINE
  5
136
330
A
100
AcDbEntity
  8
0
 62
     7
100
AcDbLine
 10
193.5518379999999
 20
151.826392
 30
0.0
 11
193.441595
 21
151.826392
 31
0.0
  0
LINE
  5
135
330
A
100
AcDbEntity
  8
0
 62
     7
100
AcDbLine
 10
193.652779
 20
151.826392
 30
0.0
 11
193.5518379999999
 21
151.826392
 31
0.0
  0
LINE
  5
134
330
A
100
AcDbEntity
  8
0
 62
     7
100
AcDbLine
 10
193.734256
 20
151.826392
 30
0.0
 11
193.652779
 21
151.826392
 31
0.0
  0
LINE
  5
133
330
A
100
AcDbEntity
  8
0
 62
     7
100
AcDbLine
 10
193.788516
 20
151.826392
 30
0.0
 11
193.734256
 21
151.826392
 31
0.0
  0
LINE
  5
132
330
A
100
AcDbEntity
  8
0
 62
     7
100
AcDbLine
 10
193.81022
 20
151.826392
 30
0.0
 11
193.788516
 21
151.826392
 31
0.0
  0
LINE
  5
131
330
A
100
AcDbEntity
  8
0
 62
     7
100
AcDbLine
 10
193.81022
 20
151.826392
 30
0.0
 11
193.786277
 21
151.786256
 31
0.0
  0
LINE
  5
130
330
A
100
AcDbEntity
  8
0
 62
     7
100
AcDbLine
 10
193.124818
 20
151.786256
 30
0.0
 11
193.1830399999999
 21
151.740781
 31
0.0
  0
LINE
  5
12F
330
A
100
AcDbEntity
  8
0
 62
     7
100
AcDbLine
 10
193.786277
 20
151.786256
 30
0.0
 11
193.728054
 21
151.740781
 31
0.0
  0
LINE
  5
12E
330
A
100
AcDbEntity
  8
0
 62
     7
100
AcDbLine
 10
193.1830399999999
 20
151.740781
 30
0.0
 11
193.278297
 21
151.711325
 31
0.0
  0
LINE
  5
12D
330
A
100
AcDbEntity
  8
0
 62
     7
100
AcDbLine
 10
193.728054
 20
151.740781
 30
0.0
 11
193.632798
 21
151.711325
 31
0.0
  0
LINE
  5
12C
330
A
100
AcDbEntity
  8
0
 62
     7
100
AcDbLine
 10
193.284843
 20
151.711325
 30
0.0
 11
193.278297
 21
151.711325
 31
0.0
  0
LINE
  5
12B
330
A
100
AcDbEntity
  8
0
 62
     7
100
AcDbLine
 10
193.307925
 20
151.711325
 30
0.0
 11
193.284843
 21
151.711325
 31
0.0
  0
LINE
  5
12A
330
A
100
AcDbEntity
  8
0
 62
     7
100
AcDbLine
 10
193.345649
 20
151.711325
 30
0.0
 11
193.307925
 21
151.711325
 31
0.0
  0
LINE
  5
129
330
A
100
AcDbEntity
  8
0
 62
     7
100
AcDbLine
 10
193.394052
 20
151.711325
 30
0.0
 11
193.345649
 21
151.711325
 31
0.0
  0
LINE
  5
128
330
A
100
AcDbEntity
  8
0
 62
     7
100
AcDbLine
 10
193.448485
 20
151.711325
 30
0.0
 11
193.394052
 21
151.711325
 31
0.0
  0
LINE
  5
127
330
A
100
AcDbEntity
  8
0
 62
     7
100
AcDbLine
 10
193.503606
 20
151.711325
 30
0.0
 11
193.448485
 21
151.711325
 31
0.0
  0
LINE
  5
126
330
A
100
AcDbEntity
  8
0
 62
     7
100
AcDbLine
 10
193.554077
 20
151.711325
 30
0.0
 11
193.503606
 21
151.711325
 31
0.0
  0
LINE
  5
125
330
A
100
AcDbEntity
  8
0
 62
     7
100
AcDbLine
 10
193.594902
 20
151.711325
 30
0.0
 11
193.554077
 21
151.711325
 31
0.0
  0
LINE
  5
124
330
A
100
AcDbEntity
  8
0
 62
     7
100
AcDbLine
 10
193.621946
 20
151.711325
 30
0.0
 11
193.594902
 21
151.711325
 31
0.0
  0
LINE
  5
123
330
A
100
AcDbEntity
  8
0
 62
     7
100
AcDbLine
 10
193.632798
 20
151.711325
 30
0.0
 11
193.621946
 21
151.711325
 31
0.0
  0
LINE
  5
122
330
A
100
AcDbEntity
  8
0
 62
     7
100
AcDbLine
 10
203.802547
 20
154.679447
 30
0.0
 11
203.767407
 21
155.075978
 31
0.0
  0
LINE
  5
121
330
A
100
AcDbEntity
  8
0
 62
     7
100
AcDbLine
 10
203.767407
 20
155.075978
 30
0.0
 11
203.802547
 21
155.472681
 31
0.0
  0
LINE
  5
120
330
A
100
AcDbEntity
  8
0
 62
     7
100
AcDbLine
 10
203.903488
 20
154.321502
 30
0.0
 11
203.802547
 21
154.679447
 31
0.0
  0
LINE
  5
11F
330
A
100
AcDbEntity
  8
0
 62
     7
100
AcDbLine
 10
203.802547
 20
155.472681
 30
0.0
 11
203.903488
 21
155.830626
 31
0.0
  0
LINE
  5
11E
330
A
100
AcDbEntity
  8
0
 62
     7
100
AcDbLine
 10
204.060929
 20
154.037626
 30
0.0
 11
203.903488
 21
154.321502
 31
0.0
  0
LINE
  5
11D
330
A
100
AcDbEntity
  8
0
 62
     7
100
AcDbLine
 10
203.903488
 20
155.830626
 30
0.0
 11
204.060929
 21
156.114502
 31
0.0
  0
LINE
  5
11C
330
A
100
AcDbEntity
  8
0
 62
     7
100
AcDbLine
 10
204.259367
 20
153.855208
 30
0.0
 11
204.060929
 21
154.037626
 31
0.0
  0
LINE
  5
11B
330
A
100
AcDbEntity
  8
0
 62
     7
100
AcDbLine
 10
204.060929
 20
156.114502
 30
0.0
 11
204.259367
 21
156.29692
 31
0.0
  0
LINE
  5
11A
330
A
100
AcDbEntity
  8
0
 62
     7
100
AcDbLine
 10
204.479508
 20
153.792508
 30
0.0
 11
204.259367
 21
153.855208
 31
0.0
  0
LINE
  5
119
330
A
100
AcDbEntity
  8
0
 62
     7
100
AcDbLine
 10
204.259367
 20
156.29692
 30
0.0
 11
204.479508
 21
156.35962
 31
0.0
  0
LINE
  5
118
330
A
100
AcDbEntity
  8
0
 62
     7
100
AcDbLine
 10
204.699306
 20
153.855208
 30
0.0
 11
204.479508
 21
153.792508
 31
0.0
  0
LINE
  5
117
330
A
100
AcDbEntity
  8
0
 62
     7
100
AcDbLine
 10
204.479508
 20
156.35962
 30
0.0
 11
204.699306
 21
156.29692
 31
0.0
  0
LINE
  5
116
330
A
100
AcDbEntity
  8
0
 62
     7
100
AcDbLine
 10
204.897743
 20
154.037626
 30
0.0
 11
204.699306
 21
153.855208
 31
0.0
  0
LINE
  5
115
330
A
100
AcDbEntity
  8
0
 62
     7
100
AcDbLine
 10
204.699306
 20
156.29692
 30
0.0
 11
204.897743
 21
156.114502
 31
0.0
  0
LINE
  5
114
330
A
100
AcDbEntity
  8
0
 62
     7
100
AcDbLine
 10
205.055184
 20
154.321502
 30
0.0
 11
204.897743
 21
154.037626
 31
0.0
  0
LINE
  5
113
330
A
100
AcDbEntity
  8
0
 62
     7
100
AcDbLine
 10
204.897743
 20
156.114502
 30
0.0
 11
205.055184
 21
155.830626
 31
0.0
  0
LINE
  5
112
330
A
100
AcDbEntity
  8
0
 62
     7
100
AcDbLine
 10
205.15647
 20
154.679447
 30
0.0
 11
205.055184
 21
154.321502
 31
0.0
  0
LINE
  5
111
330
A
100
AcDbEntity
  8
0
 62
     7
100
AcDbLine
 10
205.055184
 20
155.830626
 30
0.0
 11
205.15647
 21
155.472681
 31
0.0
  0
LINE
  5
110
330
A
100
AcDbEntity
  8
0
 62
     7
100
AcDbLine
 10
205.159915
 20
154.721133
 30
0.0
 11
205.15647
 21
154.679447
 31
0.0
  0
LINE
  5
10F
330
A
100
AcDbEntity
  8
0
 62
     7
100
AcDbLine
 10
205.15647
 20
155.472681
 30
0.0
 11
205.159915
 21
155.430995
 31
0.0
  0
LINE
  5
10E
330
A
100
AcDbEntity
  8
0
 62
     7
100
AcDbLine
 10
204.479508
 20
153.604578
 30
0.0
 11
200.876628
 21
153.604578
 31
0.0
  0
LINE
  5
10D
330
A
100
AcDbEntity
  8
0
 62
     7
100
AcDbLine
 10
204.479508
 20
156.54755
 30
0.0
 11
200.541075
 21
156.54755
 31
0.0
  0
LINE
  5
10C
330
A
100
AcDbEntity
  8
0
 62
     7
100
AcDbLine
 10
204.731689
 20
153.67658
 30
0.0
 11
204.479508
 21
153.604578
 31
0.0
  0
LINE
  5
10B
330
A
100
AcDbEntity
  8
0
 62
     7
100
AcDbLine
 10
204.959066
 20
153.885525
 30
0.0
 11
204.731689
 21
153.67658
 31
0.0
  0
LINE
  5
10A
330
A
100
AcDbEntity
  8
0
 62
     7
100
AcDbLine
 10
205.139589
 20
154.211087
 30
0.0
 11
204.959066
 21
153.885525
 31
0.0
  0
LINE
  5
109
330
A
100
AcDbEntity
  8
0
 62
     7
100
AcDbLine
 10
205.255344
 20
154.621398
 30
0.0
 11
205.139589
 21
154.211087
 31
0.0
  0
LINE
  5
108
330
A
100
AcDbEntity
  8
0
 62
     7
100
AcDbLine
 10
205.264301
 20
154.721133
 30
0.0
 11
205.255344
 21
154.621398
 31
0.0
  0
LINE
  5
107
330
A
100
AcDbEntity
  8
0
 62
     7
100
AcDbLine
 10
205.255344
 20
155.530731
 30
0.0
 11
205.264301
 21
155.430995
 31
0.0
  0
LINE
  5
106
330
A
100
AcDbEntity
  8
0
 62
     7
100
AcDbLine
 10
205.139589
 20
155.940869
 30
0.0
 11
205.255344
 21
155.530731
 31
0.0
  0
LINE
  5
105
330
A
100
AcDbEntity
  8
0
 62
     7
100
AcDbLine
 10
204.959066
 20
156.266431
 30
0.0
 11
205.139589
 21
155.940869
 31
0.0
  0
LINE
  5
104
330
A
100
AcDbEntity
  8
0
 62
     7
100
AcDbLine
 10
204.731689
 20
156.475548
 30
0.0
 11
204.959066
 21
156.266431
 31
0.0
  0
LINE
  5
103
330
A
100
AcDbEntity
  8
0
 62
     7
100
AcDbLine
 10
204.479508
 20
156.54755
 30
0.0
 11
204.731689
 21
156.475548
 31
0.0
  0
LINE
  5
102
330
A
100
AcDbEntity
  8
0
 62
     7
100
AcDbLine
 10
204.227327
 20
156.475548
 30
0.0
 11
204.479508
 21
156.54755
 31
0.0
  0
LINE
  5
101
330
A
100
AcDbEntity
  8
0
 62
     7
100
AcDbLine
 10
203.999607
 20
156.266431
 30
0.0
 11
204.227327
 21
156.475548
 31
0.0
  0
LINE
  5
100
330
A
100
AcDbEntity
  8
0
 62
     7
100
AcDbLine
 10
203.819084
 20
155.940869
 30
0.0
 11
203.999607
 21
156.266431
 31
0.0
  0
LINE
  5
FF
330
A
100
AcDbEntity
  8
0
 62
     7
100
AcDbLine
 10
203.703328
 20
155.530731
 30
0.0
 11
203.819084
 21
155.940869
 31
0.0
  0
LINE
  5
FE
330
A
100
AcDbEntity
  8
0
 62
     7
100
AcDbLine
 10
203.663365
 20
155.075978
 30
0.0
 11
203.703328
 21
155.530731
 31
0.0
  0
LINE
  5
FD
330
A
100
AcDbEntity
  8
0
 62
     7
100
AcDbLine
 10
203.703328
 20
154.621398
 30
0.0
 11
203.663365
 21
155.075978
 31
0.0
  0
LINE
  5
FC
330
A
100
AcDbEntity
  8
0
 62
     7
100
AcDbLine
 10
203.819084
 20
154.211087
 30
0.0
 11
203.703328
 21
154.621398
 31
0.0
  0
LINE
  5
FB
330
A
100
AcDbEntity
  8
0
 62
     7
100
AcDbLine
 10
203.999607
 20
153.885525
 30
0.0
 11
203.819084
 21
154.211087
 31
0.0
  0
LINE
  5
FA
330
A
100
AcDbEntity
  8
0
 62
     7
100
AcDbLine
 10
204.227327
 20
153.67658
 30
0.0
 11
203.999607
 21
153.885525
 31
0.0
  0
LINE
  5
F9
330
A
100
AcDbEntity
  8
0
 62
     7
100
AcDbLine
 10
204.479508
 20
153.604578
 30
0.0
 11
204.227327
 21
153.67658
 31
0.0
  0
LINE
  5
F8
330
A
100
AcDbEntity
  8
0
 62
     7
100
AcDbLine
 10
203.800825
 20
155.075978
 30
0.0
 11
203.834242
 21
154.695639
 31
0.0
  0
LINE
  5
F7
330
A
100
AcDbEntity
  8
0
 62
     7
100
AcDbLine
 10
203.834242
 20
155.4564889999999
 30
0.0
 11
203.800825
 21
155.075978
 31
0.0
  0
LINE
  5
F6
330
A
100
AcDbEntity
  8
0
 62
     7
100
AcDbLine
 10
203.931049
 20
155.799448
 30
0.0
 11
203.834242
 21
155.4564889999999
 31
0.0
  0
LINE
  5
F5
330
A
100
AcDbEntity
  8
0
 62
     7
100
AcDbLine
 10
204.082289
 20
156.071783
 30
0.0
 11
203.931049
 21
155.799448
 31
0.0
  0
LINE
  5
F4
330
A
100
AcDbEntity
  8
0
 62
     7
100
AcDbLine
 10
204.272458
 20
156.246621
 30
0.0
 11
204.082289
 21
156.071783
 31
0.0
  0
LINE
  5
F3
330
A
100
AcDbEntity
  8
0
 62
     7
100
AcDbLine
 10
204.483298
 20
156.306911
 30
0.0
 11
204.272458
 21
156.246621
 31
0.0
  0
LINE
  5
F2
330
A
100
AcDbEntity
  8
0
 62
     7
100
AcDbLine
 10
204.694138
 20
156.246621
 30
0.0
 11
204.483298
 21
156.306911
 31
0.0
  0
LINE
  5
F1
330
A
100
AcDbEntity
  8
0
 62
     7
100
AcDbLine
 10
204.884652
 20
156.071783
 30
0.0
 11
204.694138
 21
156.246621
 31
0.0
  0
LINE
  5
F0
330
A
100
AcDbEntity
  8
0
 62
     7
100
AcDbLine
 10
205.035547
 20
155.799448
 30
0.0
 11
204.884652
 21
156.071783
 31
0.0
  0
LINE
  5
EF
330
A
100
AcDbEntity
  8
0
 62
     7
100
AcDbLine
 10
205.132354
 20
155.4564889999999
 30
0.0
 11
205.035547
 21
155.799448
 31
0.0
  0
LINE
  5
EE
330
A
100
AcDbEntity
  8
0
 62
     7
100
AcDbLine
 10
205.134766
 20
155.430995
 30
0.0
 11
205.132354
 21
155.4564889999999
 31
0.0
  0
LINE
  5
ED
330
A
100
AcDbEntity
  8
0
 62
     7
100
AcDbLine
 10
205.132354
 20
154.695639
 30
0.0
 11
205.134766
 21
154.721133
 31
0.0
  0
LINE
  5
EC
330
A
100
AcDbEntity
  8
0
 62
     7
100
AcDbLine
 10
205.035547
 20
154.352508
 30
0.0
 11
205.132354
 21
154.695639
 31
0.0
  0
LINE
  5
EB
330
A
100
AcDbEntity
  8
0
 62
     7
100
AcDbLine
 10
204.884652
 20
154.080173
 30
0.0
 11
205.035547
 21
154.352508
 31
0.0
  0
LINE
  5
EA
330
A
100
AcDbEntity
  8
0
 62
     7
100
AcDbLine
 10
204.694138
 20
153.905507
 30
0.0
 11
204.884652
 21
154.080173
 31
0.0
  0
LINE
  5
E9
330
A
100
AcDbEntity
  8
0
 62
     7
100
AcDbLine
 10
204.483298
 20
153.845218
 30
0.0
 11
204.694138
 21
153.905507
 31
0.0
  0
LINE
  5
E8
330
A
100
AcDbEntity
  8
0
 62
     7
100
AcDbLine
 10
204.272458
 20
153.905507
 30
0.0
 11
204.483298
 21
153.845218
 31
0.0
  0
LINE
  5
E7
330
A
100
AcDbEntity
  8
0
 62
     7
100
AcDbLine
 10
204.082289
 20
154.080173
 30
0.0
 11
204.272458
 21
153.905507
 31
0.0
  0
LINE
  5
E6
330
A
100
AcDbEntity
  8
0
 62
     7
100
AcDbLine
 10
203.931049
 20
154.352508
 30
0.0
 11
204.082289
 21
154.080173
 31
0.0
  0
LINE
  5
E5
330
A
100
AcDbEntity
  8
0
 62
     7
100
AcDbLine
 10
203.834242
 20
154.695639
 30
0.0
 11
203.931049
 21
154.352508
 31
0.0
  0
LINE
  5
E4
330
A
100
AcDbEntity
  8
0
 62
     7
100
AcDbLine
 10
204.507069
 20
155.316273
 30
0.0
 11
204.494667
 21
155.272521
 31
0.0
  0
LINE
  5
E3
330
A
100
AcDbEntity
  8
0
 62
     7
100
AcDbLine
 10
204.557023
 20
155.406707
 30
0.0
 11
204.507069
 21
155.316273
 31
0.0
  0
LINE
  5
E2
330
A
100
AcDbEntity
  8
0
 62
     7
100
AcDbLine
 10
204.620413
 20
155.464757
 30
0.0
 11
204.557023
 21
155.406707
 31
0.0
  0
LINE
  5
E1
330
A
100
AcDbEntity
  8
0
 62
     7
100
AcDbLine
 10
204.690348
 20
155.484738
 30
0.0
 11
204.620413
 21
155.464757
 31
0.0
  0
LINE
  5
E0
330
A
100
AcDbEntity
  8
0
 62
     7
100
AcDbLine
 10
204.760284
 20
155.464757
 30
0.0
 11
204.690348
 21
155.484738
 31
0.0
  0
LINE
  5
DF
330
A
100
AcDbEntity
  8
0
 62
     7
100
AcDbLine
 10
204.760284
 20
155.464757
 30
0.0
 11
204.826085
 21
155.430995
 31
0.0
  0
LINE
  5
DE
330
A
100
AcDbEntity
  8
0
 62
     7
100
AcDbLine
 10
204.760284
 20
154.687371
 30
0.0
 11
204.826085
 21
154.721133
 31
0.0
  0
LINE
  5
DD
330
A
100
AcDbEntity
  8
0
 62
     7
100
AcDbLine
 10
204.690348
 20
154.66739
 30
0.0
 11
204.760284
 21
154.687371
 31
0.0
  0
LINE
  5
DC
330
A
100
AcDbEntity
  8
0
 62
     7
100
AcDbLine
 10
204.620413
 20
154.687371
 30
0.0
 11
204.690348
 21
154.66739
 31
0.0
  0
LINE
  5
DB
330
A
100
AcDbEntity
  8
0
 62
     7
100
AcDbLine
 10
204.557023
 20
154.745421
 30
0.0
 11
204.620413
 21
154.687371
 31
0.0
  0
LINE
  5
DA
330
A
100
AcDbEntity
  8
0
 62
     7
100
AcDbLine
 10
204.507069
 20
154.835855
 30
0.0
 11
204.557023
 21
154.745421
 31
0.0
  0
LINE
  5
D9
330
A
100
AcDbEntity
  8
0
 62
     7
100
AcDbLine
 10
204.494667
 20
154.879607
 30
0.0
 11
204.507069
 21
154.835855
 31
0.0
  0
LINE
  5
D8
330
A
100
AcDbEntity
  8
0
 62
     7
100
AcDbLine
 10
204.457804
 20
154.966424
 30
0.0
 11
204.454704
 21
154.973831
 31
0.0
  0
LINE
  5
D7
330
A
100
AcDbEntity
  8
0
 62
     7
100
AcDbLine
 10
204.454704
 20
155.178297
 30
0.0
 11
204.457804
 21
155.185704
 31
0.0
  0
LINE
  5
D6
330
A
100
AcDbEntity
  8
0
 62
     7
100
AcDbLine
 10
204.441268
 20
155.075978
 30
0.0
 11
204.454704
 21
154.973831
 31
0.0
  0
LINE
  5
D5
330
A
100
AcDbEntity
  8
0
 62
     7
100
AcDbLine
 10
204.454704
 20
155.178297
 30
0.0
 11
204.441268
 21
155.075978
 31
0.0
  0
LINE
  5
D4
330
A
100
AcDbEntity
  8
0
 62
     7
100
AcDbLine
 10
204.457804
 20
155.185704
 30
0.0
 11
204.499835
 21
155.284751
 31
0.0
  0
LINE
  5
D3
330
A
100
AcDbEntity
  8
0
 62
     7
100
AcDbLine
 10
204.499835
 20
155.284751
 30
0.0
 11
204.564947
 21
155.363299
 31
0.0
  0
LINE
  5
D2
330
A
100
AcDbEntity
  8
0
 62
     7
100
AcDbLine
 10
204.564947
 20
155.363299
 30
0.0
 11
204.647285
 21
155.413597
 31
0.0
  0
LINE
  5
D1
330
A
100
AcDbEntity
  8
0
 62
     7
100
AcDbLine
 10
204.647285
 20
155.413597
 30
0.0
 11
204.73858
 21
155.430995
 31
0.0
  0
LINE
  5
D0
330
A
100
AcDbEntity
  8
0
 62
     7
100
AcDbLine
 10
208.349729
 20
155.430995
 30
0.0
 11
206.898999
 21
155.430995
 31
0.0
  0
LINE
  5
CF
330
A
100
AcDbEntity
  8
0
 62
     7
100
AcDbLine
 10
206.189654
 20
155.430995
 30
0.0
 11
204.73858
 21
155.430995
 31
0.0
  0
LINE
  5
CE
330
A
100
AcDbEntity
  8
0
 62
     7
100
AcDbLine
 10
204.73858
 20
154.721133
 30
0.0
 11
204.647285
 21
154.738359
 31
0.0
  0
LINE
  5
CD
330
A
100
AcDbEntity
  8
0
 62
     7
100
AcDbLine
 10
208.349729
 20
154.721133
 30
0.0
 11
206.898999
 21
154.721133
 31
0.0
  0
LINE
  5
CC
330
A
100
AcDbEntity
  8
0
 62
     7
100
AcDbLine
 10
206.189654
 20
154.721133
 30
0.0
 11
204.73858
 21
154.721133
 31
0.0
  0
LINE
  5
CB
330
A
100
AcDbEntity
  8
0
 62
     7
100
AcDbLine
 10
204.647285
 20
154.738359
 30
0.0
 11
204.564947
 21
154.788829
 31
0.0
  0
LINE
  5
CA
330
A
100
AcDbEntity
  8
0
 62
     7
100
AcDbLine
 10
204.564947
 20
154.788829
 30
0.0
 11
204.499835
 21
154.867377
 31
0.0
  0
LINE
  5
C9
330
A
100
AcDbEntity
  8
0
 62
     7
100
AcDbLine
 10
204.499835
 20
154.867377
 30
0.0
 11
204.457804
 21
154.966424
 31
0.0
  0
LINE
  5
C8
330
A
100
AcDbEntity
  8
0
 62
     7
100
AcDbLine
 10
208.349729
 20
155.430995
 30
0.0
 11
208.441024
 21
155.413597
 31
0.0
  0
LINE
  5
C7
330
A
100
AcDbEntity
  8
0
 62
     7
100
AcDbLine
 10
208.441024
 20
155.413597
 30
0.0
 11
208.523362
 21
155.363299
 31
0.0
  0
LINE
  5
C6
330
A
100
AcDbEntity
  8
0
 62
     7
100
AcDbLine
 10
208.523362
 20
155.363299
 30
0.0
 11
208.588474
 21
155.284751
 31
0.0
  0
LINE
  5
C5
330
A
100
AcDbEntity
  8
0
 62
     7
100
AcDbLine
 10
208.588474
 20
155.284751
 30
0.0
 11
208.630504
 21
155.185704
 31
0.0
  0
LINE
  5
C4
330
A
100
AcDbEntity
  8
0
 62
     7
100
AcDbLine
 10
208.594675
 20
155.270626
 30
0.0
 11
208.588474
 21
155.284751
 31
0.0
  0
LINE
  5
C3
330
A
100
AcDbEntity
  8
0
 62
     7
100
AcDbLine
 10
208.630504
 20
155.185704
 30
0.0
 11
208.644973
 21
155.075978
 31
0.0
  0
LINE
  5
C2
330
A
100
AcDbEntity
  8
0
 62
     7
100
AcDbLine
 10
208.644973
 20
155.075978
 30
0.0
 11
208.630504
 21
154.966424
 31
0.0
  0
LINE
  5
C1
330
A
100
AcDbEntity
  8
0
 62
     7
100
AcDbLine
 10
208.630504
 20
154.966424
 30
0.0
 11
208.588474
 21
154.867377
 31
0.0
  0
LINE
  5
C0
330
A
100
AcDbEntity
  8
0
 62
     7
100
AcDbLine
 10
208.588474
 20
154.867377
 30
0.0
 11
208.523362
 21
154.788829
 31
0.0
  0
LINE
  5
BF
330
A
100
AcDbEntity
  8
0
 62
     7
100
AcDbLine
 10
208.594675
 20
154.881502
 30
0.0
 11
208.588474
 21
154.867377
 31
0.0
  0
LINE
  5
BE
330
A
100
AcDbEntity
  8
0
 62
     7
100
AcDbLine
 10
208.523362
 20
154.788829
 30
0.0
 11
208.441024
 21
154.738359
 31
0.0
  0
LINE
  5
BD
330
A
100
AcDbEntity
  8
0
 62
     7
100
AcDbLine
 10
208.441024
 20
154.738359
 30
0.0
 11
208.349729
 21
154.721133
 31
0.0
  0
LINE
  5
BC
330
A
100
AcDbEntity
  8
0
 62
     7
100
AcDbLine
 10
208.594675
 20
155.270626
 30
0.0
 11
208.633605
 21
155.178297
 31
0.0
  0
LINE
  5
BB
330
A
100
AcDbEntity
  8
0
 62
     7
100
AcDbLine
 10
208.633605
 20
155.178297
 30
0.0
 11
208.64704
 21
155.075978
 31
0.0
  0
LINE
  5
BA
330
A
100
AcDbEntity
  8
0
 62
     7
100
AcDbLine
 10
208.64704
 20
155.075978
 30
0.0
 11
208.633605
 21
154.973831
 31
0.0
  0
LINE
  5
B9
330
A
100
AcDbEntity
  8
0
 62
     7
100
AcDbLine
 10
208.633605
 20
154.973831
 30
0.0
 11
208.594675
 21
154.881502
 31
0.0
  0
LINE
  5
B8
330
A
100
AcDbEntity
  8
0
 62
     7
100
AcDbLine
 10
206.898999
 20
158.326426
 30
0.0
 11
206.874883
 21
158.366216
 31
0.0
  0
LINE
  5
B7
330
A
100
AcDbEntity
  8
0
 62
     7
100
AcDbLine
 10
206.189654
 20
158.326426
 30
0.0
 11
206.21377
 21
158.366216
 31
0.0
  0
LINE
  5
B6
330
A
100
AcDbEntity
  8
0
 62
     7
100
AcDbLine
 10
206.874883
 20
158.366216
 30
0.0
 11
206.816661
 21
158.411347
 31
0.0
  0
LINE
  5
B5
330
A
100
AcDbEntity
  8
0
 62
     7
100
AcDbLine
 10
206.21377
 20
158.366216
 30
0.0
 11
206.271992
 21
158.411347
 31
0.0
  0
LINE
  5
B4
330
A
100
AcDbEntity
  8
0
 62
     7
100
AcDbLine
 10
206.816661
 20
158.411347
 30
0.0
 11
206.721577
 21
158.440803
 31
0.0
  0
LINE
  5
B3
330
A
100
AcDbEntity
  8
0
 62
     7
100
AcDbLine
 10
206.271992
 20
158.411347
 30
0.0
 11
206.367076
 21
158.440803
 31
0.0
  0
LINE
  5
B2
330
A
100
AcDbEntity
  8
0
 62
     7
100
AcDbLine
 10
206.445624
 20
158.440803
 30
0.0
 11
206.496267
 21
158.440803
 31
0.0
  0
LINE
  5
B1
330
A
100
AcDbEntity
  8
0
 62
     7
100
AcDbLine
 10
206.404972
 20
158.440803
 30
0.0
 11
206.445624
 21
158.440803
 31
0.0
  0
LINE
  5
B0
330
A
100
AcDbEntity
  8
0
 62
     7
100
AcDbLine
 10
206.377756
 20
158.440803
 30
0.0
 11
206.404972
 21
158.440803
 31
0.0
  0
LINE
  5
AF
330
A
100
AcDbEntity
  8
0
 62
     7
100
AcDbLine
 10
206.367076
 20
158.440803
 30
0.0
 11
206.377756
 21
158.440803
 31
0.0
  0
LINE
  5
AE
330
A
100
AcDbEntity
  8
0
 62
     7
100
AcDbLine
 10
206.715031
 20
158.440803
 30
0.0
 11
206.721577
 21
158.440803
 31
0.0
  0
LINE
  5
AD
330
A
100
AcDbEntity
  8
0
 62
     7
100
AcDbLine
 10
206.691949
 20
158.440803
 30
0.0
 11
206.715031
 21
158.440803
 31
0.0
  0
LINE
  5
AC
330
A
100
AcDbEntity
  8
0
 62
     7
100
AcDbLine
 10
206.654053
 20
158.440803
 30
0.0
 11
206.691949
 21
158.440803
 31
0.0
  0
LINE
  5
AB
330
A
100
AcDbEntity
  8
0
 62
     7
100
AcDbLine
 10
206.605821
 20
158.440803
 30
0.0
 11
206.654053
 21
158.440803
 31
0.0
  0
LINE
  5
AA
330
A
100
AcDbEntity
  8
0
 62
     7
100
AcDbLine
 10
206.551389
 20
158.440803
 30
0.0
 11
206.605821
 21
158.440803
 31
0.0
  0
LINE
  5
A9
330
A
100
AcDbEntity
  8
0
 62
     7
100
AcDbLine
 10
206.496267
 20
158.440803
 30
0.0
 11
206.551389
 21
158.440803
 31
0.0
  0
LINE
  5
A8
330
A
100
AcDbEntity
  8
0
 62
     7
100
AcDbLine
 10
206.898999
 20
151.826392
 30
0.0
 11
206.898999
 21
154.721133
 31
0.0
  0
LINE
  5
A7
330
A
100
AcDbEntity
  8
0
 62
     7
100
AcDbLine
 10
206.898999
 20
155.430995
 30
0.0
 11
206.898999
 21
158.326426
 31
0.0
  0
LINE
  5
A6
330
A
100
AcDbEntity
  8
0
 62
     7
100
AcDbLine
 10
206.189654
 20
151.826392
 30
0.0
 11
206.189654
 21
154.721133
 31
0.0
  0
LINE
  5
A5
330
A
100
AcDbEntity
  8
0
 62
     7
100
AcDbLine
 10
206.189654
 20
155.430995
 30
0.0
 11
206.189654
 21
158.326426
 31
0.0
  0
LINE
  5
A4
330
A
100
AcDbEntity
  8
0
 62
     7
100
AcDbLine
 10
206.898999
 20
151.826392
 30
0.0
 11
206.885908
 21
151.826392
 31
0.0
  0
LINE
  5
A3
330
A
100
AcDbEntity
  8
0
 62
     7
100
AcDbLine
 10
206.874883
 20
151.786256
 30
0.0
 11
206.898999
 21
151.826392
 31
0.0
  0
LINE
  5
A2
330
A
100
AcDbEntity
  8
0
 62
     7
100
AcDbLine
 10
206.885908
 20
151.826392
 30
0.0
 11
206.839399
 21
151.826392
 31
0.0
  0
LINE
  5
A1
330
A
100
AcDbEntity
  8
0
 62
     7
100
AcDbLine
 10
206.839399
 20
151.826392
 30
0.0
 11
206.763951
 21
151.826392
 31
0.0
  0
LINE
  5
A0
330
A
100
AcDbEntity
  8
0
 62
     7
100
AcDbLine
 10
206.763951
 20
151.826392
 30
0.0
 11
206.667144
 21
151.826392
 31
0.0
  0
LINE
  5
9F
330
A
100
AcDbEntity
  8
0
 62
     7
100
AcDbLine
 10
206.667144
 20
151.826392
 30
0.0
 11
206.558279
 21
151.826392
 31
0.0
  0
LINE
  5
9E
330
A
100
AcDbEntity
  8
0
 62
     7
100
AcDbLine
 10
206.558279
 20
151.826392
 30
0.0
 11
206.448036
 21
151.826392
 31
0.0
  0
LINE
  5
9D
330
A
100
AcDbEntity
  8
0
 62
     7
100
AcDbLine
 10
206.448036
 20
151.826392
 30
0.0
 11
206.347095
 21
151.826392
 31
0.0
  0
LINE
  5
9C
330
A
100
AcDbEntity
  8
0
 62
     7
100
AcDbLine
 10
206.347095
 20
151.826392
 30
0.0
 11
206.265446
 21
151.826392
 31
0.0
  0
LINE
  5
9B
330
A
100
AcDbEntity
  8
0
 62
     7
100
AcDbLine
 10
206.265446
 20
151.826392
 30
0.0
 11
206.211358
 21
151.826392
 31
0.0
  0
LINE
  5
9A
330
A
100
AcDbEntity
  8
0
 62
     7
100
AcDbLine
 10
206.211358
 20
151.826392
 30
0.0
 11
206.189654
 21
151.826392
 31
0.0
  0
LINE
  5
99
330
A
100
AcDbEntity
  8
0
 62
     7
100
AcDbLine
 10
206.21377
 20
151.786256
 30
0.0
 11
206.189654
 21
151.826392
 31
0.0
  0
LINE
  5
98
330
A
100
AcDbEntity
  8
0
 62
     7
100
AcDbLine
 10
206.816661
 20
151.740781
 30
0.0
 11
206.874883
 21
151.786256
 31
0.0
  0
LINE
  5
97
330
A
100
AcDbEntity
  8
0
 62
     7
100
AcDbLine
 10
206.271992
 20
151.740781
 30
0.0
 11
206.21377
 21
151.786256
 31
0.0
  0
LINE
  5
96
330
A
100
AcDbEntity
  8
0
 62
     7
100
AcDbLine
 10
206.721577
 20
151.711325
 30
0.0
 11
206.816661
 21
151.740781
 31
0.0
  0
LINE
  5
95
330
A
100
AcDbEntity
  8
0
 62
     7
100
AcDbLine
 10
206.367076
 20
151.711325
 30
0.0
 11
206.271992
 21
151.740781
 31
0.0
  0
LINE
  5
94
330
A
100
AcDbEntity
  8
0
 62
     7
100
AcDbLine
 10
206.377756
 20
151.711325
 30
0.0
 11
206.367076
 21
151.711325
 31
0.0
  0
LINE
  5
93
330
A
100
AcDbEntity
  8
0
 62
     7
100
AcDbLine
 10
206.404972
 20
151.711325
 30
0.0
 11
206.377756
 21
151.711325
 31
0.0
  0
LINE
  5
92
330
A
100
AcDbEntity
  8
0
 62
     7
100
AcDbLine
 10
206.445624
 20
151.711325
 30
0.0
 11
206.404972
 21
151.711325
 31
0.0
  0
LINE
  5
91
330
A
100
AcDbEntity
  8
0
 62
     7
100
AcDbLine
 10
206.496267
 20
151.711325
 30
0.0
 11
206.445624
 21
151.711325
 31
0.0
  0
LINE
  5
90
330
A
100
AcDbEntity
  8
0
 62
     7
100
AcDbLine
 10
206.551389
 20
151.711325
 30
0.0
 11
206.496267
 21
151.711325
 31
0.0
  0
LINE
  5
8F
330
A
100
AcDbEntity
  8
0
 62
     7
100
AcDbLine
 10
206.605821
 20
151.711325
 30
0.0
 11
206.551389
 21
151.711325
 31
0.0
  0
LINE
  5
8E
330
A
100
AcDbEntity
  8
0
 62
     7
100
AcDbLine
 10
206.654053
 20
151.711325
 30
0.0
 11
206.605821
 21
151.711325
 31
0.0
  0
LINE
  5
8D
330
A
100
AcDbEntity
  8
0
 62
     7
100
AcDbLine
 10
206.691949
 20
151.711325
 30
0.0
 11
206.654053
 21
151.711325
 31
0.0
  0
LINE
  5
8C
330
A
100
AcDbEntity
  8
0
 62
     7
100
AcDbLine
 10
206.715031
 20
151.711325
 30
0.0
 11
206.691949
 21
151.711325
 31
0.0
  0
LINE
  5
8B
330
A
100
AcDbEntity
  8
0
 62
     7
100
AcDbLine
 10
206.721577
 20
151.711325
 30
0.0
 11
206.715031
 21
151.711325
 31
0.0
  0
LINE
  5
8A
330
A
100
AcDbEntity
  8
0
 62
     7
100
AcDbLine
 10
199.460521
 20
156.700685
 30
0.0
 11
199.160281
 21
156.54755
 31
0.0
  0
LINE
  5
89
330
A
100
AcDbEntity
  8
0
 62
     7
100
AcDbLine
 10
199.999851
 20
156.786296
 30
0.0
 11
199.460521
 21
156.700685
 31
0.0
  0
LINE
  5
88
330
A
100
AcDbEntity
  8
0
 62
     7
100
AcDbLine
 10
200.539353
 20
156.700685
 30
0.0
 11
199.999851
 21
156.786296
 31
0.0
  0
LINE
  5
87
330
A
100
AcDbEntity
  8
0
 62
     7
100
AcDbLine
 10
200.839421
 20
156.54755
 30
0.0
 11
200.539353
 21
156.700685
 31
0.0
  0
LINE
  5
86
330
A
100
AcDbEntity
  8
0
 62
     7
100
AcDbLine
 10
198.846777
 20
156.627132
 30
0.0
 11
198.767368
 21
156.54755
 31
0.0
  0
LINE
  5
85
330
A
100
AcDbEntity
  8
0
 62
     7
100
AcDbLine
 10
199.393686
 20
156.906185
 30
0.0
 11
198.846777
 21
156.627132
 31
0.0
  0
LINE
  5
84
330
A
100
AcDbEntity
  8
0
 62
     7
100
AcDbLine
 10
199.999851
 20
157.002475
 30
0.0
 11
199.393686
 21
156.906185
 31
0.0
  0
LINE
  5
83
330
A
100
AcDbEntity
  8
0
 62
     7
100
AcDbLine
 10
200.606188
 20
156.906185
 30
0.0
 11
199.999851
 21
157.002475
 31
0.0
  0
LINE
  5
82
330
A
100
AcDbEntity
  8
0
 62
     7
100
AcDbLine
 10
201.152924
 20
156.627132
 30
0.0
 11
200.606188
 21
156.906185
 31
0.0
  0
LINE
  5
81
330
A
100
AcDbEntity
  8
0
 62
     7
100
AcDbLine
 10
201.232506
 20
156.54755
 30
0.0
 11
201.152924
 21
156.627132
 31
0.0
  0
LINE
  5
80
330
A
100
AcDbEntity
  8
0
 62
     7
100
AcDbLine
 10
199.126691
 20
152.426183
 30
0.0
 11
198.379795
 21
152.807383
 31
0.0
  0
LINE
  5
7F
330
A
100
AcDbEntity
  8
0
 62
     7
100
AcDbLine
 10
198.379795
 20
152.807383
 30
0.0
 11
197.77053
 21
153.417681
 31
0.0
  0
LINE
  5
7E
330
A
100
AcDbEntity
  8
0
 62
     7
100
AcDbLine
 10
197.77053
 20
153.417681
 30
0.0
 11
197.675445
 21
153.604578
 31
0.0
  0
LINE
  5
7D
330
A
100
AcDbEntity
  8
0
 62
     7
100
AcDbLine
 10
197.714202
 20
156.54755
 30
0.0
 11
197.77053
 21
156.65831
 31
0.0
  0
LINE
  5
7C
330
A
100
AcDbEntity
  8
0
 62
     7
100
AcDbLine
 10
197.77053
 20
156.65831
 30
0.0
 11
198.379795
 21
157.268609
 31
0.0
  0
LINE
  5
7B
330
A
100
AcDbEntity
  8
0
 62
     7
100
AcDbLine
 10
198.379795
 20
157.268609
 30
0.0
 11
199.148051
 21
157.660833
 31
0.0
  0
LINE
  5
7A
330
A
100
AcDbEntity
  8
0
 62
     7
100
AcDbLine
 10
199.148051
 20
157.660833
 30
0.0
 11
199.999851
 21
157.796053
 31
0.0
  0
LINE
  5
79
330
A
100
AcDbEntity
  8
0
 62
     7
100
AcDbLine
 10
199.999851
 20
157.796053
 30
0.0
 11
200.851823
 21
157.660833
 31
0.0
  0
LINE
  5
78
330
A
100
AcDbEntity
  8
0
 62
     7
100
AcDbLine
 10
200.851823
 20
157.660833
 30
0.0
 11
201.620079
 21
157.268609
 31
0.0
  0
LINE
  5
77
330
A
100
AcDbEntity
  8
0
 62
     7
100
AcDbLine
 10
201.620079
 20
157.268609
 30
0.0
 11
202.229172
 21
156.65831
 31
0.0
  0
LINE
  5
76
330
A
100
AcDbEntity
  8
0
 62
     7
100
AcDbLine
 10
202.229172
 20
156.65831
 30
0.0
 11
202.285672
 21
156.54755
 31
0.0
  0
LINE
  5
75
330
A
100
AcDbEntity
  8
0
 62
     7
100
AcDbLine
 10
202.324257
 20
153.604578
 30
0.0
 11
202.229172
 21
153.417681
 31
0.0
  0
LINE
  5
74
330
A
100
AcDbEntity
  8
0
 62
     7
100
AcDbLine
 10
202.229172
 20
153.417681
 30
0.0
 11
201.620079
 21
152.807383
 31
0.0
  0
LINE
  5
73
330
A
100
AcDbEntity
  8
0
 62
     7
100
AcDbLine
 10
201.620079
 20
152.807383
 30
0.0
 11
200.876628
 21
152.427905
 31
0.0
  0
LINE
  5
72
330
A
100
AcDbEntity
  8
0
 62
     7
100
AcDbLine
 10
198.470573
 20
155.535898
 30
0.0
 11
198.698983
 21
155.984966
 31
0.0
  0
LINE
  5
71
330
A
100
AcDbEntity
  8
0
 62
     7
100
AcDbLine
 10
198.698983
 20
155.984966
 30
0.0
 11
199.054689
 21
156.341361
 31
0.0
  0
LINE
  5
70
330
A
100
AcDbEntity
  8
0
 62
     7
100
AcDbLine
 10
199.054689
 20
156.341361
 30
0.0
 11
199.503068
 21
156.570116
 31
0.0
  0
LINE
  5
6F
330
A
100
AcDbEntity
  8
0
 62
     7
100
AcDbLine
 10
199.503068
 20
156.570116
 30
0.0
 11
199.999851
 21
156.649009
 31
0.0
  0
LINE
  5
6E
330
A
100
AcDbEntity
  8
0
 62
     7
100
AcDbLine
 10
199.999851
 20
156.649009
 30
0.0
 11
200.496978
 21
156.570116
 31
0.0
  0
LINE
  5
6D
330
A
100
AcDbEntity
  8
0
 62
     7
100
AcDbLine
 10
200.496978
 20
156.570116
 30
0.0
 11
200.945185
 21
156.341361
 31
0.0
  0
LINE
  5
6C
330
A
100
AcDbEntity
  8
0
 62
     7
100
AcDbLine
 10
200.945185
 20
156.341361
 30
0.0
 11
201.300719
 21
155.984966
 31
0.0
  0
LINE
  5
6B
330
A
100
AcDbEntity
  8
0
 62
     7
100
AcDbLine
 10
201.300719
 20
155.984966
 30
0.0
 11
201.529129
 21
155.535898
 31
0.0
  0
LINE
  5
6A
330
A
100
AcDbEntity
  8
0
 62
     7
100
AcDbLine
 10
201.529129
 20
155.535898
 30
0.0
 11
201.608021
 21
155.038082
 31
0.0
  0
LINE
  5
69
330
A
100
AcDbEntity
  8
0
 62
     7
100
AcDbLine
 10
201.608021
 20
155.038082
 30
0.0
 11
201.529129
 21
154.540266
 31
0.0
  0
LINE
  5
68
330
A
100
AcDbEntity
  8
0
 62
     7
100
AcDbLine
 10
201.529129
 20
154.540266
 30
0.0
 11
201.300719
 21
154.091197
 31
0.0
  0
LINE
  5
67
330
A
100
AcDbEntity
  8
0
 62
     7
100
AcDbLine
 10
201.300719
 20
154.091197
 30
0.0
 11
200.945185
 21
153.734802
 31
0.0
  0
LINE
  5
66
330
A
100
AcDbEntity
  8
0
 62
     7
100
AcDbLine
 10
200.945185
 20
153.734802
 30
0.0
 11
200.876628
 21
153.699835
 31
0.0
  0
LINE
  5
65
330
A
100
AcDbEntity
  8
0
 62
     7
100
AcDbLine
 10
199.126691
 20
153.698112
 30
0.0
 11
199.054689
 21
153.734802
 31
0.0
  0
LINE
  5
64
330
A
100
AcDbEntity
  8
0
 62
     7
100
AcDbLine
 10
199.054689
 20
153.734802
 30
0.0
 11
198.698983
 21
154.091197
 31
0.0
  0
LINE
  5
63
330
A
100
AcDbEntity
  8
0
 62
     7
100
AcDbLine
 10
198.698983
 20
154.091197
 30
0.0
 11
198.470573
 21
154.540266
 31
0.0
  0
LINE
  5
62
330
A
100
AcDbEntity
  8
0
 62
     7
100
AcDbLine
 10
198.470573
 20
154.540266
 30
0.0
 11
198.391852
 21
155.038082
 31
0.0
  0
LINE
  5
61
330
A
100
AcDbEntity
  8
0
 62
     7
100
AcDbLine
 10
198.391852
 20
155.038082
 30
0.0
 11
198.470573
 21
155.535898
 31
0.0
  0
LINE
  5
60
330
A
100
AcDbEntity
  8
0
 62
     7
100
AcDbLine
 10
199.126691
 20
154.865138
 30
0.0
 11
199.068125
 21
155.083729
 31
0.0
  0
LINE
  5
5F
330
A
100
AcDbEntity
  8
0
 62
     7
100
AcDbLine
 10
199.068125
 20
155.083729
 30
0.0
 11
199.193182
 21
155.55054
 31
0.0
  0
LINE
  5
5E
330
A
100
AcDbEntity
  8
0
 62
     7
100
AcDbLine
 10
199.193182
 20
155.55054
 30
0.0
 11
199.534935
 21
155.892293
 31
0.0
  0
LINE
  5
5D
330
A
100
AcDbEntity
  8
0
 62
     7
100
AcDbLine
 10
199.534935
 20
155.892293
 30
0.0
 11
200.001573
 21
156.01735
 31
0.0
  0
LINE
  5
5C
330
A
100
AcDbEntity
  8
0
 62
     7
100
AcDbLine
 10
200.001573
 20
156.01735
 30
0.0
 11
200.468384
 21
155.892293
 31
0.0
  0
LINE
  5
5B
330
A
100
AcDbEntity
  8
0
 62
     7
100
AcDbLine
 10
200.468384
 20
155.892293
 30
0.0
 11
200.810137
 21
155.55054
 31
0.0
  0
LINE
  5
5A
330
A
100
AcDbEntity
  8
0
 62
     7
100
AcDbLine
 10
200.810137
 20
155.55054
 30
0.0
 11
200.935194
 21
155.083729
 31
0.0
  0
LINE
  5
59
330
A
100
AcDbEntity
  8
0
 62
     7
100
AcDbLine
 10
200.935194
 20
155.083729
 30
0.0
 11
200.876628
 21
154.865138
 31
0.0
  0
LINE
  5
58
330
A
100
AcDbEntity
  8
0
 62
     7
100
AcDbLine
 10
199.243825
 20
141.999601
 30
0.0
 11
199.243825
 21
141.996501
 31
0.0
  0
LINE
  5
57
330
A
100
AcDbEntity
  8
0
 62
     7
100
AcDbLine
 10
199.564218
 20
141.679896
 30
0.0
 11
199.564218
 21
141.676451
 31
0.0
  0
LINE
  5
56
330
A
100
AcDbEntity
  8
0
 62
     7
100
AcDbLine
 10
200.001573
 20
141.563108
 30
0.0
 11
200.001573
 21
141.558974
 31
0.0
  0
LINE
  5
55
330
A
100
AcDbEntity
  8
0
 62
     7
100
AcDbLine
 10
200.4391
 20
141.679896
 30
0.0
 11
200.4391
 21
141.676451
 31
0.0
  0
LINE
  5
54
330
A
100
AcDbEntity
  8
0
 62
     7
100
AcDbLine
 10
200.759494
 20
141.999601
 30
0.0
 11
200.759494
 21
141.996501
 31
0.0
  0
LINE
  5
53
330
A
100
AcDbEntity
  8
0
 62
     7
100
AcDbLine
 10
199.126691
 20
142.561496
 30
0.0
 11
199.126691
 21
142.436095
 31
0.0
  0
LINE
  5
52
330
A
100
AcDbEntity
  8
0
 62
     7
100
AcDbLine
 10
200.876628
 20
142.561496
 30
0.0
 11
200.876628
 21
142.436095
 31
0.0
  0
LINE
  5
51
330
A
100
AcDbEntity
  8
0
 62
     7
100
AcDbLine
 10
199.126691
 20
142.922198
 30
0.0
 11
199.126691
 21
142.561496
 31
0.0
  0
LINE
  5
50
330
A
100
AcDbEntity
  8
0
 62
     7
100
AcDbLine
 10
200.876628
 20
142.922198
 30
0.0
 11
200.876628
 21
142.561496
 31
0.0
  0
LINE
  5
4F
330
A
100
AcDbEntity
  8
0
 62
     7
100
AcDbLine
 10
199.126691
 20
143.481337
 30
0.0
 11
199.126691
 21
142.922198
 31
0.0
  0
LINE
  5
4E
330
A
100
AcDbEntity
  8
0
 62
     7
100
AcDbLine
 10
200.876628
 20
143.481337
 30
0.0
 11
200.876628
 21
142.922198
 31
0.0
  0
LINE
  5
4D
330
A
100
AcDbEntity
  8
0
 62
     7
100
AcDbLine
 10
199.126691
 20
144.205151
 30
0.0
 11
199.126691
 21
143.481337
 31
0.0
  0
LINE
  5
4C
330
A
100
AcDbEntity
  8
0
 62
     7
100
AcDbLine
 10
200.876628
 20
144.205151
 30
0.0
 11
200.876628
 21
143.481337
 31
0.0
  0
LINE
  5
4B
330
A
100
AcDbEntity
  8
0
 62
     7
100
AcDbLine
 10
199.126691
 20
145.060913
 30
0.0
 11
199.126691
 21
144.205151
 31
0.0
  0
LINE
  5
4A
330
A
100
AcDbEntity
  8
0
 62
     7
100
AcDbLine
 10
200.876628
 20
145.060913
 30
0.0
 11
200.876628
 21
144.205151
 31
0.0
  0
LINE
  5
49
330
A
100
AcDbEntity
  8
0
 62
     7
100
AcDbLine
 10
199.126691
 20
145.950781
 30
0.0
 11
199.126691
 21
145.060913
 31
0.0
  0
LINE
  5
48
330
A
100
AcDbEntity
  8
0
 62
     7
100
AcDbLine
 10
200.876628
 20
145.950781
 30
0.0
 11
200.876628
 21
145.060913
 31
0.0
  0
LINE
  5
47
330
A
100
AcDbEntity
  8
0
 62
     7
100
AcDbLine
 10
199.126691
 20
151.567148
 30
0.0
 11
199.126691
 21
145.950781
 31
0.0
  0
LINE
  5
46
330
A
100
AcDbEntity
  8
0
 62
     7
100
AcDbLine
 10
200.876628
 20
151.567148
 30
0.0
 11
200.876628
 21
145.950781
 31
0.0
  0
LINE
  5
45
330
A
100
AcDbEntity
  8
0
 62
     7
100
AcDbLine
 10
199.126691
 20
152.456844
 30
0.0
 11
199.126691
 21
151.567148
 31
0.0
  0
LINE
  5
44
330
A
100
AcDbEntity
  8
0
 62
     7
100
AcDbLine
 10
200.876628
 20
152.456844
 30
0.0
 11
200.876628
 21
151.567148
 31
0.0
  0
LINE
  5
43
330
A
100
AcDbEntity
  8
0
 62
     7
100
AcDbLine
 10
199.126691
 20
153.312778
 30
0.0
 11
199.126691
 21
152.456844
 31
0.0
  0
LINE
  5
42
330
A
100
AcDbEntity
  8
0
 62
     7
100
AcDbLine
 10
200.876628
 20
153.312778
 30
0.0
 11
200.876628
 21
152.456844
 31
0.0
  0
LINE
  5
41
330
A
100
AcDbEntity
  8
0
 62
     7
100
AcDbLine
 10
199.126691
 20
154.036593
 30
0.0
 11
199.126691
 21
153.312778
 31
0.0
  0
LINE
  5
40
330
A
100
AcDbEntity
  8
0
 62
     7
100
AcDbLine
 10
200.876628
 20
154.036593
 30
0.0
 11
200.876628
 21
153.312778
 31
0.0
  0
LINE
  5
3F
330
A
100
AcDbEntity
  8
0
 62
     7
100
AcDbLine
 10
199.126691
 20
154.595732
 30
0.0
 11
199.126691
 21
154.036593
 31
0.0
  0
LINE
  5
3E
330
A
100
AcDbEntity
  8
0
 62
     7
100
AcDbLine
 10
200.876628
 20
154.595732
 30
0.0
 11
200.876628
 21
154.036593
 31
0.0
  0
LINE
  5
3D
330
A
100
AcDbEntity
  8
0
 62
     7
100
AcDbLine
 10
199.126691
 20
154.956433
 30
0.0
 11
199.126691
 21
154.595732
 31
0.0
  0
LINE
  5
3C
330
A
100
AcDbEntity
  8
0
 62
     7
100
AcDbLine
 10
200.876628
 20
154.956433
 30
0.0
 11
200.876628
 21
154.595732
 31
0.0
  0
LINE
  5
3B
330
A
100
AcDbEntity
  8
0
 62
     7
100
AcDbLine
 10
199.126691
 20
155.081835
 30
0.0
 11
199.126691
 21
154.956433
 31
0.0
  0
LINE
  5
3A
330
A
100
AcDbEntity
  8
0
 62
     7
100
AcDbLine
 10
200.876628
 20
155.081835
 30
0.0
 11
200.876628
 21
154.956433
 31
0.0
  0
LINE
  5
39
330
A
100
AcDbEntity
  8
0
 62
     7
100
AcDbLine
 10
199.243825
 20
155.521257
 30
0.0
 11
199.126691
 21
155.083729
 31
0.0
  0
LINE
  5
38
330
A
100
AcDbEntity
  8
0
 62
     7
100
AcDbLine
 10
199.243825
 20
155.521257
 30
0.0
 11
199.243825
 21
155.518328
 31
0.0
  0
LINE
  5
37
330
A
100
AcDbEntity
  8
0
 62
     7
100
AcDbLine
 10
199.564218
 20
155.841478
 30
0.0
 11
199.243825
 21
155.521257
 31
0.0
  0
LINE
  5
36
330
A
100
AcDbEntity
  8
0
 62
     7
100
AcDbLine
 10
199.564218
 20
155.841478
 30
0.0
 11
199.564218
 21
155.837861
 31
0.0
  0
LINE
  5
35
330
A
100
AcDbEntity
  8
0
 62
     7
100
AcDbLine
 10
200.001573
 20
155.958784
 30
0.0
 11
199.564218
 21
155.841478
 31
0.0
  0
LINE
  5
34
330
A
100
AcDbEntity
  8
0
 62
     7
100
AcDbLine
 10
200.001573
 20
155.958784
 30
0.0
 11
200.001573
 21
155.954822
 31
0.0
  0
LINE
  5
33
330
A
100
AcDbEntity
  8
0
 62
     7
100
AcDbLine
 10
200.4391
 20
155.841478
 30
0.0
 11
200.001573
 21
155.958784
 31
0.0
  0
LINE
  5
32
330
A
100
AcDbEntity
  8
0
 62
     7
100
AcDbLine
 10
200.4391
 20
155.841478
 30
0.0
 11
200.4391
 21
155.837861
 31
0.0
  0
LINE
  5
31
330
A
100
AcDbEntity
  8
0
 62
     7
100
AcDbLine
 10
200.759494
 20
155.521257
 30
0.0
 11
200.4391
 21
155.841478
 31
0.0
  0
LINE
  5
30
330
A
100
AcDbEntity
  8
0
 62
     7
100
AcDbLine
 10
200.759494
 20
155.521257
 30
0.0
 11
200.759494
 21
155.518328
 31
0.0
  0
LINE
  5
2F
330
A
100
AcDbEntity
  8
0
 62
     7
100
AcDbLine
 10
200.876628
 20
155.083729
 30
0.0
 11
200.759494
 21
155.521257
 31
0.0
  0
LINE
  5
2E
330
A
100
AcDbEntity
  8
0
 62
     7
100
AcDbLine
 10
199.564218
 20
141.676451
 30
0.0
 11
199.243825
 21
141.996501
 31
0.0
  0
LINE
  5
2D
330
A
100
AcDbEntity
  8
0
 62
     7
100
AcDbLine
 10
200.001573
 20
141.558974
 30
0.0
 11
199.564218
 21
141.676451
 31
0.0
  0
LINE
  5
2C
330
A
100
AcDbEntity
  8
0
 62
     7
100
AcDbLine
 10
200.4391
 20
141.676451
 30
0.0
 11
200.001573
 21
141.558974
 31
0.0
  0
LINE
  5
2B
330
A
100
AcDbEntity
  8
0
 62
     7
100
AcDbLine
 10
200.759494
 20
141.996501
 30
0.0
 11
200.4391
 21
141.676451
 31
0.0
  0
LINE
  5
2A
330
A
100
AcDbEntity
  8
0
 62
     7
100
AcDbLine
 10
200.876628
 20
142.434028
 30
0.0
 11
200.759494
 21
141.996501
 31
0.0
  0
LINE
  5
29
330
A
100
AcDbEntity
  8
0
 62
     7
100
AcDbLine
 10
199.243825
 20
141.996501
 30
0.0
 11
199.126691
 21
142.434028
 31
0.0
  0
DIMENSION
  5
20A
330
A
100
AcDbEntity
  8
Cotation-JacobDelafon
  6
Continuous
370
     0
100
AcDbDimension
  2
*D3
 10
208.6403225
 20
169.4733002494583
 30
0.0
 11
200.00320975
 21
171.8794394036193
 31
0.0
 70
    32
  1
17.2
 71
     5
 42
17.27422550000003
 73
     0
 74
     0
 75
     0
  3
Cotation-Jacob-Delafon
100
AcDbAlignedDimension
 13
191.366097
 23
157.7960529999999
 33
0.0
 14
208.6403225
 24
155.0249045
 34
0.0
100
AcDbRotatedDimension
  0
DIMENSION
  5
217
330
A
100
AcDbEntity
  8
Cotation-JacobDelafon
  6
Continuous
370
     0
100
AcDbDimension
  2
*D4
 10
182.2669862168644
 20
141.563108
 30
0.0
 11
179.8352672536992
 21
149.6795805
 31
0.0
 70
    32
  1
16.2
 71
     5
 42
16.23294499999997
 73
     0
 74
     0
 75
     0
  3
Cotation-Jacob-Delafon
100
AcDbAlignedDimension
 13
191.366097
 23
157.796053
 33
0.0
 14
200.001573
 24
141.563108
 34
0.0
 50
90.0
100
AcDbRotatedDimension
  0
ENDSEC
  0
SECTION
  2
OBJECTS
  0
DICTIONARY
  5
19
330
0
100
AcDbDictionary
281
     1
  3
ACAD_COLOR
350
1D3
  3
ACAD_GROUP
350
1A
  3
ACAD_LAYOUT
350
1E
  3
ACAD_MATERIAL
350
1A9
  3
ACAD_MLEADERSTYLE
350
1E8
  3
ACAD_MLINESTYLE
350
1B
  3
ACAD_PLOTSETTINGS
350
22
  3
ACAD_PLOTSTYLENAME
350
1F
  3
ACAD_SCALELIST
350
1D6
  3
ACAD_TABLESTYLE
350
1D4
  3
ACAD_VISUALSTYLE
350
1C2
  3
ACAD_WIPEOUT_VARS
350
23
  3
ACDB_RECOMPOSE_DATA
350
260
  3
AcDbVariableDictionary
350
256
  3
AEC_PROPERTY_SET_DEFS
350
1FA
  0
DICTIONARY
  5
253
330
14
100
AcDbDictionary
280
     1
281
     1
  3
ADSK_XREC_LAYER_RECONCILED
360
254
  0
DICTIONARY
  5
1F3
330
1F2
100
AcDbDictionary
280
     1
281
     1
  3
ADSK_XREC_LAYER_RECONCILED
360
255
  0
DICTIONARY
  5
1D3
102
{ACAD_REACTORS
330
19
102
}
330
19
100
AcDbDictionary
281
     1
  0
DICTIONARY
  5
1A
102
{ACAD_REACTORS
330
19
102
}
330
19
100
AcDbDictionary
281
     1
  0
DICTIONARY
  5
1E
102
{ACAD_REACTORS
330
19
102
}
330
19
100
AcDbDictionary
281
     1
  3
Layout1
350
21
  3
Model
350
20
  0
DICTIONARY
  5
1A9
102
{ACAD_REACTORS
330
19
102
}
330
19
100
AcDbDictionary
281
     1
  3
ByBlock
350
1B2
  3
ByLayer
350
1AA
  3
Global
350
1BA
  0
DICTIONARY
  5
1E8
102
{ACAD_REACTORS
330
19
102
}
330
19
100
AcDbDictionary
281
     1
  3
Standard
350
1E9
  0
DICTIONARY
  5
1B
102
{ACAD_REACTORS
330
19
102
}
330
19
100
AcDbDictionary
281
     1
  3
Standard
350
1C
  0
DICTIONARY
  5
22
102
{ACAD_REACTORS
330
19
102
}
330
19
100
AcDbDictionary
281
     1
  0
ACDBDICTIONARYWDFLT
  5
1F
102
{ACAD_REACTORS
330
19
102
}
330
19
100
AcDbDictionary
281
     1
  3
Normal
350
1D
100
AcDbDictionaryWithDefault
340
1D
  0
DICTIONARY
  5
1D6
102
{ACAD_REACTORS
330
19
102
}
330
19
100
AcDbDictionary
281
     1
  3
A0
350
1D7
  3
A1
350
1D8
  3
A2
350
1D9
  3
A3
350
1DA
  3
A4
350
1DB
  3
A5
350
1DC
  3
A6
350
1DD
  3
A7
350
1DE
  3
A8
350
1DF
  3
A9
350
1E0
  3
B0
350
1E1
  3
B1
350
1E2
  3
B2
350
1E3
  3
B3
350
1E4
  3
B4
350
1E5
  3
B5
350
1E6
  3
B6
350
1E7
  0
DICTIONARY
  5
1D4
102
{ACAD_REACTORS
330
19
102
}
330
19
100
AcDbDictionary
281
     1
  3
Standard
350
1D5
  0
DICTIONARY
  5
1C2
102
{ACAD_REACTORS
330
19
102
}
330
19
100
AcDbDictionary
281
     1
  3
2dWireframe
350
1C8
  3
3D Hidden
350
1CA
  3
3dWireframe
350
1C9
  3
Basic
350
1C7
  3
Brighten
350
1CE
  3
ColorChange
350
1D2
  3
Conceptual
350
1CB
  3
Dim
350
1CD
  3
Facepattern
350
1D1
  3
Flat
350
1C3
  3
FlatWithEdges
350
1C4
  3
Gouraud
350
1C5
  3
GouraudWithEdges
350
1C6
  3
Linepattern
350
1D0
  3
Realistic
350
1CC
  3
Thicken
350
1CF
  0
WIPEOUTVARIABLES
  5
23
330
19
100
AcDbWipeoutVariables
 70
     1
  0
XRECORD
  5
260
102
{ACAD_REACTORS
330
19
102
}
330
19
100
AcDbXrecord
280
     1
 90
        1
330
1D5
  0
DICTIONARY
  5
256
102
{ACAD_REACTORS
330
19
102
}
330
19
100
AcDbDictionary
281
     1
  3
CANNOSCALE
350
25A
  3
CMLEADERSTYLE
350
258
  3
CTABLESTYLE
350
257
  3
LAYEREVAL
350
25C
  3
LAYERNOTIFY
350
25D
  3
LIGHTINGUNITS
350
25B
  3
MSLTSCALE
350
259
  0
DICTIONARY
  5
1FA
102
{ACAD_REACTORS
330
19
102
}
330
19
100
AcDbDictionary
281
     1
  0
XRECORD
  5
254
102
{ACAD_REACTORS
330
253
102
}
330
253
100
AcDbXrecord
280
     1
290
     1
  0
XRECORD
  5
255
102
{ACAD_REACTORS
330
1F3
102
}
330
1F3
100
AcDbXrecord
280
     1
290
     1
  0
LAYOUT
  5
21
102
{ACAD_REACTORS
330
1E
102
}
330
1E
100
AcDbPlotSettings
  1

  2

  4

  6

 40
0.0
 41
0.0
 42
0.0
 43
0.0
 44
0.0
 45
0.0
 46
0.0
 47
0.0
 48
0.0
 49
0.0
140
0.0
141
0.0
142
1.0
143
1.0
 70
     0
 72
     0
 73
     0
 74
     0
  7

 75
     0
147
1.0
 76
     0
 77
     2
 78
   300
148
0.0
149
0.0
100
AcDbLayout
  1
Layout1
 70
     0
 71
     1
 10
0.0
 20
0.0
 11
12.0
 21
9.0
 12
0.0
 22
0.0
 32
0.0
 14
1.000000000000000E+20
 24
1.000000000000000E+20
 34
1.000000000000000E+20
 15
-1.000000000000000E+20
 25
-1.000000000000000E+20
 35
-1.000000000000000E+20
146
0.0
 13
0.0
 23
0.0
 33
0.0
 16
1.0
 26
0.0
 36
0.0
 17
0.0
 27
1.0
 37
0.0
 76
     0
330
B
  0
LAYOUT
  5
20
102
{ACAD_REACTORS
330
1E
102
}
330
1E
100
AcDbPlotSettings
  1

  2

  4

  6

 40
0.0
 41
0.0
 42
0.0
 43
0.0
 44
0.0
 45
0.0
 46
0.0
 47
0.0
 48
0.0
 49
0.0
140
0.0
141
0.0
142
1.0
143
1.0
 70
  1024
 72
     0
 73
     0
 74
     0
  7

 75
     0
147
1.0
 76
     0
 77
     2
 78
   300
148
0.0
149
0.0
100
AcDbLayout
  1
Model
 70
     0
 71
     0
 10
0.0
 20
0.0
 11
0.0
 21
0.0
 12
0.0
 22
0.0
 32
0.0
 14
0.0
 24
0.0
 34
0.0
 15
0.0
 25
0.0
 35
0.0
146
0.0
 13
0.0
 23
0.0
 33
0.0
 16
0.0
 26
0.0
 36
0.0
 17
0.0
 27
0.0
 37
0.0
 76
     0
330
A
331
15
  0
MATERIAL
  5
1B2
102
{ACAD_XDICTIONARY
360
1B3
102
}
102
{ACAD_REACTORS
330
1A9
102
}
330
1A9
100
AcDbMaterial
  1
ByBlock
 72
     0
 43
0.0208333333333333
 43
0.0
 43
0.0
 43
0.0
 43
0.0
 43
0.0208333333333333
 43
0.0
 43
0.0
 43
0.0
 43
0.0
 43
1.0
 43
0.0
 43
0.0
 43
0.0
 43
0.0
 43
1.0
 77
     0
 47
0.0208333333333333
 47
0.0
 47
0.0
 47
0.0
 47
0.0
 47
0.0208333333333333
 47
0.0
 47
0.0
 47
0.0
 47
0.0
 47
1.0
 47
0.0
 47
0.0
 47
0.0
 47
0.0
 47
1.0
171
     0
 49
0.0208333333333333
 49
0.0
 49
0.0
 49
0.0
 49
0.0
 49
0.0208333333333333
 49
0.0
 49
0.0
 49
0.0
 49
0.0
 49
1.0
 49
0.0
 49
0.0
 49
0.0
 49
0.0
 49
1.0
175
     0
142
0.0208333333333333
142
0.0
142
0.0
142
0.0
142
0.0
142
0.0208333333333333
142
0.0
142
0.0
142
0.0
142
0.0
142
1.0
142
0.0
142
0.0
142
0.0
142
0.0
142
1.0
179
     0
144
0.0208333333333333
144
0.0
144
0.0
144
0.0
144
0.0
144
0.0208333333333333
144
0.0
144
0.0
144
0.0
144
0.0
144
1.0
144
0.0
144
0.0
144
0.0
144
0.0
144
1.0
147
0.0208333333333333
147
0.0
147
0.0
147
0.0
147
0.0
147
0.0208333333333333
147
0.0
147
0.0
147
0.0
147
0.0
147
1.0
147
0.0
147
0.0
147
0.0
147
0.0
147
1.0
  0
MATERIAL
  5
1AA
102
{ACAD_XDICTIONARY
360
1AB
102
}
102
{ACAD_REACTORS
330
1A9
102
}
330
1A9
100
AcDbMaterial
  1
ByLayer
 72
     0
 43
0.0208333333333333
 43
0.0
 43
0.0
 43
0.0
 43
0.0
 43
0.0208333333333333
 43
0.0
 43
0.0
 43
0.0
 43
0.0
 43
1.0
 43
0.0
 43
0.0
 43
0.0
 43
0.0
 43
1.0
 77
     0
 47
0.0208333333333333
 47
0.0
 47
0.0
 47
0.0
 47
0.0
 47
0.0208333333333333
 47
0.0
 47
0.0
 47
0.0
 47
0.0
 47
1.0
 47
0.0
 47
0.0
 47
0.0
 47
0.0
 47
1.0
171
     0
 49
0.0208333333333333
 49
0.0
 49
0.0
 49
0.0
 49
0.0
 49
0.0208333333333333
 49
0.0
 49
0.0
 49
0.0
 49
0.0
 49
1.0
 49
0.0
 49
0.0
 49
0.0
 49
0.0
 49
1.0
175
     0
142
0.0208333333333333
142
0.0
142
0.0
142
0.0
142
0.0
142
0.0208333333333333
142
0.0
142
0.0
142
0.0
142
0.0
142
1.0
142
0.0
142
0.0
142
0.0
142
0.0
142
1.0
179
     0
144
0.0208333333333333
144
0.0
144
0.0
144
0.0
144
0.0
144
0.0208333333333333
144
0.0
144
0.0
144
0.0
144
0.0
144
1.0
144
0.0
144
0.0
144
0.0
144
0.0
144
1.0
147
0.0208333333333333
147
0.0
147
0.0
147
0.0
147
0.0
147
0.0208333333333333
147
0.0
147
0.0
147
0.0
147
0.0
147
1.0
147
0.0
147
0.0
147
0.0
147
0.0
147
1.0
  0
MATERIAL
  5
1BA
102
{ACAD_XDICTIONARY
360
1BB
102
}
102
{ACAD_REACTORS
330
1A9
102
}
330
1A9
100
AcDbMaterial
  1
Global
 72
     0
 43
0.0208333333333333
 43
0.0
 43
0.0
 43
0.0
 43
0.0
 43
0.0208333333333333
 43
0.0
 43
0.0
 43
0.0
 43
0.0
 43
1.0
 43
0.0
 43
0.0
 43
0.0
 43
0.0
 43
1.0
 77
     0
 47
0.0208333333333333
 47
0.0
 47
0.0
 47
0.0
 47
0.0
 47
0.0208333333333333
 47
0.0
 47
0.0
 47
0.0
 47
0.0
 47
1.0
 47
0.0
 47
0.0
 47
0.0
 47
0.0
 47
1.0
171
     0
 49
0.0208333333333333
 49
0.0
 49
0.0
 49
0.0
 49
0.0
 49
0.0208333333333333
 49
0.0
 49
0.0
 49
0.0
 49
0.0
 49
1.0
 49
0.0
 49
0.0
 49
0.0
 49
0.0
 49
1.0
175
     0
142
0.0208333333333333
142
0.0
142
0.0
142
0.0
142
0.0
142
0.0208333333333333
142
0.0
142
0.0
142
0.0
142
0.0
142
1.0
142
0.0
142
0.0
142
0.0
142
0.0
142
1.0
179
     0
144
0.0208333333333333
144
0.0
144
0.0
144
0.0
144
0.0
144
0.0208333333333333
144
0.0
144
0.0
144
0.0
144
0.0
144
1.0
144
0.0
144
0.0
144
0.0
144
0.0
144
1.0
147
0.0208333333333333
147
0.0
147
0.0
147
0.0
147
0.0
147
0.0208333333333333
147
0.0
147
0.0
147
0.0
147
0.0
147
1.0
147
0.0
147
0.0
147
0.0
147
0.0
147
1.0
  0
MLEADERSTYLE
  5
1E9
102
{ACAD_REACTORS
330
1E8
102
}
330
1E8
100
AcDbMLeaderStyle
170
     2
171
     1
172
     0
 90
        2
 40
0.0
 41
0.0
173
     1
 91
-1056964608
340
11
 92
       -2
290
     1
 42
2.0
291
     1
 43
0.36
  3
Standard
 44
4.0
300

342
17
174
     1
178
     6
175
     1
176
     0
 93
-1056964608
 45
4.0
292
     0
297
     0
 46
4.0
 94
-1056964608
 47
1.0
 49
1.0
140
1.0
293
     1
141
0.0
294
     1
177
     0
142
1.0
295
     0
296
     0
143
0.125
1001
ACAD_MLEADERVER
1070
     2
  0
MLINESTYLE
  5
1C
102
{ACAD_REACTORS
330
1B
102
}
330
1B
100
AcDbMlineStyle
  2
STANDARD
 70
     0
  3

 62
     0
 51
90.0
 52
90.0
 71
     2
 49
0.5
 62
   256
  6
BYLAYER
 49
-0.5
 62
   256
  6
BYLAYER
  0
ACDBPLACEHOLDER
  5
1D
102
{ACAD_REACTORS
330
1F
102
}
330
1F
  0
SCALE
  5
1D7
102
{ACAD_REACTORS
330
1D6
102
}
330
1D6
100
AcDbScale
 70
     0
300
1:1
140
1.0
141
1.0
290
     1
  0
SCALE
  5
1D8
102
{ACAD_REACTORS
330
1D6
102
}
330
1D6
100
AcDbScale
 70
     0
300
1:2
140
1.0
141
2.0
290
     0
  0
SCALE
  5
1D9
102
{ACAD_REACTORS
330
1D6
102
}
330
1D6
100
AcDbScale
 70
     0
300
1:4
140
1.0
141
4.0
290
     0
  0
SCALE
  5
1DA
102
{ACAD_REACTORS
330
1D6
102
}
330
1D6
100
AcDbScale
 70
     0
300
1:5
140
1.0
141
5.0
290
     0
  0
SCALE
  5
1DB
102
{ACAD_REACTORS
330
1D6
102
}
330
1D6
100
AcDbScale
 70
     0
300
1:8
140
1.0
141
8.0
290
     0
  0
SCALE
  5
1DC
102
{ACAD_REACTORS
330
1D6
102
}
330
1D6
100
AcDbScale
 70
     0
300
1:10
140
1.0
141
10.0
290
     0
  0
SCALE
  5
1DD
102
{ACAD_REACTORS
330
1D6
102
}
330
1D6
100
AcDbScale
 70
     0
300
1:16
140
1.0
141
16.0
290
     0
  0
SCALE
  5
1DE
102
{ACAD_REACTORS
330
1D6
102
}
330
1D6
100
AcDbScale
 70
     0
300
1:20
140
1.0
141
20.0
290
     0
  0
SCALE
  5
1DF
102
{ACAD_REACTORS
330
1D6
102
}
330
1D6
100
AcDbScale
 70
     0
300
1:30
140
1.0
141
30.0
290
     0
  0
SCALE
  5
1E0
102
{ACAD_REACTORS
330
1D6
102
}
330
1D6
100
AcDbScale
 70
     0
300
1:40
140
1.0
141
40.0
290
     0
  0
SCALE
  5
1E1
102
{ACAD_REACTORS
330
1D6
102
}
330
1D6
100
AcDbScale
 70
     0
300
1:50
140
1.0
141
50.0
290
     0
  0
SCALE
  5
1E2
102
{ACAD_REACTORS
330
1D6
102
}
330
1D6
100
AcDbScale
 70
     0
300
1:100
140
1.0
141
100.0
290
     0
  0
SCALE
  5
1E3
102
{ACAD_REACTORS
330
1D6
102
}
330
1D6
100
AcDbScale
 70
     0
300
2:1
140
2.0
141
1.0
290
     0
  0
SCALE
  5
1E4
102
{ACAD_REACTORS
330
1D6
102
}
330
1D6
100
AcDbScale
 70
     0
300
4:1
140
4.0
141
1.0
290
     0
  0
SCALE
  5
1E5
102
{ACAD_REACTORS
330
1D6
102
}
330
1D6
100
AcDbScale
 70
     0
300
8:1
140
8.0
141
1.0
290
     0
  0
SCALE
  5
1E6
102
{ACAD_REACTORS
330
1D6
102
}
330
1D6
100
AcDbScale
 70
     0
300
10:1
140
10.0
141
1.0
290
     0
  0
SCALE
  5
1E7
102
{ACAD_REACTORS
330
1D6
102
}
330
1D6
100
AcDbScale
 70
     0
300
100:1
140
100.0
141
1.0
290
     0
  0
TABLESTYLE
  5
1D5
102
{ACAD_XDICTIONARY
360
25E
102
}
102
{ACAD_REACTORS
330
1D4
102
}
330
1D4
100
AcDbTableStyle
  3
Standard
 70
     0
 71
     0
 40
1.5
 41
1.5
280
     0
281
     0
  7
Standard
140
4.5
170
     2
 62
     0
 63
     7
283
     0
 90
      512
 91
        0
  1

274
    -2
284
     1
 64
     0
275
    -2
285
     1
 65
     0
276
    -2
286
     1
 66
     0
277
    -2
287
     1
 67
     0
278
    -2
288
     1
 68
     0
279
    -2
289
     1
 69
     0
  7
Standard
140
6.0
170
     5
 62
     0
 63
     7
283
     0
 90
      512
 91
        0
  1

274
    -2
284
     1
 64
     0
275
    -2
285
     1
 65
     0
276
    -2
286
     1
 66
     0
277
    -2
287
     1
 67
     0
278
    -2
288
     1
 68
     0
279
    -2
289
     1
 69
     0
  7
Standard
140
4.5
170
     5
 62
     0
 63
     7
283
     0
 90
      512
 91
        0
  1

274
    -2
284
     1
 64
     0
275
    -2
285
     1
 65
     0
276
    -2
286
     1
 66
     0
277
    -2
287
     1
 67
     0
278
    -2
288
     1
 68
     0
279
    -2
289
     1
 69
     0
  0
VISUALSTYLE
  5
1C8
102
{ACAD_REACTORS
330
1C2
102
}
330
1C2
100
AcDbVisualStyle
  2
2dWireframe
 70
     4
 71
     0
 72
     2
 73
     0
 90
        0
 40
-0.6
 41
-30.0
 62
     5
 63
     7
421
 16777215
 74
     1
 91
        4
 64
     7
 65
   257
 75
     1
175
     1
 42
1.0
 92
        0
 66
   257
 43
1.0
 76
     1
 77
     6
 78
     2
 67
     7
 79
     5
170
     0
171
     0
290
     0
174
     0
 93
        1
 44
0.0
173
     0
291
     0
 45
0.0
  0
VISUALSTYLE
  5
1CA
102
{ACAD_REACTORS
330
1C2
102
}
330
1C2
100
AcDbVisualStyle
  2
3D Hidden
 70
     6
 71
     1
 72
     2
 73
     2
 90
        0
 40
-0.6
 41
-30.0
 62
     5
 63
     7
421
 16777215
 74
     2
 91
        2
 64
     7
 65
   257
 75
     2
175
     1
 42
40.0
 92
        0
 66
   257
 43
1.0
 76
     1
 77
     6
 78
     2
 67
     7
 79
     3
170
     0
171
     0
290
     0
174
     0
 93
        1
 44
0.0
173
     0
291
     0
 45
0.0
  0
VISUALSTYLE
  5
1C9
102
{ACAD_REACTORS
330
1C2
102
}
330
1C2
100
AcDbVisualStyle
  2
3dWireframe
 70
     5
 71
     0
 72
     2
 73
     0
 90
        0
 40
-0.6
 41
-30.0
 62
     5
 63
     7
421
 16777215
 74
     1
 91
        4
 64
     7
 65
   257
 75
     1
175
     1
 42
1.0
 92
        0
 66
   257
 43
1.0
 76
     1
 77
     6
 78
     2
 67
     7
 79
     5
170
     0
171
     0
290
     0
174
     0
 93
        1
 44
0.0
173
     0
291
     0
 45
0.0
  0
VISUALSTYLE
  5
1C7
102
{ACAD_REACTORS
330
1C2
102
}
330
1C2
100
AcDbVisualStyle
  2
Basic
 70
     7
 71
     1
 72
     0
 73
     1
 90
        0
 40
-0.6
 41
-30.0
 62
     5
 63
     7
421
 16777215
 74
     0
 91
        4
 64
     7
 65
   257
 75
     1
175
     1
 42
1.0
 92
        8
 66
     7
 43
1.0
 76
     1
 77
     6
 78
     2
 67
     7
 79
     5
170
     0
171
     0
290
     0
174
     0
 93
        1
 44
0.0
173
     0
291
     1
 45
0.0
  0
VISUALSTYLE
  5
1CE
102
{ACAD_REACTORS
330
1C2
102
}
330
1C2
100
AcDbVisualStyle
  2
Brighten
 70
    12
 71
     2
 72
     2
 73
     0
 90
        0
 40
-0.6
 41
-30.0
 62
     5
 63
     7
421
 16777215
 74
     1
 91
        4
 64
     7
 65
   257
 75
     1
175
     1
 42
1.0
 92
        8
 66
     7
 43
1.0
 76
     1
 77
     6
 78
     2
 67
     7
 79
     5
170
     0
171
     0
290
     0
174
     0
 93
        1
 44
50.0
173
     0
291
     1
 45
0.0
  0
VISUALSTYLE
  5
1D2
102
{ACAD_REACTORS
330
1C2
102
}
330
1C2
100
AcDbVisualStyle
  2
ColorChange
 70
    16
 71
     2
 72
     2
 73
     3
 90
        0
 40
-0.6
 41
-30.0
 62
     5
 63
     8
421
  8421504
 74
     1
 91
        4
 64
     7
 65
   257
 75
     1
175
     1
 42
1.0
 92
        8
 66
     8
424
  8421504
 43
1.0
 76
     1
 77
     6
 78
     2
 67
     7
 79
     5
170
     0
171
     0
290
     0
174
     0
 93
        1
 44
0.0
173
     0
291
     1
 45
0.0
  0
VISUALSTYLE
  5
1CB
102
{ACAD_REACTORS
330
1C2
102
}
330
1C2
100
AcDbVisualStyle
  2
Conceptual
 70
     9
 71
     3
 72
     2
 73
     0
 90
        0
 40
-0.6
 41
-30.0
 62
     5
 63
     7
421
 16777215
 74
     2
 91
        2
 64
     7
 65
   257
 75
     1
175
     1
 42
40.0
 92
        8
 66
     7
 43
1.0
 76
     1
 77
     6
 78
     2
 67
     7
 79
     3
170
     0
171
     0
290
     0
174
     0
 93
        1
 44
0.0
173
     0
291
     0
 45
0.0
  0
VISUALSTYLE
  5
1CD
102
{ACAD_REACTORS
330
1C2
102
}
330
1C2
100
AcDbVisualStyle
  2
Dim
 70
    11
 71
     2
 72
     2
 73
     0
 90
        0
 40
-0.6
 41
-30.0
 62
     5
 63
     7
421
 16777215
 74
     1
 91
        4
 64
     7
 65
   257
 75
     1
175
     1
 42
1.0
 92
        8
 66
     7
 43
1.0
 76
     1
 77
     6
 78
     2
 67
     7
 79
     5
170
     0
171
     0
290
     0
174
     0
 93
        1
 44
-50.0
173
     0
291
     1
 45
0.0
  0
VISUALSTYLE
  5
1D1
102
{ACAD_REACTORS
330
1C2
102
}
330
1C2
100
AcDbVisualStyle
  2
Facepattern
 70
    15
 71
     2
 72
     2
 73
     0
 90
        0
 40
-0.6
 41
-30.0
 62
     5
 63
     7
421
 16777215
 74
     1
 91
        4
 64
     7
 65
   257
 75
     1
175
     1
 42
1.0
 92
        8
 66
     7
 43
1.0
 76
     1
 77
     6
 78
     2
 67
     7
 79
     5
170
     0
171
     0
290
     0
174
     0
 93
        1
 44
0.0
173
     0
291
     1
 45
0.0
  0
VISUALSTYLE
  5
1C3
102
{ACAD_REACTORS
330
1C2
102
}
330
1C2
100
AcDbVisualStyle
  2
Flat
 70
     0
 71
     2
 72
     1
 73
     1
 90
        2
 40
-0.6
 41
30.0
 62
     5
 63
     7
421
 16777215
 74
     0
 91
        4
 64
     7
 65
   257
 75
     1
175
     1
 42
1.0
 92
        8
 66
     7
 43
1.0
 76
     1
 77
     6
 78
     2
 67
     7
 79
     5
170
     0
171
     0
290
     0
174
     0
 93
       13
 44
0.0
173
     0
291
     1
 45
0.0
  0
VISUALSTYLE
  5
1C4
102
{ACAD_REACTORS
330
1C2
102
}
330
1C2
100
AcDbVisualStyle
  2
FlatWithEdges
 70
     1
 71
     2
 72
     1
 73
     1
 90
        2
 40
-0.6
 41
30.0
 62
     5
 63
     7
421
 16777215
 74
     1
 91
        4
 64
     7
 65
   257
 75
     1
175
     1
 42
1.0
 92
        0
 66
   257
 43
1.0
 76
     1
 77
     6
 78
     2
 67
     7
 79
     5
170
     0
171
     0
290
     0
174
     0
 93
       13
 44
0.0
173
     0
291
     1
 45
0.0
  0
VISUALSTYLE
  5
1C5
102
{ACAD_REACTORS
330
1C2
102
}
330
1C2
100
AcDbVisualStyle
  2
Gouraud
 70
     2
 71
     2
 72
     2
 73
     1
 90
        2
 40
-0.6
 41
30.0
 62
     5
 63
     7
421
 16777215
 74
     0
 91
        4
 64
     7
 65
   257
 75
     1
175
     1
 42
1.0
 92
        0
 66
     7
 43
1.0
 76
     1
 77
     6
 78
     2
 67
     7
 79
     5
170
     0
171
     0
290
     0
174
     0
 93
       13
 44
0.0
173
     0
291
     1
 45
0.0
  0
VISUALSTYLE
  5
1C6
102
{ACAD_REACTORS
330
1C2
102
}
330
1C2
100
AcDbVisualStyle
  2
GouraudWithEdges
 70
     3
 71
     2
 72
     2
 73
     1
 90
        2
 40
-0.6
 41
30.0
 62
     5
 63
     7
421
 16777215
 74
     1
 91
        4
 64
     7
 65
   257
 75
     1
175
     1
 42
1.0
 92
        0
 66
   257
 43
1.0
 76
     1
 77
     6
 78
     2
 67
     7
 79
     5
170
     0
171
     0
290
     0
174
     0
 93
       13
 44
0.0
173
     0
291
     1
 45
0.0
  0
VISUALSTYLE
  5
1D0
102
{ACAD_REACTORS
330
1C2
102
}
330
1C2
100
AcDbVisualStyle
  2
Linepattern
 70
    14
 71
     2
 72
     2
 73
     0
 90
        0
 40
-0.6
 41
-30.0
 62
     5
 63
     7
421
 16777215
 74
     1
 91
        4
 64
     7
 65
   257
 75
     7
175
     7
 42
1.0
 92
        8
 66
     7
 43
1.0
 76
     1
 77
     6
 78
     2
 67
     7
 79
     5
170
     0
171
     0
290
     0
174
     0
 93
        1
 44
0.0
173
     0
291
     1
 45
0.0
  0
VISUALSTYLE
  5
1CC
102
{ACAD_REACTORS
330
1C2
102
}
330
1C2
100
AcDbVisualStyle
  2
Realistic
 70
     8
 71
     2
 72
     2
 73
     0
 90
        0
 40
-0.6
 41
-30.0
 62
     5
 63
     7
421
 16777215
 74
     1
 91
        0
 64
     7
 65
   257
 75
     1
175
     1
 42
1.0
 92
        8
 66
     8
424
  7895160
 43
1.0
 76
     1
 77
     6
 78
     2
 67
     7
 79
     5
170
     0
171
     0
290
     0
174
     0
 93
       13
 44
0.0
173
     0
291
     0
 45
0.0
  0
VISUALSTYLE
  5
1CF
102
{ACAD_REACTORS
330
1C2
102
}
330
1C2
100
AcDbVisualStyle
  2
Thicken
 70
    13
 71
     2
 72
     2
 73
     0
 90
        0
 40
-0.6
 41
-30.0
 62
     5
 63
     7
421
 16777215
 74
     1
 91
        4
 64
     7
 65
   257
 75
     1
175
     1
 42
1.0
 92
       12
 66
     7
 43
1.0
 76
     1
 77
     6
 78
     2
 67
     7
 79
     5
170
     0
171
     0
290
     0
174
     0
 93
        1
 44
0.0
173
     0
291
     1
 45
0.0
  0
DICTIONARYVAR
  5
25A
102
{ACAD_REACTORS
330
256
102
}
330
256
100
DictionaryVariables
280
     0
  1
1:1
  0
DICTIONARYVAR
  5
258
102
{ACAD_REACTORS
330
256
102
}
330
256
100
DictionaryVariables
280
     0
  1
STANDARD
  0
DICTIONARYVAR
  5
257
102
{ACAD_REACTORS
330
256
102
}
330
256
100
DictionaryVariables
280
     0
  1
STANDARD
  0
DICTIONARYVAR
  5
25C
102
{ACAD_REACTORS
330
256
102
}
330
256
100
DictionaryVariables
280
     0
  1
1
  0
DICTIONARYVAR
  5
25D
102
{ACAD_REACTORS
330
256
102
}
330
256
100
DictionaryVariables
280
     0
  1
15
  0
DICTIONARYVAR
  5
25B
102
{ACAD_REACTORS
330
256
102
}
330
256
100
DictionaryVariables
280
     0
  1
0
  0
DICTIONARYVAR
  5
259
102
{ACAD_REACTORS
330
256
102
}
330
256
100
DictionaryVariables
280
     0
  1
0
  0
DICTIONARY
  5
1B3
330
1B2
100
AcDbDictionary
280
     1
281
     1
  3
BUMPTILE
360
1B5
  3
DIFFUSETILE
360
1B4
  3
OPACITYTILE
360
1B8
  3
REFLECTIONTILE
360
1B7
  3
REFRACTIONTILE
360
1B9
  3
SPECULARTILE
360
1B6
  0
DICTIONARY
  5
1AB
330
1AA
100
AcDbDictionary
280
     1
281
     1
  3
BUMPTILE
360
1AD
  3
DIFFUSETILE
360
1AC
  3
OPACITYTILE
360
1B0
  3
REFLECTIONTILE
360
1AF
  3
REFRACTIONTILE
360
1B1
  3
SPECULARTILE
360
1AE
  0
DICTIONARY
  5
1BB
330
1BA
100
AcDbDictionary
280
     1
281
     1
  3
BUMPTILE
360
1BD
  3
DIFFUSETILE
360
1BC
  3
OPACITYTILE
360
1C0
  3
REFLECTIONTILE
360
1BF
  3
REFRACTIONTILE
360
1C1
  3
SPECULARTILE
360
1BE
  0
DICTIONARY
  5
25E
330
1D5
100
AcDbDictionary
280
     1
281
     1
  3
ACAD_ROUNDTRIP_2008_TABLESTYLE_CELLSTYLEMAP
360
25F
  0
XRECORD
  5
1B5
102
{ACAD_REACTORS
330
1B3
102
}
330
1B3
100
AcDbXrecord
280
     1
270
     1
271
     1
  0
XRECORD
  5
1B4
102
{ACAD_REACTORS
330
1B3
102
}
330
1B3
100
AcDbXrecord
280
     1
270
     1
271
     1
  0
XRECORD
  5
1B8
102
{ACAD_REACTORS
330
1B3
102
}
330
1B3
100
AcDbXrecord
280
     1
270
     1
271
     1
  0
XRECORD
  5
1B7
102
{ACAD_REACTORS
330
1B3
102
}
330
1B3
100
AcDbXrecord
280
     1
270
     1
271
     1
  0
XRECORD
  5
1B9
102
{ACAD_REACTORS
330
1B3
102
}
330
1B3
100
AcDbXrecord
280
     1
270
     1
271
     1
  0
XRECORD
  5
1B6
102
{ACAD_REACTORS
330
1B3
102
}
330
1B3
100
AcDbXrecord
280
     1
270
     1
271
     1
  0
XRECORD
  5
1AD
102
{ACAD_REACTORS
330
1AB
102
}
330
1AB
100
AcDbXrecord
280
     1
270
     1
271
     1
  0
XRECORD
  5
1AC
102
{ACAD_REACTORS
330
1AB
102
}
330
1AB
100
AcDbXrecord
280
     1
270
     1
271
     1
  0
XRECORD
  5
1B0
102
{ACAD_REACTORS
330
1AB
102
}
330
1AB
100
AcDbXrecord
280
     1
270
     1
271
     1
  0
XRECORD
  5
1AF
102
{ACAD_REACTORS
330
1AB
102
}
330
1AB
100
AcDbXrecord
280
     1
270
     1
271
     1
  0
XRECORD
  5
1B1
102
{ACAD_REACTORS
330
1AB
102
}
330
1AB
100
AcDbXrecord
280
     1
270
     1
271
     1
  0
XRECORD
  5
1AE
102
{ACAD_REACTORS
330
1AB
102
}
330
1AB
100
AcDbXrecord
280
     1
270
     1
271
     1
  0
XRECORD
  5
1BD
102
{ACAD_REACTORS
330
1BB
102
}
330
1BB
100
AcDbXrecord
280
     1
270
     1
271
     1
  0
XRECORD
  5
1BC
102
{ACAD_REACTORS
330
1BB
102
}
330
1BB
100
AcDbXrecord
280
     1
270
     1
271
     1
  0
XRECORD
  5
1C0
102
{ACAD_REACTORS
330
1BB
102
}
330
1BB
100
AcDbXrecord
280
     1
270
     1
271
     1
  0
XRECORD
  5
1BF
102
{ACAD_REACTORS
330
1BB
102
}
330
1BB
100
AcDbXrecord
280
     1
270
     1
271
     1
  0
XRECORD
  5
1C1
102
{ACAD_REACTORS
330
1BB
102
}
330
1BB
100
AcDbXrecord
280
     1
270
     1
271
     1
  0
XRECORD
  5
1BE
102
{ACAD_REACTORS
330
1BB
102
}
330
1BB
100
AcDbXrecord
280
     1
270
     1
271
     1
  0
CELLSTYLEMAP
  5
25F
102
{ACAD_REACTORS
330
25E
102
}
330
25E
100
AcDbCellStyleMap
 90
        3
300
CELLSTYLE
  1
TABLEFORMAT_BEGIN
 90
        5
170
     1
 91
        0
 92
    32768
 62
   257
 93
        1
300
CONTENTFORMAT
  1
CONTENTFORMAT_BEGIN
 90
        0
 91
        0
 92
      512
 93
        0
300

 40
0.0
140
1.0
 94
        5
 62
     0
340
17
144
6.0
309
CONTENTFORMAT_END
171
     1
301
MARGIN
  1
CELLMARGIN_BEGIN
 40
1.5
 40
1.5
 40
1.5
 40
1.5
 40
4.5
 40
4.5
309
CELLMARGIN_END
 94
        6
 95
        1
302
GRIDFORMAT
  1
GRIDFORMAT_BEGIN
 90
        0
 91
        1
 62
     0
 92
       -2
340
0
 93
        0
 40
1.125
309
GRIDFORMAT_END
 95
        2
302
GRIDFORMAT
  1
GRIDFORMAT_BEGIN
 90
        0
 91
        1
 62
     0
 92
       -2
340
0
 93
        0
 40
1.125
309
GRIDFORMAT_END
 95
        4
302
GRIDFORMAT
  1
GRIDFORMAT_BEGIN
 90
        0
 91
        1
 62
     0
 92
       -2
340
0
 93
        0
 40
1.125
309
GRIDFORMAT_END
 95
        8
302
GRIDFORMAT
  1
GRIDFORMAT_BEGIN
 90
        0
 91
        1
 62
     0
 92
       -2
340
0
 93
        0
 40
1.125
309
GRIDFORMAT_END
 95
       16
302
GRIDFORMAT
  1
GRIDFORMAT_BEGIN
 90
        0
 91
        1
 62
     0
 92
       -2
340
0
 93
        0
 40
1.125
309
GRIDFORMAT_END
 95
       32
302
GRIDFORMAT
  1
GRIDFORMAT_BEGIN
 90
        0
 91
        1
 62
     0
 92
       -2
340
0
 93
        0
 40
1.125
309
GRIDFORMAT_END
309
TABLEFORMAT_END
  1
CELLSTYLE_BEGIN
 90
        1
 91
        1
300
_TITLE
309
CELLSTYLE_END
300
CELLSTYLE
  1
TABLEFORMAT_BEGIN
 90
        5
170
     1
 91
        0
 92
        0
 62
   257
 93
        1
300
CONTENTFORMAT
  1
CONTENTFORMAT_BEGIN
 90
        0
 91
        0
 92
      512
 93
        0
300

 40
0.0
140
1.0
 94
        5
 62
     0
340
17
144
4.5
309
CONTENTFORMAT_END
171
     1
301
MARGIN
  1
CELLMARGIN_BEGIN
 40
1.5
 40
1.5
 40
1.5
 40
1.5
 40
4.5
 40
4.5
309
CELLMARGIN_END
 94
        6
 95
        1
302
GRIDFORMAT
  1
GRIDFORMAT_BEGIN
 90
        0
 91
        1
 62
     0
 92
       -2
340
0
 93
        0
 40
1.125
309
GRIDFORMAT_END
 95
        2
302
GRIDFORMAT
  1
GRIDFORMAT_BEGIN
 90
        0
 91
        1
 62
     0
 92
       -2
340
0
 93
        0
 40
1.125
309
GRIDFORMAT_END
 95
        4
302
GRIDFORMAT
  1
GRIDFORMAT_BEGIN
 90
        0
 91
        1
 62
     0
 92
       -2
340
0
 93
        0
 40
1.125
309
GRIDFORMAT_END
 95
        8
302
GRIDFORMAT
  1
GRIDFORMAT_BEGIN
 90
        0
 91
        1
 62
     0
 92
       -2
340
0
 93
        0
 40
1.125
309
GRIDFORMAT_END
 95
       16
302
GRIDFORMAT
  1
GRIDFORMAT_BEGIN
 90
        0
 91
        1
 62
     0
 92
       -2
340
0
 93
        0
 40
1.125
309
GRIDFORMAT_END
 95
       32
302
GRIDFORMAT
  1
GRIDFORMAT_BEGIN
 90
        0
 91
        1
 62
     0
 92
       -2
340
0
 93
        0
 40
1.125
309
GRIDFORMAT_END
309
TABLEFORMAT_END
  1
CELLSTYLE_BEGIN
 90
        2
 91
        1
300
_HEADER
309
CELLSTYLE_END
300
CELLSTYLE
  1
TABLEFORMAT_BEGIN
 90
        5
170
     1
 91
        0
 92
        0
 62
   257
 93
        1
300
CONTENTFORMAT
  1
CONTENTFORMAT_BEGIN
 90
        0
 91
        0
 92
      512
 93
        0
300

 40
0.0
140
1.0
 94
        2
 62
     0
340
17
144
4.5
309
CONTENTFORMAT_END
171
     1
301
MARGIN
  1
CELLMARGIN_BEGIN
 40
1.5
 40
1.5
 40
1.5
 40
1.5
 40
4.5
 40
4.5
309
CELLMARGIN_END
 94
        6
 95
        1
302
GRIDFORMAT
  1
GRIDFORMAT_BEGIN
 90
        0
 91
        1
 62
     0
 92
       -2
340
0
 93
        0
 40
1.125
309
GRIDFORMAT_END
 95
        2
302
GRIDFORMAT
  1
GRIDFORMAT_BEGIN
 90
        0
 91
        1
 62
     0
 92
       -2
340
0
 93
        0
 40
1.125
309
GRIDFORMAT_END
 95
        4
302
GRIDFORMAT
  1
GRIDFORMAT_BEGIN
 90
        0
 91
        1
 62
     0
 92
       -2
340
0
 93
        0
 40
1.125
309
GRIDFORMAT_END
 95
        8
302
GRIDFORMAT
  1
GRIDFORMAT_BEGIN
 90
        0
 91
        1
 62
     0
 92
       -2
340
0
 93
        0
 40
1.125
309
GRIDFORMAT_END
 95
       16
302
GRIDFORMAT
  1
GRIDFORMAT_BEGIN
 90
        0
 91
        1
 62
     0
 92
       -2
340
0
 93
        0
 40
1.125
309
GRIDFORMAT_END
 95
       32
302
GRIDFORMAT
  1
GRIDFORMAT_BEGIN
 90
        0
 91
        1
 62
     0
 92
       -2
340
0
 93
        0
 40
1.125
309
GRIDFORMAT_END
309
TABLEFORMAT_END
  1
CELLSTYLE_BEGIN
 90
        3
 91
        2
300
_DATA
309
CELLSTYLE_END
  0
ENDSEC
  0
EOF
