  0
SECTION
  2
HEADER
  9
$ACADVER
  1
AC1009
  9
$INSBASE
 10
-0.0000000000000142
 20
0.0
 30
0.0
  9
$EXTMIN
 10
-18.742033780894449
 20
-19.60405033971092
 30
0.0
  9
$EXTMAX
 10
12.32548526433669
 20
8.0778655469654517
 30
0.0
  9
$LIMMIN
 10
0.0
 20
0.0
  9
$LIMMAX
 10
12.0
 20
9.0
  9
$ORTHOMODE
 70
     1
  9
$REGENMODE
 70
     1
  9
$FILLMODE
 70
     1
  9
$QTEXTMODE
 70
     0
  9
$MIRRTEXT
 70
     1
  9
$DRAGMODE
 70
     2
  9
$LTSCALE
 40
1.0
  9
$OSMODE
 70
     1
  9
$ATTMODE
 70
     1
  9
$TEXTSIZE
 40
0.2
  9
$TRACEWID
 40
0.05
  9
$TEXTSTYLE
  7
STANDARD
  9
$CLAYER
  8
0
  9
$CELTYPE
  6
CONTINUOUS
  9
$CECOLOR
 62
   256
  9
$DIMSCALE
 40
1.0
  9
$DIMASZ
 40
0.18
  9
$DIMEXO
 40
0.0625
  9
$DIMDLI
 40
0.38
  9
$DIMRND
 40
0.0
  9
$DIMDLE
 40
0.0
  9
$DIMEXE
 40
0.18
  9
$DIMTP
 40
0.0
  9
$DIMTM
 40
0.0
  9
$DIMTXT
 40
0.18
  9
$DIMCEN
 40
0.09
  9
$DIMTSZ
 40
0.0
  9
$DIMTOL
 70
     0
  9
$DIMLIM
 70
     0
  9
$DIMTIH
 70
     1
  9
$DIMTOH
 70
     1
  9
$DIMSE1
 70
     0
  9
$DIMSE2
 70
     0
  9
$DIMTAD
 70
     0
  9
$DIMZIN
 70
     0
  9
$DIMBLK
  1

  9
$DIMASO
 70
     1
  9
$DIMSHO
 70
     1
  9
$DIMPOST
  1

  9
$DIMAPOST
  1

  9
$DIMALT
 70
     0
  9
$DIMALTD
 70
     2
  9
$DIMALTF
 40
25.399999999999999
  9
$DIMLFAC
 40
1.0
  9
$DIMTOFL
 70
     0
  9
$DIMTVP
 40
0.0
  9
$DIMTIX
 70
     0
  9
$DIMSOXD
 70
     0
  9
$DIMSAH
 70
     0
  9
$DIMBLK1
  1

  9
$DIMBLK2
  1

  9
$DIMSTYLE
  2
STANDARD
  9
$DIMCLRD
 70
     0
  9
$DIMCLRE
 70
     0
  9
$DIMCLRT
 70
     0
  9
$DIMTFAC
 40
1.0
  9
$DIMGAP
 40
0.09
  9
$LUNITS
 70
     2
  9
$LUPREC
 70
     4
  9
$SKETCHINC
 40
0.1
  9
$FILLETRAD
 40
0.0
  9
$AUNITS
 70
     0
  9
$AUPREC
 70
     2
  9
$MENU
  1
.
  9
$ELEVATION
 40
0.0
  9
$PELEVATION
 40
0.0
  9
$THICKNESS
 40
0.0
  9
$LIMCHECK
 70
     0
  9
$BLIPMODE
 70
     0
  9
$CHAMFERA
 40
0.0
  9
$CHAMFERB
 40
0.0
  9
$SKPOLY
 70
     0
  9
$TDCREATE
 40
2453067.5527260532
  9
$TDUPDATE
 40
2453077.6394676738
  9
$TDINDWG
 40
0.0441946181
  9
$TDUSRTIMER
 40
0.0441946181
  9
$USRTIMER
 70
     1
  9
$ANGBASE
 50
0.0
  9
$ANGDIR
 70
     0
  9
$PDMODE
 70
     0
  9
$PDSIZE
 40
0.0
  9
$PLINEWID
 40
0.0
  9
$COORDS
 70
     1
  9
$SPLFRAME
 70
     0
  9
$SPLINETYPE
 70
     6
  9
$SPLINESEGS
 70
     8
  9
$ATTDIA
 70
     1
  9
$ATTREQ
 70
     1
  9
$HANDLING
 70
 22529
  9
$HANDSEED
  5
397
  9
$SURFTAB1
 70
     6
  9
$SURFTAB2
 70
     6
  9
$SURFTYPE
 70
     6
  9
$SURFU
 70
     6
  9
$SURFV
 70
     6
  9
$UCSNAME
  2

  9
$UCSORG
 10
0.0
 20
0.0
 30
0.0
  9
$UCSXDIR
 10
1.0
 20
0.0
 30
0.0
  9
$UCSYDIR
 10
0.0
 20
1.0
 30
0.0
  9
$PUCSNAME
  2

  9
$PUCSORG
 10
0.0
 20
0.0
 30
0.0
  9
$PUCSXDIR
 10
1.0
 20
0.0
 30
0.0
  9
$PUCSYDIR
 10
0.0
 20
1.0
 30
0.0
  9
$USERI1
 70
     0
  9
$USERI2
 70
     0
  9
$USERI3
 70
     0
  9
$USERI4
 70
     0
  9
$USERI5
 70
     0
  9
$USERR1
 40
0.0
  9
$USERR2
 40
0.0
  9
$USERR3
 40
0.0
  9
$USERR4
 40
0.0
  9
$USERR5
 40
0.0
  9
$WORLDVIEW
 70
     1
  9
$SHADEDGE
 70
     3
  9
$SHADEDIF
 70
    70
  9
$TILEMODE
 70
     1
  9
$MAXACTVP
 70
    64
  9
$PLIMCHECK
 70
     0
  9
$PEXTMIN
 10
-3.1284534789247891
 20
-2.2473459184709959
 30
0.0
  9
$PEXTMAX
 10
293.87154652107517
 20
440.06966220030017
 30
0.0
  9
$PLIMMIN
 10
-0.1979161059762549
 20
-0.2679166643638311
  9
$PLIMMAX
 10
11.493750144177531
 20
7.9987497780266699
  9
$UNITMODE
 70
     0
  9
$VISRETAIN
 70
     1
  9
$PLINEGEN
 70
     0
  9
$PSLTSCALE
 70
     1
  0
ENDSEC
  0
SECTION
  2
TABLES
  0
TABLE
  2
VPORT
 70
     2
  0
VPORT
  2
*ACTIVE
 70
     0
 10
0.0
 20
0.0
 11
1.0
 21
1.0
 12
0.3602460863397532
 22
-5.7139783300688327
 13
0.0
 23
0.0
 14
1.0
 24
1.0
 15
0.0
 25
0.0
 16
0.0
 26
0.0
 36
1.0
 17
-1.5385050920793399
 27
-0.0485154185661492
 37
0.2274496586815575
 40
28.022914941362799
 41
1.928853754940711
 42
50.0
 43
0.0
 44
0.0
 50
0.0
 51
0.0
 71
     0
 72
   100
 73
     1
 74
     1
 75
     0
 76
     0
 77
     0
 78
     0
  0
ENDTAB
  0
TABLE
  2
LTYPE
 70
     1
  0
LTYPE
  2
CONTINUOUS
 70
     0
  3
Solid line
 72
    65
 73
     0
 40
0.0
  0
ENDTAB
  0
TABLE
  2
LAYER
 70
     3
  0
LAYER
  2
0
 70
     0
 62
     7
  6
CONTINUOUS
  0
LAYER
  2
DEFPOINTS
 70
     0
 62
     7
  6
CONTINUOUS
  0
LAYER
  2
COTATION-JACOBDELAFON
 70
     0
 62
     8
  6
CONTINUOUS
  0
ENDTAB
  0
TABLE
  2
STYLE
 70
     2
  0
STYLE
  2
STANDARD
 70
     0
 40
0.0
 41
1.0
 50
0.0
 71
     0
 42
0.2
  3
txt
  4

  0
STYLE
  2
JACOB-DELAFON
 70
     0
 40
0.0
 41
1.0
 50
0.0
 71
     0
 42
2.5
  3
txt
  4

  0
ENDTAB
  0
TABLE
  2
VIEW
 70
     0
  0
ENDTAB
  0
TABLE
  2
UCS
 70
     0
  0
ENDTAB
  0
TABLE
  2
APPID
 70
     9
  0
APPID
  2
ACAD
 70
     0
  0
APPID
  2
ADCADD_ZZ
 70
     0
  0
APPID
  2
SDSK_PMN
 70
     0
  0
APPID
  2
ACAECLAYERSTANDARD
 70
     0
  0
APPID
  2
AECBASE
 70
     0
  0
APPID
  2
AEC_DWGVARSSETUP_DATA
 70
     0
  0
APPID
  2
AEC_DISPREPCONFIG_DATA
 70
     0
  0
APPID
  2
AEC_DISPREPSET_DATA
 70
     0
  0
APPID
  2
DCO15
 70
     0
  0
ENDTAB
  0
TABLE
  2
DIMSTYLE
 70
     2
  0
DIMSTYLE
  2
STANDARD
 70
     0
  3

  4

  5

  6

  7

 40
1.0
 41
0.18
 42
0.0625
 43
0.38
 44
0.18
 45
0.0
 46
0.0
 47
0.0
 48
0.0
140
0.18
141
0.09
142
0.0
143
25.399999999999999
144
1.0
145
0.0
146
1.0
147
0.09
 71
     0
 72
     0
 73
     1
 74
     1
 75
     0
 76
     0
 77
     0
 78
     0
170
     0
171
     2
172
     0
173
     0
174
     0
175
     0
176
     0
177
     0
178
     0
  0
DIMSTYLE
  2
COTATION-JACOB-DELAFON
 70
     0
  3

  4

  5
OBLIQUE
  6

  7

 40
1.0
 41
1.8
 42
0.625
 43
3.7999999999999989
 44
1.8
 45
0.0
 46
0.0
 47
0.0
 48
0.0
140
3.0
141
0.9
142
0.0
143
25.399999999999999
144
1.0
145
0.0
146
1.0
147
0.9
 71
     0
 72
     0
 73
     0
 74
     0
 75
     0
 76
     0
 77
     1
 78
    12
170
     0
171
     2
172
     0
173
     0
174
     0
175
     0
176
     0
177
     0
178
     0
  0
ENDTAB
  0
ENDSEC
  0
SECTION
  2
BLOCKS
  0
BLOCK
  8
0
  2
$MODEL_SPACE
 70
     0
 10
0.0
 20
0.0
 30
0.0
  3
$MODEL_SPACE
  1

  0
ENDBLK
  5
9
  8
0
  0
BLOCK
 67
     1
  8
0
  2
$PAPER_SPACE
 70
     0
 10
0.0
 20
0.0
 30
0.0
  3
$PAPER_SPACE
  1

  0
ENDBLK
  5
E
 67
     1
  8
0
  0
BLOCK
  8
0
  2
*D0
 70
     1
 10
0.0
 20
0.0
 30
0.0
  3
*D0
  1

  0
LINE
  5
D6
  8
COTATION-JACOBDELAFON
 62
     0
 10
11.0028603075126
 20
0.3403262030528822
 30
0.0
 11
11.0028603075126
 21
5.1777291213174292
 31
0.0
  0
LINE
  5
D7
  8
COTATION-JACOBDELAFON
 62
     0
 10
-10.997139692487391
 20
0.3403262030528822
 30
0.0
 11
-10.997139692487391
 21
5.1777291213174292
 31
0.0
  0
LINE
  5
D8
  8
COTATION-JACOBDELAFON
 62
     0
 10
11.0028603075126
 20
3.377729121317429
 30
0.0
 11
-10.997139692487391
 21
3.377729121317429
 31
0.0
  0
INSERT
  5
D9
  8
COTATION-JACOBDELAFON
 62
     0
  2
_OBLIQUE
 10
11.0028603075126
 20
3.377729121317429
 30
0.0
 41
1.8
 42
1.8
 43
1.8
  0
INSERT
  5
DA
  8
COTATION-JACOBDELAFON
 62
     0
  2
_OBLIQUE
 10
-10.997139692487391
 20
3.377729121317429
 30
0.0
 41
1.8
 42
1.8
 43
1.8
 50
180.0
  0
TEXT
  5
DB
  8
0
  6
CONTINUOUS
 62
     0
 10
-2.2788586556524688
 20
4.2838682754784108
 30
0.0
 40
3.0
  1
22
  7
JACOB-DELAFON
  0
POINT
  5
DC
  8
DEFPOINTS
 62
     0
 10
11.0028603075126
 20
-0.2846737969471178
 30
0.0
  0
POINT
  5
DD
  8
DEFPOINTS
 62
     0
 10
-10.997139692487391
 20
-0.2846737969471178
 30
0.0
  0
POINT
  5
DE
  8
DEFPOINTS
 62
     0
 10
-10.997139692487391
 20
3.377729121317429
 30
0.0
  0
ENDBLK
  5
57
  8
0
  0
BLOCK
  8
0
  2
_OBLIQUE
 70
     0
 10
0.0
 20
0.0
 30
0.0
  3
_OBLIQUE
  1

  0
LINE
  5
65
  8
0
  6
BYBLOCK
 62
     0
 10
-0.5
 20
-0.5
 30
0.0
 11
0.5
 21
0.5
 31
0.0
  0
ENDBLK
  5
67
  8
0
  0
BLOCK
  8
0
  2
*D2
 70
     1
 10
0.0
 20
0.0
 30
0.0
  3
*D2
  1

  0
LINE
  5
DF
  8
COTATION-JACOBDELAFON
 62
     0
 10
-11.622139692487391
 20
0.0000000000000002
 30
0.0
 11
-15.79073773723824
 21
0.0000000000000014
 31
0.0
  0
LINE
  5
E0
  8
COTATION-JACOBDELAFON
 62
     0
 10
-0.6252496530794076
 20
-18.704050339710928
 30
0.0
 11
-15.79073773723824
 21
-18.704050339710921
 31
0.0
  0
LINE
  5
E1
  8
COTATION-JACOBDELAFON
 62
     0
 10
-13.99073773723824
 20
0.0000000000000008
 30
0.0
 11
-13.99073773723825
 21
-18.704050339710921
 31
0.0
  0
INSERT
  5
E2
  8
COTATION-JACOBDELAFON
 62
     0
  2
_OBLIQUE
 10
-13.99073773723824
 20
0.0000000000000008
 30
0.0
 41
1.8
 42
1.8
 43
1.8
 50
90.0
  0
INSERT
  5
E3
  8
COTATION-JACOBDELAFON
 62
     0
  2
_OBLIQUE
 10
-13.99073773723825
 20
-18.704050339710921
 30
0.0
 41
1.8
 42
1.8
 43
1.8
 50
270.0
  0
TEXT
  5
E4
  8
0
  6
CONTINUOUS
 62
     0
 10
-14.948036509407411
 20
-13.5634849242893
 30
0.0
 40
3.0
  1
18.7
 50
90.0
  7
JACOB-DELAFON
  0
POINT
  5
E5
  8
DEFPOINTS
 62
     0
 10
-10.997139692487391
 20
0.0
 30
0.0
  0
POINT
  5
E6
  8
DEFPOINTS
 62
     0
 10
-0.0002496530794076
 20
-18.704050339710928
 30
0.0
  0
POINT
  5
E7
  8
DEFPOINTS
 62
     0
 10
-13.99073773723825
 20
-18.704050339710921
 30
0.0
  0
ENDBLK
  5
BA
  8
0
  0
BLOCK
  8
0
  2
ADCADD_ZZ
 70
     0
 10
0.0
 20
0.0
 30
0.0
  3
ADCADD_ZZ
  1

  0
ENDBLK
  5
103
  8
0
  0
ENDSEC
  0
SECTION
  2
ENTITIES
  0
POLYLINE
  5
24
  8
0
  6
CONTINUOUS
 66
     1
 10
0.0
 20
0.0
 30
0.0
  0
VERTEX
  5
26B
  8
0
  6
CONTINUOUS
 10
1.4650142005814351
 20
-0.8229564109602165
 30
0.0
  0
VERTEX
  5
26C
  8
0
  6
CONTINUOUS
 10
-1.4649143393496891
 20
-0.8229564109602165
 30
0.0
  0
SEQEND
  5
26D
  8
0
  6
CONTINUOUS
  0
POLYLINE
  5
25
  8
0
  6
CONTINUOUS
 66
     1
 10
0.0
 20
0.0
 30
0.0
  0
VERTEX
  5
26E
  8
0
  6
CONTINUOUS
 10
-2.0260346006268999
 20
-0.3302410934408044
 30
0.0
  0
VERTEX
  5
26F
  8
0
  6
CONTINUOUS
 10
2.026034600626871
 20
-0.3302410934408044
 30
0.0
  0
SEQEND
  5
270
  8
0
  6
CONTINUOUS
  0
POLYLINE
  5
26
  8
0
  6
CONTINUOUS
 66
     1
 10
0.0
 20
0.0
 30
0.0
  0
VERTEX
  5
271
  8
0
  6
CONTINUOUS
 10
-1.2273764687168689
 20
-2.0083092319889029
 30
0.0
  0
VERTEX
  5
272
  8
0
  6
CONTINUOUS
 10
-1.2243486320322461
 20
-2.013202432345337
 30
0.0
  0
VERTEX
  5
273
  8
0
  6
CONTINUOUS
 10
-1.085341797417896
 20
-2.0712218079997342
 30
0.0
  0
VERTEX
  5
274
  8
0
  6
CONTINUOUS
 10
-1.001358501505109
 20
-2.1414242539292441
 30
0.0
  0
VERTEX
  5
275
  8
0
  6
CONTINUOUS
 10
-0.9594167841645742
 20
-2.2360927016407
 30
0.0
  0
VERTEX
  5
276
  8
0
  6
CONTINUOUS
 10
0.9595166453962917
 20
-2.2360927016407
 30
0.0
  0
VERTEX
  5
277
  8
0
  6
CONTINUOUS
 10
1.001458362736855
 20
-2.1414242539292441
 30
0.0
  0
VERTEX
  5
278
  8
0
  6
CONTINUOUS
 10
1.085441658649642
 20
-2.0712218079997342
 30
0.0
  0
VERTEX
  5
279
  8
0
  6
CONTINUOUS
 10
1.224448493263963
 20
-2.013202432345337
 30
0.0
  0
VERTEX
  5
27A
  8
0
  6
CONTINUOUS
 10
1.227476329948586
 20
-2.0083092319889029
 30
0.0
  0
SEQEND
  5
27B
  8
0
  6
CONTINUOUS
  0
POLYLINE
  5
27
  8
0
  6
CONTINUOUS
 66
     1
 10
0.0
 20
0.0
 30
0.0
 70
     1
  0
VERTEX
  5
27C
  8
0
  6
CONTINUOUS
 10
-2.0260346006268999
 20
0.0
 30
0.0
  0
VERTEX
  5
27D
  8
0
  6
CONTINUOUS
 10
2.026034600626871
 20
0.0
 30
0.0
  0
VERTEX
  5
27E
  8
0
  6
CONTINUOUS
 10
2.026034600626871
 20
-0.3302410934408044
 30
0.0
  0
VERTEX
  5
27F
  8
0
  6
CONTINUOUS
 10
1.927171981181345
 20
-0.3435226372652664
 30
0.0
  0
VERTEX
  5
280
  8
0
  6
CONTINUOUS
 10
1.742828147346529
 20
-0.3997445107479507
 30
0.0
  0
VERTEX
  5
281
  8
0
  6
CONTINUOUS
 10
1.5964315815817249
 20
-0.5065960287345206
 30
0.0
  0
VERTEX
  5
282
  8
0
  6
CONTINUOUS
 10
1.499865770466783
 20
-0.6517942597181446
 30
0.0
  0
VERTEX
  5
283
  8
0
  6
CONTINUOUS
 10
1.4650142005814351
 20
-0.8229564109602165
 30
0.0
  0
VERTEX
  5
284
  8
0
  6
CONTINUOUS
 10
1.4650142005814351
 20
-2.0083092319889029
 30
0.0
  0
VERTEX
  5
285
  8
0
  6
CONTINUOUS
 10
-1.4649143393496891
 20
-2.0083092319889029
 30
0.0
  0
VERTEX
  5
286
  8
0
  6
CONTINUOUS
 10
-1.4649143393496891
 20
-0.8229564109602165
 30
0.0
  0
VERTEX
  5
287
  8
0
  6
CONTINUOUS
 10
-1.4997659092350371
 20
-0.6517942597181446
 30
0.0
  0
VERTEX
  5
288
  8
0
  6
CONTINUOUS
 10
-1.596431581581782
 20
-0.5065960287345206
 30
0.0
  0
VERTEX
  5
289
  8
0
  6
CONTINUOUS
 10
-1.742828147346557
 20
-0.3997445107479507
 30
0.0
  0
VERTEX
  5
28A
  8
0
  6
CONTINUOUS
 10
-1.927171981181345
 20
-0.3435226372652664
 30
0.0
  0
VERTEX
  5
28B
  8
0
  6
CONTINUOUS
 10
-2.0260346006268999
 20
-0.3302410934408044
 30
0.0
  0
SEQEND
  5
28C
  8
0
  6
CONTINUOUS
  0
POLYLINE
  5
28
  8
0
  6
CONTINUOUS
 66
     1
 10
0.0
 20
0.0
 30
0.0
  0
VERTEX
  5
28D
  8
0
  6
CONTINUOUS
 10
-7.7443472512929361
 20
-4.6969731576430709
 30
0.0
  0
VERTEX
  5
28E
  8
0
  6
CONTINUOUS
 10
-7.7500039977960284
 20
-4.7017661612544543
 30
0.0
  0
VERTEX
  5
28F
  8
0
  6
CONTINUOUS
 10
-8.4356966597439964
 20
-4.8750255783578487
 30
0.0
  0
VERTEX
  5
290
  8
0
  6
CONTINUOUS
 10
-8.5675020269850961
 20
-4.9508208071533772
 30
0.0
  0
VERTEX
  5
291
  8
0
  6
CONTINUOUS
 10
-8.6246430821474291
 20
-5.0916244025342499
 30
0.0
  0
VERTEX
  5
292
  8
0
  6
CONTINUOUS
 10
-8.6246430821474291
 20
-6.826513144064676
 30
0.0
  0
SEQEND
  5
293
  8
0
  6
CONTINUOUS
  0
POLYLINE
  5
29
  8
0
  6
CONTINUOUS
 66
     1
 10
0.0
 20
0.0
 30
0.0
 70
     1
  0
VERTEX
  5
294
  8
0
  6
CONTINUOUS
 10
-5.7424482597594704
 20
-6.826513144064676
 30
0.0
  0
VERTEX
  5
295
  8
0
  6
CONTINUOUS
 10
-5.7028304615135994
 20
-6.8505808374551966
 30
0.0
  0
VERTEX
  5
296
  8
0
  6
CONTINUOUS
 10
-5.657879498119228
 20
-6.9088989388319533
 30
0.0
  0
VERTEX
  5
297
  8
0
  6
CONTINUOUS
 10
-5.6281661494348043
 20
-7.0042664670688728
 30
0.0
  0
VERTEX
  5
298
  8
0
  6
CONTINUOUS
 10
-5.6281661494348043
 20
-7.3592731288446203
 30
0.0
  0
VERTEX
  5
299
  8
0
  6
CONTINUOUS
 10
-5.657879498119228
 20
-7.4546406570815398
 30
0.0
  0
VERTEX
  5
29A
  8
0
  6
CONTINUOUS
 10
-5.7028304615135994
 20
-7.5129602465066219
 30
0.0
  0
VERTEX
  5
29B
  8
0
  6
CONTINUOUS
 10
-5.7424482597594704
 20
-7.537026451848817
 30
0.0
  0
VERTEX
  5
29C
  8
0
  6
CONTINUOUS
 10
-12.20472065825132
 20
-7.537026451848817
 30
0.0
  0
VERTEX
  5
29D
  8
0
  6
CONTINUOUS
 10
-12.244338456497211
 20
-7.5129602465066219
 30
0.0
  0
VERTEX
  5
29E
  8
0
  6
CONTINUOUS
 10
-12.290051300627081
 20
-7.4546406570815398
 30
0.0
  0
VERTEX
  5
29F
  8
0
  6
CONTINUOUS
 10
-12.319002768575981
 20
-7.3592731288446203
 30
0.0
  0
VERTEX
  5
2A0
  8
0
  6
CONTINUOUS
 10
-12.319002768575981
 20
-7.0042664670688728
 30
0.0
  0
VERTEX
  5
2A1
  8
0
  6
CONTINUOUS
 10
-12.290051300627081
 20
-6.9088989388319533
 30
0.0
  0
VERTEX
  5
2A2
  8
0
  6
CONTINUOUS
 10
-12.244338456497211
 20
-6.8505808374551966
 30
0.0
  0
VERTEX
  5
2A3
  8
0
  6
CONTINUOUS
 10
-12.20472065825132
 20
-6.826513144064676
 30
0.0
  0
SEQEND
  5
2A4
  8
0
  6
CONTINUOUS
  0
POLYLINE
  5
2A
  8
0
  6
CONTINUOUS
 66
     1
 10
0.0
 20
0.0
 30
0.0
  0
VERTEX
  5
2A5
  8
0
  6
CONTINUOUS
 10
-7.5107734468497247
 20
-0.8229561903957574
 30
0.0
  0
VERTEX
  5
2A6
  8
0
  6
CONTINUOUS
 10
-10.43639547116106
 20
-0.8229561903957574
 30
0.0
  0
SEQEND
  5
2A7
  8
0
  6
CONTINUOUS
  0
POLYLINE
  5
2B
  8
0
  6
CONTINUOUS
 66
     1
 10
0.0
 20
0.0
 30
0.0
  0
VERTEX
  5
2A8
  8
0
  6
CONTINUOUS
 10
-7.5107734468497247
 20
-2.0083094345063719
 30
0.0
  0
VERTEX
  5
2A9
  8
0
  6
CONTINUOUS
 10
-10.43639547116106
 20
-2.0083094345063719
 30
0.0
  0
SEQEND
  5
2AA
  8
0
  6
CONTINUOUS
  0
POLYLINE
  5
2C
  8
0
  6
CONTINUOUS
 66
     1
 10
0.0
 20
0.0
 30
0.0
  0
VERTEX
  5
2AB
  8
0
  6
CONTINUOUS
 10
-10.997139692487391
 20
-0.3302410737271089
 30
0.0
  0
VERTEX
  5
2AC
  8
0
  6
CONTINUOUS
 10
-6.9507911062588903
 20
-0.3302410737271089
 30
0.0
  0
SEQEND
  5
2AD
  8
0
  6
CONTINUOUS
  0
POLYLINE
  5
2D
  8
0
  6
CONTINUOUS
 66
     1
 10
0.0
 20
0.0
 30
0.0
 70
     1
  0
VERTEX
  5
2AE
  8
0
  6
CONTINUOUS
 10
-6.9507911062588903
 20
0.0
 30
0.0
  0
VERTEX
  5
2AF
  8
0
  6
CONTINUOUS
 10
-6.9507911062588903
 20
-0.3302410737271089
 30
0.0
  0
VERTEX
  5
2B0
  8
0
  6
CONTINUOUS
 10
-7.0490737211381136
 20
-0.3435226489315823
 30
0.0
  0
VERTEX
  5
2B1
  8
0
  6
CONTINUOUS
 10
-7.2334488591285426
 20
-0.399744090237391
 30
0.0
  0
VERTEX
  5
2B2
  8
0
  6
CONTINUOUS
 10
-7.3797299603441209
 20
-0.5065956313184757
 30
0.0
  0
VERTEX
  5
2B3
  8
0
  6
CONTINUOUS
 10
-7.475726933016829
 20
-0.6517941773873872
 30
0.0
  0
VERTEX
  5
2B4
  8
0
  6
CONTINUOUS
 10
-7.5107734468497247
 20
-0.8229561903957574
 30
0.0
  0
VERTEX
  5
2B5
  8
0
  6
CONTINUOUS
 10
-7.5107734468497247
 20
-2.0083094345063719
 30
0.0
  0
VERTEX
  5
2B6
  8
0
  6
CONTINUOUS
 10
-7.5107734468497247
 20
-4.6969731576430709
 30
0.0
  0
VERTEX
  5
2B7
  8
0
  6
CONTINUOUS
 10
-10.43639547116106
 20
-4.6969731576430709
 30
0.0
  0
VERTEX
  5
2B8
  8
0
  6
CONTINUOUS
 10
-10.43639547116106
 20
-2.0083094345063719
 30
0.0
  0
VERTEX
  5
2B9
  8
0
  6
CONTINUOUS
 10
-10.43639547116106
 20
-0.8229561903957574
 30
0.0
  0
VERTEX
  5
2BA
  8
0
  6
CONTINUOUS
 10
-10.47144198499395
 20
-0.6517941773873872
 30
0.0
  0
VERTEX
  5
2BB
  8
0
  6
CONTINUOUS
 10
-10.568200838402159
 20
-0.5065956313184757
 30
0.0
  0
VERTEX
  5
2BC
  8
0
  6
CONTINUOUS
 10
-10.714481939617739
 20
-0.399744090237391
 30
0.0
  0
VERTEX
  5
2BD
  8
0
  6
CONTINUOUS
 10
-10.898095196872699
 20
-0.3435226489315823
 30
0.0
  0
VERTEX
  5
2BE
  8
0
  6
CONTINUOUS
 10
-10.997139692487391
 20
-0.3302410737271089
 30
0.0
  0
VERTEX
  5
2BF
  8
0
  6
CONTINUOUS
 10
-10.997139692487391
 20
0.0
 30
0.0
  0
SEQEND
  5
2C0
  8
0
  6
CONTINUOUS
  0
POLYLINE
  5
2E
  8
0
  6
CONTINUOUS
 66
     1
 10
0.0
 20
0.0
 30
0.0
  0
VERTEX
  5
2C1
  8
0
  6
CONTINUOUS
 10
-9.3225258358633596
 20
-6.826513144064676
 30
0.0
  0
VERTEX
  5
2C2
  8
0
  6
CONTINUOUS
 10
-9.3225258358633596
 20
-5.0916244025342499
 30
0.0
  0
VERTEX
  5
2C3
  8
0
  6
CONTINUOUS
 10
-9.3804287717611885
 20
-4.9508208071533772
 30
0.0
  0
VERTEX
  5
2C4
  8
0
  6
CONTINUOUS
 10
-9.5114722582667923
 20
-4.8750255783578487
 30
0.0
  0
VERTEX
  5
2C5
  8
0
  6
CONTINUOUS
 10
-10.19716492021476
 20
-4.7017661612544543
 30
0.0
  0
VERTEX
  5
2C6
  8
0
  6
CONTINUOUS
 10
-10.202821666717851
 20
-4.6969731576430709
 30
0.0
  0
SEQEND
  5
2C7
  8
0
  6
CONTINUOUS
  0
POLYLINE
  5
2F
  8
0
  6
CONTINUOUS
 66
     1
 10
0.0
 20
0.0
 30
0.0
  0
VERTEX
  5
2C8
  8
0
  6
CONTINUOUS
 10
-12.20472065825132
 20
-6.826513144064676
 30
0.0
  0
VERTEX
  5
2C9
  8
0
  6
CONTINUOUS
 10
-12.20472065825132
 20
-6.8438890841982811
 30
0.0
  0
VERTEX
  5
2CA
  8
0
  6
CONTINUOUS
 10
-12.20472065825132
 20
-6.8944187407125801
 30
0.0
  0
VERTEX
  5
2CB
  8
0
  6
CONTINUOUS
 10
-12.20472065825132
 20
-6.9730100122854424
 30
0.0
  0
VERTEX
  5
2CC
  8
0
  6
CONTINUOUS
 10
-12.20472065825132
 20
-7.0719726652430381
 30
0.0
  0
VERTEX
  5
2CD
  8
0
  6
CONTINUOUS
 10
-12.20472065825132
 20
-7.1817206923624886
 30
0.0
  0
VERTEX
  5
2CE
  8
0
  6
CONTINUOUS
 10
-12.20472065825132
 20
-7.2915669306705118
 30
0.0
  0
VERTEX
  5
2CF
  8
0
  6
CONTINUOUS
 10
-12.20472065825132
 20
-7.3905295836280507
 30
0.0
  0
VERTEX
  5
2D0
  8
0
  6
CONTINUOUS
 10
-12.20472065825132
 20
-7.4691208552009689
 30
0.0
  0
VERTEX
  5
2D1
  8
0
  6
CONTINUOUS
 10
-12.20472065825132
 20
-7.5195508124783137
 30
0.0
  0
VERTEX
  5
2D2
  8
0
  6
CONTINUOUS
 10
-12.20472065825132
 20
-7.537026451848817
 30
0.0
  0
SEQEND
  5
2D3
  8
0
  6
CONTINUOUS
  0
POLYLINE
  5
30
  8
0
  6
CONTINUOUS
 66
     1
 10
0.0
 20
0.0
 30
0.0
 70
     1
  0
VERTEX
  5
2D4
  8
0
  6
CONTINUOUS
 10
-8.9735844590053944
 20
-6.826513144064676
 30
0.0
  0
VERTEX
  5
2D5
  8
0
  6
CONTINUOUS
 10
-8.8646355138292279
 20
-6.8438890841982811
 30
0.0
  0
VERTEX
  5
2D6
  8
0
  6
CONTINUOUS
 10
-8.7663528989500037
 20
-6.8944187407125801
 30
0.0
  0
VERTEX
  5
2D7
  8
0
  6
CONTINUOUS
 10
-8.6878791831937576
 20
-6.9730100122854424
 30
0.0
  0
VERTEX
  5
2D8
  8
0
  6
CONTINUOUS
 10
-8.6383569353863834
 20
-7.0719726652430381
 30
0.0
  0
VERTEX
  5
2D9
  8
0
  6
CONTINUOUS
 10
-8.6208336784699497
 20
-7.1817206923624886
 30
0.0
  0
VERTEX
  5
2DA
  8
0
  6
CONTINUOUS
 10
-8.6383569353863834
 20
-7.2915669306705118
 30
0.0
  0
VERTEX
  5
2DB
  8
0
  6
CONTINUOUS
 10
-8.6878791831937576
 20
-7.3905295836280507
 30
0.0
  0
VERTEX
  5
2DC
  8
0
  6
CONTINUOUS
 10
-8.7663528989500037
 20
-7.4691208552009689
 30
0.0
  0
VERTEX
  5
2DD
  8
0
  6
CONTINUOUS
 10
-8.8646355138292279
 20
-7.5195508124783137
 30
0.0
  0
VERTEX
  5
2DE
  8
0
  6
CONTINUOUS
 10
-8.9735844590053944
 20
-7.537026451848817
 30
0.0
  0
VERTEX
  5
2DF
  8
0
  6
CONTINUOUS
 10
-9.0825334041815893
 20
-7.5195508124783137
 30
0.0
  0
VERTEX
  5
2E0
  8
0
  6
CONTINUOUS
 10
-9.1815778997962791
 20
-7.4691208552009689
 30
0.0
  0
VERTEX
  5
2E1
  8
0
  6
CONTINUOUS
 10
-9.2592897348170595
 20
-7.3905295836280507
 30
0.0
  0
VERTEX
  5
2E2
  8
0
  6
CONTINUOUS
 10
-9.3095738633599012
 20
-7.2915669306705118
 30
0.0
  0
VERTEX
  5
2E3
  8
0
  6
CONTINUOUS
 10
-9.3263352395408674
 20
-7.1817206923624886
 30
0.0
  0
VERTEX
  5
2E4
  8
0
  6
CONTINUOUS
 10
-9.3095738633599012
 20
-7.0719726652430381
 30
0.0
  0
VERTEX
  5
2E5
  8
0
  6
CONTINUOUS
 10
-9.2592897348170595
 20
-6.9730100122854424
 30
0.0
  0
VERTEX
  5
2E6
  8
0
  6
CONTINUOUS
 10
-9.1815778997962791
 20
-6.8944187407125801
 30
0.0
  0
VERTEX
  5
2E7
  8
0
  6
CONTINUOUS
 10
-9.0825334041815893
 20
-6.8438890841982811
 30
0.0
  0
SEQEND
  5
2E8
  8
0
  6
CONTINUOUS
  0
POLYLINE
  5
31
  8
0
  6
CONTINUOUS
 66
     1
 10
0.0
 20
0.0
 30
0.0
 70
     1
  0
VERTEX
  5
2E9
  8
0
  6
CONTINUOUS
 10
-8.869968678977699
 20
-7.038119566155955
 30
0.0
  0
VERTEX
  5
2EA
  8
0
  6
CONTINUOUS
 10
-8.8311127614673222
 20
-7.0774650515608073
 30
0.0
  0
VERTEX
  5
2EB
  8
0
  6
CONTINUOUS
 10
-8.8059706971959031
 20
-7.1268965284211836
 30
0.0
  0
VERTEX
  5
2EC
  8
0
  6
CONTINUOUS
 10
-8.7975900091054182
 20
-7.1817206923624886
 30
0.0
  0
VERTEX
  5
2ED
  8
0
  6
CONTINUOUS
 10
-8.8059706971959031
 20
-7.2366430674923086
 30
0.0
  0
VERTEX
  5
2EE
  8
0
  6
CONTINUOUS
 10
-8.8311127614673222
 20
-7.2860745443526858
 30
0.0
  0
VERTEX
  5
2EF
  8
0
  6
CONTINUOUS
 10
-8.869968678977699
 20
-7.325420029757538
 30
0.0
  0
VERTEX
  5
2F0
  8
0
  6
CONTINUOUS
 10
-8.9194909267850448
 20
-7.3505859028019813
 30
0.0
  0
VERTEX
  5
2F1
  8
0
  6
CONTINUOUS
 10
-8.9735844590053944
 20
-7.3592731288446203
 30
0.0
  0
VERTEX
  5
2F2
  8
0
  6
CONTINUOUS
 10
-9.0284398719612398
 20
-7.3505859028019813
 30
0.0
  0
VERTEX
  5
2F3
  8
0
  6
CONTINUOUS
 10
-9.0772002390330897
 20
-7.325420029757538
 30
0.0
  0
VERTEX
  5
2F4
  8
0
  6
CONTINUOUS
 10
-9.1168180372789891
 20
-7.2860745443526858
 30
0.0
  0
VERTEX
  5
2F5
  8
0
  6
CONTINUOUS
 10
-9.1411982208149141
 20
-7.2366430674923086
 30
0.0
  0
VERTEX
  5
2F6
  8
0
  6
CONTINUOUS
 10
-9.150340789640893
 20
-7.1817206923624886
 30
0.0
  0
VERTEX
  5
2F7
  8
0
  6
CONTINUOUS
 10
-9.1411982208149141
 20
-7.1268965284211836
 30
0.0
  0
VERTEX
  5
2F8
  8
0
  6
CONTINUOUS
 10
-9.1168180372789891
 20
-7.0774650515608073
 30
0.0
  0
VERTEX
  5
2F9
  8
0
  6
CONTINUOUS
 10
-9.0772002390330897
 20
-7.038119566155955
 30
0.0
  0
VERTEX
  5
2FA
  8
0
  6
CONTINUOUS
 10
-9.0284398719612398
 20
-7.0129551811598381
 30
0.0
  0
VERTEX
  5
2FB
  8
0
  6
CONTINUOUS
 10
-8.9735844590053944
 20
-7.0042664670688728
 30
0.0
  0
VERTEX
  5
2FC
  8
0
  6
CONTINUOUS
 10
-8.9194909267850448
 20
-7.0129551811598381
 30
0.0
  0
SEQEND
  5
2FD
  8
0
  6
CONTINUOUS
  0
POLYLINE
  5
32
  8
0
  6
CONTINUOUS
 66
     1
 10
0.0
 20
0.0
 30
0.0
  0
VERTEX
  5
2FE
  8
0
  6
CONTINUOUS
 10
-8.6246430821474291
 20
-5.0916244025342499
 30
0.0
  0
VERTEX
  5
2FF
  8
0
  6
CONTINUOUS
 10
-9.3225258358633596
 20
-5.0916244025342499
 30
0.0
  0
SEQEND
  5
300
  8
0
  6
CONTINUOUS
  0
POLYLINE
  5
33
  8
0
  6
CONTINUOUS
 66
     1
 10
0.0
 20
0.0
 30
0.0
  0
VERTEX
  5
301
  8
0
  6
CONTINUOUS
 10
-5.7424482597594704
 20
-6.826513144064676
 30
0.0
  0
VERTEX
  5
302
  8
0
  6
CONTINUOUS
 10
-5.7424482597594704
 20
-6.8438890841982811
 30
0.0
  0
VERTEX
  5
303
  8
0
  6
CONTINUOUS
 10
-5.7424482597594704
 20
-6.8944187407125801
 30
0.0
  0
VERTEX
  5
304
  8
0
  6
CONTINUOUS
 10
-5.7424482597594704
 20
-6.9730100122854424
 30
0.0
  0
VERTEX
  5
305
  8
0
  6
CONTINUOUS
 10
-5.7424482597594704
 20
-7.0719726652430381
 30
0.0
  0
VERTEX
  5
306
  8
0
  6
CONTINUOUS
 10
-5.7424482597594704
 20
-7.1817206923624886
 30
0.0
  0
VERTEX
  5
307
  8
0
  6
CONTINUOUS
 10
-5.7424482597594704
 20
-7.2915669306705118
 30
0.0
  0
VERTEX
  5
308
  8
0
  6
CONTINUOUS
 10
-5.7424482597594704
 20
-7.3905295836280507
 30
0.0
  0
VERTEX
  5
309
  8
0
  6
CONTINUOUS
 10
-5.7424482597594704
 20
-7.4691208552009689
 30
0.0
  0
VERTEX
  5
30A
  8
0
  6
CONTINUOUS
 10
-5.7424482597594704
 20
-7.5195508124783137
 30
0.0
  0
VERTEX
  5
30B
  8
0
  6
CONTINUOUS
 10
-5.7424482597594704
 20
-7.537026451848817
 30
0.0
  0
SEQEND
  5
30C
  8
0
  6
CONTINUOUS
  0
POLYLINE
  5
34
  8
0
  6
CONTINUOUS
 66
     1
 10
0.0
 20
0.0
 30
0.0
  0
VERTEX
  5
30D
  8
0
  6
CONTINUOUS
 10
10.20930416247856
 20
-4.6969731576430709
 30
0.0
  0
VERTEX
  5
30E
  8
0
  6
CONTINUOUS
 10
10.20364741597546
 20
-4.7017661612544543
 30
0.0
  0
VERTEX
  5
30F
  8
0
  6
CONTINUOUS
 10
9.5179547540274996
 20
-4.8750255783578487
 30
0.0
  0
VERTEX
  5
310
  8
0
  6
CONTINUOUS
 10
9.3861493867863999
 20
-4.9508208071533772
 30
0.0
  0
VERTEX
  5
311
  8
0
  6
CONTINUOUS
 10
9.3290083316240668
 20
-5.0916244025342499
 30
0.0
  0
VERTEX
  5
312
  8
0
  6
CONTINUOUS
 10
9.3290083316240668
 20
-6.826513144064676
 30
0.0
  0
SEQEND
  5
313
  8
0
  6
CONTINUOUS
  0
POLYLINE
  5
35
  8
0
  6
CONTINUOUS
 66
     1
 10
0.0
 20
0.0
 30
0.0
 70
     1
  0
VERTEX
  5
314
  8
0
  6
CONTINUOUS
 10
12.21120315401202
 20
-6.826513144064676
 30
0.0
  0
VERTEX
  5
315
  8
0
  6
CONTINUOUS
 10
12.250820952257889
 20
-6.8505808374551966
 30
0.0
  0
VERTEX
  5
316
  8
0
  6
CONTINUOUS
 10
12.29577191565226
 20
-6.9088989388319533
 30
0.0
  0
VERTEX
  5
317
  8
0
  6
CONTINUOUS
 10
12.32548526433669
 20
-7.0042664670688728
 30
0.0
  0
VERTEX
  5
318
  8
0
  6
CONTINUOUS
 10
12.32548526433669
 20
-7.3592731288446203
 30
0.0
  0
VERTEX
  5
319
  8
0
  6
CONTINUOUS
 10
12.29577191565226
 20
-7.4546406570815398
 30
0.0
  0
VERTEX
  5
31A
  8
0
  6
CONTINUOUS
 10
12.250820952257889
 20
-7.5129602465066219
 30
0.0
  0
VERTEX
  5
31B
  8
0
  6
CONTINUOUS
 10
12.21120315401202
 20
-7.537026451848817
 30
0.0
  0
VERTEX
  5
31C
  8
0
  6
CONTINUOUS
 10
5.7489307555201767
 20
-7.537026451848817
 30
0.0
  0
VERTEX
  5
31D
  8
0
  6
CONTINUOUS
 10
5.7093129572742782
 20
-7.5129602465066219
 30
0.0
  0
VERTEX
  5
31E
  8
0
  6
CONTINUOUS
 10
5.6636001131444109
 20
-7.4546406570815398
 30
0.0
  0
VERTEX
  5
31F
  8
0
  6
CONTINUOUS
 10
5.6346486451955107
 20
-7.3592731288446203
 30
0.0
  0
VERTEX
  5
320
  8
0
  6
CONTINUOUS
 10
5.6346486451955107
 20
-7.0042664670688728
 30
0.0
  0
VERTEX
  5
321
  8
0
  6
CONTINUOUS
 10
5.6636001131444109
 20
-6.9088989388319533
 30
0.0
  0
VERTEX
  5
322
  8
0
  6
CONTINUOUS
 10
5.7093129572742782
 20
-6.8505808374551966
 30
0.0
  0
VERTEX
  5
323
  8
0
  6
CONTINUOUS
 10
5.7489307555201767
 20
-6.826513144064676
 30
0.0
  0
SEQEND
  5
324
  8
0
  6
CONTINUOUS
  0
POLYLINE
  5
36
  8
0
  6
CONTINUOUS
 66
     1
 10
0.0
 20
0.0
 30
0.0
  0
VERTEX
  5
325
  8
0
  6
CONTINUOUS
 10
6.9565117212841008
 20
-0.3302410737271089
 30
0.0
  0
VERTEX
  5
326
  8
0
  6
CONTINUOUS
 10
11.0028603075126
 20
-0.3302410737271089
 30
0.0
  0
SEQEND
  5
327
  8
0
  6
CONTINUOUS
  0
POLYLINE
  5
37
  8
0
  6
CONTINUOUS
 66
     1
 10
0.0
 20
0.0
 30
0.0
 70
     1
  0
VERTEX
  5
328
  8
0
  6
CONTINUOUS
 10
11.0028603075126
 20
0.0
 30
0.0
  0
VERTEX
  5
329
  8
0
  6
CONTINUOUS
 10
11.0028603075126
 20
-0.3302410737271089
 30
0.0
  0
VERTEX
  5
32A
  8
0
  6
CONTINUOUS
 10
10.90457769263338
 20
-0.3435226489315823
 30
0.0
  0
VERTEX
  5
32B
  8
0
  6
CONTINUOUS
 10
10.720202554642951
 20
-0.399744090237391
 30
0.0
  0
VERTEX
  5
32C
  8
0
  6
CONTINUOUS
 10
10.573921453427371
 20
-0.5065956313184757
 30
0.0
  0
VERTEX
  5
32D
  8
0
  6
CONTINUOUS
 10
10.477924480754661
 20
-0.6517941773873872
 30
0.0
  0
VERTEX
  5
32E
  8
0
  6
CONTINUOUS
 10
10.44287796692174
 20
-0.8229561903957574
 30
0.0
  0
VERTEX
  5
32F
  8
0
  6
CONTINUOUS
 10
10.44287796692174
 20
-2.0083094345063719
 30
0.0
  0
VERTEX
  5
330
  8
0
  6
CONTINUOUS
 10
10.44287796692174
 20
-4.6969731576430709
 30
0.0
  0
VERTEX
  5
331
  8
0
  6
CONTINUOUS
 10
7.517255942610432
 20
-4.6969731576430709
 30
0.0
  0
VERTEX
  5
332
  8
0
  6
CONTINUOUS
 10
7.517255942610432
 20
-2.0083094345063719
 30
0.0
  0
VERTEX
  5
333
  8
0
  6
CONTINUOUS
 10
7.517255942610432
 20
-0.8229561903957574
 30
0.0
  0
VERTEX
  5
334
  8
0
  6
CONTINUOUS
 10
7.4822094287775371
 20
-0.6517941773873872
 30
0.0
  0
VERTEX
  5
335
  8
0
  6
CONTINUOUS
 10
7.3854505753693038
 20
-0.5065956313184757
 30
0.0
  0
VERTEX
  5
336
  8
0
  6
CONTINUOUS
 10
7.239169474153754
 20
-0.399744090237391
 30
0.0
  0
VERTEX
  5
337
  8
0
  6
CONTINUOUS
 10
7.0555562168987933
 20
-0.3435226489315823
 30
0.0
  0
VERTEX
  5
338
  8
0
  6
CONTINUOUS
 10
6.9565117212841008
 20
-0.3302410737271089
 30
0.0
  0
VERTEX
  5
339
  8
0
  6
CONTINUOUS
 10
6.9565117212841008
 20
0.0
 30
0.0
  0
SEQEND
  5
33A
  8
0
  6
CONTINUOUS
  0
POLYLINE
  5
38
  8
0
  6
CONTINUOUS
 66
     1
 10
0.0
 20
0.0
 30
0.0
  0
VERTEX
  5
33B
  8
0
  6
CONTINUOUS
 10
10.44287796692174
 20
-2.0083094345063719
 30
0.0
  0
VERTEX
  5
33C
  8
0
  6
CONTINUOUS
 10
7.517255942610432
 20
-2.0083094345063719
 30
0.0
  0
SEQEND
  5
33D
  8
0
  6
CONTINUOUS
  0
POLYLINE
  5
39
  8
0
  6
CONTINUOUS
 66
     1
 10
0.0
 20
0.0
 30
0.0
  0
VERTEX
  5
33E
  8
0
  6
CONTINUOUS
 10
10.44287796692174
 20
-0.8229561903957574
 30
0.0
  0
VERTEX
  5
33F
  8
0
  6
CONTINUOUS
 10
7.517255942610432
 20
-0.8229561903957574
 30
0.0
  0
SEQEND
  5
340
  8
0
  6
CONTINUOUS
  0
POLYLINE
  5
3A
  8
0
  6
CONTINUOUS
 66
     1
 10
0.0
 20
0.0
 30
0.0
  0
VERTEX
  5
341
  8
0
  6
CONTINUOUS
 10
8.6311255779081364
 20
-6.826513144064676
 30
0.0
  0
VERTEX
  5
342
  8
0
  6
CONTINUOUS
 10
8.6311255779081364
 20
-5.0916244025342499
 30
0.0
  0
VERTEX
  5
343
  8
0
  6
CONTINUOUS
 10
8.5732226420103075
 20
-4.9508208071533772
 30
0.0
  0
VERTEX
  5
344
  8
0
  6
CONTINUOUS
 10
8.4421791555047037
 20
-4.8750255783578487
 30
0.0
  0
VERTEX
  5
345
  8
0
  6
CONTINUOUS
 10
7.7564864935567348
 20
-4.7017661612544543
 30
0.0
  0
VERTEX
  5
346
  8
0
  6
CONTINUOUS
 10
7.7508297470536434
 20
-4.6969731576430709
 30
0.0
  0
SEQEND
  5
347
  8
0
  6
CONTINUOUS
  0
POLYLINE
  5
3B
  8
0
  6
CONTINUOUS
 66
     1
 10
0.0
 20
0.0
 30
0.0
  0
VERTEX
  5
348
  8
0
  6
CONTINUOUS
 10
5.7489307555201767
 20
-6.826513144064676
 30
0.0
  0
VERTEX
  5
349
  8
0
  6
CONTINUOUS
 10
5.7489307555201767
 20
-6.8438890841982811
 30
0.0
  0
VERTEX
  5
34A
  8
0
  6
CONTINUOUS
 10
5.7489307555201767
 20
-6.8944187407125801
 30
0.0
  0
VERTEX
  5
34B
  8
0
  6
CONTINUOUS
 10
5.7489307555201767
 20
-6.9730100122854424
 30
0.0
  0
VERTEX
  5
34C
  8
0
  6
CONTINUOUS
 10
5.7489307555201767
 20
-7.0719726652430381
 30
0.0
  0
VERTEX
  5
34D
  8
0
  6
CONTINUOUS
 10
5.7489307555201767
 20
-7.1817206923624886
 30
0.0
  0
VERTEX
  5
34E
  8
0
  6
CONTINUOUS
 10
5.7489307555201767
 20
-7.2915669306705118
 30
0.0
  0
VERTEX
  5
34F
  8
0
  6
CONTINUOUS
 10
5.7489307555201767
 20
-7.3905295836280507
 30
0.0
  0
VERTEX
  5
350
  8
0
  6
CONTINUOUS
 10
5.7489307555201767
 20
-7.4691208552009689
 30
0.0
  0
VERTEX
  5
351
  8
0
  6
CONTINUOUS
 10
5.7489307555201767
 20
-7.5195508124783137
 30
0.0
  0
VERTEX
  5
352
  8
0
  6
CONTINUOUS
 10
5.7489307555201767
 20
-7.537026451848817
 30
0.0
  0
SEQEND
  5
353
  8
0
  6
CONTINUOUS
  0
POLYLINE
  5
3C
  8
0
  6
CONTINUOUS
 66
     1
 10
0.0
 20
0.0
 30
0.0
 70
     1
  0
VERTEX
  5
354
  8
0
  6
CONTINUOUS
 10
9.0836827347937952
 20
-7.038119566155955
 30
0.0
  0
VERTEX
  5
355
  8
0
  6
CONTINUOUS
 10
9.122538652304172
 20
-7.0774650515608073
 30
0.0
  0
VERTEX
  5
356
  8
0
  6
CONTINUOUS
 10
9.1476807165755911
 20
-7.1268965284211836
 30
0.0
  0
VERTEX
  5
357
  8
0
  6
CONTINUOUS
 10
9.1560614046660742
 20
-7.1817206923624886
 30
0.0
  0
VERTEX
  5
358
  8
0
  6
CONTINUOUS
 10
9.1476807165755911
 20
-7.2366430674923086
 30
0.0
  0
VERTEX
  5
359
  8
0
  6
CONTINUOUS
 10
9.122538652304172
 20
-7.2860745443526858
 30
0.0
  0
VERTEX
  5
35A
  8
0
  6
CONTINUOUS
 10
9.0836827347937952
 20
-7.325420029757538
 30
0.0
  0
VERTEX
  5
35B
  8
0
  6
CONTINUOUS
 10
9.0341604869864227
 20
-7.3505859028019813
 30
0.0
  0
VERTEX
  5
35C
  8
0
  6
CONTINUOUS
 10
8.9800669547661016
 20
-7.3592731288446203
 30
0.0
  0
VERTEX
  5
35D
  8
0
  6
CONTINUOUS
 10
8.9252115418102562
 20
-7.3505859028019813
 30
0.0
  0
VERTEX
  5
35E
  8
0
  6
CONTINUOUS
 10
8.8764511747384063
 20
-7.325420029757538
 30
0.0
  0
VERTEX
  5
35F
  8
0
  6
CONTINUOUS
 10
8.8368333764925069
 20
-7.2860745443526858
 30
0.0
  0
VERTEX
  5
360
  8
0
  6
CONTINUOUS
 10
8.8124531929565801
 20
-7.2366430674923086
 30
0.0
  0
VERTEX
  5
361
  8
0
  6
CONTINUOUS
 10
8.8033106241306314
 20
-7.1817206923624886
 30
0.0
  0
VERTEX
  5
362
  8
0
  6
CONTINUOUS
 10
8.8124531929565801
 20
-7.1268965284211836
 30
0.0
  0
VERTEX
  5
363
  8
0
  6
CONTINUOUS
 10
8.8368333764925069
 20
-7.0774650515608073
 30
0.0
  0
VERTEX
  5
364
  8
0
  6
CONTINUOUS
 10
8.8764511747384063
 20
-7.038119566155955
 30
0.0
  0
VERTEX
  5
365
  8
0
  6
CONTINUOUS
 10
8.9252115418102562
 20
-7.0129551811598381
 30
0.0
  0
VERTEX
  5
366
  8
0
  6
CONTINUOUS
 10
8.9800669547661016
 20
-7.0042664670688728
 30
0.0
  0
VERTEX
  5
367
  8
0
  6
CONTINUOUS
 10
9.0341604869864227
 20
-7.0129551811598381
 30
0.0
  0
SEQEND
  5
368
  8
0
  6
CONTINUOUS
  0
POLYLINE
  5
3D
  8
0
  6
CONTINUOUS
 66
     1
 10
0.0
 20
0.0
 30
0.0
 70
     1
  0
VERTEX
  5
369
  8
0
  6
CONTINUOUS
 10
8.9800669547661016
 20
-6.826513144064676
 30
0.0
  0
VERTEX
  5
36A
  8
0
  6
CONTINUOUS
 10
9.0890158999422681
 20
-6.8438890841982811
 30
0.0
  0
VERTEX
  5
36B
  8
0
  6
CONTINUOUS
 10
9.1872985148214923
 20
-6.8944187407125801
 30
0.0
  0
VERTEX
  5
36C
  8
0
  6
CONTINUOUS
 10
9.2657722305777384
 20
-6.9730100122854424
 30
0.0
  0
VERTEX
  5
36D
  8
0
  6
CONTINUOUS
 10
9.3152944783851126
 20
-7.0719726652430381
 30
0.0
  0
VERTEX
  5
36E
  8
0
  6
CONTINUOUS
 10
9.3328177353015462
 20
-7.1817206923624886
 30
0.0
  0
VERTEX
  5
36F
  8
0
  6
CONTINUOUS
 10
9.3152944783851126
 20
-7.2915669306705118
 30
0.0
  0
VERTEX
  5
370
  8
0
  6
CONTINUOUS
 10
9.2657722305777384
 20
-7.3905295836280507
 30
0.0
  0
VERTEX
  5
371
  8
0
  6
CONTINUOUS
 10
9.1872985148214923
 20
-7.4691208552009689
 30
0.0
  0
VERTEX
  5
372
  8
0
  6
CONTINUOUS
 10
9.0890158999422681
 20
-7.5195508124783137
 30
0.0
  0
VERTEX
  5
373
  8
0
  6
CONTINUOUS
 10
8.9800669547661016
 20
-7.537026451848817
 30
0.0
  0
VERTEX
  5
374
  8
0
  6
CONTINUOUS
 10
8.8711180095899067
 20
-7.5195508124783137
 30
0.0
  0
VERTEX
  5
375
  8
0
  6
CONTINUOUS
 10
8.7720735139752151
 20
-7.4691208552009689
 30
0.0
  0
VERTEX
  5
376
  8
0
  6
CONTINUOUS
 10
8.6943616789544365
 20
-7.3905295836280507
 30
0.0
  0
VERTEX
  5
377
  8
0
  6
CONTINUOUS
 10
8.6440775504115948
 20
-7.2915669306705118
 30
0.0
  0
VERTEX
  5
378
  8
0
  6
CONTINUOUS
 10
8.6273161742306552
 20
-7.1817206923624886
 30
0.0
  0
VERTEX
  5
379
  8
0
  6
CONTINUOUS
 10
8.6440775504115948
 20
-7.0719726652430381
 30
0.0
  0
VERTEX
  5
37A
  8
0
  6
CONTINUOUS
 10
8.6943616789544365
 20
-6.9730100122854424
 30
0.0
  0
VERTEX
  5
37B
  8
0
  6
CONTINUOUS
 10
8.7720735139752151
 20
-6.8944187407125801
 30
0.0
  0
VERTEX
  5
37C
  8
0
  6
CONTINUOUS
 10
8.8711180095899067
 20
-6.8438890841982811
 30
0.0
  0
SEQEND
  5
37D
  8
0
  6
CONTINUOUS
  0
POLYLINE
  5
3E
  8
0
  6
CONTINUOUS
 66
     1
 10
0.0
 20
0.0
 30
0.0
  0
VERTEX
  5
37E
  8
0
  6
CONTINUOUS
 10
9.3290083316240668
 20
-5.0916244025342499
 30
0.0
  0
VERTEX
  5
37F
  8
0
  6
CONTINUOUS
 10
8.6311255779081364
 20
-5.0916244025342499
 30
0.0
  0
SEQEND
  5
380
  8
0
  6
CONTINUOUS
  0
POLYLINE
  5
3F
  8
0
  6
CONTINUOUS
 66
     1
 10
0.0
 20
0.0
 30
0.0
  0
VERTEX
  5
381
  8
0
  6
CONTINUOUS
 10
12.21120315401202
 20
-6.826513144064676
 30
0.0
  0
VERTEX
  5
382
  8
0
  6
CONTINUOUS
 10
12.21120315401202
 20
-6.8438890841982811
 30
0.0
  0
VERTEX
  5
383
  8
0
  6
CONTINUOUS
 10
12.21120315401202
 20
-6.8944187407125801
 30
0.0
  0
VERTEX
  5
384
  8
0
  6
CONTINUOUS
 10
12.21120315401202
 20
-6.9730100122854424
 30
0.0
  0
VERTEX
  5
385
  8
0
  6
CONTINUOUS
 10
12.21120315401202
 20
-7.0719726652430381
 30
0.0
  0
VERTEX
  5
386
  8
0
  6
CONTINUOUS
 10
12.21120315401202
 20
-7.1817206923624886
 30
0.0
  0
VERTEX
  5
387
  8
0
  6
CONTINUOUS
 10
12.21120315401202
 20
-7.2915669306705118
 30
0.0
  0
VERTEX
  5
388
  8
0
  6
CONTINUOUS
 10
12.21120315401202
 20
-7.3905295836280507
 30
0.0
  0
VERTEX
  5
389
  8
0
  6
CONTINUOUS
 10
12.21120315401202
 20
-7.4691208552009689
 30
0.0
  0
VERTEX
  5
38A
  8
0
  6
CONTINUOUS
 10
12.21120315401202
 20
-7.5195508124783137
 30
0.0
  0
VERTEX
  5
38B
  8
0
  6
CONTINUOUS
 10
12.21120315401202
 20
-7.537026451848817
 30
0.0
  0
SEQEND
  5
38C
  8
0
  6
CONTINUOUS
  0
POLYLINE
  5
42
  8
0
  6
CONTINUOUS
 66
     1
 10
0.0
 20
0.0
 30
0.0
  0
VERTEX
  5
38D
  8
0
  6
CONTINUOUS
 10
-0.8231062028078781
 20
-2.2370913139583299
 30
0.0
  0
VERTEX
  5
38E
  8
0
  6
CONTINUOUS
 10
-0.8231062028078781
 20
-17.99833101484068
 30
0.0
  0
VERTEX
  5
38F
  8
0
  6
CONTINUOUS
 10
-0.7128594029413478
 20
-18.35114074665989
 30
0.0
  0
VERTEX
  5
390
  8
0
  6
CONTINUOUS
 10
-0.4116779279436287
 20
-18.60948175323119
 30
0.0
  0
VERTEX
  5
391
  8
0
  6
CONTINUOUS
 10
-0.0002496530794076
 20
-18.704050339710928
 30
0.0
  0
VERTEX
  5
392
  8
0
  6
CONTINUOUS
 10
0.4111786217848135
 20
-18.60948175323119
 30
0.0
  0
VERTEX
  5
393
  8
0
  6
CONTINUOUS
 10
0.7123600967824757
 20
-18.35114074665989
 30
0.0
  0
VERTEX
  5
394
  8
0
  6
CONTINUOUS
 10
0.8226068966490061
 20
-17.99833101484068
 30
0.0
  0
VERTEX
  5
395
  8
0
  6
CONTINUOUS
 10
0.8226068966490061
 20
-2.2370913139583299
 30
0.0
  0
SEQEND
  5
396
  8
0
  6
CONTINUOUS
  0
DIMENSION
  5
49
  8
COTATION-JACOBDELAFON
  2
*D0
 10
-10.997139692487391
 20
3.377729121317429
 30
0.0
 11
0.0028603075126058
 21
5.7838682754784108
 31
0.0
 70
     0
 13
11.0028603075126
 23
-0.2846737969471178
 33
0.0
 14
-10.997139692487391
 24
-0.2846737969471178
 34
0.0
  0
DIMENSION
  5
AC
  8
COTATION-JACOBDELAFON
  2
*D2
 10
-13.99073773723825
 20
-18.704050339710921
 30
0.0
 11
-16.42245670040332
 21
-9.3520251698554642
 31
0.0
 70
     0
 13
-10.997139692487391
 23
0.0
 33
0.0
 14
-0.0002496530794076
 24
-18.704050339710928
 34
0.0
 50
90.0
  0
INSERT
  5
104
 67
     1
  8
0
  6
CONTINUOUS
  2
ADCADD_ZZ
 10
0.0
 20
0.0
 30
0.0
1001
ADCADD_ZZ
1070
   205
1070
    14
1070
   209
1070
     1
1070
   231
1070
     0
1070
   235
1070
     0
1070
   236
1070
     4
1070
   237
1070
     2
1070
   238
1070
     4
1070
   239
1070
     2
1070
   240
1070
     0
1070
   241
1070
  4096
1070
   242
1070
     2
1070
   244
1070
     0
1070
   245
1070
     1
1070
   303
1040
0.1
1070
   304
1040
4.0
1070
   305
1040
1.0
1070
   306
1040
1.0
1070
   337
1040
0.0
1070
   338
1040
0.3048
1070
   339
1040
0.0625
1070
   340
1040
96.0
1070
   341
1040
4.0
1070
   342
1040
1.0
1070
   530
1010
0.0
1020
0.0
1030
0.0
1070
   531
1010
0.0
1020
0.0
1030
0.0
1070
   107
1000

1070
   108
1000
Architectural Desktop
1070
   135
1000
L120
1070
   136
1000
'
1070
   137
1000
m
1001
SDSK_PMN
1070
   100
1000
ACADARCH
1070
   300
1040
2453077.6394996522
  0
ENDSEC
  0
EOF
