  0
SECTION
  2
HEADER
  9
$ACADVER
  1
AC1009
  9
$INSBASE
 10
-0.0000000000000284
 20
0.0
 30
0.0
  9
$EXTMIN
 10
-21.59936429771362
 20
-4.2426941955703921
 30
0.0
  9
$EXTMAX
 10
12.363339575510929
 20
9.5872201008279312
 30
0.0
  9
$LIMMIN
 10
0.0
 20
0.0
  9
$LIMMAX
 10
12.0
 20
9.0
  9
$ORTHOMODE
 70
     1
  9
$REGENMODE
 70
     1
  9
$FILLMODE
 70
     1
  9
$QTEXTMODE
 70
     0
  9
$MIRRTEXT
 70
     1
  9
$DRAGMODE
 70
     2
  9
$LTSCALE
 40
1.0
  9
$OSMODE
 70
     1
  9
$ATTMODE
 70
     1
  9
$TEXTSIZE
 40
0.2
  9
$TRACEWID
 40
0.05
  9
$TEXTSTYLE
  7
STANDARD
  9
$CLAYER
  8
0
  9
$CELTYPE
  6
CONTINUOUS
  9
$CECOLOR
 62
   256
  9
$DIMSCALE
 40
1.0
  9
$DIMASZ
 40
0.18
  9
$DIMEXO
 40
0.0625
  9
$DIMDLI
 40
0.38
  9
$DIMRND
 40
0.0
  9
$DIMDLE
 40
0.0
  9
$DIMEXE
 40
0.18
  9
$DIMTP
 40
0.0
  9
$DIMTM
 40
0.0
  9
$DIMTXT
 40
0.18
  9
$DIMCEN
 40
0.09
  9
$DIMTSZ
 40
0.0
  9
$DIMTOL
 70
     0
  9
$DIMLIM
 70
     0
  9
$DIMTIH
 70
     1
  9
$DIMTOH
 70
     1
  9
$DIMSE1
 70
     0
  9
$DIMSE2
 70
     0
  9
$DIMTAD
 70
     0
  9
$DIMZIN
 70
     0
  9
$DIMBLK
  1

  9
$DIMASO
 70
     1
  9
$DIMSHO
 70
     1
  9
$DIMPOST
  1

  9
$DIMAPOST
  1

  9
$DIMALT
 70
     0
  9
$DIMALTD
 70
     2
  9
$DIMALTF
 40
25.399999999999999
  9
$DIMLFAC
 40
1.0
  9
$DIMTOFL
 70
     0
  9
$DIMTVP
 40
0.0
  9
$DIMTIX
 70
     0
  9
$DIMSOXD
 70
     0
  9
$DIMSAH
 70
     0
  9
$DIMBLK1
  1

  9
$DIMBLK2
  1

  9
$DIMSTYLE
  2
STANDARD
  9
$DIMCLRD
 70
     0
  9
$DIMCLRE
 70
     0
  9
$DIMCLRT
 70
     0
  9
$DIMTFAC
 40
1.0
  9
$DIMGAP
 40
0.09
  9
$LUNITS
 70
     2
  9
$LUPREC
 70
     4
  9
$SKETCHINC
 40
0.1
  9
$FILLETRAD
 40
0.0
  9
$AUNITS
 70
     0
  9
$AUPREC
 70
     2
  9
$MENU
  1
.
  9
$ELEVATION
 40
0.0
  9
$PELEVATION
 40
0.0
  9
$THICKNESS
 40
0.0
  9
$LIMCHECK
 70
     0
  9
$BLIPMODE
 70
     0
  9
$CHAMFERA
 40
0.0
  9
$CHAMFERB
 40
0.0
  9
$SKPOLY
 70
     0
  9
$TDCREATE
 40
2453067.5527260532
  9
$TDUPDATE
 40
2453077.6396879861
  9
$TDINDWG
 40
0.0453059259
  9
$TDUSRTIMER
 40
0.0453059259
  9
$USRTIMER
 70
     1
  9
$ANGBASE
 50
0.0
  9
$ANGDIR
 70
     0
  9
$PDMODE
 70
     0
  9
$PDSIZE
 40
0.0
  9
$PLINEWID
 40
0.0
  9
$COORDS
 70
     1
  9
$SPLFRAME
 70
     0
  9
$SPLINETYPE
 70
     6
  9
$SPLINESEGS
 70
     8
  9
$ATTDIA
 70
     1
  9
$ATTREQ
 70
     1
  9
$HANDLING
 70
 22529
  9
$HANDSEED
  5
4E1
  9
$SURFTAB1
 70
     6
  9
$SURFTAB2
 70
     6
  9
$SURFTYPE
 70
     6
  9
$SURFU
 70
     6
  9
$SURFV
 70
     6
  9
$UCSNAME
  2

  9
$UCSORG
 10
0.0
 20
0.0
 30
0.0
  9
$UCSXDIR
 10
1.0
 20
0.0
 30
0.0
  9
$UCSYDIR
 10
0.0
 20
1.0
 30
0.0
  9
$PUCSNAME
  2

  9
$PUCSORG
 10
0.0
 20
0.0
 30
0.0
  9
$PUCSXDIR
 10
1.0
 20
0.0
 30
0.0
  9
$PUCSYDIR
 10
0.0
 20
1.0
 30
0.0
  9
$USERI1
 70
     0
  9
$USERI2
 70
     0
  9
$USERI3
 70
     0
  9
$USERI4
 70
     0
  9
$USERI5
 70
     0
  9
$USERR1
 40
0.0
  9
$USERR2
 40
0.0
  9
$USERR3
 40
0.0
  9
$USERR4
 40
0.0
  9
$USERR5
 40
0.0
  9
$WORLDVIEW
 70
     1
  9
$SHADEDGE
 70
     3
  9
$SHADEDIF
 70
    70
  9
$TILEMODE
 70
     1
  9
$MAXACTVP
 70
    64
  9
$PLIMCHECK
 70
     0
  9
$PEXTMIN
 10
-3.1284534789247891
 20
-2.2473459184709959
 30
0.0
  9
$PEXTMAX
 10
293.87154652107517
 20
440.06966220030017
 30
0.0
  9
$PLIMMIN
 10
-0.1979161059762549
 20
-0.2679166643638311
  9
$PLIMMAX
 10
11.493750144177531
 20
7.9987497780266699
  9
$UNITMODE
 70
     0
  9
$VISRETAIN
 70
     1
  9
$PLINEGEN
 70
     0
  9
$PSLTSCALE
 70
     1
  0
ENDSEC
  0
SECTION
  2
TABLES
  0
TABLE
  2
VPORT
 70
     2
  0
VPORT
  2
*ACTIVE
 70
     0
 10
0.0
 20
0.0
 11
1.0
 21
1.0
 12
-1.690380084543285
 22
2.7211598656328189
 13
0.0
 23
0.0
 14
1.0
 24
1.0
 15
0.0
 25
0.0
 16
0.0
 26
0.0
 36
1.0
 17
-1.5385050920793399
 27
-0.0485154185661492
 37
0.2274496586815575
 40
19.17634668468223
 41
1.928853754940711
 42
50.0
 43
0.0
 44
0.0
 50
0.0
 51
0.0
 71
     0
 72
   100
 73
     1
 74
     1
 75
     0
 76
     0
 77
     0
 78
     0
  0
ENDTAB
  0
TABLE
  2
LTYPE
 70
     1
  0
LTYPE
  2
CONTINUOUS
 70
     0
  3
Solid line
 72
    65
 73
     0
 40
0.0
  0
ENDTAB
  0
TABLE
  2
LAYER
 70
     3
  0
LAYER
  2
0
 70
     0
 62
     7
  6
CONTINUOUS
  0
LAYER
  2
DEFPOINTS
 70
     0
 62
     7
  6
CONTINUOUS
  0
LAYER
  2
COTATION-JACOBDELAFON
 70
     0
 62
     8
  6
CONTINUOUS
  0
ENDTAB
  0
TABLE
  2
STYLE
 70
     2
  0
STYLE
  2
STANDARD
 70
     0
 40
0.0
 41
1.0
 50
0.0
 71
     0
 42
0.2
  3
txt
  4

  0
STYLE
  2
JACOB-DELAFON
 70
     0
 40
0.0
 41
1.0
 50
0.0
 71
     0
 42
2.5
  3
txt
  4

  0
ENDTAB
  0
TABLE
  2
VIEW
 70
     0
  0
ENDTAB
  0
TABLE
  2
UCS
 70
     0
  0
ENDTAB
  0
TABLE
  2
APPID
 70
     9
  0
APPID
  2
ACAD
 70
     0
  0
APPID
  2
ADCADD_ZZ
 70
     0
  0
APPID
  2
SDSK_PMN
 70
     0
  0
APPID
  2
ACAECLAYERSTANDARD
 70
     0
  0
APPID
  2
AECBASE
 70
     0
  0
APPID
  2
AEC_DWGVARSSETUP_DATA
 70
     0
  0
APPID
  2
AEC_DISPREPCONFIG_DATA
 70
     0
  0
APPID
  2
AEC_DISPREPSET_DATA
 70
     0
  0
APPID
  2
DCO15
 70
     0
  0
ENDTAB
  0
TABLE
  2
DIMSTYLE
 70
     2
  0
DIMSTYLE
  2
STANDARD
 70
     0
  3

  4

  5

  6

  7

 40
1.0
 41
0.18
 42
0.0625
 43
0.38
 44
0.18
 45
0.0
 46
0.0
 47
0.0
 48
0.0
140
0.18
141
0.09
142
0.0
143
25.399999999999999
144
1.0
145
0.0
146
1.0
147
0.09
 71
     0
 72
     0
 73
     1
 74
     1
 75
     0
 76
     0
 77
     0
 78
     0
170
     0
171
     2
172
     0
173
     0
174
     0
175
     0
176
     0
177
     0
178
     0
  0
DIMSTYLE
  2
COTATION-JACOB-DELAFON
 70
     0
  3

  4

  5
OBLIQUE
  6

  7

 40
1.0
 41
1.8
 42
0.625
 43
3.7999999999999989
 44
1.8
 45
0.0
 46
0.0
 47
0.0
 48
0.0
140
3.0
141
0.9
142
0.0
143
25.399999999999999
144
1.0
145
0.0
146
1.0
147
0.9
 71
     0
 72
     0
 73
     0
 74
     0
 75
     0
 76
     0
 77
     1
 78
    12
170
     0
171
     2
172
     0
173
     0
174
     0
175
     0
176
     0
177
     0
178
     0
  0
ENDTAB
  0
ENDSEC
  0
SECTION
  2
BLOCKS
  0
BLOCK
  8
0
  2
$MODEL_SPACE
 70
     0
 10
0.0
 20
0.0
 30
0.0
  3
$MODEL_SPACE
  1

  0
ENDBLK
  5
9
  8
0
  0
BLOCK
 67
     1
  8
0
  2
$PAPER_SPACE
 70
     0
 10
0.0
 20
0.0
 30
0.0
  3
$PAPER_SPACE
  1

  0
ENDBLK
  5
E
 67
     1
  8
0
  0
BLOCK
  8
0
  2
*D0
 70
     1
 10
0.0
 20
0.0
 30
0.0
  3
*D0
  1

  0
LINE
  5
E6
  8
COTATION-JACOBDELAFON
 62
     0
 10
-9.0013606035324472
 20
3.9804154026354581
 30
0.0
 11
-9.0013606035324472
 21
6.6359240571717226
 31
0.0
  0
LINE
  5
E7
  8
COTATION-JACOBDELAFON
 62
     0
 10
8.9986393964675528
 20
3.9804154026354581
 30
0.0
 11
8.9986393964675528
 21
6.6359240571717226
 31
0.0
  0
LINE
  5
E8
  8
COTATION-JACOBDELAFON
 62
     0
 10
-9.0013606035324472
 20
4.8359240571717228
 30
0.0
 11
8.9986393964675528
 21
4.8359240571717228
 31
0.0
  0
INSERT
  5
E9
  8
COTATION-JACOBDELAFON
 62
     0
  2
_OBLIQUE
 10
-9.0013606035324472
 20
4.8359240571717228
 30
0.0
 41
1.8
 42
1.8
 43
1.8
 50
180.0
  0
INSERT
  5
EA
  8
COTATION-JACOBDELAFON
 62
     0
  2
_OBLIQUE
 10
8.9986393964675528
 20
4.8359240571717228
 30
0.0
 41
1.8
 42
1.8
 43
1.8
  0
TEXT
  5
EB
  8
0
  6
CONTINUOUS
 62
     0
 10
-2.4682773838871541
 20
5.7932228293408912
 30
0.0
 40
3.0
  1
18
  7
JACOB-DELAFON
  0
POINT
  5
EC
  8
DEFPOINTS
 62
     0
 10
-9.0013606035324472
 20
3.3554154026354581
 30
0.0
  0
POINT
  5
ED
  8
DEFPOINTS
 62
     0
 10
8.9986393964675528
 20
3.3554154026354581
 30
0.0
  0
POINT
  5
EE
  8
DEFPOINTS
 62
     0
 10
8.9986393964675528
 20
4.8359240571717228
 30
0.0
  0
ENDBLK
  5
83
  8
0
  0
BLOCK
  8
0
  2
_OBLIQUE
 70
     0
 10
0.0
 20
0.0
 30
0.0
  3
_OBLIQUE
  1

  0
LINE
  5
91
  8
0
  6
BYBLOCK
 62
     0
 10
-0.5
 20
-0.5
 30
0.0
 11
0.5
 21
0.5
 31
0.0
  0
ENDBLK
  5
93
  8
0
  0
BLOCK
  8
0
  2
*D2
 70
     1
 10
0.0
 20
0.0
 30
0.0
  3
*D2
  1

  0
LINE
  5
107
  8
COTATION-JACOBDELAFON
 62
     0
 10
-9.6263606035324472
 20
3.3554154026354581
 30
0.0
 11
-16.39806825405741
 21
3.355415402635459
 31
0.0
  0
LINE
  5
108
  8
COTATION-JACOBDELAFON
 62
     0
 10
-9.6263606035324472
 20
-3.342694195570393
 30
0.0
 11
-16.39806825405741
 21
-3.3426941955703908
 31
0.0
  0
LINE
  5
109
  8
COTATION-JACOBDELAFON
 62
     0
 10
-14.598068254057409
 20
3.355415402635459
 30
0.0
 11
-14.598068254057409
 21
-3.3426941955703922
 31
0.0
  0
TEXT
  5
10A
  8
0
  6
CONTINUOUS
 62
     0
 10
-17.80536702622658
 20
-2.8902969680909321
 30
0.0
 40
3.0
  1
6.7
 50
90.0
  7
JACOB-DELAFON
  0
INSERT
  5
10B
  8
COTATION-JACOBDELAFON
 62
     0
  2
_OBLIQUE
 10
-14.598068254057409
 20
3.355415402635459
 30
0.0
 41
1.8
 42
1.8
 43
1.8
 50
90.0
  0
INSERT
  5
10C
  8
COTATION-JACOBDELAFON
 62
     0
  2
_OBLIQUE
 10
-14.598068254057409
 20
-3.3426941955703922
 30
0.0
 41
1.8
 42
1.8
 43
1.8
 50
270.0
  0
POINT
  5
10D
  8
DEFPOINTS
 62
     0
 10
-9.0013606035324472
 20
3.3554154026354581
 30
0.0
  0
POINT
  5
10E
  8
DEFPOINTS
 62
     0
 10
-9.0013606035324472
 20
-3.342694195570393
 30
0.0
  0
POINT
  5
10F
  8
DEFPOINTS
 62
     0
 10
-14.598068254057409
 20
-3.3426941955703922
 30
0.0
  0
ENDBLK
  5
FD
  8
0
  0
BLOCK
  8
0
  2
ADCADD_ZZ
 70
     0
 10
0.0
 20
0.0
 30
0.0
  3
ADCADD_ZZ
  1

  0
ENDBLK
  5
12B
  8
0
  0
ENDSEC
  0
SECTION
  2
ENTITIES
  0
POLYLINE
  5
26
  8
0
  6
CONTINUOUS
 66
     1
 10
0.0
 20
0.0
 30
0.0
  0
VERTEX
  5
293
  8
0
  6
CONTINUOUS
 10
-8.6463385625177391
 20
0.3550220410148199
 30
0.0
  0
VERTEX
  5
294
  8
0
  6
CONTINUOUS
 10
-5.751095834527546
 20
0.3550220410148199
 30
0.0
  0
VERTEX
  5
295
  8
0
  6
CONTINUOUS
 10
-5.711248948839283
 20
0.3313427655030523
 30
0.0
  0
VERTEX
  5
296
  8
0
  6
CONTINUOUS
 10
-5.6659954543774509
 20
0.2732903481193034
 30
0.0
  0
VERTEX
  5
297
  8
0
  6
CONTINUOUS
 10
-5.6366604244890652
 20
0.1785732460722329
 30
0.0
  0
VERTEX
  5
298
  8
0
  6
CONTINUOUS
 10
-5.6366604244890652
 20
-0.1750881914100546
 30
0.0
  0
VERTEX
  5
299
  8
0
  6
CONTINUOUS
 10
-5.6659954543774509
 20
-0.2705691410542386
 30
0.0
  0
VERTEX
  5
29A
  8
0
  6
CONTINUOUS
 10
-5.711248948839283
 20
-0.3286215584379306
 30
0.0
  0
VERTEX
  5
29B
  8
0
  6
CONTINUOUS
 10
-5.751095834527546
 20
-0.3523008339497551
 30
0.0
  0
VERTEX
  5
29C
  8
0
  6
CONTINUOUS
 10
-8.6463385625177391
 20
-0.3523008339497551
 30
0.0
  0
SEQEND
  5
29D
  8
0
  6
CONTINUOUS
  0
POLYLINE
  5
27
  8
0
  6
CONTINUOUS
 66
     1
 10
0.0
 20
0.0
 30
0.0
  0
VERTEX
  5
29E
  8
0
  6
CONTINUOUS
 10
-9.3563826445471534
 20
0.3550220410148199
 30
0.0
  0
VERTEX
  5
29F
  8
0
  6
CONTINUOUS
 10
-9.3563826445471534
 20
3.241602110659584
 30
0.0
  0
VERTEX
  5
2A0
  8
0
  6
CONTINUOUS
 10
-9.3323542668132404
 20
3.2813221857115868
 30
0.0
  0
VERTEX
  5
2A1
  8
0
  6
CONTINUOUS
 10
-9.2740847794580912
 20
3.3263891939436681
 30
0.0
  0
VERTEX
  5
2A2
  8
0
  6
CONTINUOUS
 10
-9.1787716674206479
 20
3.3554154026354581
 30
0.0
  0
VERTEX
  5
2A3
  8
0
  6
CONTINUOUS
 10
-8.8239495396442464
 20
3.3554154026354581
 30
0.0
  0
VERTEX
  5
2A4
  8
0
  6
CONTINUOUS
 10
-8.7287363842259538
 20
3.3263891939436681
 30
0.0
  0
VERTEX
  5
2A5
  8
0
  6
CONTINUOUS
 10
-8.6704668968708063
 20
3.2813221857115868
 30
0.0
  0
VERTEX
  5
2A6
  8
0
  6
CONTINUOUS
 10
-8.6463385625177391
 20
3.241602110659584
 30
0.0
  0
VERTEX
  5
2A7
  8
0
  6
CONTINUOUS
 10
-8.6463385625177391
 20
0.3550220410148199
 30
0.0
  0
SEQEND
  5
2A8
  8
0
  6
CONTINUOUS
  0
POLYLINE
  5
28
  8
0
  6
CONTINUOUS
 66
     1
 10
0.0
 20
0.0
 30
0.0
  0
VERTEX
  5
2A9
  8
0
  6
CONTINUOUS
 10
-9.3563826445471534
 20
-0.3523008339497551
 30
0.0
  0
VERTEX
  5
2AA
  8
0
  6
CONTINUOUS
 10
-12.25112409755172
 20
-0.3523008339497551
 30
0.0
  0
VERTEX
  5
2AB
  8
0
  6
CONTINUOUS
 10
-12.29107168580401
 20
-0.3286215584379306
 30
0.0
  0
VERTEX
  5
2AC
  8
0
  6
CONTINUOUS
 10
-12.336525839449131
 20
-0.2705691410542386
 30
0.0
  0
VERTEX
  5
2AD
  8
0
  6
CONTINUOUS
 10
-12.366060782575801
 20
-0.1750881914100546
 30
0.0
  0
VERTEX
  5
2AE
  8
0
  6
CONTINUOUS
 10
-12.366060782575801
 20
0.1785732460722329
 30
0.0
  0
VERTEX
  5
2AF
  8
0
  6
CONTINUOUS
 10
-12.336525839449131
 20
0.2732903481193034
 30
0.0
  0
VERTEX
  5
2B0
  8
0
  6
CONTINUOUS
 10
-12.29107168580401
 20
0.3313427655030523
 30
0.0
  0
VERTEX
  5
2B1
  8
0
  6
CONTINUOUS
 10
-12.25112409755172
 20
0.3550220410148199
 30
0.0
  0
VERTEX
  5
2B2
  8
0
  6
CONTINUOUS
 10
-9.3563826445471534
 20
0.3550220410148199
 30
0.0
  0
SEQEND
  5
2B3
  8
0
  6
CONTINUOUS
  0
POLYLINE
  5
29
  8
0
  6
CONTINUOUS
 66
     1
 10
0.0
 20
0.0
 30
0.0
  0
VERTEX
  5
2B4
  8
0
  6
CONTINUOUS
 10
-10.917304205340001
 20
0.3550220410148199
 30
0.0
  0
VERTEX
  5
2B5
  8
0
  6
CONTINUOUS
 10
-10.644413941743689
 20
1.193726702689843
 30
0.0
  0
VERTEX
  5
2B6
  8
0
  6
CONTINUOUS
 10
-10.932957371568589
 20
0.6284794807959316
 30
0.0
  0
VERTEX
  5
2B7
  8
0
  6
CONTINUOUS
 10
-10.644413941743689
 20
1.193726702689843
 30
0.0
  0
VERTEX
  5
2B8
  8
0
  6
CONTINUOUS
 10
-10.1949798901538
 20
1.642869089816315
 30
0.0
  0
VERTEX
  5
2B9
  8
0
  6
CONTINUOUS
 10
-9.6288069506152851
 20
1.930839633943378
 30
0.0
  0
VERTEX
  5
2BA
  8
0
  6
CONTINUOUS
 10
-9.3563826445471534
 20
1.973933087686589
 30
0.0
  0
SEQEND
  5
2BB
  8
0
  6
CONTINUOUS
  0
POLYLINE
  5
2A
  8
0
  6
CONTINUOUS
 66
     1
 10
0.0
 20
0.0
 30
0.0
  0
VERTEX
  5
2BC
  8
0
  6
CONTINUOUS
 10
-10.173666201096889
 20
0.3550220410148199
 30
0.0
  0
VERTEX
  5
2BD
  8
0
  6
CONTINUOUS
 10
-10.169549881916931
 20
0.3809928593180416
 30
0.0
  0
VERTEX
  5
2BE
  8
0
  6
CONTINUOUS
 10
-9.9950420356538512
 20
0.7224327352458319
 30
0.0
  0
VERTEX
  5
2BF
  8
0
  6
CONTINUOUS
 10
-9.7232189611904687
 20
0.9943624798326595
 30
0.0
  0
VERTEX
  5
2C0
  8
0
  6
CONTINUOUS
 10
-9.3807116380834543
 20
1.1685197319837921
 30
0.0
  0
VERTEX
  5
2C1
  8
0
  6
CONTINUOUS
 10
-9.3563826445471534
 20
1.1723377693146511
 30
0.0
  0
SEQEND
  5
2C2
  8
0
  6
CONTINUOUS
  0
POLYLINE
  5
2B
  8
0
  6
CONTINUOUS
 66
     1
 10
0.0
 20
0.0
 30
0.0
  0
VERTEX
  5
2C3
  8
0
  6
CONTINUOUS
 10
-10.22626343905457
 20
0.3550220410148199
 30
0.0
  0
VERTEX
  5
2C4
  8
0
  6
CONTINUOUS
 10
-10.219608753547609
 20
0.3970336588582768
 30
0.0
  0
VERTEX
  5
2C5
  8
0
  6
CONTINUOUS
 10
-10.037592971673829
 20
0.7537504867291318
 30
0.0
  0
VERTEX
  5
2C6
  8
0
  6
CONTINUOUS
 10
-9.7541555348201427
 20
1.0363740976761731
 30
0.0
  0
VERTEX
  5
2C7
  8
0
  6
CONTINUOUS
 10
-9.3970314210234278
 20
1.218169825798725
 30
0.0
  0
VERTEX
  5
2C8
  8
0
  6
CONTINUOUS
 10
-9.3563826445471534
 20
1.2245997253962739
 30
0.0
  0
SEQEND
  5
2C9
  8
0
  6
CONTINUOUS
  0
POLYLINE
  5
2C
  8
0
  6
CONTINUOUS
 66
     1
 10
0.0
 20
0.0
 30
0.0
  0
VERTEX
  5
2CA
  8
0
  6
CONTINUOUS
 10
-10.413774393334419
 20
0.3550220410148199
 30
0.0
  0
VERTEX
  5
2CB
  8
0
  6
CONTINUOUS
 10
-10.39792091889805
 20
0.4550860762419689
 30
0.0
  0
VERTEX
  5
2CC
  8
0
  6
CONTINUOUS
 10
-10.189373368141901
 20
0.8637445407193241
 30
0.0
  0
VERTEX
  5
2CD
  8
0
  6
CONTINUOUS
 10
-9.8643867992945786
 20
1.188379769509708
 30
0.0
  0
VERTEX
  5
2CE
  8
0
  6
CONTINUOUS
 10
-9.4550002925761873
 20
1.3961463159355949
 30
0.0
  0
VERTEX
  5
2CF
  8
0
  6
CONTINUOUS
 10
-9.3563826445471534
 20
1.4117450899415751
 30
0.0
  0
SEQEND
  5
2D0
  8
0
  6
CONTINUOUS
  0
POLYLINE
  5
2D
  8
0
  6
CONTINUOUS
 66
     1
 10
0.0
 20
0.0
 30
0.0
  0
VERTEX
  5
2D1
  8
0
  6
CONTINUOUS
 10
-10.44870986694195
 20
0.3550220410148199
 30
0.0
  0
VERTEX
  5
2D2
  8
0
  6
CONTINUOUS
 10
-10.43116022449297
 20
0.4657799426021825
 30
0.0
  0
VERTEX
  5
2D3
  8
0
  6
CONTINUOUS
 10
-10.21760663738473
 20
0.8843684258425241
 30
0.0
  0
VERTEX
  5
2D4
  8
0
  6
CONTINUOUS
 10
-9.8849114737435002
 20
1.216642130604441
 30
0.0
  0
VERTEX
  5
2D5
  8
0
  6
CONTINUOUS
 10
-9.4657128075592993
 20
1.4297556102104061
 30
0.0
  0
VERTEX
  5
2D6
  8
0
  6
CONTINUOUS
 10
-9.3563826445471534
 20
1.4470095933133389
 30
0.0
  0
SEQEND
  5
2D7
  8
0
  6
CONTINUOUS
  0
POLYLINE
  5
2E
  8
0
  6
CONTINUOUS
 66
     1
 10
0.0
 20
0.0
 30
0.0
  0
VERTEX
  5
2D8
  8
0
  6
CONTINUOUS
 10
-9.3563826445471534
 20
-1.4442883862483309
 30
0.0
  0
VERTEX
  5
2D9
  8
0
  6
CONTINUOUS
 10
-9.4657128075592993
 20
-1.427034403145341
 30
0.0
  0
VERTEX
  5
2DA
  8
0
  6
CONTINUOUS
 10
-9.8849114737435002
 20
-1.2131570759422621
 30
0.0
  0
VERTEX
  5
2DB
  8
0
  6
CONTINUOUS
 10
-10.21760663738473
 20
-0.880883371180289
 30
0.0
  0
VERTEX
  5
2DC
  8
0
  6
CONTINUOUS
 10
-10.43116022449297
 20
-0.4622948879398905
 30
0.0
  0
VERTEX
  5
2DD
  8
0
  6
CONTINUOUS
 10
-10.448617547627549
 20
-0.3523008339497551
 30
0.0
  0
SEQEND
  5
2DE
  8
0
  6
CONTINUOUS
  0
POLYLINE
  5
2F
  8
0
  6
CONTINUOUS
 66
     1
 10
0.0
 20
0.0
 30
0.0
  0
VERTEX
  5
2DF
  8
0
  6
CONTINUOUS
 10
-9.3563826445471534
 20
-1.40902388287651
 30
0.0
  0
VERTEX
  5
2E0
  8
0
  6
CONTINUOUS
 10
-9.4550002925761873
 20
-1.3934251088705301
 30
0.0
  0
VERTEX
  5
2E1
  8
0
  6
CONTINUOUS
 10
-9.8643867992945786
 20
-1.18489471484753
 30
0.0
  0
VERTEX
  5
2E2
  8
0
  6
CONTINUOUS
 10
-10.189373368141901
 20
-0.8602594860571458
 30
0.0
  0
VERTEX
  5
2E3
  8
0
  6
CONTINUOUS
 10
-10.39792091889805
 20
-0.4516010215797337
 30
0.0
  0
VERTEX
  5
2E4
  8
0
  6
CONTINUOUS
 10
-10.41367990472477
 20
-0.3523008339497551
 30
0.0
  0
SEQEND
  5
2E5
  8
0
  6
CONTINUOUS
  0
POLYLINE
  5
30
  8
0
  6
CONTINUOUS
 66
     1
 10
0.0
 20
0.0
 30
0.0
  0
VERTEX
  5
2E6
  8
0
  6
CONTINUOUS
 10
-9.3563826445471534
 20
-1.2218785183312091
 30
0.0
  0
VERTEX
  5
2E7
  8
0
  6
CONTINUOUS
 10
-9.3970314210234278
 20
-1.2154486187336599
 30
0.0
  0
VERTEX
  5
2E8
  8
0
  6
CONTINUOUS
 10
-9.7541555348201427
 20
-1.0336528906110509
 30
0.0
  0
VERTEX
  5
2E9
  8
0
  6
CONTINUOUS
 10
-10.037592971673829
 20
-0.7502654320668967
 30
0.0
  0
VERTEX
  5
2EA
  8
0
  6
CONTINUOUS
 10
-10.219608753547609
 20
-0.3935486041960416
 30
0.0
  0
VERTEX
  5
2EB
  8
0
  6
CONTINUOUS
 10
-10.226155082473239
 20
-0.3523008339497551
 30
0.0
  0
SEQEND
  5
2EC
  8
0
  6
CONTINUOUS
  0
POLYLINE
  5
31
  8
0
  6
CONTINUOUS
 66
     1
 10
0.0
 20
0.0
 30
0.0
  0
VERTEX
  5
2ED
  8
0
  6
CONTINUOUS
 10
-9.3563826445471534
 20
-1.168901663848998
 30
0.0
  0
VERTEX
  5
2EE
  8
0
  6
CONTINUOUS
 10
-9.3807116380834543
 20
-1.1650346773214999
 30
0.0
  0
VERTEX
  5
2EF
  8
0
  6
CONTINUOUS
 10
-9.7232189611904687
 20
-0.9908774251704244
 30
0.0
  0
VERTEX
  5
2F0
  8
0
  6
CONTINUOUS
 10
-9.9950420356538512
 20
-0.7197115281808239
 30
0.0
  0
VERTEX
  5
2F1
  8
0
  6
CONTINUOUS
 10
-10.169549881916931
 20
-0.3775078046558065
 30
0.0
  0
VERTEX
  5
2F2
  8
0
  6
CONTINUOUS
 10
-10.17355318782716
 20
-0.3523008339497551
 30
0.0
  0
SEQEND
  5
2F3
  8
0
  6
CONTINUOUS
  0
POLYLINE
  5
32
  8
0
  6
CONTINUOUS
 66
     1
 10
0.0
 20
0.0
 30
0.0
  0
VERTEX
  5
2F4
  8
0
  6
CONTINUOUS
 10
-9.3563826445471534
 20
-1.9704480330244101
 30
0.0
  0
VERTEX
  5
2F5
  8
0
  6
CONTINUOUS
 10
-9.6288069506152851
 20
-1.9273545792811999
 30
0.0
  0
VERTEX
  5
2F6
  8
0
  6
CONTINUOUS
 10
-10.1949798901538
 20
-1.6393840351541371
 30
0.0
  0
VERTEX
  5
2F7
  8
0
  6
CONTINUOUS
 10
-10.644413941743689
 20
-1.1910054956247791
 30
0.0
  0
VERTEX
  5
2F8
  8
0
  6
CONTINUOUS
 10
-10.932957371568589
 20
-0.6249944261336964
 30
0.0
  0
VERTEX
  5
2F9
  8
0
  6
CONTINUOUS
 10
-10.97624059443816
 20
-0.3523008339497551
 30
0.0
  0
SEQEND
  5
2FA
  8
0
  6
CONTINUOUS
  0
POLYLINE
  5
33
  8
0
  6
CONTINUOUS
 66
     1
 10
0.0
 20
0.0
 30
0.0
  0
VERTEX
  5
2FB
  8
0
  6
CONTINUOUS
 10
-12.25112409755172
 20
0.3550220410148199
 30
0.0
  0
VERTEX
  5
2FC
  8
0
  6
CONTINUOUS
 10
-12.25112409755172
 20
0.3382173938774144
 30
0.0
  0
VERTEX
  5
2FD
  8
0
  6
CONTINUOUS
 10
-12.25112409755172
 20
0.2878034524652548
 30
0.0
  0
VERTEX
  5
2FE
  8
0
  6
CONTINUOUS
 10
-12.25112409755172
 20
0.2098909975555898
 30
0.0
  0
VERTEX
  5
2FF
  8
0
  6
CONTINUOUS
 10
-12.25112409755172
 20
0.1105908099255544
 30
0.0
  0
VERTEX
  5
300
  8
0
  6
CONTINUOUS
 10
-12.25112409755172
 20
0.0013606035325893
 30
0.0
  0
VERTEX
  5
301
  8
0
  6
CONTINUOUS
 10
-12.25112409755172
 20
-0.1078696028604895
 30
0.0
  0
VERTEX
  5
302
  8
0
  6
CONTINUOUS
 10
-12.25112409755172
 20
-0.2064059428932978
 30
0.0
  0
VERTEX
  5
303
  8
0
  6
CONTINUOUS
 10
-12.25112409755172
 20
-0.28508224540019
 30
0.0
  0
VERTEX
  5
304
  8
0
  6
CONTINUOUS
 10
-12.25112409755172
 20
-0.3347323392151793
 30
0.0
  0
VERTEX
  5
305
  8
0
  6
CONTINUOUS
 10
-12.25112409755172
 20
-0.3523008339497551
 30
0.0
  0
SEQEND
  5
306
  8
0
  6
CONTINUOUS
  0
POLYLINE
  5
34
  8
0
  6
CONTINUOUS
 66
     1
 10
0.0
 20
0.0
 30
0.0
  0
VERTEX
  5
307
  8
0
  6
CONTINUOUS
 10
-12.25112409755172
 20
0.3550220410148199
 30
0.0
  0
VERTEX
  5
308
  8
0
  6
CONTINUOUS
 10
-12.25112409755172
 20
0.3382173938774144
 30
0.0
  0
VERTEX
  5
309
  8
0
  6
CONTINUOUS
 10
-12.25112409755172
 20
0.2878034524652548
 30
0.0
  0
VERTEX
  5
30A
  8
0
  6
CONTINUOUS
 10
-12.25112409755172
 20
0.2098909975555898
 30
0.0
  0
VERTEX
  5
30B
  8
0
  6
CONTINUOUS
 10
-12.25112409755172
 20
0.1105908099255544
 30
0.0
  0
VERTEX
  5
30C
  8
0
  6
CONTINUOUS
 10
-12.25112409755172
 20
0.0013606035325893
 30
0.0
  0
VERTEX
  5
30D
  8
0
  6
CONTINUOUS
 10
-12.25112409755172
 20
-0.1078696028604895
 30
0.0
  0
VERTEX
  5
30E
  8
0
  6
CONTINUOUS
 10
-12.25112409755172
 20
-0.2064059428932978
 30
0.0
  0
VERTEX
  5
30F
  8
0
  6
CONTINUOUS
 10
-12.25112409755172
 20
-0.28508224540019
 30
0.0
  0
VERTEX
  5
310
  8
0
  6
CONTINUOUS
 10
-12.25112409755172
 20
-0.3347323392151793
 30
0.0
  0
VERTEX
  5
311
  8
0
  6
CONTINUOUS
 10
-12.25112409755172
 20
-0.3523008339497551
 30
0.0
  0
SEQEND
  5
312
  8
0
  6
CONTINUOUS
  0
POLYLINE
  5
35
  8
0
  6
CONTINUOUS
 66
     1
 10
0.0
 20
0.0
 30
0.0
  0
VERTEX
  5
313
  8
0
  6
CONTINUOUS
 10
-7.7759649708998486
 20
-0.3523008339497551
 30
0.0
  0
VERTEX
  5
314
  8
0
  6
CONTINUOUS
 10
-7.782511221912471
 20
-0.3935486041960416
 30
0.0
  0
VERTEX
  5
315
  8
0
  6
CONTINUOUS
 10
-7.9645277497311886
 20
-0.7502654320668967
 30
0.0
  0
VERTEX
  5
316
  8
0
  6
CONTINUOUS
 10
-8.2479651865848762
 20
-1.0336528906110509
 30
0.0
  0
VERTEX
  5
317
  8
0
  6
CONTINUOUS
 10
-8.605190002945676
 20
-1.2154486187336599
 30
0.0
  0
VERTEX
  5
318
  8
0
  6
CONTINUOUS
 10
-8.6463385625177391
 20
-1.2219592429896691
 30
0.0
  0
SEQEND
  5
319
  8
0
  6
CONTINUOUS
  0
POLYLINE
  5
36
  8
0
  6
CONTINUOUS
 66
     1
 10
0.0
 20
0.0
 30
0.0
  0
VERTEX
  5
31A
  8
0
  6
CONTINUOUS
 10
-7.828668136883123
 20
-0.3523008339497551
 30
0.0
  0
VERTEX
  5
31B
  8
0
  6
CONTINUOUS
 10
-7.8326715420521671
 20
-0.3775078046558065
 30
0.0
  0
VERTEX
  5
31C
  8
0
  6
CONTINUOUS
 10
-8.0071793883152225
 20
-0.7197115281808239
 30
0.0
  0
VERTEX
  5
31D
  8
0
  6
CONTINUOUS
 10
-8.2789017602145236
 20
-0.9908774251704244
 30
0.0
  0
VERTEX
  5
31E
  8
0
  6
CONTINUOUS
 10
-8.6214090833215664
 20
-1.1650346773214999
 30
0.0
  0
VERTEX
  5
31F
  8
0
  6
CONTINUOUS
 10
-8.6463385625177391
 20
-1.168997116189302
 30
0.0
  0
SEQEND
  5
320
  8
0
  6
CONTINUOUS
  0
POLYLINE
  5
37
  8
0
  6
CONTINUOUS
 66
     1
 10
0.0
 20
0.0
 30
0.0
  0
VERTEX
  5
321
  8
0
  6
CONTINUOUS
 10
-7.5884400707353157
 20
-0.3523008339497551
 30
0.0
  0
VERTEX
  5
322
  8
0
  6
CONTINUOUS
 10
-7.6041990565620381
 20
-0.4516010215797337
 30
0.0
  0
VERTEX
  5
323
  8
0
  6
CONTINUOUS
 10
-7.8128473098822724
 20
-0.8602594860571458
 30
0.0
  0
VERTEX
  5
324
  8
0
  6
CONTINUOUS
 10
-8.1377331761655114
 20
-1.18489471484753
 30
0.0
  0
VERTEX
  5
325
  8
0
  6
CONTINUOUS
 10
-8.5472203854479858
 20
-1.3934251088705301
 30
0.0
  0
VERTEX
  5
326
  8
0
  6
CONTINUOUS
 10
-8.6463385625177391
 20
-1.409106532472151
 30
0.0
  0
SEQEND
  5
327
  8
0
  6
CONTINUOUS
  0
POLYLINE
  5
38
  8
0
  6
CONTINUOUS
 66
     1
 10
0.0
 20
0.0
 30
0.0
  0
VERTEX
  5
328
  8
0
  6
CONTINUOUS
 10
-7.55350242783254
 20
-0.3523008339497551
 30
0.0
  0
VERTEX
  5
329
  8
0
  6
CONTINUOUS
 10
-7.5709597509671189
 20
-0.4622948879398905
 30
0.0
  0
VERTEX
  5
32A
  8
0
  6
CONTINUOUS
 10
-7.784614786584342
 20
-0.880883371180289
 30
0.0
  0
VERTEX
  5
32B
  8
0
  6
CONTINUOUS
 10
-8.1172092476615205
 20
-1.2131570759422621
 30
0.0
  0
VERTEX
  5
32C
  8
0
  6
CONTINUOUS
 10
-8.5364079138457214
 20
-1.427034403145341
 30
0.0
  0
VERTEX
  5
32D
  8
0
  6
CONTINUOUS
 10
-8.6463385625177391
 20
-1.4443831799825939
 30
0.0
  0
SEQEND
  5
32E
  8
0
  6
CONTINUOUS
  0
POLYLINE
  5
39
  8
0
  6
CONTINUOUS
 66
     1
 10
0.0
 20
0.0
 30
0.0
  0
VERTEX
  5
32F
  8
0
  6
CONTINUOUS
 10
-7.0259808295309361
 20
-0.3523008339497551
 30
0.0
  0
VERTEX
  5
330
  8
0
  6
CONTINUOUS
 10
-7.0692640524004844
 20
-0.6249944261336964
 30
0.0
  0
VERTEX
  5
331
  8
0
  6
CONTINUOUS
 10
-7.3578059903355486
 20
-1.1910054956247791
 30
0.0
  0
VERTEX
  5
332
  8
0
  6
CONTINUOUS
 10
-7.8071408312512167
 20
-1.6393840351541371
 30
0.0
  0
VERTEX
  5
333
  8
0
  6
CONTINUOUS
 10
-8.3734137274088596
 20
-1.9273545792811999
 30
0.0
  0
VERTEX
  5
334
  8
0
  6
CONTINUOUS
 10
-8.6463385625177391
 20
-1.9705341360610189
 30
0.0
  0
SEQEND
  5
335
  8
0
  6
CONTINUOUS
  0
POLYLINE
  5
3A
  8
0
  6
CONTINUOUS
 66
     1
 10
0.0
 20
0.0
 30
0.0
  0
VERTEX
  5
336
  8
0
  6
CONTINUOUS
 10
-8.6463385625177391
 20
-0.3523008339497551
 30
0.0
  0
VERTEX
  5
337
  8
0
  6
CONTINUOUS
 10
-8.6463385625177391
 20
-3.2281170559972931
 30
0.0
  0
VERTEX
  5
338
  8
0
  6
CONTINUOUS
 10
-8.6704668968708063
 20
-3.2678371310493519
 30
0.0
  0
VERTEX
  5
339
  8
0
  6
CONTINUOUS
 10
-8.7287363842259538
 20
-3.3129041392813772
 30
0.0
  0
VERTEX
  5
33A
  8
0
  6
CONTINUOUS
 10
-8.8239495396442464
 20
-3.342694195570393
 30
0.0
  0
VERTEX
  5
33B
  8
0
  6
CONTINUOUS
 10
-9.1787716674206479
 20
-3.342694195570393
 30
0.0
  0
VERTEX
  5
33C
  8
0
  6
CONTINUOUS
 10
-9.2740847794580912
 20
-3.3129041392813772
 30
0.0
  0
VERTEX
  5
33D
  8
0
  6
CONTINUOUS
 10
-9.3323542668132404
 20
-3.2678371310493519
 30
0.0
  0
VERTEX
  5
33E
  8
0
  6
CONTINUOUS
 10
-9.3563826445471534
 20
-3.2281170559972931
 30
0.0
  0
VERTEX
  5
33F
  8
0
  6
CONTINUOUS
 10
-9.3563826445471534
 20
-0.3523008339497551
 30
0.0
  0
SEQEND
  5
340
  8
0
  6
CONTINUOUS
  0
POLYLINE
  5
3B
  8
0
  6
CONTINUOUS
 66
     1
 10
0.0
 20
0.0
 30
0.0
  0
VERTEX
  5
341
  8
0
  6
CONTINUOUS
 10
-8.6463385625177391
 20
1.4118277395372161
 30
0.0
  0
VERTEX
  5
342
  8
0
  6
CONTINUOUS
 10
-8.5472203854479858
 20
1.3961463159355949
 30
0.0
  0
VERTEX
  5
343
  8
0
  6
CONTINUOUS
 10
-8.1377331761655114
 20
1.188379769509708
 30
0.0
  0
VERTEX
  5
344
  8
0
  6
CONTINUOUS
 10
-7.8128473098822724
 20
0.8637445407193241
 30
0.0
  0
VERTEX
  5
345
  8
0
  6
CONTINUOUS
 10
-7.6041990565620381
 20
0.4550860762419689
 30
0.0
  0
VERTEX
  5
346
  8
0
  6
CONTINUOUS
 10
-7.588345582125668
 20
0.3550220410148199
 30
0.0
  0
SEQEND
  5
347
  8
0
  6
CONTINUOUS
  0
POLYLINE
  5
3C
  8
0
  6
CONTINUOUS
 66
     1
 10
0.0
 20
0.0
 30
0.0
  0
VERTEX
  5
348
  8
0
  6
CONTINUOUS
 10
-8.6463385625177391
 20
1.17243201339744
 30
0.0
  0
VERTEX
  5
349
  8
0
  6
CONTINUOUS
 10
-8.6214090833215664
 20
1.1685197319837921
 30
0.0
  0
VERTEX
  5
34A
  8
0
  6
CONTINUOUS
 10
-8.2789017602145236
 20
0.9943624798326595
 30
0.0
  0
VERTEX
  5
34B
  8
0
  6
CONTINUOUS
 10
-8.0071793883152225
 20
0.7224327352458319
 30
0.0
  0
VERTEX
  5
34C
  8
0
  6
CONTINUOUS
 10
-7.8326715420521671
 20
0.3809928593180416
 30
0.0
  0
VERTEX
  5
34D
  8
0
  6
CONTINUOUS
 10
-7.8285551208113304
 20
0.3550220410148199
 30
0.0
  0
SEQEND
  5
34E
  8
0
  6
CONTINUOUS
  0
POLYLINE
  5
3D
  8
0
  6
CONTINUOUS
 66
     1
 10
0.0
 20
0.0
 30
0.0
  0
VERTEX
  5
34F
  8
0
  6
CONTINUOUS
 10
-8.6463385625177391
 20
1.2246804500547339
 30
0.0
  0
VERTEX
  5
350
  8
0
  6
CONTINUOUS
 10
-8.605190002945676
 20
1.218169825798725
 30
0.0
  0
VERTEX
  5
351
  8
0
  6
CONTINUOUS
 10
-8.2479651865848762
 20
1.0363740976761731
 30
0.0
  0
VERTEX
  5
352
  8
0
  6
CONTINUOUS
 10
-7.9645277497311886
 20
0.7537504867291318
 30
0.0
  0
VERTEX
  5
353
  8
0
  6
CONTINUOUS
 10
-7.782511221912471
 20
0.3970336588582768
 30
0.0
  0
VERTEX
  5
354
  8
0
  6
CONTINUOUS
 10
-7.7758566156081761
 20
0.3550220410148199
 30
0.0
  0
SEQEND
  5
355
  8
0
  6
CONTINUOUS
  0
POLYLINE
  5
3E
  8
0
  6
CONTINUOUS
 66
     1
 10
0.0
 20
0.0
 30
0.0
  0
VERTEX
  5
356
  8
0
  6
CONTINUOUS
 10
-8.6463385625177391
 20
1.447104387047659
 30
0.0
  0
VERTEX
  5
357
  8
0
  6
CONTINUOUS
 10
-8.5364079138457214
 20
1.4297556102104061
 30
0.0
  0
VERTEX
  5
358
  8
0
  6
CONTINUOUS
 10
-8.1172092476615205
 20
1.216642130604441
 30
0.0
  0
VERTEX
  5
359
  8
0
  6
CONTINUOUS
 10
-7.784614786584342
 20
0.8843684258425241
 30
0.0
  0
VERTEX
  5
35A
  8
0
  6
CONTINUOUS
 10
-7.5709597509671189
 20
0.4657799426021825
 30
0.0
  0
VERTEX
  5
35B
  8
0
  6
CONTINUOUS
 10
-7.5534101085181362
 20
0.3550220410148199
 30
0.0
  0
SEQEND
  5
35C
  8
0
  6
CONTINUOUS
  0
POLYLINE
  5
3F
  8
0
  6
CONTINUOUS
 66
     1
 10
0.0
 20
0.0
 30
0.0
  0
VERTEX
  5
35D
  8
0
  6
CONTINUOUS
 10
-8.6463385625177391
 20
1.974019190723197
 30
0.0
  0
VERTEX
  5
35E
  8
0
  6
CONTINUOUS
 10
-8.3734137274088596
 20
1.930839633943378
 30
0.0
  0
VERTEX
  5
35F
  8
0
  6
CONTINUOUS
 10
-7.8071408312512167
 20
1.642869089816315
 30
0.0
  0
VERTEX
  5
360
  8
0
  6
CONTINUOUS
 10
-7.3578059903355486
 20
1.193726702689843
 30
0.0
  0
VERTEX
  5
361
  8
0
  6
CONTINUOUS
 10
-7.0692640524004844
 20
0.6284794807959316
 30
0.0
  0
VERTEX
  5
362
  8
0
  6
CONTINUOUS
 10
-7.0259124558110102
 20
0.3550220410148199
 30
0.0
  0
SEQEND
  5
363
  8
0
  6
CONTINUOUS
  0
ARC
  5
40
  8
0
  6
CONTINUOUS
 10
-9.0013606035323903
 20
0.6578487494363117
 30
0.0
 40
0.4666311872771627
 50
220.46351585200401
 51
319.5364841479867
  0
ARC
  5
41
  8
0
  6
CONTINUOUS
 10
-9.0013606035323903
 20
-0.6551275423713605
 30
0.0
 40
0.4666311872771627
 50
40.463515852013309
 51
139.53648414799591
  0
ARC
  5
42
  8
0
  6
CONTINUOUS
 10
-9.6564881459038645
 20
-0.0000000000000568
 30
0.0
 40
0.4666311872771627
 50
310.4635158520133
 51
49.536484147995893
  0
ARC
  5
43
  8
0
  6
CONTINUOUS
 10
-8.3435118540961621
 20
-0.0000000000000568
 30
0.0
 40
0.4666311872771627
 50
130.46351585200401
 51
229.53648414798661
  0
POLYLINE
  5
44
  8
0
  6
CONTINUOUS
 66
     1
 10
0.0
 20
0.0
 30
0.0
  0
VERTEX
  5
364
  8
0
  6
CONTINUOUS
 10
-5.751095834527546
 20
0.3550220410148199
 30
0.0
  0
VERTEX
  5
365
  8
0
  6
CONTINUOUS
 10
-5.751095834527546
 20
0.3382173938774144
 30
0.0
  0
VERTEX
  5
366
  8
0
  6
CONTINUOUS
 10
-5.751095834527546
 20
0.2878034524652548
 30
0.0
  0
VERTEX
  5
367
  8
0
  6
CONTINUOUS
 10
-5.751095834527546
 20
0.2098909975555898
 30
0.0
  0
VERTEX
  5
368
  8
0
  6
CONTINUOUS
 10
-5.751095834527546
 20
0.1105908099255544
 30
0.0
  0
VERTEX
  5
369
  8
0
  6
CONTINUOUS
 10
-5.751095834527546
 20
0.0013606035325893
 30
0.0
  0
VERTEX
  5
36A
  8
0
  6
CONTINUOUS
 10
-5.751095834527546
 20
-0.1078696028604895
 30
0.0
  0
VERTEX
  5
36B
  8
0
  6
CONTINUOUS
 10
-5.751095834527546
 20
-0.2064059428932978
 30
0.0
  0
VERTEX
  5
36C
  8
0
  6
CONTINUOUS
 10
-5.751095834527546
 20
-0.28508224540019
 30
0.0
  0
VERTEX
  5
36D
  8
0
  6
CONTINUOUS
 10
-5.751095834527546
 20
-0.3347323392151793
 30
0.0
  0
VERTEX
  5
36E
  8
0
  6
CONTINUOUS
 10
-5.751095834527546
 20
-0.3523008339497551
 30
0.0
  0
SEQEND
  5
36F
  8
0
  6
CONTINUOUS
  0
POLYLINE
  5
45
  8
0
  6
CONTINUOUS
 66
     1
 10
0.0
 20
0.0
 30
0.0
  0
VERTEX
  5
370
  8
0
  6
CONTINUOUS
 10
-5.751095834527546
 20
0.3550220410148199
 30
0.0
  0
VERTEX
  5
371
  8
0
  6
CONTINUOUS
 10
-5.751095834527546
 20
0.3382173938774144
 30
0.0
  0
VERTEX
  5
372
  8
0
  6
CONTINUOUS
 10
-5.751095834527546
 20
0.2878034524652548
 30
0.0
  0
VERTEX
  5
373
  8
0
  6
CONTINUOUS
 10
-5.751095834527546
 20
0.2098909975555898
 30
0.0
  0
VERTEX
  5
374
  8
0
  6
CONTINUOUS
 10
-5.751095834527546
 20
0.1105908099255544
 30
0.0
  0
VERTEX
  5
375
  8
0
  6
CONTINUOUS
 10
-5.751095834527546
 20
0.0013606035325893
 30
0.0
  0
VERTEX
  5
376
  8
0
  6
CONTINUOUS
 10
-5.751095834527546
 20
-0.1078696028604895
 30
0.0
  0
VERTEX
  5
377
  8
0
  6
CONTINUOUS
 10
-5.751095834527546
 20
-0.2064059428932978
 30
0.0
  0
VERTEX
  5
378
  8
0
  6
CONTINUOUS
 10
-5.751095834527546
 20
-0.28508224540019
 30
0.0
  0
VERTEX
  5
379
  8
0
  6
CONTINUOUS
 10
-5.751095834527546
 20
-0.3347323392151793
 30
0.0
  0
VERTEX
  5
37A
  8
0
  6
CONTINUOUS
 10
-5.751095834527546
 20
-0.3523008339497551
 30
0.0
  0
SEQEND
  5
37B
  8
0
  6
CONTINUOUS
  0
POLYLINE
  5
46
  8
0
  6
CONTINUOUS
 66
     1
 10
0.0
 20
0.0
 30
0.0
  0
VERTEX
  5
37C
  8
0
  6
CONTINUOUS
 10
-9.3563826445471534
 20
3.241602110659584
 30
0.0
  0
VERTEX
  5
37D
  8
0
  6
CONTINUOUS
 10
-9.3389618469065852
 20
3.241602110659584
 30
0.0
  0
VERTEX
  5
37E
  8
0
  6
CONTINUOUS
 10
-9.2886023594735132
 20
3.241602110659584
 30
0.0
  0
VERTEX
  5
37F
  8
0
  6
CONTINUOUS
 10
-9.2100088568526814
 20
3.241602110659584
 30
0.0
  0
VERTEX
  5
380
  8
0
  6
CONTINUOUS
 10
-9.1110913389661619
 20
3.241602110659584
 30
0.0
  0
VERTEX
  5
381
  8
0
  6
CONTINUOUS
 10
-9.0013606035324472
 20
3.241602110659584
 30
0.0
  0
VERTEX
  5
382
  8
0
  6
CONTINUOUS
 10
-8.8916298680987325
 20
3.241602110659584
 30
0.0
  0
VERTEX
  5
383
  8
0
  6
CONTINUOUS
 10
-8.7927123502121844
 20
3.241602110659584
 30
0.0
  0
VERTEX
  5
384
  8
0
  6
CONTINUOUS
 10
-8.714219550155434
 20
3.241602110659584
 30
0.0
  0
VERTEX
  5
385
  8
0
  6
CONTINUOUS
 10
-8.6637593601582807
 20
3.241602110659584
 30
0.0
  0
VERTEX
  5
386
  8
0
  6
CONTINUOUS
 10
-8.6463385625177391
 20
3.241602110659584
 30
0.0
  0
SEQEND
  5
387
  8
0
  6
CONTINUOUS
  0
POLYLINE
  5
47
  8
0
  6
CONTINUOUS
 66
     1
 10
0.0
 20
0.0
 30
0.0
  0
VERTEX
  5
388
  8
0
  6
CONTINUOUS
 10
-0.8263406246410056
 20
-1.2430398454447411
 30
0.0
  0
VERTEX
  5
389
  8
0
  6
CONTINUOUS
 10
-0.8849107277985694
 20
-1.2131570759422621
 30
0.0
  0
VERTEX
  5
38A
  8
0
  6
CONTINUOUS
 10
-1.217606637384733
 20
-0.880883371180289
 30
0.0
  0
VERTEX
  5
38B
  8
0
  6
CONTINUOUS
 10
-1.43116022449297
 20
-0.4622948879398905
 30
0.0
  0
VERTEX
  5
38C
  8
0
  6
CONTINUOUS
 10
-1.5047476907617461
 20
0.0013606035325893
 30
0.0
  0
VERTEX
  5
38D
  8
0
  6
CONTINUOUS
 10
-1.43116022449297
 20
0.4657799426021825
 30
0.0
  0
VERTEX
  5
38E
  8
0
  6
CONTINUOUS
 10
-1.217606637384733
 20
0.8843684258425241
 30
0.0
  0
VERTEX
  5
38F
  8
0
  6
CONTINUOUS
 10
-0.8849107277985694
 20
1.216642130604441
 30
0.0
  0
VERTEX
  5
390
  8
0
  6
CONTINUOUS
 10
-0.4657120616143971
 20
1.4297556102104061
 30
0.0
  0
VERTEX
  5
391
  8
0
  6
CONTINUOUS
 10
-0.0010599877300308
 20
1.503084979537163
 30
0.0
  0
VERTEX
  5
392
  8
0
  6
CONTINUOUS
 10
0.4635920861543355
 20
1.4297556102104061
 30
0.0
  0
VERTEX
  5
393
  8
0
  6
CONTINUOUS
 10
0.8827907523384794
 20
1.216642130604441
 30
0.0
  0
VERTEX
  5
394
  8
0
  6
CONTINUOUS
 10
1.2153867053054901
 20
0.8843684258425241
 30
0.0
  0
VERTEX
  5
395
  8
0
  6
CONTINUOUS
 10
1.42904024903288
 20
0.4657799426021825
 30
0.0
  0
VERTEX
  5
396
  8
0
  6
CONTINUOUS
 10
1.5026277153016561
 20
0.0013606035325893
 30
0.0
  0
VERTEX
  5
397
  8
0
  6
CONTINUOUS
 10
1.42904024903288
 20
-0.4622948879398905
 30
0.0
  0
VERTEX
  5
398
  8
0
  6
CONTINUOUS
 10
1.2153867053054901
 20
-0.880883371180289
 30
0.0
  0
VERTEX
  5
399
  8
0
  6
CONTINUOUS
 10
0.8827907523384794
 20
-1.2131570759422621
 30
0.0
  0
VERTEX
  5
39A
  8
0
  6
CONTINUOUS
 10
0.8236209094660011
 20
-1.2433458357486411
 30
0.0
  0
SEQEND
  5
39B
  8
0
  6
CONTINUOUS
  0
POLYLINE
  5
48
  8
0
  6
CONTINUOUS
 66
     1
 10
0.0
 20
0.0
 30
0.0
  0
VERTEX
  5
39C
  8
0
  6
CONTINUOUS
 10
-0.8263406246410056
 20
-1.826883591415196
 30
0.0
  0
VERTEX
  5
39D
  8
0
  6
CONTINUOUS
 10
-1.1949791442088999
 20
-1.6393840351541371
 30
0.0
  0
VERTEX
  5
39E
  8
0
  6
CONTINUOUS
 10
-1.644413941743692
 20
-1.1910054956247791
 30
0.0
  0
VERTEX
  5
39F
  8
0
  6
CONTINUOUS
 10
-1.932957371568619
 20
-0.6249944261336964
 30
0.0
  0
VERTEX
  5
3A0
  8
0
  6
CONTINUOUS
 10
-2.0323754184958309
 20
0.0013606035325893
 30
0.0
  0
VERTEX
  5
3A1
  8
0
  6
CONTINUOUS
 10
-1.932957371568619
 20
0.6284794807959316
 30
0.0
  0
VERTEX
  5
3A2
  8
0
  6
CONTINUOUS
 10
-1.644413941743692
 20
1.193726702689843
 30
0.0
  0
VERTEX
  5
3A3
  8
0
  6
CONTINUOUS
 10
-1.1949791442088999
 20
1.642869089816315
 30
0.0
  0
VERTEX
  5
3A4
  8
0
  6
CONTINUOUS
 10
-0.6288069506152852
 20
1.930839633943378
 30
0.0
  0
VERTEX
  5
3A5
  8
0
  6
CONTINUOUS
 10
-0.0010599877300308
 20
2.030139821573357
 30
0.0
  0
VERTEX
  5
3A6
  8
0
  6
CONTINUOUS
 10
0.6265855266462382
 20
1.930839633943378
 30
0.0
  0
VERTEX
  5
3A7
  8
0
  6
CONTINUOUS
 10
1.1928591687488099
 20
1.642869089816315
 30
0.0
  0
VERTEX
  5
3A8
  8
0
  6
CONTINUOUS
 10
1.6421940096644501
 20
1.193726702689843
 30
0.0
  0
VERTEX
  5
3A9
  8
0
  6
CONTINUOUS
 10
1.9307359475995149
 20
0.6284794807959316
 30
0.0
  0
VERTEX
  5
3AA
  8
0
  6
CONTINUOUS
 10
2.0301554864165889
 20
0.0013606035325893
 30
0.0
  0
VERTEX
  5
3AB
  8
0
  6
CONTINUOUS
 10
1.9307359475995149
 20
-0.6249944261336964
 30
0.0
  0
VERTEX
  5
3AC
  8
0
  6
CONTINUOUS
 10
1.6421940096644501
 20
-1.1910054956247791
 30
0.0
  0
VERTEX
  5
3AD
  8
0
  6
CONTINUOUS
 10
1.1928591687488099
 20
-1.6393840351541371
 30
0.0
  0
VERTEX
  5
3AE
  8
0
  6
CONTINUOUS
 10
0.8236209094660011
 20
-1.827154989923258
 30
0.0
  0
SEQEND
  5
3AF
  8
0
  6
CONTINUOUS
  0
POLYLINE
  5
49
  8
0
  6
CONTINUOUS
 66
     1
 10
0.0
 20
0.0
 30
0.0
 70
     1
  0
VERTEX
  5
3B0
  8
0
  6
CONTINUOUS
 10
-0.8263406246410056
 20
0.0013606035325893
 30
0.0
  0
VERTEX
  5
3B1
  8
0
  6
CONTINUOUS
 10
-0.7158094903090843
 20
0.413074458398512
 30
0.0
  0
VERTEX
  5
3B2
  8
0
  6
CONTINUOUS
 10
-0.4138509870591918
 20
0.714030411677186
 30
0.0
  0
VERTEX
  5
3B3
  8
0
  6
CONTINUOUS
 10
-0.0013598575875164
 20
0.824024465667378
 30
0.0
  0
VERTEX
  5
3B4
  8
0
  6
CONTINUOUS
 10
0.4111297799942975
 20
0.714030411677186
 30
0.0
  0
VERTEX
  5
3B5
  8
0
  6
CONTINUOUS
 10
0.7130882832442183
 20
0.413074458398512
 30
0.0
  0
VERTEX
  5
3B6
  8
0
  6
CONTINUOUS
 10
0.8236209094660011
 20
0.0013606035325893
 30
0.0
  0
VERTEX
  5
3B7
  8
0
  6
CONTINUOUS
 10
0.8236209094660011
 20
-0.2445983227510169
 30
0.0
  0
VERTEX
  5
3B8
  8
0
  6
CONTINUOUS
 10
0.8236209094660011
 20
-2.0060308817879782
 30
0.0
  0
VERTEX
  5
3B9
  8
0
  6
CONTINUOUS
 10
0.7130882832442183
 20
-2.2191443613939441
 30
0.0
  0
VERTEX
  5
3BA
  8
0
  6
CONTINUOUS
 10
0.4111297799942975
 20
-2.374969271213387
 30
0.0
  0
VERTEX
  5
3BB
  8
0
  6
CONTINUOUS
 10
-0.0013598575875164
 20
-2.4322578409999092
 30
0.0
  0
VERTEX
  5
3BC
  8
0
  6
CONTINUOUS
 10
-0.4138509870591918
 20
-2.374969271213387
 30
0.0
  0
VERTEX
  5
3BD
  8
0
  6
CONTINUOUS
 10
-0.7158094903090843
 20
-2.2191443613939441
 30
0.0
  0
VERTEX
  5
3BE
  8
0
  6
CONTINUOUS
 10
-0.8263406246410056
 20
-2.0060308817879782
 30
0.0
  0
SEQEND
  5
3BF
  8
0
  6
CONTINUOUS
  0
POLYLINE
  5
4A
  8
0
  6
CONTINUOUS
 66
     1
 10
0.0
 20
0.0
 30
0.0
  0
VERTEX
  5
3C0
  8
0
  6
CONTINUOUS
 10
-0.8263406246410056
 20
-0.961480339190416
 30
0.0
  0
VERTEX
  5
3C1
  8
0
  6
CONTINUOUS
 10
-1.0375922257289001
 20
-0.7502654320668967
 30
0.0
  0
VERTEX
  5
3C2
  8
0
  6
CONTINUOUS
 10
-1.219608753547589
 20
-0.3935486041960416
 30
0.0
  0
VERTEX
  5
3C3
  8
0
  6
CONTINUOUS
 10
-1.2823830022691991
 20
0.0013606035325893
 30
0.0
  0
VERTEX
  5
3C4
  8
0
  6
CONTINUOUS
 10
-1.219608753547589
 20
0.3970336588582768
 30
0.0
  0
VERTEX
  5
3C5
  8
0
  6
CONTINUOUS
 10
-1.0375922257289001
 20
0.7537504867291318
 30
0.0
  0
VERTEX
  5
3C6
  8
0
  6
CONTINUOUS
 10
-0.7541555348201428
 20
1.0363740976761731
 30
0.0
  0
VERTEX
  5
3C7
  8
0
  6
CONTINUOUS
 10
-0.3970314210234278
 20
1.218169825798725
 30
0.0
  0
VERTEX
  5
3C8
  8
0
  6
CONTINUOUS
 10
-0.0010599877300308
 20
1.280805328765382
 30
0.0
  0
VERTEX
  5
3C9
  8
0
  6
CONTINUOUS
 10
0.3948099970543239
 20
1.218169825798725
 30
0.0
  0
VERTEX
  5
3CA
  8
0
  6
CONTINUOUS
 10
0.7520355593600528
 20
1.0363740976761731
 30
0.0
  0
VERTEX
  5
3CB
  8
0
  6
CONTINUOUS
 10
1.0354722502688101
 20
0.7537504867291318
 30
0.0
  0
VERTEX
  5
3CC
  8
0
  6
CONTINUOUS
 10
1.187753921722531
 20
0.3871036400952334
 30
0.0
  0
VERTEX
  5
3CD
  8
0
  6
CONTINUOUS
 10
1.280163070189928
 20
0.0013606035325893
 30
0.0
  0
VERTEX
  5
3CE
  8
0
  6
CONTINUOUS
 10
1.217488778087499
 20
-0.3935486041960416
 30
0.0
  0
VERTEX
  5
3CF
  8
0
  6
CONTINUOUS
 10
1.0354722502688101
 20
-0.7502654320668967
 30
0.0
  0
VERTEX
  5
3D0
  8
0
  6
CONTINUOUS
 10
0.8236209094660011
 20
-0.9620799747317506
 30
0.0
  0
SEQEND
  5
3D1
  8
0
  6
CONTINUOUS
  0
POLYLINE
  5
4B
  8
0
  6
CONTINUOUS
 66
     1
 10
0.0
 20
0.0
 30
0.0
  0
VERTEX
  5
3D2
  8
0
  6
CONTINUOUS
 10
-0.8263406246410056
 20
-2.0060308817879782
 30
0.0
  0
VERTEX
  5
3D3
  8
0
  6
CONTINUOUS
 10
-0.7158094903090843
 20
-1.792153554584899
 30
0.0
  0
VERTEX
  5
3D4
  8
0
  6
CONTINUOUS
 10
-0.4138509870591918
 20
-1.6363286447655121
 30
0.0
  0
VERTEX
  5
3D5
  8
0
  6
CONTINUOUS
 10
-0.0013598575875164
 20
-1.579040074978991
 30
0.0
  0
VERTEX
  5
3D6
  8
0
  6
CONTINUOUS
 10
0.4111297799942975
 20
-1.6363286447655121
 30
0.0
  0
VERTEX
  5
3D7
  8
0
  6
CONTINUOUS
 10
0.7130882832442183
 20
-1.792153554584899
 30
0.0
  0
VERTEX
  5
3D8
  8
0
  6
CONTINUOUS
 10
0.8236209094660011
 20
-2.0060308817879782
 30
0.0
  0
SEQEND
  5
3D9
  8
0
  6
CONTINUOUS
  0
POLYLINE
  5
4C
  8
0
  6
CONTINUOUS
 66
     1
 10
0.0
 20
0.0
 30
0.0
  0
VERTEX
  5
3DA
  8
0
  6
CONTINUOUS
 10
-0.9630037013787102
 20
0.0013606035325893
 30
0.0
  0
VERTEX
  5
3DB
  8
0
  6
CONTINUOUS
 10
-0.9159480039922983
 20
0.2984973188254116
 30
0.0
  0
VERTEX
  5
3DC
  8
0
  6
CONTINUOUS
 10
-0.7792849272546221
 20
0.5658439778292747
 30
0.0
  0
VERTEX
  5
3DD
  8
0
  6
CONTINUOUS
 10
-0.5665324849895228
 20
0.7789574574352401
 30
0.0
  0
VERTEX
  5
3DE
  8
0
  6
CONTINUOUS
 10
-0.2983130704303107
 20
0.9149223297285971
 30
0.0
  0
VERTEX
  5
3DF
  8
0
  6
CONTINUOUS
 10
-0.0010599877300308
 20
0.9622808807521892
 30
0.0
  0
VERTEX
  5
3E0
  8
0
  6
CONTINUOUS
 10
0.2961930949702207
 20
0.9149223297285971
 30
0.0
  0
VERTEX
  5
3E1
  8
0
  6
CONTINUOUS
 10
0.5643125529102804
 20
0.7789574574352401
 30
0.0
  0
VERTEX
  5
3E2
  8
0
  6
CONTINUOUS
 10
0.7771649517945322
 20
0.5658439778292747
 30
0.0
  0
VERTEX
  5
3E3
  8
0
  6
CONTINUOUS
 10
0.9137280719130558
 20
0.2984973188254116
 30
0.0
  0
VERTEX
  5
3E4
  8
0
  6
CONTINUOUS
 10
0.9608837259186202
 20
0.0013606035325893
 30
0.0
  0
VERTEX
  5
3E5
  8
0
  6
CONTINUOUS
 10
0.9137280719130558
 20
-0.2950122641631765
 30
0.0
  0
VERTEX
  5
3E6
  8
0
  6
CONTINUOUS
 10
0.8236209094660011
 20
-0.4719171045849749
 30
0.0
  0
SEQEND
  5
3E7
  8
0
  6
CONTINUOUS
  0
POLYLINE
  5
4D
  8
0
  6
CONTINUOUS
 66
     1
 10
0.0
 20
0.0
 30
0.0
  0
VERTEX
  5
3E8
  8
0
  6
CONTINUOUS
 10
-0.9630037013787102
 20
0.0013606035325893
 30
0.0
  0
VERTEX
  5
3E9
  8
0
  6
CONTINUOUS
 10
-0.9159480039922983
 20
-0.2950122641631765
 30
0.0
  0
VERTEX
  5
3EA
  8
0
  6
CONTINUOUS
 10
-0.8263406246410056
 20
-0.4708072224398734
 30
0.0
  0
SEQEND
  5
3EB
  8
0
  6
CONTINUOUS
  0
POLYLINE
  5
4E
  8
0
  6
CONTINUOUS
 66
     1
 10
0.0
 20
0.0
 30
0.0
  0
VERTEX
  5
3EC
  8
0
  6
CONTINUOUS
 10
9.3536614374822591
 20
0.3550220410148199
 30
0.0
  0
VERTEX
  5
3ED
  8
0
  6
CONTINUOUS
 10
12.24890416547245
 20
0.3550220410148199
 30
0.0
  0
VERTEX
  5
3EE
  8
0
  6
CONTINUOUS
 10
12.288751051160711
 20
0.3313427655030523
 30
0.0
  0
VERTEX
  5
3EF
  8
0
  6
CONTINUOUS
 10
12.334004545622539
 20
0.2732903481193034
 30
0.0
  0
VERTEX
  5
3F0
  8
0
  6
CONTINUOUS
 10
12.363339575510929
 20
0.1785732460722329
 30
0.0
  0
VERTEX
  5
3F1
  8
0
  6
CONTINUOUS
 10
12.363339575510929
 20
-0.1750881914100546
 30
0.0
  0
VERTEX
  5
3F2
  8
0
  6
CONTINUOUS
 10
12.334004545622539
 20
-0.2705691410542386
 30
0.0
  0
VERTEX
  5
3F3
  8
0
  6
CONTINUOUS
 10
12.288751051160711
 20
-0.3286215584379306
 30
0.0
  0
VERTEX
  5
3F4
  8
0
  6
CONTINUOUS
 10
12.24890416547245
 20
-0.3523008339497551
 30
0.0
  0
VERTEX
  5
3F5
  8
0
  6
CONTINUOUS
 10
9.3536614374822591
 20
-0.3523008339497551
 30
0.0
  0
SEQEND
  5
3F6
  8
0
  6
CONTINUOUS
  0
POLYLINE
  5
4F
  8
0
  6
CONTINUOUS
 66
     1
 10
0.0
 20
0.0
 30
0.0
  0
VERTEX
  5
3F7
  8
0
  6
CONTINUOUS
 10
8.6436173554528466
 20
0.3550220410148199
 30
0.0
  0
VERTEX
  5
3F8
  8
0
  6
CONTINUOUS
 10
8.6436173554528466
 20
3.241602110659584
 30
0.0
  0
VERTEX
  5
3F9
  8
0
  6
CONTINUOUS
 10
8.6676457331867596
 20
3.2813221857115868
 30
0.0
  0
VERTEX
  5
3FA
  8
0
  6
CONTINUOUS
 10
8.725915220541907
 20
3.3263891939436681
 30
0.0
  0
VERTEX
  5
3FB
  8
0
  6
CONTINUOUS
 10
8.8212283325793521
 20
3.3554154026354581
 30
0.0
  0
VERTEX
  5
3FC
  8
0
  6
CONTINUOUS
 10
9.1760504603557536
 20
3.3554154026354581
 30
0.0
  0
VERTEX
  5
3FD
  8
0
  6
CONTINUOUS
 10
9.2712636157740462
 20
3.3263891939436681
 30
0.0
  0
VERTEX
  5
3FE
  8
0
  6
CONTINUOUS
 10
9.3295331031291937
 20
3.2813221857115868
 30
0.0
  0
VERTEX
  5
3FF
  8
0
  6
CONTINUOUS
 10
9.3536614374822591
 20
3.241602110659584
 30
0.0
  0
VERTEX
  5
400
  8
0
  6
CONTINUOUS
 10
9.3536614374822591
 20
0.3550220410148199
 30
0.0
  0
SEQEND
  5
401
  8
0
  6
CONTINUOUS
  0
POLYLINE
  5
50
  8
0
  6
CONTINUOUS
 66
     1
 10
0.0
 20
0.0
 30
0.0
  0
VERTEX
  5
402
  8
0
  6
CONTINUOUS
 10
8.6436173554528466
 20
-1.9704480330244101
 30
0.0
  0
VERTEX
  5
403
  8
0
  6
CONTINUOUS
 10
8.3711930493847149
 20
-1.9273545792811999
 30
0.0
  0
VERTEX
  5
404
  8
0
  6
CONTINUOUS
 10
7.805020109846196
 20
-1.6393840351541371
 30
0.0
  0
VERTEX
  5
405
  8
0
  6
CONTINUOUS
 10
7.3555860582563071
 20
-1.1910054956247791
 30
0.0
  0
VERTEX
  5
406
  8
0
  6
CONTINUOUS
 10
7.0670426284313796
 20
-0.6249944261336964
 30
0.0
  0
VERTEX
  5
407
  8
0
  6
CONTINUOUS
 10
7.023759405561889
 20
-0.3523008339497551
 30
0.0
  0
SEQEND
  5
408
  8
0
  6
CONTINUOUS
  0
POLYLINE
  5
51
  8
0
  6
CONTINUOUS
 66
     1
 10
0.0
 20
0.0
 30
0.0
  0
VERTEX
  5
409
  8
0
  6
CONTINUOUS
 10
7.0826957946599967
 20
0.3550220410148199
 30
0.0
  0
VERTEX
  5
40A
  8
0
  6
CONTINUOUS
 10
7.3555860582563071
 20
1.193726702689843
 30
0.0
  0
VERTEX
  5
40B
  8
0
  6
CONTINUOUS
 10
7.0670426284313796
 20
0.6284794807959316
 30
0.0
  0
VERTEX
  5
40C
  8
0
  6
CONTINUOUS
 10
7.3555860582563071
 20
1.193726702689843
 30
0.0
  0
VERTEX
  5
40D
  8
0
  6
CONTINUOUS
 10
7.805020109846196
 20
1.642869089816315
 30
0.0
  0
VERTEX
  5
40E
  8
0
  6
CONTINUOUS
 10
8.3711930493847149
 20
1.930839633943378
 30
0.0
  0
VERTEX
  5
40F
  8
0
  6
CONTINUOUS
 10
8.6436173554528466
 20
1.973933087686589
 30
0.0
  0
SEQEND
  5
410
  8
0
  6
CONTINUOUS
  0
POLYLINE
  5
52
  8
0
  6
CONTINUOUS
 66
     1
 10
0.0
 20
0.0
 30
0.0
  0
VERTEX
  5
411
  8
0
  6
CONTINUOUS
 10
8.6436173554528466
 20
-0.3523008339497551
 30
0.0
  0
VERTEX
  5
412
  8
0
  6
CONTINUOUS
 10
5.7488759024482761
 20
-0.3523008339497551
 30
0.0
  0
VERTEX
  5
413
  8
0
  6
CONTINUOUS
 10
5.7089283141959859
 20
-0.3286215584379306
 30
0.0
  0
VERTEX
  5
414
  8
0
  6
CONTINUOUS
 10
5.6634741605508898
 20
-0.2705691410542386
 30
0.0
  0
VERTEX
  5
415
  8
0
  6
CONTINUOUS
 10
5.6339392174241993
 20
-0.1750881914100546
 30
0.0
  0
VERTEX
  5
416
  8
0
  6
CONTINUOUS
 10
5.6339392174241993
 20
0.1785732460722329
 30
0.0
  0
VERTEX
  5
417
  8
0
  6
CONTINUOUS
 10
5.6634741605508898
 20
0.2732903481193034
 30
0.0
  0
VERTEX
  5
418
  8
0
  6
CONTINUOUS
 10
5.7089283141959859
 20
0.3313427655030523
 30
0.0
  0
VERTEX
  5
419
  8
0
  6
CONTINUOUS
 10
5.7488759024482761
 20
0.3550220410148199
 30
0.0
  0
VERTEX
  5
41A
  8
0
  6
CONTINUOUS
 10
8.6436173554528466
 20
0.3550220410148199
 30
0.0
  0
SEQEND
  5
41B
  8
0
  6
CONTINUOUS
  0
POLYLINE
  5
53
  8
0
  6
CONTINUOUS
 66
     1
 10
0.0
 20
0.0
 30
0.0
  0
VERTEX
  5
41C
  8
0
  6
CONTINUOUS
 10
5.7488759024482761
 20
0.3550220410148199
 30
0.0
  0
VERTEX
  5
41D
  8
0
  6
CONTINUOUS
 10
5.7488759024482761
 20
0.3382173938774144
 30
0.0
  0
VERTEX
  5
41E
  8
0
  6
CONTINUOUS
 10
5.7488759024482761
 20
0.2878034524652548
 30
0.0
  0
VERTEX
  5
41F
  8
0
  6
CONTINUOUS
 10
5.7488759024482761
 20
0.2098909975555898
 30
0.0
  0
VERTEX
  5
420
  8
0
  6
CONTINUOUS
 10
5.7488759024482761
 20
0.1105908099255544
 30
0.0
  0
VERTEX
  5
421
  8
0
  6
CONTINUOUS
 10
5.7488759024482761
 20
0.0013606035325893
 30
0.0
  0
VERTEX
  5
422
  8
0
  6
CONTINUOUS
 10
5.7488759024482761
 20
-0.1078696028604895
 30
0.0
  0
VERTEX
  5
423
  8
0
  6
CONTINUOUS
 10
5.7488759024482761
 20
-0.2064059428932978
 30
0.0
  0
VERTEX
  5
424
  8
0
  6
CONTINUOUS
 10
5.7488759024482761
 20
-0.28508224540019
 30
0.0
  0
VERTEX
  5
425
  8
0
  6
CONTINUOUS
 10
5.7488759024482761
 20
-0.3347323392151793
 30
0.0
  0
VERTEX
  5
426
  8
0
  6
CONTINUOUS
 10
5.7488759024482761
 20
-0.3523008339497551
 30
0.0
  0
SEQEND
  5
427
  8
0
  6
CONTINUOUS
  0
POLYLINE
  5
54
  8
0
  6
CONTINUOUS
 66
     1
 10
0.0
 20
0.0
 30
0.0
  0
VERTEX
  5
428
  8
0
  6
CONTINUOUS
 10
5.7488759024482761
 20
0.3550220410148199
 30
0.0
  0
VERTEX
  5
429
  8
0
  6
CONTINUOUS
 10
5.7488759024482761
 20
0.3382173938774144
 30
0.0
  0
VERTEX
  5
42A
  8
0
  6
CONTINUOUS
 10
5.7488759024482761
 20
0.2878034524652548
 30
0.0
  0
VERTEX
  5
42B
  8
0
  6
CONTINUOUS
 10
5.7488759024482761
 20
0.2098909975555898
 30
0.0
  0
VERTEX
  5
42C
  8
0
  6
CONTINUOUS
 10
5.7488759024482761
 20
0.1105908099255544
 30
0.0
  0
VERTEX
  5
42D
  8
0
  6
CONTINUOUS
 10
5.7488759024482761
 20
0.0013606035325893
 30
0.0
  0
VERTEX
  5
42E
  8
0
  6
CONTINUOUS
 10
5.7488759024482761
 20
-0.1078696028604895
 30
0.0
  0
VERTEX
  5
42F
  8
0
  6
CONTINUOUS
 10
5.7488759024482761
 20
-0.2064059428932978
 30
0.0
  0
VERTEX
  5
430
  8
0
  6
CONTINUOUS
 10
5.7488759024482761
 20
-0.28508224540019
 30
0.0
  0
VERTEX
  5
431
  8
0
  6
CONTINUOUS
 10
5.7488759024482761
 20
-0.3347323392151793
 30
0.0
  0
VERTEX
  5
432
  8
0
  6
CONTINUOUS
 10
5.7488759024482761
 20
-0.3523008339497551
 30
0.0
  0
SEQEND
  5
433
  8
0
  6
CONTINUOUS
  0
POLYLINE
  5
55
  8
0
  6
CONTINUOUS
 66
     1
 10
0.0
 20
0.0
 30
0.0
  0
VERTEX
  5
434
  8
0
  6
CONTINUOUS
 10
10.97401917046906
 20
-0.3523008339497551
 30
0.0
  0
VERTEX
  5
435
  8
0
  6
CONTINUOUS
 10
10.93073594759951
 20
-0.6249944261336964
 30
0.0
  0
VERTEX
  5
436
  8
0
  6
CONTINUOUS
 10
10.642194009664451
 20
-1.1910054956247791
 30
0.0
  0
VERTEX
  5
437
  8
0
  6
CONTINUOUS
 10
10.192859168748781
 20
-1.6393840351541371
 30
0.0
  0
VERTEX
  5
438
  8
0
  6
CONTINUOUS
 10
9.6265862725911404
 20
-1.9273545792811999
 30
0.0
  0
VERTEX
  5
439
  8
0
  6
CONTINUOUS
 10
9.3536614374822591
 20
-1.9705341360610189
 30
0.0
  0
SEQEND
  5
43A
  8
0
  6
CONTINUOUS
  0
POLYLINE
  5
56
  8
0
  6
CONTINUOUS
 66
     1
 10
0.0
 20
0.0
 30
0.0
  0
VERTEX
  5
43B
  8
0
  6
CONTINUOUS
 10
10.44649757216745
 20
-0.3523008339497551
 30
0.0
  0
VERTEX
  5
43C
  8
0
  6
CONTINUOUS
 10
10.42904024903285
 20
-0.4622948879398905
 30
0.0
  0
VERTEX
  5
43D
  8
0
  6
CONTINUOUS
 10
10.215385213415651
 20
-0.880883371180289
 30
0.0
  0
VERTEX
  5
43E
  8
0
  6
CONTINUOUS
 10
9.8827907523384795
 20
-1.2131570759422621
 30
0.0
  0
VERTEX
  5
43F
  8
0
  6
CONTINUOUS
 10
9.463592086154307
 20
-1.427034403145341
 30
0.0
  0
VERTEX
  5
440
  8
0
  6
CONTINUOUS
 10
9.3536614374822591
 20
-1.4443831799825939
 30
0.0
  0
SEQEND
  5
441
  8
0
  6
CONTINUOUS
  0
POLYLINE
  5
57
  8
0
  6
CONTINUOUS
 66
     1
 10
0.0
 20
0.0
 30
0.0
  0
VERTEX
  5
442
  8
0
  6
CONTINUOUS
 10
10.41155992926468
 20
-0.3523008339497551
 30
0.0
  0
VERTEX
  5
443
  8
0
  6
CONTINUOUS
 10
10.39580094343796
 20
-0.4516010215797337
 30
0.0
  0
VERTEX
  5
444
  8
0
  6
CONTINUOUS
 10
10.187152690117721
 20
-0.8602594860571458
 30
0.0
  0
VERTEX
  5
445
  8
0
  6
CONTINUOUS
 10
9.8622668238344886
 20
-1.18489471484753
 30
0.0
  0
VERTEX
  5
446
  8
0
  6
CONTINUOUS
 10
9.4527796145520142
 20
-1.3934251088705301
 30
0.0
  0
VERTEX
  5
447
  8
0
  6
CONTINUOUS
 10
9.3536614374822591
 20
-1.409106532472151
 30
0.0
  0
SEQEND
  5
448
  8
0
  6
CONTINUOUS
  0
POLYLINE
  5
58
  8
0
  6
CONTINUOUS
 66
     1
 10
0.0
 20
0.0
 30
0.0
  0
VERTEX
  5
449
  8
0
  6
CONTINUOUS
 10
10.171331863116871
 20
-0.3523008339497551
 30
0.0
  0
VERTEX
  5
44A
  8
0
  6
CONTINUOUS
 10
10.16732845794783
 20
-0.3775078046558065
 30
0.0
  0
VERTEX
  5
44B
  8
0
  6
CONTINUOUS
 10
9.9928206116847775
 20
-0.7197115281808239
 30
0.0
  0
VERTEX
  5
44C
  8
0
  6
CONTINUOUS
 10
9.7210982397854764
 20
-0.9908774251704244
 30
0.0
  0
VERTEX
  5
44D
  8
0
  6
CONTINUOUS
 10
9.3785909166784336
 20
-1.1650346773214999
 30
0.0
  0
VERTEX
  5
44E
  8
0
  6
CONTINUOUS
 10
9.3536614374822591
 20
-1.168997116189302
 30
0.0
  0
SEQEND
  5
44F
  8
0
  6
CONTINUOUS
  0
POLYLINE
  5
59
  8
0
  6
CONTINUOUS
 66
     1
 10
0.0
 20
0.0
 30
0.0
  0
VERTEX
  5
450
  8
0
  6
CONTINUOUS
 10
10.22403502910015
 20
-0.3523008339497551
 30
0.0
  0
VERTEX
  5
451
  8
0
  6
CONTINUOUS
 10
10.217488778087519
 20
-0.3935486041960416
 30
0.0
  0
VERTEX
  5
452
  8
0
  6
CONTINUOUS
 10
10.035472250268811
 20
-0.7502654320668967
 30
0.0
  0
VERTEX
  5
453
  8
0
  6
CONTINUOUS
 10
9.752034813415122
 20
-1.0336528906110509
 30
0.0
  0
VERTEX
  5
454
  8
0
  6
CONTINUOUS
 10
9.3948099970543222
 20
-1.2154486187336599
 30
0.0
  0
VERTEX
  5
455
  8
0
  6
CONTINUOUS
 10
9.3536614374822591
 20
-1.2219592429896691
 30
0.0
  0
SEQEND
  5
456
  8
0
  6
CONTINUOUS
  0
POLYLINE
  5
5A
  8
0
  6
CONTINUOUS
 66
     1
 10
0.0
 20
0.0
 30
0.0
  0
VERTEX
  5
457
  8
0
  6
CONTINUOUS
 10
9.3536614374822591
 20
-0.3523008339497551
 30
0.0
  0
VERTEX
  5
458
  8
0
  6
CONTINUOUS
 10
9.3536614374822591
 20
-3.2281170559972931
 30
0.0
  0
VERTEX
  5
459
  8
0
  6
CONTINUOUS
 10
9.3295331031291937
 20
-3.2678371310493519
 30
0.0
  0
VERTEX
  5
45A
  8
0
  6
CONTINUOUS
 10
9.2712636157740462
 20
-3.3129041392813772
 30
0.0
  0
VERTEX
  5
45B
  8
0
  6
CONTINUOUS
 10
9.1760504603557536
 20
-3.342694195570393
 30
0.0
  0
VERTEX
  5
45C
  8
0
  6
CONTINUOUS
 10
8.8212283325793521
 20
-3.342694195570393
 30
0.0
  0
VERTEX
  5
45D
  8
0
  6
CONTINUOUS
 10
8.725915220541907
 20
-3.3129041392813772
 30
0.0
  0
VERTEX
  5
45E
  8
0
  6
CONTINUOUS
 10
8.6676457331867596
 20
-3.2678371310493519
 30
0.0
  0
VERTEX
  5
45F
  8
0
  6
CONTINUOUS
 10
8.6436173554528466
 20
-3.2281170559972931
 30
0.0
  0
VERTEX
  5
460
  8
0
  6
CONTINUOUS
 10
8.6436173554528466
 20
-0.3523008339497551
 30
0.0
  0
SEQEND
  5
461
  8
0
  6
CONTINUOUS
  0
POLYLINE
  5
5B
  8
0
  6
CONTINUOUS
 66
     1
 10
0.0
 20
0.0
 30
0.0
  0
VERTEX
  5
462
  8
0
  6
CONTINUOUS
 10
8.6436173554528466
 20
-1.4442883862483309
 30
0.0
  0
VERTEX
  5
463
  8
0
  6
CONTINUOUS
 10
8.5342871924407007
 20
-1.427034403145341
 30
0.0
  0
VERTEX
  5
464
  8
0
  6
CONTINUOUS
 10
8.1150885262564998
 20
-1.2131570759422621
 30
0.0
  0
VERTEX
  5
465
  8
0
  6
CONTINUOUS
 10
7.7823933626152657
 20
-0.880883371180289
 30
0.0
  0
VERTEX
  5
466
  8
0
  6
CONTINUOUS
 10
7.5688397755070289
 20
-0.4622948879398905
 30
0.0
  0
VERTEX
  5
467
  8
0
  6
CONTINUOUS
 10
7.55138245237245
 20
-0.3523008339497551
 30
0.0
  0
SEQEND
  5
468
  8
0
  6
CONTINUOUS
  0
POLYLINE
  5
5C
  8
0
  6
CONTINUOUS
 66
     1
 10
0.0
 20
0.0
 30
0.0
  0
VERTEX
  5
469
  8
0
  6
CONTINUOUS
 10
8.6436173554528466
 20
-1.40902388287651
 30
0.0
  0
VERTEX
  5
46A
  8
0
  6
CONTINUOUS
 10
8.5449997074238127
 20
-1.3934251088705301
 30
0.0
  0
VERTEX
  5
46B
  8
0
  6
CONTINUOUS
 10
8.1356132007054214
 20
-1.18489471484753
 30
0.0
  0
VERTEX
  5
46C
  8
0
  6
CONTINUOUS
 10
7.8106266318580992
 20
-0.8602594860571458
 30
0.0
  0
VERTEX
  5
46D
  8
0
  6
CONTINUOUS
 10
7.6020790811019481
 20
-0.4516010215797337
 30
0.0
  0
VERTEX
  5
46E
  8
0
  6
CONTINUOUS
 10
7.5863200952752257
 20
-0.3523008339497551
 30
0.0
  0
SEQEND
  5
46F
  8
0
  6
CONTINUOUS
  0
POLYLINE
  5
5D
  8
0
  6
CONTINUOUS
 66
     1
 10
0.0
 20
0.0
 30
0.0
  0
VERTEX
  5
470
  8
0
  6
CONTINUOUS
 10
8.6436173554528466
 20
-1.2218785183312091
 30
0.0
  0
VERTEX
  5
471
  8
0
  6
CONTINUOUS
 10
8.6029685789765722
 20
-1.2154486187336599
 30
0.0
  0
VERTEX
  5
472
  8
0
  6
CONTINUOUS
 10
8.2458444651798573
 20
-1.0336528906110509
 30
0.0
  0
VERTEX
  5
473
  8
0
  6
CONTINUOUS
 10
7.9624070283261679
 20
-0.7502654320668967
 30
0.0
  0
VERTEX
  5
474
  8
0
  6
CONTINUOUS
 10
7.7803912464524103
 20
-0.3935486041960416
 30
0.0
  0
VERTEX
  5
475
  8
0
  6
CONTINUOUS
 10
7.7738449175267581
 20
-0.3523008339497551
 30
0.0
  0
SEQEND
  5
476
  8
0
  6
CONTINUOUS
  0
POLYLINE
  5
5E
  8
0
  6
CONTINUOUS
 66
     1
 10
0.0
 20
0.0
 30
0.0
  0
VERTEX
  5
477
  8
0
  6
CONTINUOUS
 10
8.6436173554528466
 20
-1.168901663848998
 30
0.0
  0
VERTEX
  5
478
  8
0
  6
CONTINUOUS
 10
8.6192883619165457
 20
-1.1650346773214999
 30
0.0
  0
VERTEX
  5
479
  8
0
  6
CONTINUOUS
 10
8.2767810388095313
 20
-0.9908774251704244
 30
0.0
  0
VERTEX
  5
47A
  8
0
  6
CONTINUOUS
 10
8.004957964346147
 20
-0.7197115281808239
 30
0.0
  0
VERTEX
  5
47B
  8
0
  6
CONTINUOUS
 10
7.8304501180830641
 20
-0.3775078046558065
 30
0.0
  0
VERTEX
  5
47C
  8
0
  6
CONTINUOUS
 10
7.8264468121728319
 20
-0.3523008339497551
 30
0.0
  0
SEQEND
  5
47D
  8
0
  6
CONTINUOUS
  0
POLYLINE
  5
5F
  8
0
  6
CONTINUOUS
 66
     1
 10
0.0
 20
0.0
 30
0.0
  0
VERTEX
  5
47E
  8
0
  6
CONTINUOUS
 10
9.3536614374822591
 20
1.974019190723197
 30
0.0
  0
VERTEX
  5
47F
  8
0
  6
CONTINUOUS
 10
9.6265862725911404
 20
1.930839633943378
 30
0.0
  0
VERTEX
  5
480
  8
0
  6
CONTINUOUS
 10
10.192859168748781
 20
1.642869089816315
 30
0.0
  0
VERTEX
  5
481
  8
0
  6
CONTINUOUS
 10
10.642194009664451
 20
1.193726702689843
 30
0.0
  0
VERTEX
  5
482
  8
0
  6
CONTINUOUS
 10
10.93073594759951
 20
0.6284794807959316
 30
0.0
  0
VERTEX
  5
483
  8
0
  6
CONTINUOUS
 10
10.97408754418899
 20
0.3550220410148199
 30
0.0
  0
SEQEND
  5
484
  8
0
  6
CONTINUOUS
  0
POLYLINE
  5
60
  8
0
  6
CONTINUOUS
 66
     1
 10
0.0
 20
0.0
 30
0.0
  0
VERTEX
  5
485
  8
0
  6
CONTINUOUS
 10
9.3536614374822591
 20
1.447104387047659
 30
0.0
  0
VERTEX
  5
486
  8
0
  6
CONTINUOUS
 10
9.463592086154307
 20
1.4297556102104061
 30
0.0
  0
VERTEX
  5
487
  8
0
  6
CONTINUOUS
 10
9.8827907523384795
 20
1.216642130604441
 30
0.0
  0
VERTEX
  5
488
  8
0
  6
CONTINUOUS
 10
10.215385213415651
 20
0.8843684258425241
 30
0.0
  0
VERTEX
  5
489
  8
0
  6
CONTINUOUS
 10
10.42904024903285
 20
0.4657799426021825
 30
0.0
  0
VERTEX
  5
48A
  8
0
  6
CONTINUOUS
 10
10.44658989148186
 20
0.3550220410148199
 30
0.0
  0
SEQEND
  5
48B
  8
0
  6
CONTINUOUS
  0
POLYLINE
  5
61
  8
0
  6
CONTINUOUS
 66
     1
 10
0.0
 20
0.0
 30
0.0
  0
VERTEX
  5
48C
  8
0
  6
CONTINUOUS
 10
9.3536614374822591
 20
1.4118277395372161
 30
0.0
  0
VERTEX
  5
48D
  8
0
  6
CONTINUOUS
 10
9.4527796145520142
 20
1.3961463159355949
 30
0.0
  0
VERTEX
  5
48E
  8
0
  6
CONTINUOUS
 10
9.8622668238344886
 20
1.188379769509708
 30
0.0
  0
VERTEX
  5
48F
  8
0
  6
CONTINUOUS
 10
10.187152690117721
 20
0.8637445407193241
 30
0.0
  0
VERTEX
  5
490
  8
0
  6
CONTINUOUS
 10
10.39580094343796
 20
0.4550860762419689
 30
0.0
  0
VERTEX
  5
491
  8
0
  6
CONTINUOUS
 10
10.411654417874329
 20
0.3550220410148199
 30
0.0
  0
SEQEND
  5
492
  8
0
  6
CONTINUOUS
  0
POLYLINE
  5
62
  8
0
  6
CONTINUOUS
 66
     1
 10
0.0
 20
0.0
 30
0.0
  0
VERTEX
  5
493
  8
0
  6
CONTINUOUS
 10
9.3536614374822591
 20
1.17243201339744
 30
0.0
  0
VERTEX
  5
494
  8
0
  6
CONTINUOUS
 10
9.3785909166784336
 20
1.1685197319837921
 30
0.0
  0
VERTEX
  5
495
  8
0
  6
CONTINUOUS
 10
9.7210982397854764
 20
0.9943624798326595
 30
0.0
  0
VERTEX
  5
496
  8
0
  6
CONTINUOUS
 10
9.9928206116847775
 20
0.7224327352458319
 30
0.0
  0
VERTEX
  5
497
  8
0
  6
CONTINUOUS
 10
10.16732845794783
 20
0.3809928593180416
 30
0.0
  0
VERTEX
  5
498
  8
0
  6
CONTINUOUS
 10
10.171444879188661
 20
0.3550220410148199
 30
0.0
  0
SEQEND
  5
499
  8
0
  6
CONTINUOUS
  0
POLYLINE
  5
63
  8
0
  6
CONTINUOUS
 66
     1
 10
0.0
 20
0.0
 30
0.0
  0
VERTEX
  5
49A
  8
0
  6
CONTINUOUS
 10
9.3536614374822591
 20
1.2246804500547339
 30
0.0
  0
VERTEX
  5
49B
  8
0
  6
CONTINUOUS
 10
9.3948099970543222
 20
1.218169825798725
 30
0.0
  0
VERTEX
  5
49C
  8
0
  6
CONTINUOUS
 10
9.752034813415122
 20
1.0363740976761731
 30
0.0
  0
VERTEX
  5
49D
  8
0
  6
CONTINUOUS
 10
10.035472250268811
 20
0.7537504867291318
 30
0.0
  0
VERTEX
  5
49E
  8
0
  6
CONTINUOUS
 10
10.217488778087519
 20
0.3970336588582768
 30
0.0
  0
VERTEX
  5
49F
  8
0
  6
CONTINUOUS
 10
10.224143384391819
 20
0.3550220410148199
 30
0.0
  0
SEQEND
  5
4A0
  8
0
  6
CONTINUOUS
  0
POLYLINE
  5
64
  8
0
  6
CONTINUOUS
 66
     1
 10
0.0
 20
0.0
 30
0.0
  0
VERTEX
  5
4A1
  8
0
  6
CONTINUOUS
 10
7.5512901330580462
 20
0.3550220410148199
 30
0.0
  0
VERTEX
  5
4A2
  8
0
  6
CONTINUOUS
 10
7.5688397755070289
 20
0.4657799426021825
 30
0.0
  0
VERTEX
  5
4A3
  8
0
  6
CONTINUOUS
 10
7.7823933626152657
 20
0.8843684258425241
 30
0.0
  0
VERTEX
  5
4A4
  8
0
  6
CONTINUOUS
 10
8.1150885262564998
 20
1.216642130604441
 30
0.0
  0
VERTEX
  5
4A5
  8
0
  6
CONTINUOUS
 10
8.5342871924407007
 20
1.4297556102104061
 30
0.0
  0
VERTEX
  5
4A6
  8
0
  6
CONTINUOUS
 10
8.6436173554528466
 20
1.4470095933133389
 30
0.0
  0
SEQEND
  5
4A7
  8
0
  6
CONTINUOUS
  0
POLYLINE
  5
65
  8
0
  6
CONTINUOUS
 66
     1
 10
0.0
 20
0.0
 30
0.0
  0
VERTEX
  5
4A8
  8
0
  6
CONTINUOUS
 10
7.586225606665578
 20
0.3550220410148199
 30
0.0
  0
VERTEX
  5
4A9
  8
0
  6
CONTINUOUS
 10
7.6020790811019481
 20
0.4550860762419689
 30
0.0
  0
VERTEX
  5
4AA
  8
0
  6
CONTINUOUS
 10
7.8106266318580992
 20
0.8637445407193241
 30
0.0
  0
VERTEX
  5
4AB
  8
0
  6
CONTINUOUS
 10
8.1356132007054214
 20
1.188379769509708
 30
0.0
  0
VERTEX
  5
4AC
  8
0
  6
CONTINUOUS
 10
8.5449997074238127
 20
1.3961463159355949
 30
0.0
  0
VERTEX
  5
4AD
  8
0
  6
CONTINUOUS
 10
8.6436173554528466
 20
1.4117450899415751
 30
0.0
  0
SEQEND
  5
4AE
  8
0
  6
CONTINUOUS
  0
POLYLINE
  5
66
  8
0
  6
CONTINUOUS
 66
     1
 10
0.0
 20
0.0
 30
0.0
  0
VERTEX
  5
4AF
  8
0
  6
CONTINUOUS
 10
7.7737365609454789
 20
0.3550220410148199
 30
0.0
  0
VERTEX
  5
4B0
  8
0
  6
CONTINUOUS
 10
7.7803912464524103
 20
0.3970336588582768
 30
0.0
  0
VERTEX
  5
4B1
  8
0
  6
CONTINUOUS
 10
7.9624070283261679
 20
0.7537504867291318
 30
0.0
  0
VERTEX
  5
4B2
  8
0
  6
CONTINUOUS
 10
8.2458444651798573
 20
1.0363740976761731
 30
0.0
  0
VERTEX
  5
4B3
  8
0
  6
CONTINUOUS
 10
8.6029685789765722
 20
1.218169825798725
 30
0.0
  0
VERTEX
  5
4B4
  8
0
  6
CONTINUOUS
 10
8.6436173554528466
 20
1.2245997253962739
 30
0.0
  0
SEQEND
  5
4B5
  8
0
  6
CONTINUOUS
  0
POLYLINE
  5
67
  8
0
  6
CONTINUOUS
 66
     1
 10
0.0
 20
0.0
 30
0.0
  0
VERTEX
  5
4B6
  8
0
  6
CONTINUOUS
 10
7.8263337989031072
 20
0.3550220410148199
 30
0.0
  0
VERTEX
  5
4B7
  8
0
  6
CONTINUOUS
 10
7.8304501180830641
 20
0.3809928593180416
 30
0.0
  0
VERTEX
  5
4B8
  8
0
  6
CONTINUOUS
 10
8.004957964346147
 20
0.7224327352458319
 30
0.0
  0
VERTEX
  5
4B9
  8
0
  6
CONTINUOUS
 10
8.2767810388095313
 20
0.9943624798326595
 30
0.0
  0
VERTEX
  5
4BA
  8
0
  6
CONTINUOUS
 10
8.6192883619165457
 20
1.1685197319837921
 30
0.0
  0
VERTEX
  5
4BB
  8
0
  6
CONTINUOUS
 10
8.6436173554528466
 20
1.1723377693146511
 30
0.0
  0
SEQEND
  5
4BC
  8
0
  6
CONTINUOUS
  0
ARC
  5
68
  8
0
  6
CONTINUOUS
 10
9.6564881459038077
 20
-0.0000000000000568
 30
0.0
 40
0.4666311872771627
 50
130.46351585200401
 51
229.53648414798661
  0
ARC
  5
69
  8
0
  6
CONTINUOUS
 10
8.3435118540961355
 20
-0.0000000000000568
 30
0.0
 40
0.4666311872771627
 50
310.4635158520133
 51
49.536484147995893
  0
ARC
  5
6A
  8
0
  6
CONTINUOUS
 10
8.9986393964676097
 20
-0.6551275423713605
 30
0.0
 40
0.4666311872771627
 50
40.463515852013309
 51
139.53648414799591
  0
ARC
  5
6B
  8
0
  6
CONTINUOUS
 10
8.9986393964676097
 20
0.6578487494363117
 30
0.0
 40
0.4666311872771627
 50
220.46351585200401
 51
319.5364841479867
  0
POLYLINE
  5
6C
  8
0
  6
CONTINUOUS
 66
     1
 10
0.0
 20
0.0
 30
0.0
  0
VERTEX
  5
4BD
  8
0
  6
CONTINUOUS
 10
8.6436173554528466
 20
3.241602110659584
 30
0.0
  0
VERTEX
  5
4BE
  8
0
  6
CONTINUOUS
 10
8.6610381530934148
 20
3.241602110659584
 30
0.0
  0
VERTEX
  5
4BF
  8
0
  6
CONTINUOUS
 10
8.7113976405264566
 20
3.241602110659584
 30
0.0
  0
VERTEX
  5
4C0
  8
0
  6
CONTINUOUS
 10
8.7899911431473186
 20
3.241602110659584
 30
0.0
  0
VERTEX
  5
4C1
  8
0
  6
CONTINUOUS
 10
8.8889086610338381
 20
3.241602110659584
 30
0.0
  0
VERTEX
  5
4C2
  8
0
  6
CONTINUOUS
 10
8.9986393964675528
 20
3.241602110659584
 30
0.0
  0
VERTEX
  5
4C3
  8
0
  6
CONTINUOUS
 10
9.1083701319012675
 20
3.241602110659584
 30
0.0
  0
VERTEX
  5
4C4
  8
0
  6
CONTINUOUS
 10
9.2072876497878156
 20
3.241602110659584
 30
0.0
  0
VERTEX
  5
4C5
  8
0
  6
CONTINUOUS
 10
9.2857804498445642
 20
3.241602110659584
 30
0.0
  0
VERTEX
  5
4C6
  8
0
  6
CONTINUOUS
 10
9.3362406398417193
 20
3.241602110659584
 30
0.0
  0
VERTEX
  5
4C7
  8
0
  6
CONTINUOUS
 10
9.3536614374822591
 20
3.241602110659584
 30
0.0
  0
SEQEND
  5
4C8
  8
0
  6
CONTINUOUS
  0
POLYLINE
  5
6D
  8
0
  6
CONTINUOUS
 66
     1
 10
0.0
 20
0.0
 30
0.0
  0
VERTEX
  5
4C9
  8
0
  6
CONTINUOUS
 10
12.24890416547245
 20
0.3550220410148199
 30
0.0
  0
VERTEX
  5
4CA
  8
0
  6
CONTINUOUS
 10
12.24890416547245
 20
0.3382173938774144
 30
0.0
  0
VERTEX
  5
4CB
  8
0
  6
CONTINUOUS
 10
12.24890416547245
 20
0.2878034524652548
 30
0.0
  0
VERTEX
  5
4CC
  8
0
  6
CONTINUOUS
 10
12.24890416547245
 20
0.2098909975555898
 30
0.0
  0
VERTEX
  5
4CD
  8
0
  6
CONTINUOUS
 10
12.24890416547245
 20
0.1105908099255544
 30
0.0
  0
VERTEX
  5
4CE
  8
0
  6
CONTINUOUS
 10
12.24890416547245
 20
0.0013606035325893
 30
0.0
  0
VERTEX
  5
4CF
  8
0
  6
CONTINUOUS
 10
12.24890416547245
 20
-0.1078696028604895
 30
0.0
  0
VERTEX
  5
4D0
  8
0
  6
CONTINUOUS
 10
12.24890416547245
 20
-0.2064059428932978
 30
0.0
  0
VERTEX
  5
4D1
  8
0
  6
CONTINUOUS
 10
12.24890416547245
 20
-0.28508224540019
 30
0.0
  0
VERTEX
  5
4D2
  8
0
  6
CONTINUOUS
 10
12.24890416547245
 20
-0.3347323392151793
 30
0.0
  0
VERTEX
  5
4D3
  8
0
  6
CONTINUOUS
 10
12.24890416547245
 20
-0.3523008339497551
 30
0.0
  0
SEQEND
  5
4D4
  8
0
  6
CONTINUOUS
  0
POLYLINE
  5
6E
  8
0
  6
CONTINUOUS
 66
     1
 10
0.0
 20
0.0
 30
0.0
  0
VERTEX
  5
4D5
  8
0
  6
CONTINUOUS
 10
12.24890416547245
 20
0.3550220410148199
 30
0.0
  0
VERTEX
  5
4D6
  8
0
  6
CONTINUOUS
 10
12.24890416547245
 20
0.3382173938774144
 30
0.0
  0
VERTEX
  5
4D7
  8
0
  6
CONTINUOUS
 10
12.24890416547245
 20
0.2878034524652548
 30
0.0
  0
VERTEX
  5
4D8
  8
0
  6
CONTINUOUS
 10
12.24890416547245
 20
0.2098909975555898
 30
0.0
  0
VERTEX
  5
4D9
  8
0
  6
CONTINUOUS
 10
12.24890416547245
 20
0.1105908099255544
 30
0.0
  0
VERTEX
  5
4DA
  8
0
  6
CONTINUOUS
 10
12.24890416547245
 20
0.0013606035325893
 30
0.0
  0
VERTEX
  5
4DB
  8
0
  6
CONTINUOUS
 10
12.24890416547245
 20
-0.1078696028604895
 30
0.0
  0
VERTEX
  5
4DC
  8
0
  6
CONTINUOUS
 10
12.24890416547245
 20
-0.2064059428932978
 30
0.0
  0
VERTEX
  5
4DD
  8
0
  6
CONTINUOUS
 10
12.24890416547245
 20
-0.28508224540019
 30
0.0
  0
VERTEX
  5
4DE
  8
0
  6
CONTINUOUS
 10
12.24890416547245
 20
-0.3347323392151793
 30
0.0
  0
VERTEX
  5
4DF
  8
0
  6
CONTINUOUS
 10
12.24890416547245
 20
-0.3523008339497551
 30
0.0
  0
SEQEND
  5
4E0
  8
0
  6
CONTINUOUS
  0
DIMENSION
  5
75
  8
COTATION-JACOBDELAFON
  2
*D0
 10
8.9986393964675528
 20
4.8359240571717228
 30
0.0
 11
-0.001360603532447
 21
7.2676430203367977
 31
0.0
 70
     0
 13
-9.0013606035324472
 23
3.3554154026354581
 33
0.0
 14
8.9986393964675528
 24
3.3554154026354581
 34
0.0
  0
DIMENSION
  5
EF
  8
COTATION-JACOBDELAFON
  2
*D2
 10
-14.598068254057409
 20
-3.3426941955703922
 30
0.0
 11
-19.279787217222491
 21
0.0063606035325317
 31
0.0
 70
     0
 13
-9.0013606035324472
 23
3.3554154026354581
 33
0.0
 14
-9.0013606035324472
 24
-3.342694195570393
 34
0.0
 50
90.0
  0
INSERT
  5
12C
 67
     1
  8
0
  6
CONTINUOUS
  2
ADCADD_ZZ
 10
0.0
 20
0.0
 30
0.0
1001
ADCADD_ZZ
1070
   205
1070
    14
1070
   209
1070
     1
1070
   231
1070
     0
1070
   235
1070
     0
1070
   236
1070
     4
1070
   237
1070
     2
1070
   238
1070
     4
1070
   239
1070
     2
1070
   240
1070
     0
1070
   241
1070
  4096
1070
   242
1070
     2
1070
   244
1070
     0
1070
   245
1070
     1
1070
   303
1040
0.1
1070
   304
1040
4.0
1070
   305
1040
1.0
1070
   306
1040
1.0
1070
   337
1040
0.0
1070
   338
1040
0.3048
1070
   339
1040
0.0625
1070
   340
1040
96.0
1070
   341
1040
4.0
1070
   342
1040
1.0
1070
   530
1010
0.0
1020
0.0
1030
0.0
1070
   531
1010
0.0
1020
0.0
1030
0.0
1070
   107
1000

1070
   108
1000
Architectural Desktop
1070
   135
1000
L120
1070
   136
1000
'
1070
   137
1000
m
1001
SDSK_PMN
1070
   100
1000
ACADARCH
1070
   300
1040
2453077.6397215971
  0
ENDSEC
  0
EOF
