  0
SECTION
  2
HEADER
  9
$ACADVER
  1
AC1021
  9
$ACADMAINTVER
 70
    50
  9
$DWGCODEPAGE
  3
ANSI_1252
  9
$LASTSAVEDBY
  1
François
  9
$INSBASE
 10
199.022133
 20
140.449997
 30
0.0
  9
$EXTMIN
 10
156.9960481967829
 20
68.39399532252571
 30
-0.0015258207003583
  9
$EXTMAX
 10
218.2460726745998
 20
257.7424332385112
 30
0.0000000349246037
  9
$LIMMIN
 10
181.743773
 20
68.38652299999999
  9
$LIMMAX
 10
218.256101
 20
231.613597
  9
$ORTHOMODE
 70
     0
  9
$REGENMODE
 70
     1
  9
$FILLMODE
 70
     1
  9
$QTEXTMODE
 70
     0
  9
$MIRRTEXT
 70
     1
  9
$LTSCALE
 40
1.0
  9
$ATTMODE
 70
     1
  9
$TEXTSIZE
 40
0.0
  9
$TRACEWID
 40
0.05
  9
$TEXTSTYLE
  7
Standard
  9
$CLAYER
  8
Cotation-JacobDelafon
  9
$CELTYPE
  6
Continuous
  9
$CECOLOR
 62
   256
  9
$CELTSCALE
 40
1.0
  9
$DISPSILH
 70
     0
  9
$DIMSCALE
 40
1.0
  9
$DIMASZ
 40
1.8
  9
$DIMEXO
 40
0.625
  9
$DIMDLI
 40
3.799999999999998
  9
$DIMRND
 40
0.0
  9
$DIMDLE
 40
0.0
  9
$DIMEXE
 40
1.8
  9
$DIMTP
 40
0.0
  9
$DIMTM
 40
0.0
  9
$DIMTXT
 40
3.0
  9
$DIMCEN
 40
0.9
  9
$DIMTSZ
 40
0.0
  9
$DIMTOL
 70
     0
  9
$DIMLIM
 70
     0
  9
$DIMTIH
 70
     0
  9
$DIMTOH
 70
     0
  9
$DIMSE1
 70
     0
  9
$DIMSE2
 70
     0
  9
$DIMTAD
 70
     1
  9
$DIMZIN
 70
    12
  9
$DIMBLK
  1
Oblique
  9
$DIMASO
 70
     1
  9
$DIMSHO
 70
     1
  9
$DIMPOST
  1

  9
$DIMAPOST
  1

  9
$DIMALT
 70
     0
  9
$DIMALTD
 70
     2
  9
$DIMALTF
 40
25.4
  9
$DIMLFAC
 40
1.0
  9
$DIMTOFL
 70
     0
  9
$DIMTVP
 40
0.0
  9
$DIMTIX
 70
     0
  9
$DIMSOXD
 70
     0
  9
$DIMSAH
 70
     0
  9
$DIMBLK1
  1

  9
$DIMBLK2
  1

  9
$DIMSTYLE
  2
Cotation-Jacob-Delafon
  9
$DIMCLRD
 70
     0
  9
$DIMCLRE
 70
     0
  9
$DIMCLRT
 70
     0
  9
$DIMTFAC
 40
1.0
  9
$DIMGAP
 40
0.9
  9
$DIMJUST
 70
     0
  9
$DIMSD1
 70
     0
  9
$DIMSD2
 70
     0
  9
$DIMTOLJ
 70
     1
  9
$DIMTZIN
 70
     0
  9
$DIMALTZ
 70
     0
  9
$DIMALTTZ
 70
     0
  9
$DIMUPT
 70
     0
  9
$DIMDEC
 70
     2
  9
$DIMTDEC
 70
     2
  9
$DIMALTU
 70
     2
  9
$DIMALTTD
 70
     2
  9
$DIMTXSTY
  7
Jacob-Delafon
  9
$DIMAUNIT
 70
     0
  9
$DIMADEC
 70
     0
  9
$DIMALTRND
 40
0.0
  9
$DIMAZIN
 70
     3
  9
$DIMDSEP
 70
    46
  9
$DIMATFIT
 70
     3
  9
$DIMFRAC
 70
     0
  9
$DIMLDRBLK
  1
Oblique
  9
$DIMLUNIT
 70
     2
  9
$DIMLWD
 70
    -2
  9
$DIMLWE
 70
    -2
  9
$DIMTMOVE
 70
     2
  9
$DIMFXL
 40
1.0
  9
$DIMFXLON
 70
     0
  9
$DIMJOGANG
 40
0.7853981633974483
  9
$DIMTFILL
 70
     0
  9
$DIMTFILLCLR
 70
     0
  9
$DIMARCSYM
 70
     0
  9
$DIMLTYPE
  6

  9
$DIMLTEX1
  6

  9
$DIMLTEX2
  6

  9
$LUNITS
 70
     2
  9
$LUPREC
 70
     4
  9
$SKETCHINC
 40
0.1
  9
$FILLETRAD
 40
0.0
  9
$AUNITS
 70
     0
  9
$AUPREC
 70
     0
  9
$MENU
  1
acad
  9
$ELEVATION
 40
0.0
  9
$PELEVATION
 40
0.0
  9
$THICKNESS
 40
0.0
  9
$LIMCHECK
 70
     0
  9
$CHAMFERA
 40
0.0
  9
$CHAMFERB
 40
0.0
  9
$CHAMFERC
 40
0.0
  9
$CHAMFERD
 40
0.0
  9
$SKPOLY
 70
     0
  9
$TDCREATE
 40
2455398.668019746
  9
$TDUCREATE
 40
2455398.584686412
  9
$TDUPDATE
 40
2455398.671097720
  9
$TDUUPDATE
 40
2455398.587764387
  9
$TDINDWG
 40
0.0030797917
  9
$TDUSRTIMER
 40
0.0030797917
  9
$USRTIMER
 70
     1
  9
$ANGBASE
 50
0.0
  9
$ANGDIR
 70
     0
  9
$PDMODE
 70
     0
  9
$PDSIZE
 40
0.0
  9
$PLINEWID
 40
0.0
  9
$SPLFRAME
 70
     0
  9
$SPLINETYPE
 70
     6
  9
$SPLINESEGS
 70
     8
  9
$HANDSEED
  5
567
  9
$SURFTAB1
 70
     6
  9
$SURFTAB2
 70
     6
  9
$SURFTYPE
 70
     6
  9
$SURFU
 70
     6
  9
$SURFV
 70
     6
  9
$UCSBASE
  2

  9
$UCSNAME
  2

  9
$UCSORG
 10
0.0
 20
0.0
 30
0.0
  9
$UCSXDIR
 10
1.0
 20
0.0
 30
0.0
  9
$UCSYDIR
 10
0.0
 20
1.0
 30
0.0
  9
$UCSORTHOREF
  2

  9
$UCSORTHOVIEW
 70
     0
  9
$UCSORGTOP
 10
0.0
 20
0.0
 30
0.0
  9
$UCSORGBOTTOM
 10
0.0
 20
0.0
 30
0.0
  9
$UCSORGLEFT
 10
0.0
 20
0.0
 30
0.0
  9
$UCSORGRIGHT
 10
0.0
 20
0.0
 30
0.0
  9
$UCSORGFRONT
 10
0.0
 20
0.0
 30
0.0
  9
$UCSORGBACK
 10
0.0
 20
0.0
 30
0.0
  9
$PUCSBASE
  2

  9
$PUCSNAME
  2

  9
$PUCSORG
 10
0.0
 20
0.0
 30
0.0
  9
$PUCSXDIR
 10
1.0
 20
0.0
 30
0.0
  9
$PUCSYDIR
 10
0.0
 20
1.0
 30
0.0
  9
$PUCSORTHOREF
  2

  9
$PUCSORTHOVIEW
 70
     0
  9
$PUCSORGTOP
 10
0.0
 20
0.0
 30
0.0
  9
$PUCSORGBOTTOM
 10
0.0
 20
0.0
 30
0.0
  9
$PUCSORGLEFT
 10
0.0
 20
0.0
 30
0.0
  9
$PUCSORGRIGHT
 10
0.0
 20
0.0
 30
0.0
  9
$PUCSORGFRONT
 10
0.0
 20
0.0
 30
0.0
  9
$PUCSORGBACK
 10
0.0
 20
0.0
 30
0.0
  9
$USERI1
 70
     0
  9
$USERI2
 70
     0
  9
$USERI3
 70
     0
  9
$USERI4
 70
     0
  9
$USERI5
 70
     0
  9
$USERR1
 40
0.0
  9
$USERR2
 40
0.0
  9
$USERR3
 40
0.0
  9
$USERR4
 40
0.0
  9
$USERR5
 40
0.0
  9
$WORLDVIEW
 70
     1
  9
$SHADEDGE
 70
     3
  9
$SHADEDIF
 70
    70
  9
$TILEMODE
 70
     1
  9
$MAXACTVP
 70
    16
  9
$PINSBASE
 10
0.0
 20
0.0
 30
0.0
  9
$PLIMCHECK
 70
     0
  9
$PEXTMIN
 10
1.000000000000000E+20
 20
1.000000000000000E+20
 30
1.000000000000000E+20
  9
$PEXTMAX
 10
-1.000000000000000E+20
 20
-1.000000000000000E+20
 30
-1.000000000000000E+20
  9
$PLIMMIN
 10
0.0
 20
0.0
  9
$PLIMMAX
 10
12.0
 20
9.0
  9
$UNITMODE
 70
     0
  9
$VISRETAIN
 70
     0
  9
$PLINEGEN
 70
     1
  9
$PSLTSCALE
 70
     0
  9
$TREEDEPTH
 70
  3020
  9
$CMLSTYLE
  2
Standard
  9
$CMLJUST
 70
     0
  9
$CMLSCALE
 40
1.0
  9
$PROXYGRAPHICS
 70
     0
  9
$MEASUREMENT
 70
     1
  9
$CELWEIGHT
370
     0
  9
$ENDCAPS
280
     0
  9
$JOINSTYLE
280
     0
  9
$LWDISPLAY
290
     0
  9
$INSUNITS
 70
     0
  9
$HYPERLINKBASE
  1

  9
$STYLESHEET
  1

  9
$XEDIT
290
     1
  9
$CEPSNTYPE
380
     0
  9
$PSTYLEMODE
290
     1
  9
$FINGERPRINTGUID
  2

  9
$VERSIONGUID
  2
{915D24AC-2F0F-4A6A-9201-88263E7CD6D9}
  9
$EXTNAMES
290
     1
  9
$PSVPSCALE
 40
0.0
  9
$OLESTARTUP
290
     0
  9
$SORTENTS
280
   127
  9
$INDEXCTL
280
     0
  9
$HIDETEXT
280
     0
  9
$XCLIPFRAME
290
     0
  9
$HALOGAP
280
     0
  9
$OBSCOLOR
 70
   257
  9
$OBSLTYPE
280
     0
  9
$INTERSECTIONDISPLAY
280
     0
  9
$INTERSECTIONCOLOR
 70
   257
  9
$DIMASSOC
280
     1
  9
$PROJECTNAME
  1

  9
$CAMERADISPLAY
290
     0
  9
$LENSLENGTH
 40
50.0
  9
$CAMERAHEIGHT
 40
0.0
  9
$STEPSPERSEC
 40
2.0
  9
$STEPSIZE
 40
6.0
  9
$3DDWFPREC
 40
2.0
  9
$PSOLWIDTH
 40
0.25
  9
$PSOLHEIGHT
 40
4.0
  9
$LOFTANG1
 40
1.570796326794896
  9
$LOFTANG2
 40
1.570796326794896
  9
$LOFTMAG1
 40
0.0
  9
$LOFTMAG2
 40
0.0
  9
$LOFTPARAM
 70
     7
  9
$LOFTNORMALS
280
     1
  9
$LATITUDE
 40
37.795
  9
$LONGITUDE
 40
-122.394
  9
$NORTHDIRECTION
 40
0.0
  9
$TIMEZONE
 70
 -8000
  9
$LIGHTGLYPHDISPLAY
280
     1
  9
$TILEMODELIGHTSYNCH
280
     1
  9
$CMATERIAL
347
4C4
  9
$SOLIDHIST
280
     1
  9
$SHOWHIST
280
     1
  9
$DWFFRAME
280
     2
  9
$DGNFRAME
280
     0
  9
$REALWORLDSCALE
290
     1
  9
$INTERFERECOLOR
 62
     1
  9
$INTERFEREOBJVS
345
4E6
  9
$INTERFEREVPVS
346
4E3
  9
$CSHADOW
280
     0
  9
$SHADOWPLANELOCATION
 40
0.0
  0
ENDSEC
  0
SECTION
  2
CLASSES
  0
CLASS
  1
IMAGE
  2
AcDbRasterImage
  3
ISM
 90
     2175
 91
        0
280
     0
281
     1
  0
CLASS
  1
DICTIONARYVAR
  2
AcDbDictionaryVar
  3
ObjectDBX Classes
 90
        0
 91
        7
280
     0
281
     0
  0
CLASS
  1
RASTERVARIABLES
  2
AcDbRasterVariables
  3
ISM
 90
        0
 91
        0
280
     0
281
     0
  0
CLASS
  1
IMAGEDEF
  2
AcDbRasterImageDef
  3
ISM
 90
        0
 91
        0
280
     0
281
     0
  0
CLASS
  1
IMAGEDEF_REACTOR
  2
AcDbRasterImageDefReactor
  3
ISM
 90
        1
 91
        0
280
     0
281
     0
  0
CLASS
  1
IDBUFFER
  2
AcDbIdBuffer
  3
ObjectDBX Classes
 90
        0
 91
        0
280
     0
281
     0
  0
CLASS
  1
SPATIAL_FILTER
  2
AcDbSpatialFilter
  3
ObjectDBX Classes
 90
        0
 91
        0
280
     0
281
     0
  0
CLASS
  1
SORTENTSTABLE
  2
AcDbSortentsTable
  3
ObjectDBX Classes
 90
        0
 91
        0
280
     0
281
     0
  0
CLASS
  1
LAYER_INDEX
  2
AcDbLayerIndex
  3
ObjectDBX Classes
 90
        0
 91
        0
280
     0
281
     0
  0
CLASS
  1
SPATIAL_INDEX
  2
AcDbSpatialIndex
  3
ObjectDBX Classes
 90
        0
 91
        0
280
     0
281
     0
  0
CLASS
  1
OBJECT_PTR
  2
CAseDLPNTableRecord
  3
"ASE-LPNTableRecord"
 90
        1
 91
        0
280
     0
281
     0
  0
CLASS
  1
PLOTSETTINGS
  2
AcDbPlotSettings
  3
ObjectDBX Classes
 90
        0
 91
        0
280
     0
281
     0
  0
CLASS
  1
ACDBDICTIONARYWDFLT
  2
AcDbDictionaryWithDefault
  3
ObjectDBX Classes
 90
        0
 91
        1
280
     0
281
     0
  0
CLASS
  1
WIPEOUT
  2
AcDbWipeout
  3
"WipeOut|Product Desc: Object Enabler for WipeOut entity                        |Company: Autodesk, Inc.                        |WEB Address: www.autodesk.com"
 90
     2175
 91
        0
280
     0
281
     1
  0
CLASS
  1
WIPEOUTVARIABLES
  2
AcDbWipeoutVariables
  3
"WipeOut|Product Desc:     WipeOut Dbx Application|Company:          Autodesk, Inc.|WEB Address:      www.autodesk.com"
 90
        0
 91
        1
280
     0
281
     0
  0
CLASS
  1
RTEXT
  2
RText
  3
RText|AutoCAD Express Tool|expresstools@autodesk.com
 90
        0
 91
        0
280
     0
281
     1
  0
CLASS
  1
ARCALIGNEDTEXT
  2
AcDbArcAlignedText
  3
ATEXT|AutoCAD Express Tool|expresstools@autodesk.com
 90
        0
 91
        0
280
     0
281
     1
  0
CLASS
  1
MATERIAL
  2
AcDbMaterial
  3
ObjectDBX Classes
 90
     1153
 91
        3
280
     0
281
     0
  0
CLASS
  1
VISUALSTYLE
  2
AcDbVisualStyle
  3
ObjectDBX Classes
 90
     4095
 91
       16
280
     0
281
     0
  0
CLASS
  1
TABLESTYLE
  2
AcDbTableStyle
  3
ObjectDBX Classes
 90
     4095
 91
        1
280
     0
281
     0
  0
CLASS
  1
SCALE
  2
AcDbScale
  3
ObjectDBX Classes
 90
     1153
 91
       17
280
     0
281
     0
  0
CLASS
  1
MLEADERSTYLE
  2
AcDbMLeaderStyle
  3
ACDB_MLEADERSTYLE_CLASS
 90
     4095
 91
        1
280
     0
281
     0
  0
CLASS
  1
AEC_REFEDIT_STATUS_TRACKER
  2
AecDbRefEditStatusTracker
  3
AecArchBase50|Product Desc: Autodesk Architectural Desktop 2007 |Company: Autodesk,Inc. |WEB Address: www.autodesk.com
 90
      129
 91
        1
280
     0
281
     0
  0
CLASS
  1
NPOCOLLECTION
  2
AcDbImpNonPersistentObjectsCollection
  3
ObjectDBX Classes
 90
     1153
 91
        1
280
     0
281
     0
  0
CLASS
  1
CELLSTYLEMAP
  2
AcDbCellStyleMap
  3
ObjectDBX Classes
 90
     1152
 91
        1
280
     0
281
     0
  0
ENDSEC
  0
SECTION
  2
TABLES
  0
TABLE
  2
VPORT
  5
7
330
0
100
AcDbSymbolTable
 70
     1
  0
VPORT
  5
15
330
7
100
AcDbSymbolTableRecord
100
AcDbViewportTableRecord
  2
*ACTIVE
 70
     0
 10
0.0
 20
0.0
 11
1.0
 21
1.0
 12
183.7875385154035
 22
185.9377750194959
 13
0.0
 23
0.0
 14
1.0
 24
1.0
 15
0.0
 25
0.0
 16
0.0
 26
0.0
 36
1.0
 17
0.0
 27
0.0
 37
0.0
 40
142.6945775926908
 41
1.31063829787234
 42
50.0
 43
0.0
 44
0.0
 50
0.0
 51
0.0
 71
     0
 72
   100
 73
     1
 74
     1
 75
     0
 76
     0
 77
     0
 78
     0
281
     0
 65
     0
110
0.0
120
0.0
130
0.0
111
1.0
121
0.0
131
0.0
112
0.0
122
1.0
132
0.0
 79
     0
146
0.0
348
4E2
 60
     3
 61
     5
292
     1
282
     1
141
0.0
142
0.0
 63
   250
421
  3355443
  0
ENDTAB
  0
TABLE
  2
LTYPE
  5
4
330
0
100
AcDbSymbolTable
 70
     1
  0
LTYPE
  5
11
330
4
100
AcDbSymbolTableRecord
100
AcDbLinetypeTableRecord
  2
ByBlock
 70
     0
  3

 72
    65
 73
     0
 40
0.0
  0
LTYPE
  5
12
330
4
100
AcDbSymbolTableRecord
100
AcDbLinetypeTableRecord
  2
ByLayer
 70
     0
  3

 72
    65
 73
     0
 40
0.0
  0
LTYPE
  5
13
330
4
100
AcDbSymbolTableRecord
100
AcDbLinetypeTableRecord
  2
Continuous
 70
     0
  3
Solid line
 72
    65
 73
     0
 40
0.0
  0
ENDTAB
  0
TABLE
  2
LAYER
  5
2
330
0
100
AcDbSymbolTable
 70
     3
  0
LAYER
  5
14
102
{ACAD_XDICTIONARY
360
559
102
}
330
2
100
AcDbSymbolTableRecord
100
AcDbLayerTableRecord
  2
0
 70
     0
 62
     7
  6
Continuous
370
    -3
390
1D
347
4D4
  0
LAYER
  5
50B
330
2
100
AcDbSymbolTableRecord
100
AcDbLayerTableRecord
  2
Defpoints
 70
     0
 62
     7
  6
Continuous
290
     0
370
    -3
390
1D
347
4D4
  0
LAYER
  5
50C
102
{ACAD_XDICTIONARY
360
50D
102
}
330
2
100
AcDbSymbolTableRecord
100
AcDbLayerTableRecord
  2
Cotation-JacobDelafon
 70
     0
 62
     8
  6
Continuous
370
    -3
390
1D
347
4D4
  0
ENDTAB
  0
TABLE
  2
STYLE
  5
3
330
0
100
AcDbSymbolTable
 70
     7
  0
STYLE
  5
17
330
3
100
AcDbSymbolTableRecord
100
AcDbTextStyleTableRecord
  2
Standard
 70
     0
 40
0.0
 41
1.0
 50
0.0
 71
     0
 42
0.0
  3
txt
  4

  0
STYLE
  5
24
330
3
100
AcDbSymbolTableRecord
100
AcDbTextStyleTableRecord
  2
STD
 70
     0
 40
0.0
 41
1.0
 50
0.0
 71
     0
 42
0.0
  3
txt
  4

  0
STYLE
  5
25
330
3
100
AcDbSymbolTableRecord
100
AcDbTextStyleTableRecord
  2
TATESTD
 70
     4
 40
0.0
 41
1.0
 50
0.0
 71
     0
 42
0.0
  3
txt
  4

  0
STYLE
  5
26
330
3
100
AcDbSymbolTableRecord
100
AcDbTextStyleTableRecord
  2
KANJISTD
 70
     0
 40
0.0
 41
1.0
 50
0.0
 71
     0
 42
0.0
  3
txt
  4
extfont
  0
STYLE
  5
27
330
3
100
AcDbSymbolTableRecord
100
AcDbTextStyleTableRecord
  2
KANJITATE
 70
     4
 40
0.0
 41
1.0
 50
0.0
 71
     0
 42
0.0
  3
txt
  4
extfont
  0
STYLE
  5
50E
330
3
100
AcDbSymbolTableRecord
100
AcDbTextStyleTableRecord
  2
Annotative
 70
     0
 40
0.0
 41
1.0
 50
0.0
 71
     0
 42
0.2
  3
txt
  4

1001
AcadAnnotative
1000
AnnotativeData
1002
{
1070
     1
1070
     1
1002
}
  0
STYLE
  5
51C
330
3
100
AcDbSymbolTableRecord
100
AcDbTextStyleTableRecord
  2
Jacob-Delafon
 70
     0
 40
0.0
 41
1.0
 50
0.0
 71
     0
 42
2.5
  3
ARIAL.TTF
  4

1001
ACAD
1000
Arial
1071
       34
  0
ENDTAB
  0
TABLE
  2
VIEW
  5
5
330
0
100
AcDbSymbolTable
 70
     1
  0
ENDTAB
  0
TABLE
  2
UCS
  5
6
330
0
100
AcDbSymbolTable
 70
     0
  0
ENDTAB
  0
TABLE
  2
APPID
  5
8
330
0
100
AcDbSymbolTable
 70
     3
  0
APPID
  5
16
330
8
100
AcDbSymbolTableRecord
100
AcDbRegAppTableRecord
  2
ACAD
 70
     0
  0
APPID
  5
504
330
8
100
AcDbSymbolTableRecord
100
AcDbRegAppTableRecord
  2
ACAD_MLEADERVER
 70
     0
  0
APPID
  5
510
330
8
100
AcDbSymbolTableRecord
100
AcDbRegAppTableRecord
  2
AcadAnnotative
 70
     0
  0
ENDTAB
  0
TABLE
  2
DIMSTYLE
  5
9
330
0
100
AcDbSymbolTable
 70
     3
100
AcDbDimStyleTable
 71
     1
340
51D
  0
DIMSTYLE
105
18
330
9
100
AcDbSymbolTableRecord
100
AcDbDimStyleTableRecord
  2
Standard
 70
     0
340
17
  0
DIMSTYLE
105
50F
330
9
100
AcDbSymbolTableRecord
100
AcDbDimStyleTableRecord
  2
Annotative
 70
     0
340
17
1001
AcadAnnotative
1000
AnnotativeData
1002
{
1070
     1
1070
     1
1002
}
  0
DIMSTYLE
105
51D
102
{ACAD_REACTORS
330
524
330
531
102
}
330
9
100
AcDbSymbolTableRecord
100
AcDbDimStyleTableRecord
  2
Cotation-Jacob-Delafon
 70
     0
 41
1.8
 42
0.625
 43
3.799999999999998
 44
1.8
 73
     0
 74
     0
 77
     1
 78
    12
 79
     3
140
3.0
141
0.9
147
0.9
271
     2
272
     2
279
     2
340
51C
341
518
342
518
  0
ENDTAB
  0
TABLE
  2
BLOCK_RECORD
  5
1
330
0
100
AcDbSymbolTable
 70
     5
  0
BLOCK_RECORD
  5
A
330
1
100
AcDbSymbolTableRecord
100
AcDbBlockTableRecord
  2
*MODEL_SPACE
340
20
 70
     0
280
     1
281
     0
  0
BLOCK_RECORD
  5
B
330
1
100
AcDbSymbolTableRecord
100
AcDbBlockTableRecord
  2
*PAPER_SPACE
340
21
 70
     0
280
     1
281
     0
  0
BLOCK_RECORD
  5
518
330
1
100
AcDbSymbolTableRecord
100
AcDbBlockTableRecord
  2
_Oblique
340
0
102
{BLKREFS
331
54A
331
54B
331
553
331
554
102
}
 70
     0
280
     1
281
     0
  0
BLOCK_RECORD
  5
525
330
1
100
AcDbSymbolTableRecord
100
AcDbBlockTableRecord
  2
*D3
340
0
 70
     0
280
     1
281
     0
  0
BLOCK_RECORD
  5
532
330
1
100
AcDbSymbolTableRecord
100
AcDbBlockTableRecord
  2
*D4
340
0
 70
     0
280
     1
281
     0
  0
ENDTAB
  0
ENDSEC
  0
SECTION
  2
BLOCKS
  0
BLOCK
  5
D
330
A
100
AcDbEntity
  8
0
100
AcDbBlockBegin
  2
*MODEL_SPACE
 70
     0
 10
0.0
 20
0.0
 30
0.0
  3
*MODEL_SPACE
  1

  0
ENDBLK
  5
E
330
A
100
AcDbEntity
  8
0
100
AcDbBlockEnd
  0
BLOCK
  5
F
330
B
100
AcDbEntity
 67
     1
  8
0
100
AcDbBlockBegin
  2
*PAPER_SPACE
 70
     0
 10
0.0
 20
0.0
 30
0.0
  3
*PAPER_SPACE
  1

  0
ENDBLK
  5
10
330
B
100
AcDbEntity
 67
     1
  8
0
100
AcDbBlockEnd
  0
BLOCK
  5
519
330
518
100
AcDbEntity
  8
0
100
AcDbBlockBegin
  2
_Oblique
 70
     0
 10
0.0
 20
0.0
 30
0.0
  3
_Oblique
  1

  0
LINE
  5
51A
330
518
100
AcDbEntity
  8
0
  6
ByBlock
 62
     0
370
    -2
380
     1
100
AcDbLine
 10
-0.5
 20
-0.5
 30
0.0
 11
0.5
 21
0.5
 31
0.0
  0
ENDBLK
  5
51B
330
518
100
AcDbEntity
  8
0
100
AcDbBlockEnd
  0
BLOCK
  5
526
330
525
100
AcDbEntity
  8
0
370
     0
100
AcDbBlockBegin
  2
*D3
 70
     1
 10
0.0
 20
0.0
 30
0.0
  3
*D3
  1

  0
LINE
  5
550
330
525
100
AcDbEntity
  8
Cotation-JacobDelafon
  6
Continuous
 62
     0
370
    -2
100
AcDbLine
 10
186.322305
 20
232.226023
 30
0.0
 11
186.322305
 21
254.791137194855
 31
0.0
  0
LINE
  5
551
330
525
100
AcDbEntity
  8
Cotation-JacobDelafon
  6
Continuous
 62
     0
370
    -2
100
AcDbLine
 10
211.722133
 20
216.662115
 30
0.0
 11
211.722133
 21
254.791137194855
 31
0.0
  0
LINE
  5
552
330
525
100
AcDbEntity
  8
Cotation-JacobDelafon
  6
Continuous
 62
     0
370
    -2
100
AcDbLine
 10
186.322305
 20
252.9911371948549
 30
0.0
 11
211.722133
 21
252.9911371948549
 31
0.0
  0
INSERT
  5
553
330
525
100
AcDbEntity
  8
Cotation-JacobDelafon
  6
Continuous
 62
     0
370
    -2
100
AcDbBlockReference
  2
_Oblique
 10
186.322305
 20
252.9911371948549
 30
0.0
 41
1.8
 42
1.8
 43
1.8
 50
180.0
  0
INSERT
  5
554
330
525
100
AcDbEntity
  8
Cotation-JacobDelafon
  6
Continuous
 62
     0
370
    -2
100
AcDbBlockReference
  2
_Oblique
 10
211.722133
 20
252.9911371948549
 30
0.0
 41
1.8
 42
1.8
 43
1.8
  0
MTEXT
  5
555
330
525
100
AcDbEntity
  8
Cotation-JacobDelafon
  6
Continuous
 62
     0
370
     0
100
AcDbMText
 10
199.022219
 20
255.42285615802
 30
0.0
 40
3.0
 41
0.0
 46
0.0
 71
     5
 72
     1
  1
\A1;25.4
  7
Jacob-Delafon
 73
     1
 44
1.0
  0
POINT
  5
556
330
525
100
AcDbEntity
  8
Defpoints
  6
Continuous
 62
     0
370
     0
100
AcDbPoint
 10
186.322305
 20
231.601023
 30
0.0
  0
POINT
  5
557
330
525
100
AcDbEntity
  8
Defpoints
  6
Continuous
 62
     0
370
     0
100
AcDbPoint
 10
211.722133
 20
216.037115
 30
0.0
  0
POINT
  5
558
330
525
100
AcDbEntity
  8
Defpoints
  6
Continuous
 62
     0
370
     0
100
AcDbPoint
 10
211.722133
 20
252.9911371948549
 30
0.0
  0
ENDBLK
  5
527
330
525
100
AcDbEntity
  8
0
370
     0
100
AcDbBlockEnd
  0
BLOCK
  5
533
330
532
100
AcDbEntity
  8
0
370
     0
100
AcDbBlockBegin
  2
*D4
 70
     1
 10
0.0
 20
0.0
 30
0.0
  3
*D4
  1

  0
LINE
  5
547
330
532
100
AcDbEntity
  8
Cotation-JacobDelafon
  6
Continuous
 62
     0
370
    -2
100
AcDbLine
 10
185.697305
 20
231.601023
 30
0.0
 11
159.9493906251594
 21
231.601023
 31
0.0
  0
LINE
  5
548
330
532
100
AcDbEntity
  8
Cotation-JacobDelafon
  6
Continuous
 62
     0
370
    -2
100
AcDbLine
 10
198.3971329999999
 20
140.926799
 30
0.0
 11
159.9493906251594
 21
140.926799
 31
0.0
  0
LINE
  5
549
330
532
100
AcDbEntity
  8
Cotation-JacobDelafon
  6
Continuous
 62
     0
370
    -2
100
AcDbLine
 10
161.7493906251594
 20
231.601023
 30
0.0
 11
161.7493906251594
 21
140.926799
 31
0.0
  0
INSERT
  5
54A
330
532
100
AcDbEntity
  8
Cotation-JacobDelafon
  6
Continuous
 62
     0
370
    -2
100
AcDbBlockReference
  2
_Oblique
 10
161.7493906251594
 20
231.601023
 30
0.0
 41
1.8
 42
1.8
 43
1.8
 50
90.0
  0
INSERT
  5
54B
330
532
100
AcDbEntity
  8
Cotation-JacobDelafon
  6
Continuous
 62
     0
370
    -2
100
AcDbBlockReference
  2
_Oblique
 10
161.7493906251594
 20
140.926799
 30
0.0
 41
1.8
 42
1.8
 43
1.8
 50
270.0
  0
MTEXT
  5
54C
330
532
100
AcDbEntity
  8
Cotation-JacobDelafon
  6
Continuous
 62
     0
370
     0
100
AcDbMText
 10
159.3166484696341
 20
186.263911
 30
0.0
 40
3.0
 41
0.0
 46
0.0
 71
     5
 72
     1
  1
\A1;91.3
  7
Jacob-Delafon
 11
0.0000000000000001
 21
1.0
 31
0.0
 73
     1
 44
1.0
  0
POINT
  5
54D
330
532
100
AcDbEntity
  8
Defpoints
  6
Continuous
 62
     0
370
     0
100
AcDbPoint
 10
186.322305
 20
231.601023
 30
0.0
  0
POINT
  5
54E
330
532
100
AcDbEntity
  8
Defpoints
  6
Continuous
 62
     0
370
     0
100
AcDbPoint
 10
199.0221329999999
 20
140.926799
 30
0.0
  0
POINT
  5
54F
330
532
100
AcDbEntity
  8
Defpoints
  6
Continuous
 62
     0
370
     0
100
AcDbPoint
 10
161.7493906251594
 20
140.926799
 30
0.0
  0
ENDBLK
  5
534
330
532
100
AcDbEntity
  8
0
370
     0
100
AcDbBlockEnd
  0
ENDSEC
  0
SECTION
  2
ENTITIES
  0
LINE
  5
4C0
330
A
100
AcDbEntity
  8
0
 62
     7
100
AcDbLine
 10
186.351761
 20
214.856136
 30
0.0
 11
186.422902
 21
214.826853
 31
0.0
  0
LINE
  5
4BF
330
A
100
AcDbEntity
  8
0
 62
     7
100
AcDbLine
 10
186.322305
 20
214.926933
 30
0.0
 11
186.351761
 21
214.856136
 31
0.0
  0
LINE
  5
4BE
330
A
100
AcDbEntity
  8
0
 62
     7
100
AcDbLine
 10
211.621536
 20
214.826853
 30
0.0
 11
211.692849
 21
214.856136
 31
0.0
  0
LINE
  5
4BD
330
A
100
AcDbEntity
  8
0
 62
     7
100
AcDbLine
 10
211.692849
 20
214.856136
 30
0.0
 11
211.722133
 21
214.926933
 31
0.0
  0
LINE
  5
4BC
330
A
100
AcDbEntity
  8
0
 62
     7
100
AcDbLine
 10
186.322305
 20
216.037115
 30
0.0
 11
186.322305
 21
214.926933
 31
0.0
  0
LINE
  5
4BB
330
A
100
AcDbEntity
  8
0
 62
     7
100
AcDbLine
 10
211.722133
 20
214.926933
 30
0.0
 11
211.722133
 21
216.037115
 31
0.0
  0
LINE
  5
4BA
330
A
100
AcDbEntity
  8
0
 62
     7
100
AcDbLine
 10
196.196121
 20
216.037115
 30
0.0
 11
199.022133
 21
216.037115
 31
0.0
  0
LINE
  5
4B9
330
A
100
AcDbEntity
  8
0
 62
     7
100
AcDbLine
 10
193.511875
 20
216.037115
 30
0.0
 11
196.196121
 21
216.037115
 31
0.0
  0
LINE
  5
4B8
330
A
100
AcDbEntity
  8
0
 62
     7
100
AcDbLine
 10
191.103925
 20
216.037115
 30
0.0
 11
193.511875
 21
216.037115
 31
0.0
  0
LINE
  5
4B7
330
A
100
AcDbEntity
  8
0
 62
     7
100
AcDbLine
 10
189.093023
 20
216.037115
 30
0.0
 11
191.103925
 21
216.037115
 31
0.0
  0
LINE
  5
4B6
330
A
100
AcDbEntity
  8
0
 62
     7
100
AcDbLine
 10
187.579937
 20
216.037115
 30
0.0
 11
189.093023
 21
216.037115
 31
0.0
  0
LINE
  5
4B5
330
A
100
AcDbEntity
  8
0
 62
     7
100
AcDbLine
 10
186.640632
 20
216.037115
 30
0.0
 11
187.579937
 21
216.037115
 31
0.0
  0
LINE
  5
4B4
330
A
100
AcDbEntity
  8
0
 62
     7
100
AcDbLine
 10
186.322305
 20
216.037115
 30
0.0
 11
186.640632
 21
216.037115
 31
0.0
  0
LINE
  5
4B3
330
A
100
AcDbEntity
  8
0
 62
     7
100
AcDbLine
 10
186.640632
 20
216.037115
 30
0.0
 11
186.322305
 21
216.037115
 31
0.0
  0
LINE
  5
4B2
330
A
100
AcDbEntity
  8
0
 62
     7
100
AcDbLine
 10
187.579937
 20
216.037115
 30
0.0
 11
186.640632
 21
216.037115
 31
0.0
  0
LINE
  5
4B1
330
A
100
AcDbEntity
  8
0
 62
     7
100
AcDbLine
 10
189.093023
 20
216.037115
 30
0.0
 11
187.579937
 21
216.037115
 31
0.0
  0
LINE
  5
4B0
330
A
100
AcDbEntity
  8
0
 62
     7
100
AcDbLine
 10
191.103925
 20
216.037115
 30
0.0
 11
189.093023
 21
216.037115
 31
0.0
  0
LINE
  5
4AF
330
A
100
AcDbEntity
  8
0
 62
     7
100
AcDbLine
 10
193.511875
 20
216.037115
 30
0.0
 11
191.103925
 21
216.037115
 31
0.0
  0
LINE
  5
4AE
330
A
100
AcDbEntity
  8
0
 62
     7
100
AcDbLine
 10
196.196121
 20
216.037115
 30
0.0
 11
193.511875
 21
216.037115
 31
0.0
  0
LINE
  5
4AD
330
A
100
AcDbEntity
  8
0
 62
     7
100
AcDbLine
 10
197.196921
 20
216.037115
 30
0.0
 11
196.196121
 21
216.037115
 31
0.0
  0
LINE
  5
4AC
330
A
100
AcDbEntity
  8
0
 62
     7
100
AcDbLine
 10
201.848145
 20
216.037115
 30
0.0
 11
200.847
 21
216.037115
 31
0.0
  0
LINE
  5
4AB
330
A
100
AcDbEntity
  8
0
 62
     7
100
AcDbLine
 10
204.532563
 20
216.037115
 30
0.0
 11
201.848145
 21
216.037115
 31
0.0
  0
LINE
  5
4AA
330
A
100
AcDbEntity
  8
0
 62
     7
100
AcDbLine
 10
206.940685
 20
216.037115
 30
0.0
 11
204.532563
 21
216.037115
 31
0.0
  0
LINE
  5
4A9
330
A
100
AcDbEntity
  8
0
 62
     7
100
AcDbLine
 10
208.951587
 20
216.037115
 30
0.0
 11
206.940685
 21
216.037115
 31
0.0
  0
LINE
  5
4A8
330
A
100
AcDbEntity
  8
0
 62
     7
100
AcDbLine
 10
210.464673
 20
216.037115
 30
0.0
 11
208.951587
 21
216.037115
 31
0.0
  0
LINE
  5
4A7
330
A
100
AcDbEntity
  8
0
 62
     7
100
AcDbLine
 10
211.403806
 20
216.037115
 30
0.0
 11
210.464673
 21
216.037115
 31
0.0
  0
LINE
  5
4A6
330
A
100
AcDbEntity
  8
0
 62
     7
100
AcDbLine
 10
211.722133
 20
216.037115
 30
0.0
 11
211.403806
 21
216.037115
 31
0.0
  0
LINE
  5
4A5
330
A
100
AcDbEntity
  8
0
 62
     7
100
AcDbLine
 10
211.403806
 20
216.037115
 30
0.0
 11
211.722133
 21
216.037115
 31
0.0
  0
LINE
  5
4A4
330
A
100
AcDbEntity
  8
0
 62
     7
100
AcDbLine
 10
210.464673
 20
216.037115
 30
0.0
 11
211.403806
 21
216.037115
 31
0.0
  0
LINE
  5
4A3
330
A
100
AcDbEntity
  8
0
 62
     7
100
AcDbLine
 10
208.951587
 20
216.037115
 30
0.0
 11
210.464673
 21
216.037115
 31
0.0
  0
LINE
  5
4A2
330
A
100
AcDbEntity
  8
0
 62
     7
100
AcDbLine
 10
206.940685
 20
216.037115
 30
0.0
 11
208.951587
 21
216.037115
 31
0.0
  0
LINE
  5
4A1
330
A
100
AcDbEntity
  8
0
 62
     7
100
AcDbLine
 10
204.532563
 20
216.037115
 30
0.0
 11
206.940685
 21
216.037115
 31
0.0
  0
LINE
  5
4A0
330
A
100
AcDbEntity
  8
0
 62
     7
100
AcDbLine
 10
201.848145
 20
216.037115
 30
0.0
 11
204.532563
 21
216.037115
 31
0.0
  0
LINE
  5
49F
330
A
100
AcDbEntity
  8
0
 62
     7
100
AcDbLine
 10
199.022133
 20
216.037115
 30
0.0
 11
201.848145
 21
216.037115
 31
0.0
  0
LINE
  5
49E
330
A
100
AcDbEntity
  8
0
 62
     7
100
AcDbLine
 10
201.825751
 20
214.826853
 30
0.0
 11
199.022133
 21
214.826853
 31
0.0
  0
LINE
  5
49D
330
A
100
AcDbEntity
  8
0
 62
     7
100
AcDbLine
 10
204.48881
 20
214.826853
 30
0.0
 11
201.825751
 21
214.826853
 31
0.0
  0
LINE
  5
49C
330
A
100
AcDbEntity
  8
0
 62
     7
100
AcDbLine
 10
206.877984
 20
214.826853
 30
0.0
 11
204.48881
 21
214.826853
 31
0.0
  0
LINE
  5
49B
330
A
100
AcDbEntity
  8
0
 62
     7
100
AcDbLine
 10
208.872694
 20
214.826853
 30
0.0
 11
206.877984
 21
214.826853
 31
0.0
  0
LINE
  5
49A
330
A
100
AcDbEntity
  8
0
 62
     7
100
AcDbLine
 10
210.373722
 20
214.826853
 30
0.0
 11
208.872694
 21
214.826853
 31
0.0
  0
LINE
  5
499
330
A
100
AcDbEntity
  8
0
 62
     7
100
AcDbLine
 10
211.305621
 20
214.826853
 30
0.0
 11
210.373722
 21
214.826853
 31
0.0
  0
LINE
  5
498
330
A
100
AcDbEntity
  8
0
 62
     7
100
AcDbLine
 10
211.621536
 20
214.826853
 30
0.0
 11
211.305621
 21
214.826853
 31
0.0
  0
LINE
  5
497
330
A
100
AcDbEntity
  8
0
 62
     7
100
AcDbLine
 10
186.738817
 20
214.826853
 30
0.0
 11
186.422902
 21
214.826853
 31
0.0
  0
LINE
  5
496
330
A
100
AcDbEntity
  8
0
 62
     7
100
AcDbLine
 10
187.670543
 20
214.826853
 30
0.0
 11
186.738817
 21
214.826853
 31
0.0
  0
LINE
  5
495
330
A
100
AcDbEntity
  8
0
 62
     7
100
AcDbLine
 10
189.171571
 20
214.826853
 30
0.0
 11
187.670543
 21
214.826853
 31
0.0
  0
LINE
  5
494
330
A
100
AcDbEntity
  8
0
 62
     7
100
AcDbLine
 10
191.166626
 20
214.826853
 30
0.0
 11
189.171571
 21
214.826853
 31
0.0
  0
LINE
  5
493
330
A
100
AcDbEntity
  8
0
 62
     7
100
AcDbLine
 10
193.555627
 20
214.826853
 30
0.0
 11
191.166626
 21
214.826853
 31
0.0
  0
LINE
  5
492
330
A
100
AcDbEntity
  8
0
 62
     7
100
AcDbLine
 10
196.218514
 20
214.826853
 30
0.0
 11
193.555627
 21
214.826853
 31
0.0
  0
LINE
  5
491
330
A
100
AcDbEntity
  8
0
 62
     7
100
AcDbLine
 10
199.022133
 20
214.826853
 30
0.0
 11
196.218514
 21
214.826853
 31
0.0
  0
LINE
  5
490
330
A
100
AcDbEntity
  8
0
 62
     7
100
AcDbLine
 10
197.765017
 20
222.1308
 30
0.0
 11
197.764845
 21
219.83895
 31
0.0
  0
LINE
  5
48F
330
A
100
AcDbEntity
  8
0
 62
     7
100
AcDbLine
 10
200.278904
 20
219.83895
 30
0.0
 11
200.278731
 21
222.129766
 31
0.0
  0
LINE
  5
48E
330
A
100
AcDbEntity
  8
0
 62
     7
100
AcDbLine
 10
197.764845
 20
219.83895
 30
0.0
 11
197.783104
 21
219.709931
 31
0.0
  0
LINE
  5
48D
330
A
100
AcDbEntity
  8
0
 62
     7
100
AcDbLine
 10
200.260645
 20
219.709931
 30
0.0
 11
200.278904
 21
219.83895
 31
0.0
  0
LINE
  5
48C
330
A
100
AcDbEntity
  8
0
 62
     7
100
AcDbLine
 10
197.783104
 20
219.709931
 30
0.0
 11
197.914879
 21
219.498058
 31
0.0
  0
LINE
  5
48B
330
A
100
AcDbEntity
  8
0
 62
     7
100
AcDbLine
 10
200.12887
 20
219.498058
 30
0.0
 11
200.260645
 21
219.709931
 31
0.0
  0
LINE
  5
48A
330
A
100
AcDbEntity
  8
0
 62
     7
100
AcDbLine
 10
197.914879
 20
219.498058
 30
0.0
 11
198.142083
 21
219.386092
 31
0.0
  0
LINE
  5
489
330
A
100
AcDbEntity
  8
0
 62
     7
100
AcDbLine
 10
199.901666
 20
219.386092
 30
0.0
 11
200.12887
 21
219.498058
 31
0.0
  0
LINE
  5
488
330
A
100
AcDbEntity
  8
0
 62
     7
100
AcDbLine
 10
198.142083
 20
219.386092
 30
0.0
 11
198.213224
 21
219.339067
 31
0.0
  0
LINE
  5
487
330
A
100
AcDbEntity
  8
0
 62
     7
100
AcDbLine
 10
199.830524
 20
219.339067
 30
0.0
 11
199.901666
 21
219.386092
 31
0.0
  0
LINE
  5
486
330
A
100
AcDbEntity
  8
0
 62
     7
100
AcDbLine
 10
199.768857
 20
219.339067
 30
0.0
 11
199.830524
 21
219.339067
 31
0.0
  0
LINE
  5
485
330
A
100
AcDbEntity
  8
0
 62
     7
100
AcDbLine
 10
199.593674
 20
219.339067
 30
0.0
 11
199.768857
 21
219.339067
 31
0.0
  0
LINE
  5
484
330
A
100
AcDbEntity
  8
0
 62
     7
100
AcDbLine
 10
199.33133
 20
219.339067
 30
0.0
 11
199.593674
 21
219.339067
 31
0.0
  0
LINE
  5
483
330
A
100
AcDbEntity
  8
0
 62
     7
100
AcDbLine
 10
199.021788
 20
219.339067
 30
0.0
 11
199.33133
 21
219.339067
 31
0.0
  0
LINE
  5
482
330
A
100
AcDbEntity
  8
0
 62
     7
100
AcDbLine
 10
198.712419
 20
219.339067
 30
0.0
 11
199.021788
 21
219.339067
 31
0.0
  0
LINE
  5
481
330
A
100
AcDbEntity
  8
0
 62
     7
100
AcDbLine
 10
198.450075
 20
219.339067
 30
0.0
 11
198.712419
 21
219.339067
 31
0.0
  0
LINE
  5
480
330
A
100
AcDbEntity
  8
0
 62
     7
100
AcDbLine
 10
198.274719
 20
219.339067
 30
0.0
 11
198.450075
 21
219.339067
 31
0.0
  0
LINE
  5
47F
330
A
100
AcDbEntity
  8
0
 62
     7
100
AcDbLine
 10
198.213224
 20
219.339067
 30
0.0
 11
198.274719
 21
219.339067
 31
0.0
  0
LINE
  5
47E
330
A
100
AcDbEntity
  8
0
 62
     7
100
AcDbLine
 10
198.213224
 20
219.339067
 30
0.0
 11
198.230794
 21
219.247772
 31
0.0
  0
LINE
  5
47D
330
A
100
AcDbEntity
  8
0
 62
     7
100
AcDbLine
 10
199.812782
 20
219.247772
 30
0.0
 11
199.830524
 21
219.339067
 31
0.0
  0
LINE
  5
47C
330
A
100
AcDbEntity
  8
0
 62
     7
100
AcDbLine
 10
199.752665
 20
219.247772
 30
0.0
 11
199.812782
 21
219.247772
 31
0.0
  0
LINE
  5
47B
330
A
100
AcDbEntity
  8
0
 62
     7
100
AcDbLine
 10
199.581099
 20
219.247772
 30
0.0
 11
199.752665
 21
219.247772
 31
0.0
  0
LINE
  5
47A
330
A
100
AcDbEntity
  8
0
 62
     7
100
AcDbLine
 10
199.324612
 20
219.247772
 30
0.0
 11
199.581099
 21
219.247772
 31
0.0
  0
LINE
  5
479
330
A
100
AcDbEntity
  8
0
 62
     7
100
AcDbLine
 10
199.021788
 20
219.247772
 30
0.0
 11
199.324612
 21
219.247772
 31
0.0
  0
LINE
  5
478
330
A
100
AcDbEntity
  8
0
 62
     7
100
AcDbLine
 10
198.719137
 20
219.247772
 30
0.0
 11
199.021788
 21
219.247772
 31
0.0
  0
LINE
  5
477
330
A
100
AcDbEntity
  8
0
 62
     7
100
AcDbLine
 10
198.462477
 20
219.247772
 30
0.0
 11
198.719137
 21
219.247772
 31
0.0
  0
LINE
  5
476
330
A
100
AcDbEntity
  8
0
 62
     7
100
AcDbLine
 10
198.291083
 20
219.247772
 30
0.0
 11
198.462477
 21
219.247772
 31
0.0
  0
LINE
  5
475
330
A
100
AcDbEntity
  8
0
 62
     7
100
AcDbLine
 10
198.230794
 20
219.247772
 30
0.0
 11
198.291083
 21
219.247772
 31
0.0
  0
LINE
  5
474
330
A
100
AcDbEntity
  8
0
 62
     7
100
AcDbLine
 10
198.230794
 20
219.247772
 30
0.0
 11
198.191865
 21
219.186621
 31
0.0
  0
LINE
  5
473
330
A
100
AcDbEntity
  8
0
 62
     7
100
AcDbLine
 10
199.851712
 20
219.186621
 30
0.0
 11
199.812782
 21
219.247772
 31
0.0
  0
LINE
  5
472
330
A
100
AcDbEntity
  8
0
 62
     7
100
AcDbLine
 10
198.191865
 20
219.186621
 30
0.0
 11
198.10591
 21
219.112552
 31
0.0
  0
LINE
  5
471
330
A
100
AcDbEntity
  8
0
 62
     7
100
AcDbLine
 10
199.937667
 20
219.112552
 30
0.0
 11
199.851712
 21
219.186621
 31
0.0
  0
LINE
  5
470
330
A
100
AcDbEntity
  8
0
 62
     7
100
AcDbLine
 10
198.10591
 20
219.112552
 30
0.0
 11
197.95467
 21
218.944086
 31
0.0
  0
LINE
  5
46F
330
A
100
AcDbEntity
  8
0
 62
     7
100
AcDbLine
 10
200.088907
 20
218.944086
 30
0.0
 11
199.937667
 21
219.112552
 31
0.0
  0
LINE
  5
46E
330
A
100
AcDbEntity
  8
0
 62
     7
100
AcDbLine
 10
197.95467
 20
218.944086
 30
0.0
 11
197.833403
 21
218.752539
 31
0.0
  0
LINE
  5
46D
330
A
100
AcDbEntity
  8
0
 62
     7
100
AcDbLine
 10
200.210346
 20
218.752539
 30
0.0
 11
200.088907
 21
218.944086
 31
0.0
  0
LINE
  5
46C
330
A
100
AcDbEntity
  8
0
 62
     7
100
AcDbLine
 10
200.707818
 20
218.752539
 30
0.0
 11
200.847
 21
218.752539
 31
0.0
  0
LINE
  5
46B
330
A
100
AcDbEntity
  8
0
 62
     7
100
AcDbLine
 10
200.847
 20
216.037115
 30
0.0
 11
200.707818
 21
216.037115
 31
0.0
  0
LINE
  5
46A
330
A
100
AcDbEntity
  8
0
 62
     7
100
AcDbLine
 10
200.312321
 20
218.752539
 30
0.0
 11
200.707818
 21
218.752539
 31
0.0
  0
LINE
  5
469
330
A
100
AcDbEntity
  8
0
 62
     7
100
AcDbLine
 10
200.707818
 20
216.037115
 30
0.0
 11
200.312321
 21
216.037115
 31
0.0
  0
LINE
  5
468
330
A
100
AcDbEntity
  8
0
 62
     7
100
AcDbLine
 10
199.720281
 20
218.752539
 30
0.0
 11
200.312321
 21
218.752539
 31
0.0
  0
LINE
  5
467
330
A
100
AcDbEntity
  8
0
 62
     7
100
AcDbLine
 10
200.312321
 20
216.037115
 30
0.0
 11
199.720281
 21
216.037115
 31
0.0
  0
LINE
  5
466
330
A
100
AcDbEntity
  8
0
 62
     7
100
AcDbLine
 10
199.021788
 20
218.752539
 30
0.0
 11
199.720281
 21
218.752539
 31
0.0
  0
LINE
  5
465
330
A
100
AcDbEntity
  8
0
 62
     7
100
AcDbLine
 10
199.720281
 20
216.037115
 30
0.0
 11
199.021788
 21
216.037115
 31
0.0
  0
LINE
  5
464
330
A
100
AcDbEntity
  8
0
 62
     7
100
AcDbLine
 10
198.323467
 20
218.752539
 30
0.0
 11
199.021788
 21
218.752539
 31
0.0
  0
LINE
  5
463
330
A
100
AcDbEntity
  8
0
 62
     7
100
AcDbLine
 10
199.021788
 20
216.037115
 30
0.0
 11
198.323467
 21
216.037115
 31
0.0
  0
LINE
  5
462
330
A
100
AcDbEntity
  8
0
 62
     7
100
AcDbLine
 10
197.731428
 20
218.752539
 30
0.0
 11
198.323467
 21
218.752539
 31
0.0
  0
LINE
  5
461
330
A
100
AcDbEntity
  8
0
 62
     7
100
AcDbLine
 10
198.323467
 20
216.037115
 30
0.0
 11
197.731428
 21
216.037115
 31
0.0
  0
LINE
  5
460
330
A
100
AcDbEntity
  8
0
 62
     7
100
AcDbLine
 10
197.731428
 20
216.037115
 30
0.0
 11
197.335758
 21
216.037115
 31
0.0
  0
LINE
  5
45F
330
A
100
AcDbEntity
  8
0
 62
     7
100
AcDbLine
 10
197.335758
 20
218.752539
 30
0.0
 11
197.731428
 21
218.752539
 31
0.0
  0
LINE
  5
45E
330
A
100
AcDbEntity
  8
0
 62
     7
100
AcDbLine
 10
197.335758
 20
216.037115
 30
0.0
 11
197.196921
 21
216.037115
 31
0.0
  0
LINE
  5
45D
330
A
100
AcDbEntity
  8
0
 62
     7
100
AcDbLine
 10
197.196921
 20
218.752539
 30
0.0
 11
197.335758
 21
218.752539
 31
0.0
  0
LINE
  5
45C
330
A
100
AcDbEntity
  8
0
 62
     7
100
AcDbLine
 10
197.196921
 20
218.752539
 30
0.0
 11
197.196921
 21
216.037115
 31
0.0
  0
LINE
  5
45B
330
A
100
AcDbEntity
  8
0
 62
     7
100
AcDbLine
 10
200.847
 20
216.037115
 30
0.0
 11
200.847
 21
218.752539
 31
0.0
  0
LINE
  5
45A
330
A
100
AcDbEntity
  8
0
 62
     7
100
AcDbLine
 10
199.910623
 20
222.1308
 30
0.0
 11
199.502724
 21
222.1308
 31
0.0
  0
LINE
  5
459
330
A
100
AcDbEntity
  8
0
 62
     7
100
AcDbLine
 10
200.182958
 20
222.1308
 30
0.0
 11
199.910623
 21
222.1308
 31
0.0
  0
LINE
  5
458
330
A
100
AcDbEntity
  8
0
 62
     7
100
AcDbLine
 10
198.133126
 20
222.1308
 30
0.0
 11
197.860791
 21
222.1308
 31
0.0
  0
LINE
  5
457
330
A
100
AcDbEntity
  8
0
 62
     7
100
AcDbLine
 10
198.540853
 20
222.1308
 30
0.0
 11
198.133126
 21
222.1308
 31
0.0
  0
LINE
  5
456
330
A
100
AcDbEntity
  8
0
 62
     7
100
AcDbLine
 10
199.021788
 20
222.1308
 30
0.0
 11
198.540853
 21
222.1308
 31
0.0
  0
LINE
  5
455
330
A
100
AcDbEntity
  8
0
 62
     7
100
AcDbLine
 10
199.502724
 20
222.1308
 30
0.0
 11
199.021788
 21
222.1308
 31
0.0
  0
LINE
  5
454
330
A
100
AcDbEntity
  8
0
 62
     7
100
AcDbLine
 10
210.622114
 20
214.420676
 30
0.0
 11
210.622114
 21
214.826853
 31
0.0
  0
LINE
  5
453
330
A
100
AcDbEntity
  8
0
 62
     7
100
AcDbLine
 10
210.563547
 20
214.420676
 30
0.0
 11
210.422298
 21
214.420676
 31
0.0
  0
LINE
  5
452
330
A
100
AcDbEntity
  8
0
 62
     7
100
AcDbLine
 10
210.622114
 20
214.420676
 30
0.0
 11
210.563547
 21
214.420676
 31
0.0
  0
LINE
  5
451
330
A
100
AcDbEntity
  8
0
 62
     7
100
AcDbLine
 10
210.563547
 20
214.420676
 30
0.0
 11
210.622114
 21
214.420676
 31
0.0
  0
LINE
  5
450
330
A
100
AcDbEntity
  8
0
 62
     7
100
AcDbLine
 10
210.422298
 20
214.420676
 30
0.0
 11
210.563547
 21
214.420676
 31
0.0
  0
LINE
  5
44F
330
A
100
AcDbEntity
  8
0
 62
     7
100
AcDbLine
 10
210.280705
 20
214.420676
 30
0.0
 11
210.422298
 21
214.420676
 31
0.0
  0
LINE
  5
44E
330
A
100
AcDbEntity
  8
0
 62
     7
100
AcDbLine
 10
210.222138
 20
214.420676
 30
0.0
 11
210.280705
 21
214.420676
 31
0.0
  0
LINE
  5
44D
330
A
100
AcDbEntity
  8
0
 62
     7
100
AcDbLine
 10
210.280705
 20
214.420676
 30
0.0
 11
210.222138
 21
214.420676
 31
0.0
  0
LINE
  5
44C
330
A
100
AcDbEntity
  8
0
 62
     7
100
AcDbLine
 10
210.422298
 20
214.420676
 30
0.0
 11
210.280705
 21
214.420676
 31
0.0
  0
LINE
  5
44B
330
A
100
AcDbEntity
  8
0
 62
     7
100
AcDbLine
 10
209.840766
 20
214.826853
 30
0.0
 11
209.840766
 21
214.420676
 31
0.0
  0
LINE
  5
44A
330
A
100
AcDbEntity
  8
0
 62
     7
100
AcDbLine
 10
210.085368
 20
214.420676
 30
0.0
 11
209.933784
 21
214.420676
 31
0.0
  0
LINE
  5
449
330
A
100
AcDbEntity
  8
0
 62
     7
100
AcDbLine
 10
210.20698
 20
214.420676
 30
0.0
 11
210.085368
 21
214.420676
 31
0.0
  0
LINE
  5
448
330
A
100
AcDbEntity
  8
0
 62
     7
100
AcDbLine
 10
210.226961
 20
214.420676
 30
0.0
 11
210.20698
 21
214.420676
 31
0.0
  0
LINE
  5
447
330
A
100
AcDbEntity
  8
0
 62
     7
100
AcDbLine
 10
210.133599
 20
214.420676
 30
0.0
 11
210.226961
 21
214.420676
 31
0.0
  0
LINE
  5
446
330
A
100
AcDbEntity
  8
0
 62
     7
100
AcDbLine
 10
209.982015
 20
214.420676
 30
0.0
 11
210.133599
 21
214.420676
 31
0.0
  0
LINE
  5
445
330
A
100
AcDbEntity
  8
0
 62
     7
100
AcDbLine
 10
209.860748
 20
214.420676
 30
0.0
 11
209.982015
 21
214.420676
 31
0.0
  0
LINE
  5
444
330
A
100
AcDbEntity
  8
0
 62
     7
100
AcDbLine
 10
209.840766
 20
214.420676
 30
0.0
 11
209.860748
 21
214.420676
 31
0.0
  0
LINE
  5
443
330
A
100
AcDbEntity
  8
0
 62
     7
100
AcDbLine
 10
209.933784
 20
214.420676
 30
0.0
 11
209.840766
 21
214.420676
 31
0.0
  0
LINE
  5
442
330
A
100
AcDbEntity
  8
0
 62
     7
100
AcDbLine
 10
208.701817
 20
214.826853
 30
0.0
 11
208.701817
 21
214.420676
 31
0.0
  0
LINE
  5
441
330
A
100
AcDbEntity
  8
0
 62
     7
100
AcDbLine
 10
209.088013
 20
214.420676
 30
0.0
 11
208.994995
 21
214.420676
 31
0.0
  0
LINE
  5
440
330
A
100
AcDbEntity
  8
0
 62
     7
100
AcDbLine
 10
209.068031
 20
214.420676
 30
0.0
 11
209.088013
 21
214.420676
 31
0.0
  0
LINE
  5
43F
330
A
100
AcDbEntity
  8
0
 62
     7
100
AcDbLine
 10
208.946764
 20
214.420676
 30
0.0
 11
209.068031
 21
214.420676
 31
0.0
  0
LINE
  5
43E
330
A
100
AcDbEntity
  8
0
 62
     7
100
AcDbLine
 10
208.794835
 20
214.420676
 30
0.0
 11
208.946764
 21
214.420676
 31
0.0
  0
LINE
  5
43D
330
A
100
AcDbEntity
  8
0
 62
     7
100
AcDbLine
 10
208.701817
 20
214.420676
 30
0.0
 11
208.794835
 21
214.420676
 31
0.0
  0
LINE
  5
43C
330
A
100
AcDbEntity
  8
0
 62
     7
100
AcDbLine
 10
208.721799
 20
214.420676
 30
0.0
 11
208.701817
 21
214.420676
 31
0.0
  0
LINE
  5
43B
330
A
100
AcDbEntity
  8
0
 62
     7
100
AcDbLine
 10
208.843066
 20
214.420676
 30
0.0
 11
208.721799
 21
214.420676
 31
0.0
  0
LINE
  5
43A
330
A
100
AcDbEntity
  8
0
 62
     7
100
AcDbLine
 10
208.994995
 20
214.420676
 30
0.0
 11
208.843066
 21
214.420676
 31
0.0
  0
LINE
  5
439
330
A
100
AcDbEntity
  8
0
 62
     7
100
AcDbLine
 10
207.224561
 20
214.420676
 30
0.0
 11
207.082967
 21
214.420676
 31
0.0
  0
LINE
  5
438
330
A
100
AcDbEntity
  8
0
 62
     7
100
AcDbLine
 10
207.283127
 20
214.420676
 30
0.0
 11
207.224561
 21
214.420676
 31
0.0
  0
LINE
  5
437
330
A
100
AcDbEntity
  8
0
 62
     7
100
AcDbLine
 10
207.224561
 20
214.420676
 30
0.0
 11
207.283127
 21
214.420676
 31
0.0
  0
LINE
  5
436
330
A
100
AcDbEntity
  8
0
 62
     7
100
AcDbLine
 10
207.082967
 20
214.420676
 30
0.0
 11
207.224561
 21
214.420676
 31
0.0
  0
LINE
  5
435
330
A
100
AcDbEntity
  8
0
 62
     7
100
AcDbLine
 10
206.941718
 20
214.420676
 30
0.0
 11
207.082967
 21
214.420676
 31
0.0
  0
LINE
  5
434
330
A
100
AcDbEntity
  8
0
 62
     7
100
AcDbLine
 10
206.883152
 20
214.420676
 30
0.0
 11
206.941718
 21
214.420676
 31
0.0
  0
LINE
  5
433
330
A
100
AcDbEntity
  8
0
 62
     7
100
AcDbLine
 10
206.941718
 20
214.420676
 30
0.0
 11
206.883152
 21
214.420676
 31
0.0
  0
LINE
  5
432
330
A
100
AcDbEntity
  8
0
 62
     7
100
AcDbLine
 10
207.082967
 20
214.420676
 30
0.0
 11
206.941718
 21
214.420676
 31
0.0
  0
LINE
  5
431
330
A
100
AcDbEntity
  8
0
 62
     7
100
AcDbLine
 10
204.77372
 20
214.420676
 30
0.0
 11
204.622135
 21
214.420676
 31
0.0
  0
LINE
  5
430
330
A
100
AcDbEntity
  8
0
 62
     7
100
AcDbLine
 10
204.895331
 20
214.420676
 30
0.0
 11
204.77372
 21
214.420676
 31
0.0
  0
LINE
  5
42F
330
A
100
AcDbEntity
  8
0
 62
     7
100
AcDbLine
 10
204.915313
 20
214.420676
 30
0.0
 11
204.895331
 21
214.420676
 31
0.0
  0
LINE
  5
42E
330
A
100
AcDbEntity
  8
0
 62
     7
100
AcDbLine
 10
204.821951
 20
214.420676
 30
0.0
 11
204.915313
 21
214.420676
 31
0.0
  0
LINE
  5
42D
330
A
100
AcDbEntity
  8
0
 62
     7
100
AcDbLine
 10
204.670367
 20
214.420676
 30
0.0
 11
204.821951
 21
214.420676
 31
0.0
  0
LINE
  5
42C
330
A
100
AcDbEntity
  8
0
 62
     7
100
AcDbLine
 10
204.548755
 20
214.420676
 30
0.0
 11
204.670367
 21
214.420676
 31
0.0
  0
LINE
  5
42B
330
A
100
AcDbEntity
  8
0
 62
     7
100
AcDbLine
 10
204.528773
 20
214.420676
 30
0.0
 11
204.548755
 21
214.420676
 31
0.0
  0
LINE
  5
42A
330
A
100
AcDbEntity
  8
0
 62
     7
100
AcDbLine
 10
204.622135
 20
214.420676
 30
0.0
 11
204.528773
 21
214.420676
 31
0.0
  0
LINE
  5
429
330
A
100
AcDbEntity
  8
0
 62
     7
100
AcDbLine
 10
202.165782
 20
214.420676
 30
0.0
 11
202.07242
 21
214.420676
 31
0.0
  0
LINE
  5
428
330
A
100
AcDbEntity
  8
0
 62
     7
100
AcDbLine
 10
202.145801
 20
214.420676
 30
0.0
 11
202.165782
 21
214.420676
 31
0.0
  0
LINE
  5
427
330
A
100
AcDbEntity
  8
0
 62
     7
100
AcDbLine
 10
202.024189
 20
214.420676
 30
0.0
 11
202.145801
 21
214.420676
 31
0.0
  0
LINE
  5
426
330
A
100
AcDbEntity
  8
0
 62
     7
100
AcDbLine
 10
201.87226
 20
214.420676
 30
0.0
 11
202.024189
 21
214.420676
 31
0.0
  0
LINE
  5
425
330
A
100
AcDbEntity
  8
0
 62
     7
100
AcDbLine
 10
201.779243
 20
214.420676
 30
0.0
 11
201.87226
 21
214.420676
 31
0.0
  0
LINE
  5
424
330
A
100
AcDbEntity
  8
0
 62
     7
100
AcDbLine
 10
201.799224
 20
214.420676
 30
0.0
 11
201.779243
 21
214.420676
 31
0.0
  0
LINE
  5
423
330
A
100
AcDbEntity
  8
0
 62
     7
100
AcDbLine
 10
201.920492
 20
214.420676
 30
0.0
 11
201.799224
 21
214.420676
 31
0.0
  0
LINE
  5
422
330
A
100
AcDbEntity
  8
0
 62
     7
100
AcDbLine
 10
202.07242
 20
214.420676
 30
0.0
 11
201.920492
 21
214.420676
 31
0.0
  0
LINE
  5
421
330
A
100
AcDbEntity
  8
0
 62
     7
100
AcDbLine
 10
199.221776
 20
214.420676
 30
0.0
 11
199.163209
 21
214.420676
 31
0.0
  0
LINE
  5
420
330
A
100
AcDbEntity
  8
0
 62
     7
100
AcDbLine
 10
199.163209
 20
214.420676
 30
0.0
 11
199.221776
 21
214.420676
 31
0.0
  0
LINE
  5
41F
330
A
100
AcDbEntity
  8
0
 62
     7
100
AcDbLine
 10
199.021788
 20
214.420676
 30
0.0
 11
199.163209
 21
214.420676
 31
0.0
  0
LINE
  5
41E
330
A
100
AcDbEntity
  8
0
 62
     7
100
AcDbLine
 10
198.880367
 20
214.420676
 30
0.0
 11
199.021788
 21
214.420676
 31
0.0
  0
LINE
  5
41D
330
A
100
AcDbEntity
  8
0
 62
     7
100
AcDbLine
 10
198.8218
 20
214.420676
 30
0.0
 11
198.880367
 21
214.420676
 31
0.0
  0
LINE
  5
41C
330
A
100
AcDbEntity
  8
0
 62
     7
100
AcDbLine
 10
198.880367
 20
214.420676
 30
0.0
 11
198.8218
 21
214.420676
 31
0.0
  0
LINE
  5
41B
330
A
100
AcDbEntity
  8
0
 62
     7
100
AcDbLine
 10
199.021788
 20
214.420676
 30
0.0
 11
198.880367
 21
214.420676
 31
0.0
  0
LINE
  5
41A
330
A
100
AcDbEntity
  8
0
 62
     7
100
AcDbLine
 10
199.163209
 20
214.420676
 30
0.0
 11
199.021788
 21
214.420676
 31
0.0
  0
LINE
  5
419
330
A
100
AcDbEntity
  8
0
 62
     7
100
AcDbLine
 10
195.877966
 20
214.826853
 30
0.0
 11
195.877966
 21
214.420676
 31
0.0
  0
LINE
  5
418
330
A
100
AcDbEntity
  8
0
 62
     7
100
AcDbLine
 10
196.244352
 20
214.420676
 30
0.0
 11
196.1229129999999
 21
214.420676
 31
0.0
  0
LINE
  5
417
330
A
100
AcDbEntity
  8
0
 62
     7
100
AcDbLine
 10
196.264334
 20
214.420676
 30
0.0
 11
196.244352
 21
214.420676
 31
0.0
  0
LINE
  5
416
330
A
100
AcDbEntity
  8
0
 62
     7
100
AcDbLine
 10
196.171144
 20
214.420676
 30
0.0
 11
196.264334
 21
214.420676
 31
0.0
  0
LINE
  5
415
330
A
100
AcDbEntity
  8
0
 62
     7
100
AcDbLine
 10
196.019387
 20
214.420676
 30
0.0
 11
196.171144
 21
214.420676
 31
0.0
  0
LINE
  5
414
330
A
100
AcDbEntity
  8
0
 62
     7
100
AcDbLine
 10
195.897948
 20
214.420676
 30
0.0
 11
196.019387
 21
214.420676
 31
0.0
  0
LINE
  5
413
330
A
100
AcDbEntity
  8
0
 62
     7
100
AcDbLine
 10
195.877966
 20
214.420676
 30
0.0
 11
195.897948
 21
214.420676
 31
0.0
  0
LINE
  5
412
330
A
100
AcDbEntity
  8
0
 62
     7
100
AcDbLine
 10
195.971156
 20
214.420676
 30
0.0
 11
195.877966
 21
214.420676
 31
0.0
  0
LINE
  5
411
330
A
100
AcDbEntity
  8
0
 62
     7
100
AcDbLine
 10
196.1229129999999
 20
214.420676
 30
0.0
 11
195.971156
 21
214.420676
 31
0.0
  0
LINE
  5
410
330
A
100
AcDbEntity
  8
0
 62
     7
100
AcDbLine
 10
193.514803
 20
214.420676
 30
0.0
 11
193.421613
 21
214.420676
 31
0.0
  0
LINE
  5
40F
330
A
100
AcDbEntity
  8
0
 62
     7
100
AcDbLine
 10
193.494822
 20
214.420676
 30
0.0
 11
193.514803
 21
214.420676
 31
0.0
  0
LINE
  5
40E
330
A
100
AcDbEntity
  8
0
 62
     7
100
AcDbLine
 10
193.373382
 20
214.420676
 30
0.0
 11
193.494822
 21
214.420676
 31
0.0
  0
LINE
  5
40D
330
A
100
AcDbEntity
  8
0
 62
     7
100
AcDbLine
 10
193.221625
 20
214.420676
 30
0.0
 11
193.373382
 21
214.420676
 31
0.0
  0
LINE
  5
40C
330
A
100
AcDbEntity
  8
0
 62
     7
100
AcDbLine
 10
193.128436
 20
214.420676
 30
0.0
 11
193.221625
 21
214.420676
 31
0.0
  0
LINE
  5
40B
330
A
100
AcDbEntity
  8
0
 62
     7
100
AcDbLine
 10
193.148417
 20
214.420676
 30
0.0
 11
193.128436
 21
214.420676
 31
0.0
  0
LINE
  5
40A
330
A
100
AcDbEntity
  8
0
 62
     7
100
AcDbLine
 10
193.269857
 20
214.420676
 30
0.0
 11
193.148417
 21
214.420676
 31
0.0
  0
LINE
  5
409
330
A
100
AcDbEntity
  8
0
 62
     7
100
AcDbLine
 10
193.421613
 20
214.420676
 30
0.0
 11
193.269857
 21
214.420676
 31
0.0
  0
LINE
  5
408
330
A
100
AcDbEntity
  8
0
 62
     7
100
AcDbLine
 10
190.960437
 20
214.420676
 30
0.0
 11
190.819016
 21
214.420676
 31
0.0
  0
LINE
  5
407
330
A
100
AcDbEntity
  8
0
 62
     7
100
AcDbLine
 10
191.101858
 20
214.420676
 30
0.0
 11
190.960437
 21
214.420676
 31
0.0
  0
LINE
  5
406
330
A
100
AcDbEntity
  8
0
 62
     7
100
AcDbLine
 10
191.160425
 20
214.420676
 30
0.0
 11
191.101858
 21
214.420676
 31
0.0
  0
LINE
  5
405
330
A
100
AcDbEntity
  8
0
 62
     7
100
AcDbLine
 10
191.101858
 20
214.420676
 30
0.0
 11
191.160425
 21
214.420676
 31
0.0
  0
LINE
  5
404
330
A
100
AcDbEntity
  8
0
 62
     7
100
AcDbLine
 10
190.960437
 20
214.420676
 30
0.0
 11
191.101858
 21
214.420676
 31
0.0
  0
LINE
  5
403
330
A
100
AcDbEntity
  8
0
 62
     7
100
AcDbLine
 10
190.819016
 20
214.420676
 30
0.0
 11
190.960437
 21
214.420676
 31
0.0
  0
LINE
  5
402
330
A
100
AcDbEntity
  8
0
 62
     7
100
AcDbLine
 10
190.760449
 20
214.420676
 30
0.0
 11
190.819016
 21
214.420676
 31
0.0
  0
LINE
  5
401
330
A
100
AcDbEntity
  8
0
 62
     7
100
AcDbLine
 10
190.819016
 20
214.420676
 30
0.0
 11
190.760449
 21
214.420676
 31
0.0
  0
LINE
  5
400
330
A
100
AcDbEntity
  8
0
 62
     7
100
AcDbLine
 10
189.341931
 20
214.826853
 30
0.0
 11
189.341931
 21
214.420676
 31
0.0
  0
LINE
  5
3FF
330
A
100
AcDbEntity
  8
0
 62
     7
100
AcDbLine
 10
188.955564
 20
214.420676
 30
0.0
 11
188.975545
 21
214.420676
 31
0.0
  0
LINE
  5
3FE
330
A
100
AcDbEntity
  8
0
 62
     7
100
AcDbLine
 10
189.048754
 20
214.420676
 30
0.0
 11
188.955564
 21
214.420676
 31
0.0
  0
LINE
  5
3FD
330
A
100
AcDbEntity
  8
0
 62
     7
100
AcDbLine
 10
189.20051
 20
214.420676
 30
0.0
 11
189.048754
 21
214.420676
 31
0.0
  0
LINE
  5
3FC
330
A
100
AcDbEntity
  8
0
 62
     7
100
AcDbLine
 10
189.32195
 20
214.420676
 30
0.0
 11
189.20051
 21
214.420676
 31
0.0
  0
LINE
  5
3FB
330
A
100
AcDbEntity
  8
0
 62
     7
100
AcDbLine
 10
189.341931
 20
214.420676
 30
0.0
 11
189.32195
 21
214.420676
 31
0.0
  0
LINE
  5
3FA
330
A
100
AcDbEntity
  8
0
 62
     7
100
AcDbLine
 10
189.248741
 20
214.420676
 30
0.0
 11
189.341931
 21
214.420676
 31
0.0
  0
LINE
  5
3F9
330
A
100
AcDbEntity
  8
0
 62
     7
100
AcDbLine
 10
189.096985
 20
214.420676
 30
0.0
 11
189.248741
 21
214.420676
 31
0.0
  0
LINE
  5
3F8
330
A
100
AcDbEntity
  8
0
 62
     7
100
AcDbLine
 10
188.975545
 20
214.420676
 30
0.0
 11
189.096985
 21
214.420676
 31
0.0
  0
LINE
  5
3F7
330
A
100
AcDbEntity
  8
0
 62
     7
100
AcDbLine
 10
187.836597
 20
214.420676
 30
0.0
 11
187.816615
 21
214.420676
 31
0.0
  0
LINE
  5
3F6
330
A
100
AcDbEntity
  8
0
 62
     7
100
AcDbLine
 10
187.958036
 20
214.420676
 30
0.0
 11
187.836597
 21
214.420676
 31
0.0
  0
LINE
  5
3F5
330
A
100
AcDbEntity
  8
0
 62
     7
100
AcDbLine
 10
188.109793
 20
214.420676
 30
0.0
 11
187.958036
 21
214.420676
 31
0.0
  0
LINE
  5
3F4
330
A
100
AcDbEntity
  8
0
 62
     7
100
AcDbLine
 10
188.202983
 20
214.420676
 30
0.0
 11
188.109793
 21
214.420676
 31
0.0
  0
LINE
  5
3F3
330
A
100
AcDbEntity
  8
0
 62
     7
100
AcDbLine
 10
188.183001
 20
214.420676
 30
0.0
 11
188.202983
 21
214.420676
 31
0.0
  0
LINE
  5
3F2
330
A
100
AcDbEntity
  8
0
 62
     7
100
AcDbLine
 10
188.061561
 20
214.420676
 30
0.0
 11
188.183001
 21
214.420676
 31
0.0
  0
LINE
  5
3F1
330
A
100
AcDbEntity
  8
0
 62
     7
100
AcDbLine
 10
187.909805
 20
214.420676
 30
0.0
 11
188.061561
 21
214.420676
 31
0.0
  0
LINE
  5
3F0
330
A
100
AcDbEntity
  8
0
 62
     7
100
AcDbLine
 10
187.816615
 20
214.420676
 30
0.0
 11
187.909805
 21
214.420676
 31
0.0
  0
LINE
  5
3EF
330
A
100
AcDbEntity
  8
0
 62
     7
100
AcDbLine
 10
187.762699
 20
214.826853
 30
0.0
 11
187.762699
 21
214.420676
 31
0.0
  0
LINE
  5
3EE
330
A
100
AcDbEntity
  8
0
 62
     7
100
AcDbLine
 10
187.42129
 20
214.420676
 30
0.0
 11
187.42129
 21
214.826853
 31
0.0
  0
LINE
  5
3ED
330
A
100
AcDbEntity
  8
0
 62
     7
100
AcDbLine
 10
187.479857
 20
214.420676
 30
0.0
 11
187.42129
 21
214.420676
 31
0.0
  0
LINE
  5
3EC
330
A
100
AcDbEntity
  8
0
 62
     7
100
AcDbLine
 10
187.621278
 20
214.420676
 30
0.0
 11
187.479857
 21
214.420676
 31
0.0
  0
LINE
  5
3EB
330
A
100
AcDbEntity
  8
0
 62
     7
100
AcDbLine
 10
187.762699
 20
214.420676
 30
0.0
 11
187.621278
 21
214.420676
 31
0.0
  0
LINE
  5
3EA
330
A
100
AcDbEntity
  8
0
 62
     7
100
AcDbLine
 10
187.821438
 20
214.420676
 30
0.0
 11
187.762699
 21
214.420676
 31
0.0
  0
LINE
  5
3E9
330
A
100
AcDbEntity
  8
0
 62
     7
100
AcDbLine
 10
187.762699
 20
214.420676
 30
0.0
 11
187.821438
 21
214.420676
 31
0.0
  0
LINE
  5
3E8
330
A
100
AcDbEntity
  8
0
 62
     7
100
AcDbLine
 10
187.621278
 20
214.420676
 30
0.0
 11
187.762699
 21
214.420676
 31
0.0
  0
LINE
  5
3E7
330
A
100
AcDbEntity
  8
0
 62
     7
100
AcDbLine
 10
187.479857
 20
214.420676
 30
0.0
 11
187.621278
 21
214.420676
 31
0.0
  0
LINE
  5
3E6
330
A
100
AcDbEntity
  8
0
 62
     7
100
AcDbLine
 10
187.42129
 20
214.420676
 30
0.0
 11
187.479857
 21
214.420676
 31
0.0
  0
LINE
  5
3E5
330
A
100
AcDbEntity
  8
0
 62
     7
100
AcDbLine
 10
188.202983
 20
214.826853
 30
0.0
 11
188.202983
 21
214.420676
 31
0.0
  0
LINE
  5
3E4
330
A
100
AcDbEntity
  8
0
 62
     7
100
AcDbLine
 10
188.183001
 20
214.420676
 30
0.0
 11
188.061561
 21
214.420676
 31
0.0
  0
LINE
  5
3E3
330
A
100
AcDbEntity
  8
0
 62
     7
100
AcDbLine
 10
188.202983
 20
214.420676
 30
0.0
 11
188.183001
 21
214.420676
 31
0.0
  0
LINE
  5
3E2
330
A
100
AcDbEntity
  8
0
 62
     7
100
AcDbLine
 10
188.109793
 20
214.420676
 30
0.0
 11
188.202983
 21
214.420676
 31
0.0
  0
LINE
  5
3E1
330
A
100
AcDbEntity
  8
0
 62
     7
100
AcDbLine
 10
187.958036
 20
214.420676
 30
0.0
 11
188.109793
 21
214.420676
 31
0.0
  0
LINE
  5
3E0
330
A
100
AcDbEntity
  8
0
 62
     7
100
AcDbLine
 10
187.836597
 20
214.420676
 30
0.0
 11
187.958036
 21
214.420676
 31
0.0
  0
LINE
  5
3DF
330
A
100
AcDbEntity
  8
0
 62
     7
100
AcDbLine
 10
187.816615
 20
214.420676
 30
0.0
 11
187.836597
 21
214.420676
 31
0.0
  0
LINE
  5
3DE
330
A
100
AcDbEntity
  8
0
 62
     7
100
AcDbLine
 10
187.909805
 20
214.420676
 30
0.0
 11
187.816615
 21
214.420676
 31
0.0
  0
LINE
  5
3DD
330
A
100
AcDbEntity
  8
0
 62
     7
100
AcDbLine
 10
188.061561
 20
214.420676
 30
0.0
 11
187.909805
 21
214.420676
 31
0.0
  0
LINE
  5
3DC
330
A
100
AcDbEntity
  8
0
 62
     7
100
AcDbLine
 10
189.341931
 20
214.826853
 30
0.0
 11
189.341931
 21
214.420676
 31
0.0
  0
LINE
  5
3DB
330
A
100
AcDbEntity
  8
0
 62
     7
100
AcDbLine
 10
188.955564
 20
214.826853
 30
0.0
 11
188.955564
 21
214.420676
 31
0.0
  0
LINE
  5
3DA
330
A
100
AcDbEntity
  8
0
 62
     7
100
AcDbLine
 10
189.341931
 20
214.420676
 30
0.0
 11
189.248741
 21
214.420676
 31
0.0
  0
LINE
  5
3D9
330
A
100
AcDbEntity
  8
0
 62
     7
100
AcDbLine
 10
189.32195
 20
214.420676
 30
0.0
 11
189.341931
 21
214.420676
 31
0.0
  0
LINE
  5
3D8
330
A
100
AcDbEntity
  8
0
 62
     7
100
AcDbLine
 10
189.20051
 20
214.420676
 30
0.0
 11
189.32195
 21
214.420676
 31
0.0
  0
LINE
  5
3D7
330
A
100
AcDbEntity
  8
0
 62
     7
100
AcDbLine
 10
189.048754
 20
214.420676
 30
0.0
 11
189.20051
 21
214.420676
 31
0.0
  0
LINE
  5
3D6
330
A
100
AcDbEntity
  8
0
 62
     7
100
AcDbLine
 10
188.955564
 20
214.420676
 30
0.0
 11
189.048754
 21
214.420676
 31
0.0
  0
LINE
  5
3D5
330
A
100
AcDbEntity
  8
0
 62
     7
100
AcDbLine
 10
188.975545
 20
214.420676
 30
0.0
 11
188.955564
 21
214.420676
 31
0.0
  0
LINE
  5
3D4
330
A
100
AcDbEntity
  8
0
 62
     7
100
AcDbLine
 10
189.096985
 20
214.420676
 30
0.0
 11
188.975545
 21
214.420676
 31
0.0
  0
LINE
  5
3D3
330
A
100
AcDbEntity
  8
0
 62
     7
100
AcDbLine
 10
189.248741
 20
214.420676
 30
0.0
 11
189.096985
 21
214.420676
 31
0.0
  0
LINE
  5
3D2
330
A
100
AcDbEntity
  8
0
 62
     7
100
AcDbLine
 10
191.160425
 20
214.826853
 30
0.0
 11
191.160425
 21
214.420676
 31
0.0
  0
LINE
  5
3D1
330
A
100
AcDbEntity
  8
0
 62
     7
100
AcDbLine
 10
191.160425
 20
214.420676
 30
0.0
 11
191.101858
 21
214.420676
 31
0.0
  0
LINE
  5
3D0
330
A
100
AcDbEntity
  8
0
 62
     7
100
AcDbLine
 10
191.101858
 20
214.420676
 30
0.0
 11
191.160425
 21
214.420676
 31
0.0
  0
LINE
  5
3CF
330
A
100
AcDbEntity
  8
0
 62
     7
100
AcDbLine
 10
190.960437
 20
214.420676
 30
0.0
 11
191.101858
 21
214.420676
 31
0.0
  0
LINE
  5
3CE
330
A
100
AcDbEntity
  8
0
 62
     7
100
AcDbLine
 10
190.819016
 20
214.420676
 30
0.0
 11
190.960437
 21
214.420676
 31
0.0
  0
LINE
  5
3CD
330
A
100
AcDbEntity
  8
0
 62
     7
100
AcDbLine
 10
190.760449
 20
214.420676
 30
0.0
 11
190.819016
 21
214.420676
 31
0.0
  0
LINE
  5
3CC
330
A
100
AcDbEntity
  8
0
 62
     7
100
AcDbLine
 10
190.819016
 20
214.420676
 30
0.0
 11
190.760449
 21
214.420676
 31
0.0
  0
LINE
  5
3CB
330
A
100
AcDbEntity
  8
0
 62
     7
100
AcDbLine
 10
190.960437
 20
214.420676
 30
0.0
 11
190.819016
 21
214.420676
 31
0.0
  0
LINE
  5
3CA
330
A
100
AcDbEntity
  8
0
 62
     7
100
AcDbLine
 10
191.101858
 20
214.420676
 30
0.0
 11
190.960437
 21
214.420676
 31
0.0
  0
LINE
  5
3C9
330
A
100
AcDbEntity
  8
0
 62
     7
100
AcDbLine
 10
193.514803
 20
214.826853
 30
0.0
 11
193.514803
 21
214.420676
 31
0.0
  0
LINE
  5
3C8
330
A
100
AcDbEntity
  8
0
 62
     7
100
AcDbLine
 10
193.128436
 20
214.826853
 30
0.0
 11
193.128436
 21
214.420676
 31
0.0
  0
LINE
  5
3C7
330
A
100
AcDbEntity
  8
0
 62
     7
100
AcDbLine
 10
193.128436
 20
214.420676
 30
0.0
 11
193.148417
 21
214.420676
 31
0.0
  0
LINE
  5
3C6
330
A
100
AcDbEntity
  8
0
 62
     7
100
AcDbLine
 10
193.221625
 20
214.420676
 30
0.0
 11
193.128436
 21
214.420676
 31
0.0
  0
LINE
  5
3C5
330
A
100
AcDbEntity
  8
0
 62
     7
100
AcDbLine
 10
193.373382
 20
214.420676
 30
0.0
 11
193.221625
 21
214.420676
 31
0.0
  0
LINE
  5
3C4
330
A
100
AcDbEntity
  8
0
 62
     7
100
AcDbLine
 10
193.494822
 20
214.420676
 30
0.0
 11
193.373382
 21
214.420676
 31
0.0
  0
LINE
  5
3C3
330
A
100
AcDbEntity
  8
0
 62
     7
100
AcDbLine
 10
193.514803
 20
214.420676
 30
0.0
 11
193.494822
 21
214.420676
 31
0.0
  0
LINE
  5
3C2
330
A
100
AcDbEntity
  8
0
 62
     7
100
AcDbLine
 10
193.421613
 20
214.420676
 30
0.0
 11
193.514803
 21
214.420676
 31
0.0
  0
LINE
  5
3C1
330
A
100
AcDbEntity
  8
0
 62
     7
100
AcDbLine
 10
193.269857
 20
214.420676
 30
0.0
 11
193.421613
 21
214.420676
 31
0.0
  0
LINE
  5
3C0
330
A
100
AcDbEntity
  8
0
 62
     7
100
AcDbLine
 10
193.148417
 20
214.420676
 30
0.0
 11
193.269857
 21
214.420676
 31
0.0
  0
LINE
  5
3BF
330
A
100
AcDbEntity
  8
0
 62
     7
100
AcDbLine
 10
195.877966
 20
214.826853
 30
0.0
 11
195.877966
 21
214.420676
 31
0.0
  0
LINE
  5
3BE
330
A
100
AcDbEntity
  8
0
 62
     7
100
AcDbLine
 10
195.897948
 20
214.420676
 30
0.0
 11
195.877966
 21
214.420676
 31
0.0
  0
LINE
  5
3BD
330
A
100
AcDbEntity
  8
0
 62
     7
100
AcDbLine
 10
196.019387
 20
214.420676
 30
0.0
 11
195.897948
 21
214.420676
 31
0.0
  0
LINE
  5
3BC
330
A
100
AcDbEntity
  8
0
 62
     7
100
AcDbLine
 10
196.171144
 20
214.420676
 30
0.0
 11
196.019387
 21
214.420676
 31
0.0
  0
LINE
  5
3BB
330
A
100
AcDbEntity
  8
0
 62
     7
100
AcDbLine
 10
196.264334
 20
214.420676
 30
0.0
 11
196.171144
 21
214.420676
 31
0.0
  0
LINE
  5
3BA
330
A
100
AcDbEntity
  8
0
 62
     7
100
AcDbLine
 10
196.244352
 20
214.420676
 30
0.0
 11
196.264334
 21
214.420676
 31
0.0
  0
LINE
  5
3B9
330
A
100
AcDbEntity
  8
0
 62
     7
100
AcDbLine
 10
196.1229129999999
 20
214.420676
 30
0.0
 11
196.244352
 21
214.420676
 31
0.0
  0
LINE
  5
3B8
330
A
100
AcDbEntity
  8
0
 62
     7
100
AcDbLine
 10
195.971156
 20
214.420676
 30
0.0
 11
196.1229129999999
 21
214.420676
 31
0.0
  0
LINE
  5
3B7
330
A
100
AcDbEntity
  8
0
 62
     7
100
AcDbLine
 10
195.877966
 20
214.420676
 30
0.0
 11
195.971156
 21
214.420676
 31
0.0
  0
LINE
  5
3B6
330
A
100
AcDbEntity
  8
0
 62
     7
100
AcDbLine
 10
199.163209
 20
214.826853
 30
0.0
 11
199.163209
 21
214.420676
 31
0.0
  0
LINE
  5
3B5
330
A
100
AcDbEntity
  8
0
 62
     7
100
AcDbLine
 10
199.221776
 20
214.826853
 30
0.0
 11
199.221776
 21
214.420676
 31
0.0
  0
LINE
  5
3B4
330
A
100
AcDbEntity
  8
0
 62
     7
100
AcDbLine
 10
198.8218
 20
214.826853
 30
0.0
 11
198.8218
 21
214.420676
 31
0.0
  0
LINE
  5
3B3
330
A
100
AcDbEntity
  8
0
 62
     7
100
AcDbLine
 10
198.880367
 20
214.826853
 30
0.0
 11
198.880367
 21
214.420676
 31
0.0
  0
LINE
  5
3B2
330
A
100
AcDbEntity
  8
0
 62
     7
100
AcDbLine
 10
199.021788
 20
214.420676
 30
0.0
 11
199.021788
 21
214.826853
 31
0.0
  0
LINE
  5
3B1
330
A
100
AcDbEntity
  8
0
 62
     7
100
AcDbLine
 10
198.880367
 20
214.420676
 30
0.0
 11
198.8218
 21
214.420676
 31
0.0
  0
LINE
  5
3B0
330
A
100
AcDbEntity
  8
0
 62
     7
100
AcDbLine
 10
199.021788
 20
214.420676
 30
0.0
 11
198.880367
 21
214.420676
 31
0.0
  0
LINE
  5
3AF
330
A
100
AcDbEntity
  8
0
 62
     7
100
AcDbLine
 10
199.163209
 20
214.420676
 30
0.0
 11
199.021788
 21
214.420676
 31
0.0
  0
LINE
  5
3AE
330
A
100
AcDbEntity
  8
0
 62
     7
100
AcDbLine
 10
199.221776
 20
214.420676
 30
0.0
 11
199.163209
 21
214.420676
 31
0.0
  0
LINE
  5
3AD
330
A
100
AcDbEntity
  8
0
 62
     7
100
AcDbLine
 10
199.163209
 20
214.420676
 30
0.0
 11
199.221776
 21
214.420676
 31
0.0
  0
LINE
  5
3AC
330
A
100
AcDbEntity
  8
0
 62
     7
100
AcDbLine
 10
199.021788
 20
214.420676
 30
0.0
 11
199.163209
 21
214.420676
 31
0.0
  0
LINE
  5
3AB
330
A
100
AcDbEntity
  8
0
 62
     7
100
AcDbLine
 10
198.880367
 20
214.420676
 30
0.0
 11
199.021788
 21
214.420676
 31
0.0
  0
LINE
  5
3AA
330
A
100
AcDbEntity
  8
0
 62
     7
100
AcDbLine
 10
198.8218
 20
214.420676
 30
0.0
 11
198.880367
 21
214.420676
 31
0.0
  0
LINE
  5
3A9
330
A
100
AcDbEntity
  8
0
 62
     7
100
AcDbLine
 10
202.165782
 20
214.826853
 30
0.0
 11
202.165782
 21
214.420676
 31
0.0
  0
LINE
  5
3A8
330
A
100
AcDbEntity
  8
0
 62
     7
100
AcDbLine
 10
201.779243
 20
214.826853
 30
0.0
 11
201.779243
 21
214.420676
 31
0.0
  0
LINE
  5
3A7
330
A
100
AcDbEntity
  8
0
 62
     7
100
AcDbLine
 10
202.145801
 20
214.420676
 30
0.0
 11
202.024189
 21
214.420676
 31
0.0
  0
LINE
  5
3A6
330
A
100
AcDbEntity
  8
0
 62
     7
100
AcDbLine
 10
202.165782
 20
214.420676
 30
0.0
 11
202.145801
 21
214.420676
 31
0.0
  0
LINE
  5
3A5
330
A
100
AcDbEntity
  8
0
 62
     7
100
AcDbLine
 10
202.07242
 20
214.420676
 30
0.0
 11
202.165782
 21
214.420676
 31
0.0
  0
LINE
  5
3A4
330
A
100
AcDbEntity
  8
0
 62
     7
100
AcDbLine
 10
201.920492
 20
214.420676
 30
0.0
 11
202.07242
 21
214.420676
 31
0.0
  0
LINE
  5
3A3
330
A
100
AcDbEntity
  8
0
 62
     7
100
AcDbLine
 10
201.799224
 20
214.420676
 30
0.0
 11
201.920492
 21
214.420676
 31
0.0
  0
LINE
  5
3A2
330
A
100
AcDbEntity
  8
0
 62
     7
100
AcDbLine
 10
201.779243
 20
214.420676
 30
0.0
 11
201.799224
 21
214.420676
 31
0.0
  0
LINE
  5
3A1
330
A
100
AcDbEntity
  8
0
 62
     7
100
AcDbLine
 10
201.87226
 20
214.420676
 30
0.0
 11
201.779243
 21
214.420676
 31
0.0
  0
LINE
  5
3A0
330
A
100
AcDbEntity
  8
0
 62
     7
100
AcDbLine
 10
202.024189
 20
214.420676
 30
0.0
 11
201.87226
 21
214.420676
 31
0.0
  0
LINE
  5
39F
330
A
100
AcDbEntity
  8
0
 62
     7
100
AcDbLine
 10
204.915313
 20
214.826853
 30
0.0
 11
204.915313
 21
214.420676
 31
0.0
  0
LINE
  5
39E
330
A
100
AcDbEntity
  8
0
 62
     7
100
AcDbLine
 10
204.528773
 20
214.826853
 30
0.0
 11
204.528773
 21
214.420676
 31
0.0
  0
LINE
  5
39D
330
A
100
AcDbEntity
  8
0
 62
     7
100
AcDbLine
 10
204.548755
 20
214.420676
 30
0.0
 11
204.528773
 21
214.420676
 31
0.0
  0
LINE
  5
39C
330
A
100
AcDbEntity
  8
0
 62
     7
100
AcDbLine
 10
204.670367
 20
214.420676
 30
0.0
 11
204.548755
 21
214.420676
 31
0.0
  0
LINE
  5
39B
330
A
100
AcDbEntity
  8
0
 62
     7
100
AcDbLine
 10
204.821951
 20
214.420676
 30
0.0
 11
204.670367
 21
214.420676
 31
0.0
  0
LINE
  5
39A
330
A
100
AcDbEntity
  8
0
 62
     7
100
AcDbLine
 10
204.915313
 20
214.420676
 30
0.0
 11
204.821951
 21
214.420676
 31
0.0
  0
LINE
  5
399
330
A
100
AcDbEntity
  8
0
 62
     7
100
AcDbLine
 10
204.895331
 20
214.420676
 30
0.0
 11
204.915313
 21
214.420676
 31
0.0
  0
LINE
  5
398
330
A
100
AcDbEntity
  8
0
 62
     7
100
AcDbLine
 10
204.77372
 20
214.420676
 30
0.0
 11
204.895331
 21
214.420676
 31
0.0
  0
LINE
  5
397
330
A
100
AcDbEntity
  8
0
 62
     7
100
AcDbLine
 10
204.622135
 20
214.420676
 30
0.0
 11
204.77372
 21
214.420676
 31
0.0
  0
LINE
  5
396
330
A
100
AcDbEntity
  8
0
 62
     7
100
AcDbLine
 10
204.528773
 20
214.420676
 30
0.0
 11
204.622135
 21
214.420676
 31
0.0
  0
LINE
  5
395
330
A
100
AcDbEntity
  8
0
 62
     7
100
AcDbLine
 10
206.883152
 20
214.826853
 30
0.0
 11
206.883152
 21
214.420676
 31
0.0
  0
LINE
  5
394
330
A
100
AcDbEntity
  8
0
 62
     7
100
AcDbLine
 10
206.883152
 20
214.420676
 30
0.0
 11
206.941718
 21
214.420676
 31
0.0
  0
LINE
  5
393
330
A
100
AcDbEntity
  8
0
 62
     7
100
AcDbLine
 10
206.941718
 20
214.420676
 30
0.0
 11
206.883152
 21
214.420676
 31
0.0
  0
LINE
  5
392
330
A
100
AcDbEntity
  8
0
 62
     7
100
AcDbLine
 10
207.082967
 20
214.420676
 30
0.0
 11
206.941718
 21
214.420676
 31
0.0
  0
LINE
  5
391
330
A
100
AcDbEntity
  8
0
 62
     7
100
AcDbLine
 10
207.224561
 20
214.420676
 30
0.0
 11
207.082967
 21
214.420676
 31
0.0
  0
LINE
  5
390
330
A
100
AcDbEntity
  8
0
 62
     7
100
AcDbLine
 10
207.283127
 20
214.420676
 30
0.0
 11
207.224561
 21
214.420676
 31
0.0
  0
LINE
  5
38F
330
A
100
AcDbEntity
  8
0
 62
     7
100
AcDbLine
 10
207.224561
 20
214.420676
 30
0.0
 11
207.283127
 21
214.420676
 31
0.0
  0
LINE
  5
38E
330
A
100
AcDbEntity
  8
0
 62
     7
100
AcDbLine
 10
207.082967
 20
214.420676
 30
0.0
 11
207.224561
 21
214.420676
 31
0.0
  0
LINE
  5
38D
330
A
100
AcDbEntity
  8
0
 62
     7
100
AcDbLine
 10
206.941718
 20
214.420676
 30
0.0
 11
207.082967
 21
214.420676
 31
0.0
  0
LINE
  5
38C
330
A
100
AcDbEntity
  8
0
 62
     7
100
AcDbLine
 10
209.088013
 20
214.826853
 30
0.0
 11
209.088013
 21
214.420676
 31
0.0
  0
LINE
  5
38B
330
A
100
AcDbEntity
  8
0
 62
     7
100
AcDbLine
 10
208.701817
 20
214.826853
 30
0.0
 11
208.701817
 21
214.420676
 31
0.0
  0
LINE
  5
38A
330
A
100
AcDbEntity
  8
0
 62
     7
100
AcDbLine
 10
208.946764
 20
214.420676
 30
0.0
 11
208.794835
 21
214.420676
 31
0.0
  0
LINE
  5
389
330
A
100
AcDbEntity
  8
0
 62
     7
100
AcDbLine
 10
209.068031
 20
214.420676
 30
0.0
 11
208.946764
 21
214.420676
 31
0.0
  0
LINE
  5
388
330
A
100
AcDbEntity
  8
0
 62
     7
100
AcDbLine
 10
209.088013
 20
214.420676
 30
0.0
 11
209.068031
 21
214.420676
 31
0.0
  0
LINE
  5
387
330
A
100
AcDbEntity
  8
0
 62
     7
100
AcDbLine
 10
208.994995
 20
214.420676
 30
0.0
 11
209.088013
 21
214.420676
 31
0.0
  0
LINE
  5
386
330
A
100
AcDbEntity
  8
0
 62
     7
100
AcDbLine
 10
208.843066
 20
214.420676
 30
0.0
 11
208.994995
 21
214.420676
 31
0.0
  0
LINE
  5
385
330
A
100
AcDbEntity
  8
0
 62
     7
100
AcDbLine
 10
208.721799
 20
214.420676
 30
0.0
 11
208.843066
 21
214.420676
 31
0.0
  0
LINE
  5
384
330
A
100
AcDbEntity
  8
0
 62
     7
100
AcDbLine
 10
208.701817
 20
214.420676
 30
0.0
 11
208.721799
 21
214.420676
 31
0.0
  0
LINE
  5
383
330
A
100
AcDbEntity
  8
0
 62
     7
100
AcDbLine
 10
208.794835
 20
214.420676
 30
0.0
 11
208.701817
 21
214.420676
 31
0.0
  0
LINE
  5
382
330
A
100
AcDbEntity
  8
0
 62
     7
100
AcDbLine
 10
209.840766
 20
214.826853
 30
0.0
 11
209.840766
 21
214.420676
 31
0.0
  0
LINE
  5
381
330
A
100
AcDbEntity
  8
0
 62
     7
100
AcDbLine
 10
210.226961
 20
214.420676
 30
0.0
 11
210.226961
 21
214.826853
 31
0.0
  0
LINE
  5
380
330
A
100
AcDbEntity
  8
0
 62
     7
100
AcDbLine
 10
209.860748
 20
214.420676
 30
0.0
 11
209.840766
 21
214.420676
 31
0.0
  0
LINE
  5
37F
330
A
100
AcDbEntity
  8
0
 62
     7
100
AcDbLine
 10
209.982015
 20
214.420676
 30
0.0
 11
209.860748
 21
214.420676
 31
0.0
  0
LINE
  5
37E
330
A
100
AcDbEntity
  8
0
 62
     7
100
AcDbLine
 10
210.133599
 20
214.420676
 30
0.0
 11
209.982015
 21
214.420676
 31
0.0
  0
LINE
  5
37D
330
A
100
AcDbEntity
  8
0
 62
     7
100
AcDbLine
 10
210.226961
 20
214.420676
 30
0.0
 11
210.133599
 21
214.420676
 31
0.0
  0
LINE
  5
37C
330
A
100
AcDbEntity
  8
0
 62
     7
100
AcDbLine
 10
210.20698
 20
214.420676
 30
0.0
 11
210.226961
 21
214.420676
 31
0.0
  0
LINE
  5
37B
330
A
100
AcDbEntity
  8
0
 62
     7
100
AcDbLine
 10
210.085368
 20
214.420676
 30
0.0
 11
210.20698
 21
214.420676
 31
0.0
  0
LINE
  5
37A
330
A
100
AcDbEntity
  8
0
 62
     7
100
AcDbLine
 10
209.933784
 20
214.420676
 30
0.0
 11
210.085368
 21
214.420676
 31
0.0
  0
LINE
  5
379
330
A
100
AcDbEntity
  8
0
 62
     7
100
AcDbLine
 10
209.840766
 20
214.420676
 30
0.0
 11
209.933784
 21
214.420676
 31
0.0
  0
LINE
  5
378
330
A
100
AcDbEntity
  8
0
 62
     7
100
AcDbLine
 10
207.372355
 20
214.826853
 30
0.0
 11
207.372355
 21
214.420676
 31
0.0
  0
LINE
  5
377
330
A
100
AcDbEntity
  8
0
 62
     7
100
AcDbLine
 10
207.772331
 20
214.420676
 30
0.0
 11
207.772331
 21
214.826853
 31
0.0
  0
LINE
  5
376
330
A
100
AcDbEntity
  8
0
 62
     7
100
AcDbLine
 10
207.572171
 20
214.420676
 30
0.0
 11
207.430922
 21
214.420676
 31
0.0
  0
LINE
  5
375
330
A
100
AcDbEntity
  8
0
 62
     7
100
AcDbLine
 10
207.713764
 20
214.420676
 30
0.0
 11
207.572171
 21
214.420676
 31
0.0
  0
LINE
  5
374
330
A
100
AcDbEntity
  8
0
 62
     7
100
AcDbLine
 10
207.772331
 20
214.420676
 30
0.0
 11
207.713764
 21
214.420676
 31
0.0
  0
LINE
  5
373
330
A
100
AcDbEntity
  8
0
 62
     7
100
AcDbLine
 10
207.713764
 20
214.420676
 30
0.0
 11
207.772331
 21
214.420676
 31
0.0
  0
LINE
  5
372
330
A
100
AcDbEntity
  8
0
 62
     7
100
AcDbLine
 10
207.572171
 20
214.420676
 30
0.0
 11
207.713764
 21
214.420676
 31
0.0
  0
LINE
  5
371
330
A
100
AcDbEntity
  8
0
 62
     7
100
AcDbLine
 10
207.430922
 20
214.420676
 30
0.0
 11
207.572171
 21
214.420676
 31
0.0
  0
LINE
  5
370
330
A
100
AcDbEntity
  8
0
 62
     7
100
AcDbLine
 10
207.372355
 20
214.420676
 30
0.0
 11
207.430922
 21
214.420676
 31
0.0
  0
LINE
  5
36F
330
A
100
AcDbEntity
  8
0
 62
     7
100
AcDbLine
 10
207.430922
 20
214.420676
 30
0.0
 11
207.372355
 21
214.420676
 31
0.0
  0
LINE
  5
36E
330
A
100
AcDbEntity
  8
0
 62
     7
100
AcDbLine
 10
207.332048
 20
214.420676
 30
0.0
 11
207.215603
 21
214.420676
 31
0.0
  0
LINE
  5
36D
330
A
100
AcDbEntity
  8
0
 62
     7
100
AcDbLine
 10
207.343761
 20
214.420676
 30
0.0
 11
207.332048
 21
214.420676
 31
0.0
  0
LINE
  5
36C
330
A
100
AcDbEntity
  8
0
 62
     7
100
AcDbLine
 10
207.244542
 20
214.420676
 30
0.0
 11
207.343761
 21
214.420676
 31
0.0
  0
LINE
  5
36B
330
A
100
AcDbEntity
  8
0
 62
     7
100
AcDbLine
 10
207.091924
 20
214.420676
 30
0.0
 11
207.244542
 21
214.420676
 31
0.0
  0
LINE
  5
36A
330
A
100
AcDbEntity
  8
0
 62
     7
100
AcDbLine
 10
206.97548
 20
214.420676
 30
0.0
 11
207.091924
 21
214.420676
 31
0.0
  0
LINE
  5
369
330
A
100
AcDbEntity
  8
0
 62
     7
100
AcDbLine
 10
206.963422
 20
214.420676
 30
0.0
 11
206.97548
 21
214.420676
 31
0.0
  0
LINE
  5
368
330
A
100
AcDbEntity
  8
0
 62
     7
100
AcDbLine
 10
207.062986
 20
214.420676
 30
0.0
 11
206.963422
 21
214.420676
 31
0.0
  0
LINE
  5
367
330
A
100
AcDbEntity
  8
0
 62
     7
100
AcDbLine
 10
207.215603
 20
214.420676
 30
0.0
 11
207.062986
 21
214.420676
 31
0.0
  0
LINE
  5
366
330
A
100
AcDbEntity
  8
0
 62
     7
100
AcDbLine
 10
206.136599
 20
214.420676
 30
0.0
 11
206.056673
 21
214.420676
 31
0.0
  0
LINE
  5
365
330
A
100
AcDbEntity
  8
0
 62
     7
100
AcDbLine
 10
206.101115
 20
214.420676
 30
0.0
 11
206.136599
 21
214.420676
 31
0.0
  0
LINE
  5
364
330
A
100
AcDbEntity
  8
0
 62
     7
100
AcDbLine
 10
205.970546
 20
214.420676
 30
0.0
 11
206.101115
 21
214.420676
 31
0.0
  0
LINE
  5
363
330
A
100
AcDbEntity
  8
0
 62
     7
100
AcDbLine
 10
205.821718
 20
214.420676
 30
0.0
 11
205.970546
 21
214.420676
 31
0.0
  0
LINE
  5
362
330
A
100
AcDbEntity
  8
0
 62
     7
100
AcDbLine
 10
205.741791
 20
214.420676
 30
0.0
 11
205.821718
 21
214.420676
 31
0.0
  0
LINE
  5
361
330
A
100
AcDbEntity
  8
0
 62
     7
100
AcDbLine
 10
205.77762
 20
214.420676
 30
0.0
 11
205.741791
 21
214.420676
 31
0.0
  0
LINE
  5
360
330
A
100
AcDbEntity
  8
0
 62
     7
100
AcDbLine
 10
205.907845
 20
214.420676
 30
0.0
 11
205.77762
 21
214.420676
 31
0.0
  0
LINE
  5
35F
330
A
100
AcDbEntity
  8
0
 62
     7
100
AcDbLine
 10
206.056673
 20
214.420676
 30
0.0
 11
205.907845
 21
214.420676
 31
0.0
  0
LINE
  5
35E
330
A
100
AcDbEntity
  8
0
 62
     7
100
AcDbLine
 10
203.85009
 20
214.420676
 30
0.0
 11
203.885919
 21
214.420676
 31
0.0
  0
LINE
  5
35D
330
A
100
AcDbEntity
  8
0
 62
     7
100
AcDbLine
 10
203.930016
 20
214.420676
 30
0.0
 11
203.85009
 21
214.420676
 31
0.0
  0
LINE
  5
35C
330
A
100
AcDbEntity
  8
0
 62
     7
100
AcDbLine
 10
204.078844
 20
214.420676
 30
0.0
 11
203.930016
 21
214.420676
 31
0.0
  0
LINE
  5
35B
330
A
100
AcDbEntity
  8
0
 62
     7
100
AcDbLine
 10
204.209413
 20
214.420676
 30
0.0
 11
204.078844
 21
214.420676
 31
0.0
  0
LINE
  5
35A
330
A
100
AcDbEntity
  8
0
 62
     7
100
AcDbLine
 10
204.245242
 20
214.420676
 30
0.0
 11
204.209413
 21
214.420676
 31
0.0
  0
LINE
  5
359
330
A
100
AcDbEntity
  8
0
 62
     7
100
AcDbLine
 10
204.165316
 20
214.420676
 30
0.0
 11
204.245242
 21
214.420676
 31
0.0
  0
LINE
  5
358
330
A
100
AcDbEntity
  8
0
 62
     7
100
AcDbLine
 10
204.016488
 20
214.420676
 30
0.0
 11
204.165316
 21
214.420676
 31
0.0
  0
LINE
  5
357
330
A
100
AcDbEntity
  8
0
 62
     7
100
AcDbLine
 10
203.885919
 20
214.420676
 30
0.0
 11
204.016488
 21
214.420676
 31
0.0
  0
LINE
  5
356
330
A
100
AcDbEntity
  8
0
 62
     7
100
AcDbLine
 10
201.48572
 20
214.420676
 30
0.0
 11
201.473663
 21
214.420676
 31
0.0
  0
LINE
  5
355
330
A
100
AcDbEntity
  8
0
 62
     7
100
AcDbLine
 10
201.602165
 20
214.420676
 30
0.0
 11
201.48572
 21
214.420676
 31
0.0
  0
LINE
  5
354
330
A
100
AcDbEntity
  8
0
 62
     7
100
AcDbLine
 10
201.754782
 20
214.420676
 30
0.0
 11
201.602165
 21
214.420676
 31
0.0
  0
LINE
  5
353
330
A
100
AcDbEntity
  8
0
 62
     7
100
AcDbLine
 10
201.854346
 20
214.420676
 30
0.0
 11
201.754782
 21
214.420676
 31
0.0
  0
LINE
  5
352
330
A
100
AcDbEntity
  8
0
 62
     7
100
AcDbLine
 10
201.842288
 20
214.420676
 30
0.0
 11
201.854346
 21
214.420676
 31
0.0
  0
LINE
  5
351
330
A
100
AcDbEntity
  8
0
 62
     7
100
AcDbLine
 10
201.725844
 20
214.420676
 30
0.0
 11
201.842288
 21
214.420676
 31
0.0
  0
LINE
  5
350
330
A
100
AcDbEntity
  8
0
 62
     7
100
AcDbLine
 10
201.573226
 20
214.420676
 30
0.0
 11
201.725844
 21
214.420676
 31
0.0
  0
LINE
  5
34F
330
A
100
AcDbEntity
  8
0
 62
     7
100
AcDbLine
 10
201.473663
 20
214.420676
 30
0.0
 11
201.573226
 21
214.420676
 31
0.0
  0
LINE
  5
34E
330
A
100
AcDbEntity
  8
0
 62
     7
100
AcDbLine
 10
199.163209
 20
214.826853
 30
0.0
 11
199.163209
 21
214.420676
 31
0.0
  0
LINE
  5
34D
330
A
100
AcDbEntity
  8
0
 62
     7
100
AcDbLine
 10
199.163209
 20
214.420676
 30
0.0
 11
199.021788
 21
214.420676
 31
0.0
  0
LINE
  5
34C
330
A
100
AcDbEntity
  8
0
 62
     7
100
AcDbLine
 10
199.221776
 20
214.420676
 30
0.0
 11
199.163209
 21
214.420676
 31
0.0
  0
LINE
  5
34B
330
A
100
AcDbEntity
  8
0
 62
     7
100
AcDbLine
 10
199.163209
 20
214.420676
 30
0.0
 11
199.221776
 21
214.420676
 31
0.0
  0
LINE
  5
34A
330
A
100
AcDbEntity
  8
0
 62
     7
100
AcDbLine
 10
199.021788
 20
214.420676
 30
0.0
 11
199.163209
 21
214.420676
 31
0.0
  0
LINE
  5
349
330
A
100
AcDbEntity
  8
0
 62
     7
100
AcDbLine
 10
198.880367
 20
214.420676
 30
0.0
 11
199.021788
 21
214.420676
 31
0.0
  0
LINE
  5
348
330
A
100
AcDbEntity
  8
0
 62
     7
100
AcDbLine
 10
198.8218
 20
214.420676
 30
0.0
 11
198.880367
 21
214.420676
 31
0.0
  0
LINE
  5
347
330
A
100
AcDbEntity
  8
0
 62
     7
100
AcDbLine
 10
198.880367
 20
214.420676
 30
0.0
 11
198.8218
 21
214.420676
 31
0.0
  0
LINE
  5
346
330
A
100
AcDbEntity
  8
0
 62
     7
100
AcDbLine
 10
199.021788
 20
214.420676
 30
0.0
 11
198.880367
 21
214.420676
 31
0.0
  0
LINE
  5
345
330
A
100
AcDbEntity
  8
0
 62
     7
100
AcDbLine
 10
196.557684
 20
214.420676
 30
0.0
 11
196.441412
 21
214.420676
 31
0.0
  0
LINE
  5
344
330
A
100
AcDbEntity
  8
0
 62
     7
100
AcDbLine
 10
196.569741
 20
214.420676
 30
0.0
 11
196.557684
 21
214.420676
 31
0.0
  0
LINE
  5
343
330
A
100
AcDbEntity
  8
0
 62
     7
100
AcDbLine
 10
196.47035
 20
214.420676
 30
0.0
 11
196.569741
 21
214.420676
 31
0.0
  0
LINE
  5
342
330
A
100
AcDbEntity
  8
0
 62
     7
100
AcDbLine
 10
196.317733
 20
214.420676
 30
0.0
 11
196.47035
 21
214.420676
 31
0.0
  0
LINE
  5
341
330
A
100
AcDbEntity
  8
0
 62
     7
100
AcDbLine
 10
196.201289
 20
214.420676
 30
0.0
 11
196.317733
 21
214.420676
 31
0.0
  0
LINE
  5
340
330
A
100
AcDbEntity
  8
0
 62
     7
100
AcDbLine
 10
196.189231
 20
214.420676
 30
0.0
 11
196.201289
 21
214.420676
 31
0.0
  0
LINE
  5
33F
330
A
100
AcDbEntity
  8
0
 62
     7
100
AcDbLine
 10
196.288794
 20
214.420676
 30
0.0
 11
196.189231
 21
214.420676
 31
0.0
  0
LINE
  5
33E
330
A
100
AcDbEntity
  8
0
 62
     7
100
AcDbLine
 10
196.441412
 20
214.420676
 30
0.0
 11
196.288794
 21
214.420676
 31
0.0
  0
LINE
  5
33D
330
A
100
AcDbEntity
  8
0
 62
     7
100
AcDbLine
 10
194.193487
 20
214.826853
 30
0.0
 11
194.193487
 21
214.420676
 31
0.0
  0
LINE
  5
33C
330
A
100
AcDbEntity
  8
0
 62
     7
100
AcDbLine
 10
194.193487
 20
214.420676
 30
0.0
 11
194.113561
 21
214.420676
 31
0.0
  0
LINE
  5
33B
330
A
100
AcDbEntity
  8
0
 62
     7
100
AcDbLine
 10
194.157658
 20
214.420676
 30
0.0
 11
194.193487
 21
214.420676
 31
0.0
  0
LINE
  5
33A
330
A
100
AcDbEntity
  8
0
 62
     7
100
AcDbLine
 10
194.027261
 20
214.420676
 30
0.0
 11
194.157658
 21
214.420676
 31
0.0
  0
LINE
  5
339
330
A
100
AcDbEntity
  8
0
 62
     7
100
AcDbLine
 10
193.878433
 20
214.420676
 30
0.0
 11
194.027261
 21
214.420676
 31
0.0
  0
LINE
  5
338
330
A
100
AcDbEntity
  8
0
 62
     7
100
AcDbLine
 10
193.798334
 20
214.420676
 30
0.0
 11
193.878433
 21
214.420676
 31
0.0
  0
LINE
  5
337
330
A
100
AcDbEntity
  8
0
 62
     7
100
AcDbLine
 10
193.834163
 20
214.420676
 30
0.0
 11
193.798334
 21
214.420676
 31
0.0
  0
LINE
  5
336
330
A
100
AcDbEntity
  8
0
 62
     7
100
AcDbLine
 10
193.964733
 20
214.420676
 30
0.0
 11
193.834163
 21
214.420676
 31
0.0
  0
LINE
  5
335
330
A
100
AcDbEntity
  8
0
 62
     7
100
AcDbLine
 10
194.113561
 20
214.420676
 30
0.0
 11
193.964733
 21
214.420676
 31
0.0
  0
LINE
  5
334
330
A
100
AcDbEntity
  8
0
 62
     7
100
AcDbLine
 10
191.906805
 20
214.826853
 30
0.0
 11
191.906805
 21
214.420676
 31
0.0
  0
LINE
  5
333
330
A
100
AcDbEntity
  8
0
 62
     7
100
AcDbLine
 10
192.135559
 20
214.420676
 30
0.0
 11
191.986731
 21
214.420676
 31
0.0
  0
LINE
  5
332
330
A
100
AcDbEntity
  8
0
 62
     7
100
AcDbLine
 10
192.266128
 20
214.420676
 30
0.0
 11
192.135559
 21
214.420676
 31
0.0
  0
LINE
  5
331
330
A
100
AcDbEntity
  8
0
 62
     7
100
AcDbLine
 10
192.301785
 20
214.420676
 30
0.0
 11
192.266128
 21
214.420676
 31
0.0
  0
LINE
  5
330
330
A
100
AcDbEntity
  8
0
 62
     7
100
AcDbLine
 10
192.221859
 20
214.420676
 30
0.0
 11
192.301785
 21
214.420676
 31
0.0
  0
LINE
  5
32F
330
A
100
AcDbEntity
  8
0
 62
     7
100
AcDbLine
 10
192.073031
 20
214.420676
 30
0.0
 11
192.221859
 21
214.420676
 31
0.0
  0
LINE
  5
32E
330
A
100
AcDbEntity
  8
0
 62
     7
100
AcDbLine
 10
191.942461
 20
214.420676
 30
0.0
 11
192.073031
 21
214.420676
 31
0.0
  0
LINE
  5
32D
330
A
100
AcDbEntity
  8
0
 62
     7
100
AcDbLine
 10
191.906805
 20
214.420676
 30
0.0
 11
191.942461
 21
214.420676
 31
0.0
  0
LINE
  5
32C
330
A
100
AcDbEntity
  8
0
 62
     7
100
AcDbLine
 10
191.986731
 20
214.420676
 30
0.0
 11
191.906805
 21
214.420676
 31
0.0
  0
LINE
  5
32B
330
A
100
AcDbEntity
  8
0
 62
     7
100
AcDbLine
 10
190.711529
 20
214.420676
 30
0.0
 11
190.6996429999999
 21
214.420676
 31
0.0
  0
LINE
  5
32A
330
A
100
AcDbEntity
  8
0
 62
     7
100
AcDbLine
 10
190.827973
 20
214.420676
 30
0.0
 11
190.711529
 21
214.420676
 31
0.0
  0
LINE
  5
329
330
A
100
AcDbEntity
  8
0
 62
     7
100
AcDbLine
 10
190.980591
 20
214.420676
 30
0.0
 11
190.827973
 21
214.420676
 31
0.0
  0
LINE
  5
328
330
A
100
AcDbEntity
  8
0
 62
     7
100
AcDbLine
 10
191.079982
 20
214.420676
 30
0.0
 11
190.980591
 21
214.420676
 31
0.0
  0
LINE
  5
327
330
A
100
AcDbEntity
  8
0
 62
     7
100
AcDbLine
 10
191.067924
 20
214.420676
 30
0.0
 11
191.079982
 21
214.420676
 31
0.0
  0
LINE
  5
326
330
A
100
AcDbEntity
  8
0
 62
     7
100
AcDbLine
 10
190.951652
 20
214.420676
 30
0.0
 11
191.067924
 21
214.420676
 31
0.0
  0
LINE
  5
325
330
A
100
AcDbEntity
  8
0
 62
     7
100
AcDbLine
 10
190.799034
 20
214.420676
 30
0.0
 11
190.951652
 21
214.420676
 31
0.0
  0
LINE
  5
324
330
A
100
AcDbEntity
  8
0
 62
     7
100
AcDbLine
 10
190.6996429999999
 20
214.420676
 30
0.0
 11
190.799034
 21
214.420676
 31
0.0
  0
LINE
  5
323
330
A
100
AcDbEntity
  8
0
 62
     7
100
AcDbLine
 10
190.271246
 20
214.420676
 30
0.0
 11
190.271246
 21
214.826853
 31
0.0
  0
LINE
  5
322
330
A
100
AcDbEntity
  8
0
 62
     7
100
AcDbLine
 10
190.271246
 20
214.420676
 30
0.0
 11
190.329812
 21
214.420676
 31
0.0
  0
LINE
  5
321
330
A
100
AcDbEntity
  8
0
 62
     7
100
AcDbLine
 10
190.329812
 20
214.420676
 30
0.0
 11
190.271246
 21
214.420676
 31
0.0
  0
LINE
  5
320
330
A
100
AcDbEntity
  8
0
 62
     7
100
AcDbLine
 10
190.471233
 20
214.420676
 30
0.0
 11
190.329812
 21
214.420676
 31
0.0
  0
LINE
  5
31F
330
A
100
AcDbEntity
  8
0
 62
     7
100
AcDbLine
 10
190.612655
 20
214.420676
 30
0.0
 11
190.471233
 21
214.420676
 31
0.0
  0
LINE
  5
31E
330
A
100
AcDbEntity
  8
0
 62
     7
100
AcDbLine
 10
190.671221
 20
214.420676
 30
0.0
 11
190.612655
 21
214.420676
 31
0.0
  0
LINE
  5
31D
330
A
100
AcDbEntity
  8
0
 62
     7
100
AcDbLine
 10
190.612655
 20
214.420676
 30
0.0
 11
190.671221
 21
214.420676
 31
0.0
  0
LINE
  5
31C
330
A
100
AcDbEntity
  8
0
 62
     7
100
AcDbLine
 10
190.471233
 20
214.420676
 30
0.0
 11
190.612655
 21
214.420676
 31
0.0
  0
LINE
  5
31B
330
A
100
AcDbEntity
  8
0
 62
     7
100
AcDbLine
 10
190.329812
 20
214.420676
 30
0.0
 11
190.471233
 21
214.420676
 31
0.0
  0
LINE
  5
31A
330
A
100
AcDbEntity
  8
0
 62
     7
100
AcDbLine
 10
190.6996429999999
 20
214.420676
 30
0.0
 11
190.6996429999999
 21
214.826853
 31
0.0
  0
LINE
  5
319
330
A
100
AcDbEntity
  8
0
 62
     7
100
AcDbLine
 10
191.067924
 20
214.420676
 30
0.0
 11
190.951652
 21
214.420676
 31
0.0
  0
LINE
  5
318
330
A
100
AcDbEntity
  8
0
 62
     7
100
AcDbLine
 10
191.079982
 20
214.420676
 30
0.0
 11
191.067924
 21
214.420676
 31
0.0
  0
LINE
  5
317
330
A
100
AcDbEntity
  8
0
 62
     7
100
AcDbLine
 10
190.980591
 20
214.420676
 30
0.0
 11
191.079982
 21
214.420676
 31
0.0
  0
LINE
  5
316
330
A
100
AcDbEntity
  8
0
 62
     7
100
AcDbLine
 10
190.827973
 20
214.420676
 30
0.0
 11
190.980591
 21
214.420676
 31
0.0
  0
LINE
  5
315
330
A
100
AcDbEntity
  8
0
 62
     7
100
AcDbLine
 10
190.711529
 20
214.420676
 30
0.0
 11
190.827973
 21
214.420676
 31
0.0
  0
LINE
  5
314
330
A
100
AcDbEntity
  8
0
 62
     7
100
AcDbLine
 10
190.6996429999999
 20
214.420676
 30
0.0
 11
190.711529
 21
214.420676
 31
0.0
  0
LINE
  5
313
330
A
100
AcDbEntity
  8
0
 62
     7
100
AcDbLine
 10
190.799034
 20
214.420676
 30
0.0
 11
190.6996429999999
 21
214.420676
 31
0.0
  0
LINE
  5
312
330
A
100
AcDbEntity
  8
0
 62
     7
100
AcDbLine
 10
190.951652
 20
214.420676
 30
0.0
 11
190.799034
 21
214.420676
 31
0.0
  0
LINE
  5
311
330
A
100
AcDbEntity
  8
0
 62
     7
100
AcDbLine
 10
192.301785
 20
214.826853
 30
0.0
 11
192.301785
 21
214.420676
 31
0.0
  0
LINE
  5
310
330
A
100
AcDbEntity
  8
0
 62
     7
100
AcDbLine
 10
191.906805
 20
214.826853
 30
0.0
 11
191.906805
 21
214.420676
 31
0.0
  0
LINE
  5
30F
330
A
100
AcDbEntity
  8
0
 62
     7
100
AcDbLine
 10
192.301785
 20
214.420676
 30
0.0
 11
192.221859
 21
214.420676
 31
0.0
  0
LINE
  5
30E
330
A
100
AcDbEntity
  8
0
 62
     7
100
AcDbLine
 10
192.266128
 20
214.420676
 30
0.0
 11
192.301785
 21
214.420676
 31
0.0
  0
LINE
  5
30D
330
A
100
AcDbEntity
  8
0
 62
     7
100
AcDbLine
 10
192.135559
 20
214.420676
 30
0.0
 11
192.266128
 21
214.420676
 31
0.0
  0
LINE
  5
30C
330
A
100
AcDbEntity
  8
0
 62
     7
100
AcDbLine
 10
191.986731
 20
214.420676
 30
0.0
 11
192.135559
 21
214.420676
 31
0.0
  0
LINE
  5
30B
330
A
100
AcDbEntity
  8
0
 62
     7
100
AcDbLine
 10
191.906805
 20
214.420676
 30
0.0
 11
191.986731
 21
214.420676
 31
0.0
  0
LINE
  5
30A
330
A
100
AcDbEntity
  8
0
 62
     7
100
AcDbLine
 10
191.942461
 20
214.420676
 30
0.0
 11
191.906805
 21
214.420676
 31
0.0
  0
LINE
  5
309
330
A
100
AcDbEntity
  8
0
 62
     7
100
AcDbLine
 10
192.073031
 20
214.420676
 30
0.0
 11
191.942461
 21
214.420676
 31
0.0
  0
LINE
  5
308
330
A
100
AcDbEntity
  8
0
 62
     7
100
AcDbLine
 10
192.221859
 20
214.420676
 30
0.0
 11
192.073031
 21
214.420676
 31
0.0
  0
LINE
  5
307
330
A
100
AcDbEntity
  8
0
 62
     7
100
AcDbLine
 10
194.193487
 20
214.826853
 30
0.0
 11
194.193487
 21
214.420676
 31
0.0
  0
LINE
  5
306
330
A
100
AcDbEntity
  8
0
 62
     7
100
AcDbLine
 10
193.878433
 20
214.420676
 30
0.0
 11
193.878433
 21
214.826853
 31
0.0
  0
LINE
  5
305
330
A
100
AcDbEntity
  8
0
 62
     7
100
AcDbLine
 10
193.798334
 20
214.420676
 30
0.0
 11
193.834163
 21
214.420676
 31
0.0
  0
LINE
  5
304
330
A
100
AcDbEntity
  8
0
 62
     7
100
AcDbLine
 10
193.878433
 20
214.420676
 30
0.0
 11
193.798334
 21
214.420676
 31
0.0
  0
LINE
  5
303
330
A
100
AcDbEntity
  8
0
 62
     7
100
AcDbLine
 10
194.027261
 20
214.420676
 30
0.0
 11
193.878433
 21
214.420676
 31
0.0
  0
LINE
  5
302
330
A
100
AcDbEntity
  8
0
 62
     7
100
AcDbLine
 10
194.157658
 20
214.420676
 30
0.0
 11
194.027261
 21
214.420676
 31
0.0
  0
LINE
  5
301
330
A
100
AcDbEntity
  8
0
 62
     7
100
AcDbLine
 10
194.193487
 20
214.420676
 30
0.0
 11
194.157658
 21
214.420676
 31
0.0
  0
LINE
  5
300
330
A
100
AcDbEntity
  8
0
 62
     7
100
AcDbLine
 10
194.113561
 20
214.420676
 30
0.0
 11
194.193487
 21
214.420676
 31
0.0
  0
LINE
  5
2FF
330
A
100
AcDbEntity
  8
0
 62
     7
100
AcDbLine
 10
193.964733
 20
214.420676
 30
0.0
 11
194.113561
 21
214.420676
 31
0.0
  0
LINE
  5
2FE
330
A
100
AcDbEntity
  8
0
 62
     7
100
AcDbLine
 10
193.834163
 20
214.420676
 30
0.0
 11
193.964733
 21
214.420676
 31
0.0
  0
LINE
  5
2FD
330
A
100
AcDbEntity
  8
0
 62
     7
100
AcDbLine
 10
196.317733
 20
214.420676
 30
0.0
 11
196.317733
 21
214.826853
 31
0.0
  0
LINE
  5
2FC
330
A
100
AcDbEntity
  8
0
 62
     7
100
AcDbLine
 10
196.47035
 20
214.420676
 30
0.0
 11
196.317733
 21
214.420676
 31
0.0
  0
LINE
  5
2FB
330
A
100
AcDbEntity
  8
0
 62
     7
100
AcDbLine
 10
196.569741
 20
214.420676
 30
0.0
 11
196.47035
 21
214.420676
 31
0.0
  0
LINE
  5
2FA
330
A
100
AcDbEntity
  8
0
 62
     7
100
AcDbLine
 10
196.557684
 20
214.420676
 30
0.0
 11
196.569741
 21
214.420676
 31
0.0
  0
LINE
  5
2F9
330
A
100
AcDbEntity
  8
0
 62
     7
100
AcDbLine
 10
196.441412
 20
214.420676
 30
0.0
 11
196.557684
 21
214.420676
 31
0.0
  0
LINE
  5
2F8
330
A
100
AcDbEntity
  8
0
 62
     7
100
AcDbLine
 10
196.288794
 20
214.420676
 30
0.0
 11
196.441412
 21
214.420676
 31
0.0
  0
LINE
  5
2F7
330
A
100
AcDbEntity
  8
0
 62
     7
100
AcDbLine
 10
196.189403
 20
214.420676
 30
0.0
 11
196.288794
 21
214.420676
 31
0.0
  0
LINE
  5
2F6
330
A
100
AcDbEntity
  8
0
 62
     7
100
AcDbLine
 10
196.201289
 20
214.420676
 30
0.0
 11
196.189403
 21
214.420676
 31
0.0
  0
LINE
  5
2F5
330
A
100
AcDbEntity
  8
0
 62
     7
100
AcDbLine
 10
196.317733
 20
214.420676
 30
0.0
 11
196.201289
 21
214.420676
 31
0.0
  0
LINE
  5
2F4
330
A
100
AcDbEntity
  8
0
 62
     7
100
AcDbLine
 10
199.163209
 20
214.826853
 30
0.0
 11
199.163209
 21
214.420676
 31
0.0
  0
LINE
  5
2F3
330
A
100
AcDbEntity
  8
0
 62
     7
100
AcDbLine
 10
198.8218
 20
214.826853
 30
0.0
 11
198.8218
 21
214.420676
 31
0.0
  0
LINE
  5
2F2
330
A
100
AcDbEntity
  8
0
 62
     7
100
AcDbLine
 10
199.163209
 20
214.420676
 30
0.0
 11
199.021788
 21
214.420676
 31
0.0
  0
LINE
  5
2F1
330
A
100
AcDbEntity
  8
0
 62
     7
100
AcDbLine
 10
199.221776
 20
214.420676
 30
0.0
 11
199.163209
 21
214.420676
 31
0.0
  0
LINE
  5
2F0
330
A
100
AcDbEntity
  8
0
 62
     7
100
AcDbLine
 10
199.163209
 20
214.420676
 30
0.0
 11
199.221776
 21
214.420676
 31
0.0
  0
LINE
  5
2EF
330
A
100
AcDbEntity
  8
0
 62
     7
100
AcDbLine
 10
199.021788
 20
214.420676
 30
0.0
 11
199.163209
 21
214.420676
 31
0.0
  0
LINE
  5
2EE
330
A
100
AcDbEntity
  8
0
 62
     7
100
AcDbLine
 10
198.880367
 20
214.420676
 30
0.0
 11
199.021788
 21
214.420676
 31
0.0
  0
LINE
  5
2ED
330
A
100
AcDbEntity
  8
0
 62
     7
100
AcDbLine
 10
198.8218
 20
214.420676
 30
0.0
 11
198.880367
 21
214.420676
 31
0.0
  0
LINE
  5
2EC
330
A
100
AcDbEntity
  8
0
 62
     7
100
AcDbLine
 10
198.880367
 20
214.420676
 30
0.0
 11
198.8218
 21
214.420676
 31
0.0
  0
LINE
  5
2EB
330
A
100
AcDbEntity
  8
0
 62
     7
100
AcDbLine
 10
199.021788
 20
214.420676
 30
0.0
 11
198.880367
 21
214.420676
 31
0.0
  0
LINE
  5
2EA
330
A
100
AcDbEntity
  8
0
 62
     7
100
AcDbLine
 10
201.842288
 20
214.420676
 30
0.0
 11
201.725844
 21
214.420676
 31
0.0
  0
LINE
  5
2E9
330
A
100
AcDbEntity
  8
0
 62
     7
100
AcDbLine
 10
201.854346
 20
214.420676
 30
0.0
 11
201.842288
 21
214.420676
 31
0.0
  0
LINE
  5
2E8
330
A
100
AcDbEntity
  8
0
 62
     7
100
AcDbLine
 10
201.754782
 20
214.420676
 30
0.0
 11
201.854346
 21
214.420676
 31
0.0
  0
LINE
  5
2E7
330
A
100
AcDbEntity
  8
0
 62
     7
100
AcDbLine
 10
201.602165
 20
214.420676
 30
0.0
 11
201.754782
 21
214.420676
 31
0.0
  0
LINE
  5
2E6
330
A
100
AcDbEntity
  8
0
 62
     7
100
AcDbLine
 10
201.48572
 20
214.420676
 30
0.0
 11
201.602165
 21
214.420676
 31
0.0
  0
LINE
  5
2E5
330
A
100
AcDbEntity
  8
0
 62
     7
100
AcDbLine
 10
201.473663
 20
214.420676
 30
0.0
 11
201.48572
 21
214.420676
 31
0.0
  0
LINE
  5
2E4
330
A
100
AcDbEntity
  8
0
 62
     7
100
AcDbLine
 10
201.573226
 20
214.420676
 30
0.0
 11
201.473663
 21
214.420676
 31
0.0
  0
LINE
  5
2E3
330
A
100
AcDbEntity
  8
0
 62
     7
100
AcDbLine
 10
201.725844
 20
214.420676
 30
0.0
 11
201.573226
 21
214.420676
 31
0.0
  0
LINE
  5
2E2
330
A
100
AcDbEntity
  8
0
 62
     7
100
AcDbLine
 10
204.245242
 20
214.826853
 30
0.0
 11
204.245242
 21
214.420676
 31
0.0
  0
LINE
  5
2E1
330
A
100
AcDbEntity
  8
0
 62
     7
100
AcDbLine
 10
203.85009
 20
214.826853
 30
0.0
 11
203.85009
 21
214.420676
 31
0.0
  0
LINE
  5
2E0
330
A
100
AcDbEntity
  8
0
 62
     7
100
AcDbLine
 10
204.245242
 20
214.420676
 30
0.0
 11
204.165316
 21
214.420676
 31
0.0
  0
LINE
  5
2DF
330
A
100
AcDbEntity
  8
0
 62
     7
100
AcDbLine
 10
204.209413
 20
214.420676
 30
0.0
 11
204.245242
 21
214.420676
 31
0.0
  0
LINE
  5
2DE
330
A
100
AcDbEntity
  8
0
 62
     7
100
AcDbLine
 10
204.078844
 20
214.420676
 30
0.0
 11
204.209413
 21
214.420676
 31
0.0
  0
LINE
  5
2DD
330
A
100
AcDbEntity
  8
0
 62
     7
100
AcDbLine
 10
203.930016
 20
214.420676
 30
0.0
 11
204.078844
 21
214.420676
 31
0.0
  0
LINE
  5
2DC
330
A
100
AcDbEntity
  8
0
 62
     7
100
AcDbLine
 10
203.85009
 20
214.420676
 30
0.0
 11
203.930016
 21
214.420676
 31
0.0
  0
LINE
  5
2DB
330
A
100
AcDbEntity
  8
0
 62
     7
100
AcDbLine
 10
203.885919
 20
214.420676
 30
0.0
 11
203.85009
 21
214.420676
 31
0.0
  0
LINE
  5
2DA
330
A
100
AcDbEntity
  8
0
 62
     7
100
AcDbLine
 10
204.016488
 20
214.420676
 30
0.0
 11
203.885919
 21
214.420676
 31
0.0
  0
LINE
  5
2D9
330
A
100
AcDbEntity
  8
0
 62
     7
100
AcDbLine
 10
204.165316
 20
214.420676
 30
0.0
 11
204.016488
 21
214.420676
 31
0.0
  0
LINE
  5
2D8
330
A
100
AcDbEntity
  8
0
 62
     7
100
AcDbLine
 10
206.136599
 20
214.826853
 30
0.0
 11
206.136599
 21
214.420676
 31
0.0
  0
LINE
  5
2D7
330
A
100
AcDbEntity
  8
0
 62
     7
100
AcDbLine
 10
205.741791
 20
214.826853
 30
0.0
 11
205.741791
 21
214.420676
 31
0.0
  0
LINE
  5
2D6
330
A
100
AcDbEntity
  8
0
 62
     7
100
AcDbLine
 10
205.741791
 20
214.420676
 30
0.0
 11
205.77762
 21
214.420676
 31
0.0
  0
LINE
  5
2D5
330
A
100
AcDbEntity
  8
0
 62
     7
100
AcDbLine
 10
205.821718
 20
214.420676
 30
0.0
 11
205.741791
 21
214.420676
 31
0.0
  0
LINE
  5
2D4
330
A
100
AcDbEntity
  8
0
 62
     7
100
AcDbLine
 10
205.970546
 20
214.420676
 30
0.0
 11
205.821718
 21
214.420676
 31
0.0
  0
LINE
  5
2D3
330
A
100
AcDbEntity
  8
0
 62
     7
100
AcDbLine
 10
206.101115
 20
214.420676
 30
0.0
 11
205.970546
 21
214.420676
 31
0.0
  0
LINE
  5
2D2
330
A
100
AcDbEntity
  8
0
 62
     7
100
AcDbLine
 10
206.136599
 20
214.420676
 30
0.0
 11
206.101115
 21
214.420676
 31
0.0
  0
LINE
  5
2D1
330
A
100
AcDbEntity
  8
0
 62
     7
100
AcDbLine
 10
206.056673
 20
214.420676
 30
0.0
 11
206.136599
 21
214.420676
 31
0.0
  0
LINE
  5
2D0
330
A
100
AcDbEntity
  8
0
 62
     7
100
AcDbLine
 10
205.907845
 20
214.420676
 30
0.0
 11
206.056673
 21
214.420676
 31
0.0
  0
LINE
  5
2CF
330
A
100
AcDbEntity
  8
0
 62
     7
100
AcDbLine
 10
205.77762
 20
214.420676
 30
0.0
 11
205.907845
 21
214.420676
 31
0.0
  0
LINE
  5
2CE
330
A
100
AcDbEntity
  8
0
 62
     7
100
AcDbLine
 10
207.343761
 20
214.420676
 30
0.0
 11
207.343761
 21
214.826853
 31
0.0
  0
LINE
  5
2CD
330
A
100
AcDbEntity
  8
0
 62
     7
100
AcDbLine
 10
206.97548
 20
214.420676
 30
0.0
 11
206.963422
 21
214.420676
 31
0.0
  0
LINE
  5
2CC
330
A
100
AcDbEntity
  8
0
 62
     7
100
AcDbLine
 10
207.091924
 20
214.420676
 30
0.0
 11
206.97548
 21
214.420676
 31
0.0
  0
LINE
  5
2CB
330
A
100
AcDbEntity
  8
0
 62
     7
100
AcDbLine
 10
207.244542
 20
214.420676
 30
0.0
 11
207.091924
 21
214.420676
 31
0.0
  0
LINE
  5
2CA
330
A
100
AcDbEntity
  8
0
 62
     7
100
AcDbLine
 10
207.343761
 20
214.420676
 30
0.0
 11
207.244542
 21
214.420676
 31
0.0
  0
LINE
  5
2C9
330
A
100
AcDbEntity
  8
0
 62
     7
100
AcDbLine
 10
207.332048
 20
214.420676
 30
0.0
 11
207.343761
 21
214.420676
 31
0.0
  0
LINE
  5
2C8
330
A
100
AcDbEntity
  8
0
 62
     7
100
AcDbLine
 10
207.215603
 20
214.420676
 30
0.0
 11
207.332048
 21
214.420676
 31
0.0
  0
LINE
  5
2C7
330
A
100
AcDbEntity
  8
0
 62
     7
100
AcDbLine
 10
207.062986
 20
214.420676
 30
0.0
 11
207.215603
 21
214.420676
 31
0.0
  0
LINE
  5
2C6
330
A
100
AcDbEntity
  8
0
 62
     7
100
AcDbLine
 10
206.963422
 20
214.420676
 30
0.0
 11
207.062986
 21
214.420676
 31
0.0
  0
LINE
  5
2C5
330
A
100
AcDbEntity
  8
0
 62
     7
100
AcDbLine
 10
204.522228
 20
214.826853
 30
0.0
 11
204.522228
 21
214.420676
 31
0.0
  0
LINE
  5
2C4
330
A
100
AcDbEntity
  8
0
 62
     7
100
AcDbLine
 10
204.922203
 20
214.420676
 30
0.0
 11
204.922203
 21
214.826853
 31
0.0
  0
LINE
  5
2C3
330
A
100
AcDbEntity
  8
0
 62
     7
100
AcDbLine
 10
204.863637
 20
214.420676
 30
0.0
 11
204.722043
 21
214.420676
 31
0.0
  0
LINE
  5
2C2
330
A
100
AcDbEntity
  8
0
 62
     7
100
AcDbLine
 10
204.922203
 20
214.420676
 30
0.0
 11
204.863637
 21
214.420676
 31
0.0
  0
LINE
  5
2C1
330
A
100
AcDbEntity
  8
0
 62
     7
100
AcDbLine
 10
204.863637
 20
214.420676
 30
0.0
 11
204.922203
 21
214.420676
 31
0.0
  0
LINE
  5
2C0
330
A
100
AcDbEntity
  8
0
 62
     7
100
AcDbLine
 10
204.722043
 20
214.420676
 30
0.0
 11
204.863637
 21
214.420676
 31
0.0
  0
LINE
  5
2BF
330
A
100
AcDbEntity
  8
0
 62
     7
100
AcDbLine
 10
204.580794
 20
214.420676
 30
0.0
 11
204.722043
 21
214.420676
 31
0.0
  0
LINE
  5
2BE
330
A
100
AcDbEntity
  8
0
 62
     7
100
AcDbLine
 10
204.522228
 20
214.420676
 30
0.0
 11
204.580794
 21
214.420676
 31
0.0
  0
LINE
  5
2BD
330
A
100
AcDbEntity
  8
0
 62
     7
100
AcDbLine
 10
204.580794
 20
214.420676
 30
0.0
 11
204.522228
 21
214.420676
 31
0.0
  0
LINE
  5
2BC
330
A
100
AcDbEntity
  8
0
 62
     7
100
AcDbLine
 10
204.722043
 20
214.420676
 30
0.0
 11
204.580794
 21
214.420676
 31
0.0
  0
LINE
  5
2BB
330
A
100
AcDbEntity
  8
0
 62
     7
100
AcDbLine
 10
204.364787
 20
214.420676
 30
0.0
 11
204.211825
 21
214.420676
 31
0.0
  0
LINE
  5
2BA
330
A
100
AcDbEntity
  8
0
 62
     7
100
AcDbLine
 10
204.472963
 20
214.420676
 30
0.0
 11
204.364787
 21
214.420676
 31
0.0
  0
LINE
  5
2B9
330
A
100
AcDbEntity
  8
0
 62
     7
100
AcDbLine
 10
204.364787
 20
214.420676
 30
0.0
 11
204.472963
 21
214.420676
 31
0.0
  0
LINE
  5
2B8
330
A
100
AcDbEntity
  8
0
 62
     7
100
AcDbLine
 10
204.211825
 20
214.420676
 30
0.0
 11
204.364787
 21
214.420676
 31
0.0
  0
LINE
  5
2B7
330
A
100
AcDbEntity
  8
0
 62
     7
100
AcDbLine
 10
204.103649
 20
214.420676
 30
0.0
 11
204.211825
 21
214.420676
 31
0.0
  0
LINE
  5
2B6
330
A
100
AcDbEntity
  8
0
 62
     7
100
AcDbLine
 10
204.211825
 20
214.420676
 30
0.0
 11
204.103649
 21
214.420676
 31
0.0
  0
LINE
  5
2B5
330
A
100
AcDbEntity
  8
0
 62
     7
100
AcDbLine
 10
202.852734
 20
214.826853
 30
0.0
 11
202.852734
 21
214.420676
 31
0.0
  0
LINE
  5
2B4
330
A
100
AcDbEntity
  8
0
 62
     7
100
AcDbLine
 10
203.25271
 20
214.826853
 30
0.0
 11
203.25271
 21
214.420676
 31
0.0
  0
LINE
  5
2B3
330
A
100
AcDbEntity
  8
0
 62
     7
100
AcDbLine
 10
203.194143
 20
214.420676
 30
0.0
 11
203.05255
 21
214.420676
 31
0.0
  0
LINE
  5
2B2
330
A
100
AcDbEntity
  8
0
 62
     7
100
AcDbLine
 10
203.25271
 20
214.420676
 30
0.0
 11
203.194143
 21
214.420676
 31
0.0
  0
LINE
  5
2B1
330
A
100
AcDbEntity
  8
0
 62
     7
100
AcDbLine
 10
203.194143
 20
214.420676
 30
0.0
 11
203.25271
 21
214.420676
 31
0.0
  0
LINE
  5
2B0
330
A
100
AcDbEntity
  8
0
 62
     7
100
AcDbLine
 10
203.05255
 20
214.420676
 30
0.0
 11
203.194143
 21
214.420676
 31
0.0
  0
LINE
  5
2AF
330
A
100
AcDbEntity
  8
0
 62
     7
100
AcDbLine
 10
202.911301
 20
214.420676
 30
0.0
 11
203.05255
 21
214.420676
 31
0.0
  0
LINE
  5
2AE
330
A
100
AcDbEntity
  8
0
 62
     7
100
AcDbLine
 10
202.852734
 20
214.420676
 30
0.0
 11
202.911301
 21
214.420676
 31
0.0
  0
LINE
  5
2AD
330
A
100
AcDbEntity
  8
0
 62
     7
100
AcDbLine
 10
202.911301
 20
214.420676
 30
0.0
 11
202.852734
 21
214.420676
 31
0.0
  0
LINE
  5
2AC
330
A
100
AcDbEntity
  8
0
 62
     7
100
AcDbLine
 10
203.05255
 20
214.420676
 30
0.0
 11
202.911301
 21
214.420676
 31
0.0
  0
LINE
  5
2AB
330
A
100
AcDbEntity
  8
0
 62
     7
100
AcDbLine
 10
201.018566
 20
214.826853
 30
0.0
 11
201.018566
 21
214.420676
 31
0.0
  0
LINE
  5
2AA
330
A
100
AcDbEntity
  8
0
 62
     7
100
AcDbLine
 10
201.018566
 20
214.826853
 30
0.0
 11
201.018566
 21
214.420676
 31
0.0
  0
LINE
  5
2A9
330
A
100
AcDbEntity
  8
0
 62
     7
100
AcDbLine
 10
201.38788
 20
214.420676
 30
0.0
 11
201.279704
 21
214.420676
 31
0.0
  0
LINE
  5
2A8
330
A
100
AcDbEntity
  8
0
 62
     7
100
AcDbLine
 10
201.279704
 20
214.420676
 30
0.0
 11
201.38788
 21
214.420676
 31
0.0
  0
LINE
  5
2A7
330
A
100
AcDbEntity
  8
0
 62
     7
100
AcDbLine
 10
201.126742
 20
214.420676
 30
0.0
 11
201.279704
 21
214.420676
 31
0.0
  0
LINE
  5
2A6
330
A
100
AcDbEntity
  8
0
 62
     7
100
AcDbLine
 10
201.018566
 20
214.420676
 30
0.0
 11
201.126742
 21
214.420676
 31
0.0
  0
LINE
  5
2A5
330
A
100
AcDbEntity
  8
0
 62
     7
100
AcDbLine
 10
201.126742
 20
214.420676
 30
0.0
 11
201.018566
 21
214.420676
 31
0.0
  0
LINE
  5
2A4
330
A
100
AcDbEntity
  8
0
 62
     7
100
AcDbLine
 10
201.279704
 20
214.420676
 30
0.0
 11
201.126742
 21
214.420676
 31
0.0
  0
LINE
  5
2A3
330
A
100
AcDbEntity
  8
0
 62
     7
100
AcDbLine
 10
199.021788
 20
214.420676
 30
0.0
 11
198.880367
 21
214.420676
 31
0.0
  0
LINE
  5
2A2
330
A
100
AcDbEntity
  8
0
 62
     7
100
AcDbLine
 10
199.163209
 20
214.420676
 30
0.0
 11
199.021788
 21
214.420676
 31
0.0
  0
LINE
  5
2A1
330
A
100
AcDbEntity
  8
0
 62
     7
100
AcDbLine
 10
199.221776
 20
214.420676
 30
0.0
 11
199.163209
 21
214.420676
 31
0.0
  0
LINE
  5
2A0
330
A
100
AcDbEntity
  8
0
 62
     7
100
AcDbLine
 10
199.163209
 20
214.420676
 30
0.0
 11
199.221776
 21
214.420676
 31
0.0
  0
LINE
  5
29F
330
A
100
AcDbEntity
  8
0
 62
     7
100
AcDbLine
 10
199.021788
 20
214.420676
 30
0.0
 11
199.163209
 21
214.420676
 31
0.0
  0
LINE
  5
29E
330
A
100
AcDbEntity
  8
0
 62
     7
100
AcDbLine
 10
198.880367
 20
214.420676
 30
0.0
 11
199.021788
 21
214.420676
 31
0.0
  0
LINE
  5
29D
330
A
100
AcDbEntity
  8
0
 62
     7
100
AcDbLine
 10
198.8218
 20
214.420676
 30
0.0
 11
198.880367
 21
214.420676
 31
0.0
  0
LINE
  5
29C
330
A
100
AcDbEntity
  8
0
 62
     7
100
AcDbLine
 10
198.880367
 20
214.420676
 30
0.0
 11
198.8218
 21
214.420676
 31
0.0
  0
LINE
  5
29B
330
A
100
AcDbEntity
  8
0
 62
     7
100
AcDbLine
 10
197.025011
 20
214.826853
 30
0.0
 11
197.025011
 21
214.420676
 31
0.0
  0
LINE
  5
29A
330
A
100
AcDbEntity
  8
0
 62
     7
100
AcDbLine
 10
197.025011
 20
214.826853
 30
0.0
 11
197.025011
 21
214.420676
 31
0.0
  0
LINE
  5
299
330
A
100
AcDbEntity
  8
0
 62
     7
100
AcDbLine
 10
196.916835
 20
214.420676
 30
0.0
 11
196.7637
 21
214.420676
 31
0.0
  0
LINE
  5
298
330
A
100
AcDbEntity
  8
0
 62
     7
100
AcDbLine
 10
197.025011
 20
214.420676
 30
0.0
 11
196.916835
 21
214.420676
 31
0.0
  0
LINE
  5
297
330
A
100
AcDbEntity
  8
0
 62
     7
100
AcDbLine
 10
196.916835
 20
214.420676
 30
0.0
 11
197.025011
 21
214.420676
 31
0.0
  0
LINE
  5
296
330
A
100
AcDbEntity
  8
0
 62
     7
100
AcDbLine
 10
196.7637
 20
214.420676
 30
0.0
 11
196.916835
 21
214.420676
 31
0.0
  0
LINE
  5
295
330
A
100
AcDbEntity
  8
0
 62
     7
100
AcDbLine
 10
196.655524
 20
214.420676
 30
0.0
 11
196.7637
 21
214.420676
 31
0.0
  0
LINE
  5
294
330
A
100
AcDbEntity
  8
0
 62
     7
100
AcDbLine
 10
196.7637
 20
214.420676
 30
0.0
 11
196.655524
 21
214.420676
 31
0.0
  0
LINE
  5
293
330
A
100
AcDbEntity
  8
0
 62
     7
100
AcDbLine
 10
195.190842
 20
214.826853
 30
0.0
 11
195.190842
 21
214.420676
 31
0.0
  0
LINE
  5
292
330
A
100
AcDbEntity
  8
0
 62
     7
100
AcDbLine
 10
194.849433
 20
214.420676
 30
0.0
 11
194.790866
 21
214.420676
 31
0.0
  0
LINE
  5
291
330
A
100
AcDbEntity
  8
0
 62
     7
100
AcDbLine
 10
194.990854
 20
214.420676
 30
0.0
 11
194.849433
 21
214.420676
 31
0.0
  0
LINE
  5
290
330
A
100
AcDbEntity
  8
0
 62
     7
100
AcDbLine
 10
195.132275
 20
214.420676
 30
0.0
 11
194.990854
 21
214.420676
 31
0.0
  0
LINE
  5
28F
330
A
100
AcDbEntity
  8
0
 62
     7
100
AcDbLine
 10
195.190842
 20
214.420676
 30
0.0
 11
195.132275
 21
214.420676
 31
0.0
  0
LINE
  5
28E
330
A
100
AcDbEntity
  8
0
 62
     7
100
AcDbLine
 10
195.132275
 20
214.420676
 30
0.0
 11
195.190842
 21
214.420676
 31
0.0
  0
LINE
  5
28D
330
A
100
AcDbEntity
  8
0
 62
     7
100
AcDbLine
 10
194.991026
 20
214.420676
 30
0.0
 11
195.132275
 21
214.420676
 31
0.0
  0
LINE
  5
28C
330
A
100
AcDbEntity
  8
0
 62
     7
100
AcDbLine
 10
194.849433
 20
214.420676
 30
0.0
 11
194.991026
 21
214.420676
 31
0.0
  0
LINE
  5
28B
330
A
100
AcDbEntity
  8
0
 62
     7
100
AcDbLine
 10
194.790866
 20
214.420676
 30
0.0
 11
194.849433
 21
214.420676
 31
0.0
  0
LINE
  5
28A
330
A
100
AcDbEntity
  8
0
 62
     7
100
AcDbLine
 10
193.831752
 20
214.420676
 30
0.0
 11
193.678617
 21
214.420676
 31
0.0
  0
LINE
  5
289
330
A
100
AcDbEntity
  8
0
 62
     7
100
AcDbLine
 10
193.939928
 20
214.420676
 30
0.0
 11
193.831752
 21
214.420676
 31
0.0
  0
LINE
  5
288
330
A
100
AcDbEntity
  8
0
 62
     7
100
AcDbLine
 10
193.831752
 20
214.420676
 30
0.0
 11
193.939928
 21
214.420676
 31
0.0
  0
LINE
  5
287
330
A
100
AcDbEntity
  8
0
 62
     7
100
AcDbLine
 10
193.67879
 20
214.420676
 30
0.0
 11
193.831752
 21
214.420676
 31
0.0
  0
LINE
  5
286
330
A
100
AcDbEntity
  8
0
 62
     7
100
AcDbLine
 10
193.5704409999999
 20
214.420676
 30
0.0
 11
193.67879
 21
214.420676
 31
0.0
  0
LINE
  5
285
330
A
100
AcDbEntity
  8
0
 62
     7
100
AcDbLine
 10
193.678617
 20
214.420676
 30
0.0
 11
193.5704409999999
 21
214.420676
 31
0.0
  0
LINE
  5
284
330
A
100
AcDbEntity
  8
0
 62
     7
100
AcDbLine
 10
193.521349
 20
214.826853
 30
0.0
 11
193.521349
 21
214.420676
 31
0.0
  0
LINE
  5
283
330
A
100
AcDbEntity
  8
0
 62
     7
100
AcDbLine
 10
193.121373
 20
214.420676
 30
0.0
 11
193.121373
 21
214.826853
 31
0.0
  0
LINE
  5
282
330
A
100
AcDbEntity
  8
0
 62
     7
100
AcDbLine
 10
193.321361
 20
214.420676
 30
0.0
 11
193.17994
 21
214.420676
 31
0.0
  0
LINE
  5
281
330
A
100
AcDbEntity
  8
0
 62
     7
100
AcDbLine
 10
193.462782
 20
214.420676
 30
0.0
 11
193.321361
 21
214.420676
 31
0.0
  0
LINE
  5
280
330
A
100
AcDbEntity
  8
0
 62
     7
100
AcDbLine
 10
193.521349
 20
214.420676
 30
0.0
 11
193.462782
 21
214.420676
 31
0.0
  0
LINE
  5
27F
330
A
100
AcDbEntity
  8
0
 62
     7
100
AcDbLine
 10
193.462782
 20
214.420676
 30
0.0
 11
193.521349
 21
214.420676
 31
0.0
  0
LINE
  5
27E
330
A
100
AcDbEntity
  8
0
 62
     7
100
AcDbLine
 10
193.321361
 20
214.420676
 30
0.0
 11
193.462782
 21
214.420676
 31
0.0
  0
LINE
  5
27D
330
A
100
AcDbEntity
  8
0
 62
     7
100
AcDbLine
 10
193.17994
 20
214.420676
 30
0.0
 11
193.321361
 21
214.420676
 31
0.0
  0
LINE
  5
27C
330
A
100
AcDbEntity
  8
0
 62
     7
100
AcDbLine
 10
193.121373
 20
214.420676
 30
0.0
 11
193.17994
 21
214.420676
 31
0.0
  0
LINE
  5
27B
330
A
100
AcDbEntity
  8
0
 62
     7
100
AcDbLine
 10
193.17994
 20
214.420676
 30
0.0
 11
193.121373
 21
214.420676
 31
0.0
  0
LINE
  5
27A
330
A
100
AcDbEntity
  8
0
 62
     7
100
AcDbLine
 10
193.5704409999999
 20
214.420676
 30
0.0
 11
193.5704409999999
 21
214.826853
 31
0.0
  0
LINE
  5
279
330
A
100
AcDbEntity
  8
0
 62
     7
100
AcDbLine
 10
193.5704409999999
 20
214.420676
 30
0.0
 11
193.67879
 21
214.420676
 31
0.0
  0
LINE
  5
278
330
A
100
AcDbEntity
  8
0
 62
     7
100
AcDbLine
 10
193.67879
 20
214.420676
 30
0.0
 11
193.5704409999999
 21
214.420676
 31
0.0
  0
LINE
  5
277
330
A
100
AcDbEntity
  8
0
 62
     7
100
AcDbLine
 10
193.831752
 20
214.420676
 30
0.0
 11
193.67879
 21
214.420676
 31
0.0
  0
LINE
  5
276
330
A
100
AcDbEntity
  8
0
 62
     7
100
AcDbLine
 10
193.939928
 20
214.420676
 30
0.0
 11
193.831752
 21
214.420676
 31
0.0
  0
LINE
  5
275
330
A
100
AcDbEntity
  8
0
 62
     7
100
AcDbLine
 10
193.831752
 20
214.420676
 30
0.0
 11
193.939928
 21
214.420676
 31
0.0
  0
LINE
  5
274
330
A
100
AcDbEntity
  8
0
 62
     7
100
AcDbLine
 10
193.67879
 20
214.420676
 30
0.0
 11
193.831752
 21
214.420676
 31
0.0
  0
LINE
  5
273
330
A
100
AcDbEntity
  8
0
 62
     7
100
AcDbLine
 10
195.191014
 20
214.826853
 30
0.0
 11
195.191014
 21
214.420676
 31
0.0
  0
LINE
  5
272
330
A
100
AcDbEntity
  8
0
 62
     7
100
AcDbLine
 10
194.790866
 20
214.826853
 30
0.0
 11
194.790866
 21
214.420676
 31
0.0
  0
LINE
  5
271
330
A
100
AcDbEntity
  8
0
 62
     7
100
AcDbLine
 10
195.132275
 20
214.420676
 30
0.0
 11
194.991026
 21
214.420676
 31
0.0
  0
LINE
  5
270
330
A
100
AcDbEntity
  8
0
 62
     7
100
AcDbLine
 10
195.191014
 20
214.420676
 30
0.0
 11
195.132275
 21
214.420676
 31
0.0
  0
LINE
  5
26F
330
A
100
AcDbEntity
  8
0
 62
     7
100
AcDbLine
 10
195.132275
 20
214.420676
 30
0.0
 11
195.191014
 21
214.420676
 31
0.0
  0
LINE
  5
26E
330
A
100
AcDbEntity
  8
0
 62
     7
100
AcDbLine
 10
194.991026
 20
214.420676
 30
0.0
 11
195.132275
 21
214.420676
 31
0.0
  0
LINE
  5
26D
330
A
100
AcDbEntity
  8
0
 62
     7
100
AcDbLine
 10
194.849433
 20
214.420676
 30
0.0
 11
194.991026
 21
214.420676
 31
0.0
  0
LINE
  5
26C
330
A
100
AcDbEntity
  8
0
 62
     7
100
AcDbLine
 10
194.790866
 20
214.420676
 30
0.0
 11
194.849433
 21
214.420676
 31
0.0
  0
LINE
  5
26B
330
A
100
AcDbEntity
  8
0
 62
     7
100
AcDbLine
 10
194.849433
 20
214.420676
 30
0.0
 11
194.790866
 21
214.420676
 31
0.0
  0
LINE
  5
26A
330
A
100
AcDbEntity
  8
0
 62
     7
100
AcDbLine
 10
194.991026
 20
214.420676
 30
0.0
 11
194.849433
 21
214.420676
 31
0.0
  0
LINE
  5
269
330
A
100
AcDbEntity
  8
0
 62
     7
100
AcDbLine
 10
197.025011
 20
214.826853
 30
0.0
 11
197.025011
 21
214.420676
 31
0.0
  0
LINE
  5
268
330
A
100
AcDbEntity
  8
0
 62
     7
100
AcDbLine
 10
197.025011
 20
214.826853
 30
0.0
 11
197.025011
 21
214.420676
 31
0.0
  0
LINE
  5
267
330
A
100
AcDbEntity
  8
0
 62
     7
100
AcDbLine
 10
196.7637
 20
214.420676
 30
0.0
 11
196.7637
 21
214.826853
 31
0.0
  0
LINE
  5
266
330
A
100
AcDbEntity
  8
0
 62
     7
100
AcDbLine
 10
197.025011
 20
214.420676
 30
0.0
 11
196.916835
 21
214.420676
 31
0.0
  0
LINE
  5
265
330
A
100
AcDbEntity
  8
0
 62
     7
100
AcDbLine
 10
196.916835
 20
214.420676
 30
0.0
 11
197.025011
 21
214.420676
 31
0.0
  0
LINE
  5
264
330
A
100
AcDbEntity
  8
0
 62
     7
100
AcDbLine
 10
196.7637
 20
214.420676
 30
0.0
 11
196.916835
 21
214.420676
 31
0.0
  0
LINE
  5
263
330
A
100
AcDbEntity
  8
0
 62
     7
100
AcDbLine
 10
196.655524
 20
214.420676
 30
0.0
 11
196.7637
 21
214.420676
 31
0.0
  0
LINE
  5
262
330
A
100
AcDbEntity
  8
0
 62
     7
100
AcDbLine
 10
196.7637
 20
214.420676
 30
0.0
 11
196.655524
 21
214.420676
 31
0.0
  0
LINE
  5
261
330
A
100
AcDbEntity
  8
0
 62
     7
100
AcDbLine
 10
196.916835
 20
214.420676
 30
0.0
 11
196.7637
 21
214.420676
 31
0.0
  0
LINE
  5
260
330
A
100
AcDbEntity
  8
0
 62
     7
100
AcDbLine
 10
198.8218
 20
214.826853
 30
0.0
 11
198.8218
 21
214.420676
 31
0.0
  0
LINE
  5
25F
330
A
100
AcDbEntity
  8
0
 62
     7
100
AcDbLine
 10
199.163209
 20
214.420676
 30
0.0
 11
199.021788
 21
214.420676
 31
0.0
  0
LINE
  5
25E
330
A
100
AcDbEntity
  8
0
 62
     7
100
AcDbLine
 10
199.221776
 20
214.420676
 30
0.0
 11
199.163209
 21
214.420676
 31
0.0
  0
LINE
  5
25D
330
A
100
AcDbEntity
  8
0
 62
     7
100
AcDbLine
 10
199.163209
 20
214.420676
 30
0.0
 11
199.221776
 21
214.420676
 31
0.0
  0
LINE
  5
25C
330
A
100
AcDbEntity
  8
0
 62
     7
100
AcDbLine
 10
199.021788
 20
214.420676
 30
0.0
 11
199.163209
 21
214.420676
 31
0.0
  0
LINE
  5
25B
330
A
100
AcDbEntity
  8
0
 62
     7
100
AcDbLine
 10
198.880367
 20
214.420676
 30
0.0
 11
199.021788
 21
214.420676
 31
0.0
  0
LINE
  5
25A
330
A
100
AcDbEntity
  8
0
 62
     7
100
AcDbLine
 10
198.8218
 20
214.420676
 30
0.0
 11
198.880367
 21
214.420676
 31
0.0
  0
LINE
  5
259
330
A
100
AcDbEntity
  8
0
 62
     7
100
AcDbLine
 10
198.880367
 20
214.420676
 30
0.0
 11
198.8218
 21
214.420676
 31
0.0
  0
LINE
  5
258
330
A
100
AcDbEntity
  8
0
 62
     7
100
AcDbLine
 10
199.021788
 20
214.420676
 30
0.0
 11
198.880367
 21
214.420676
 31
0.0
  0
LINE
  5
257
330
A
100
AcDbEntity
  8
0
 62
     7
100
AcDbLine
 10
201.38788
 20
214.826853
 30
0.0
 11
201.38788
 21
214.420676
 31
0.0
  0
LINE
  5
256
330
A
100
AcDbEntity
  8
0
 62
     7
100
AcDbLine
 10
201.38788
 20
214.826853
 30
0.0
 11
201.38788
 21
214.420676
 31
0.0
  0
LINE
  5
255
330
A
100
AcDbEntity
  8
0
 62
     7
100
AcDbLine
 10
201.018566
 20
214.826853
 30
0.0
 11
201.018566
 21
214.420676
 31
0.0
  0
LINE
  5
254
330
A
100
AcDbEntity
  8
0
 62
     7
100
AcDbLine
 10
201.018566
 20
214.826853
 30
0.0
 11
201.018566
 21
214.420676
 31
0.0
  0
LINE
  5
253
330
A
100
AcDbEntity
  8
0
 62
     7
100
AcDbLine
 10
201.38788
 20
214.420676
 30
0.0
 11
201.279704
 21
214.420676
 31
0.0
  0
LINE
  5
252
330
A
100
AcDbEntity
  8
0
 62
     7
100
AcDbLine
 10
201.279704
 20
214.420676
 30
0.0
 11
201.38788
 21
214.420676
 31
0.0
  0
LINE
  5
251
330
A
100
AcDbEntity
  8
0
 62
     7
100
AcDbLine
 10
201.126742
 20
214.420676
 30
0.0
 11
201.279704
 21
214.420676
 31
0.0
  0
LINE
  5
250
330
A
100
AcDbEntity
  8
0
 62
     7
100
AcDbLine
 10
201.018566
 20
214.420676
 30
0.0
 11
201.126742
 21
214.420676
 31
0.0
  0
LINE
  5
24F
330
A
100
AcDbEntity
  8
0
 62
     7
100
AcDbLine
 10
201.126742
 20
214.420676
 30
0.0
 11
201.018566
 21
214.420676
 31
0.0
  0
LINE
  5
24E
330
A
100
AcDbEntity
  8
0
 62
     7
100
AcDbLine
 10
201.279704
 20
214.420676
 30
0.0
 11
201.126742
 21
214.420676
 31
0.0
  0
LINE
  5
24D
330
A
100
AcDbEntity
  8
0
 62
     7
100
AcDbLine
 10
203.25271
 20
214.826853
 30
0.0
 11
203.25271
 21
214.420676
 31
0.0
  0
LINE
  5
24C
330
A
100
AcDbEntity
  8
0
 62
     7
100
AcDbLine
 10
202.852734
 20
214.826853
 30
0.0
 11
202.852734
 21
214.420676
 31
0.0
  0
LINE
  5
24B
330
A
100
AcDbEntity
  8
0
 62
     7
100
AcDbLine
 10
203.25271
 20
214.420676
 30
0.0
 11
203.194143
 21
214.420676
 31
0.0
  0
LINE
  5
24A
330
A
100
AcDbEntity
  8
0
 62
     7
100
AcDbLine
 10
203.194143
 20
214.420676
 30
0.0
 11
203.25271
 21
214.420676
 31
0.0
  0
LINE
  5
249
330
A
100
AcDbEntity
  8
0
 62
     7
100
AcDbLine
 10
203.05255
 20
214.420676
 30
0.0
 11
203.194143
 21
214.420676
 31
0.0
  0
LINE
  5
248
330
A
100
AcDbEntity
  8
0
 62
     7
100
AcDbLine
 10
202.911301
 20
214.420676
 30
0.0
 11
203.05255
 21
214.420676
 31
0.0
  0
LINE
  5
247
330
A
100
AcDbEntity
  8
0
 62
     7
100
AcDbLine
 10
202.852734
 20
214.420676
 30
0.0
 11
202.911301
 21
214.420676
 31
0.0
  0
LINE
  5
246
330
A
100
AcDbEntity
  8
0
 62
     7
100
AcDbLine
 10
202.911301
 20
214.420676
 30
0.0
 11
202.852734
 21
214.420676
 31
0.0
  0
LINE
  5
245
330
A
100
AcDbEntity
  8
0
 62
     7
100
AcDbLine
 10
203.05255
 20
214.420676
 30
0.0
 11
202.911301
 21
214.420676
 31
0.0
  0
LINE
  5
244
330
A
100
AcDbEntity
  8
0
 62
     7
100
AcDbLine
 10
203.194143
 20
214.420676
 30
0.0
 11
203.05255
 21
214.420676
 31
0.0
  0
LINE
  5
243
330
A
100
AcDbEntity
  8
0
 62
     7
100
AcDbLine
 10
204.472963
 20
214.420676
 30
0.0
 11
204.472963
 21
214.826853
 31
0.0
  0
LINE
  5
242
330
A
100
AcDbEntity
  8
0
 62
     7
100
AcDbLine
 10
204.364787
 20
214.420676
 30
0.0
 11
204.211825
 21
214.420676
 31
0.0
  0
LINE
  5
241
330
A
100
AcDbEntity
  8
0
 62
     7
100
AcDbLine
 10
204.472963
 20
214.420676
 30
0.0
 11
204.364787
 21
214.420676
 31
0.0
  0
LINE
  5
240
330
A
100
AcDbEntity
  8
0
 62
     7
100
AcDbLine
 10
204.364787
 20
214.420676
 30
0.0
 11
204.472963
 21
214.420676
 31
0.0
  0
LINE
  5
23F
330
A
100
AcDbEntity
  8
0
 62
     7
100
AcDbLine
 10
204.211825
 20
214.420676
 30
0.0
 11
204.364787
 21
214.420676
 31
0.0
  0
LINE
  5
23E
330
A
100
AcDbEntity
  8
0
 62
     7
100
AcDbLine
 10
204.103649
 20
214.420676
 30
0.0
 11
204.211825
 21
214.420676
 31
0.0
  0
LINE
  5
23D
330
A
100
AcDbEntity
  8
0
 62
     7
100
AcDbLine
 10
204.211825
 20
214.420676
 30
0.0
 11
204.103649
 21
214.420676
 31
0.0
  0
LINE
  5
23C
330
A
100
AcDbEntity
  8
0
 62
     7
100
AcDbLine
 10
202.013509
 20
214.420676
 30
0.0
 11
201.87226
 21
214.420676
 31
0.0
  0
LINE
  5
23B
330
A
100
AcDbEntity
  8
0
 62
     7
100
AcDbLine
 10
202.072076
 20
214.420676
 30
0.0
 11
202.013509
 21
214.420676
 31
0.0
  0
LINE
  5
23A
330
A
100
AcDbEntity
  8
0
 62
     7
100
AcDbLine
 10
202.013509
 20
214.420676
 30
0.0
 11
202.072076
 21
214.420676
 31
0.0
  0
LINE
  5
239
330
A
100
AcDbEntity
  8
0
 62
     7
100
AcDbLine
 10
201.87226
 20
214.420676
 30
0.0
 11
202.013509
 21
214.420676
 31
0.0
  0
LINE
  5
238
330
A
100
AcDbEntity
  8
0
 62
     7
100
AcDbLine
 10
201.730667
 20
214.420676
 30
0.0
 11
201.87226
 21
214.420676
 31
0.0
  0
LINE
  5
237
330
A
100
AcDbEntity
  8
0
 62
     7
100
AcDbLine
 10
201.6721
 20
214.420676
 30
0.0
 11
201.730667
 21
214.420676
 31
0.0
  0
LINE
  5
236
330
A
100
AcDbEntity
  8
0
 62
     7
100
AcDbLine
 10
201.730667
 20
214.420676
 30
0.0
 11
201.6721
 21
214.420676
 31
0.0
  0
LINE
  5
235
330
A
100
AcDbEntity
  8
0
 62
     7
100
AcDbLine
 10
201.87226
 20
214.420676
 30
0.0
 11
201.730667
 21
214.420676
 31
0.0
  0
LINE
  5
234
330
A
100
AcDbEntity
  8
0
 62
     7
100
AcDbLine
 10
201.317255
 20
214.420676
 30
0.0
 11
201.297274
 21
214.420676
 31
0.0
  0
LINE
  5
233
330
A
100
AcDbEntity
  8
0
 62
     7
100
AcDbLine
 10
201.438523
 20
214.420676
 30
0.0
 11
201.317255
 21
214.420676
 31
0.0
  0
LINE
  5
232
330
A
100
AcDbEntity
  8
0
 62
     7
100
AcDbLine
 10
201.590451
 20
214.420676
 30
0.0
 11
201.438523
 21
214.420676
 31
0.0
  0
LINE
  5
231
330
A
100
AcDbEntity
  8
0
 62
     7
100
AcDbLine
 10
201.683469
 20
214.420676
 30
0.0
 11
201.590451
 21
214.420676
 31
0.0
  0
LINE
  5
230
330
A
100
AcDbEntity
  8
0
 62
     7
100
AcDbLine
 10
201.663487
 20
214.420676
 30
0.0
 11
201.683469
 21
214.420676
 31
0.0
  0
LINE
  5
22F
330
A
100
AcDbEntity
  8
0
 62
     7
100
AcDbLine
 10
201.54222
 20
214.420676
 30
0.0
 11
201.663487
 21
214.420676
 31
0.0
  0
LINE
  5
22E
330
A
100
AcDbEntity
  8
0
 62
     7
100
AcDbLine
 10
201.390291
 20
214.420676
 30
0.0
 11
201.54222
 21
214.420676
 31
0.0
  0
LINE
  5
22D
330
A
100
AcDbEntity
  8
0
 62
     7
100
AcDbLine
 10
201.297274
 20
214.420676
 30
0.0
 11
201.390291
 21
214.420676
 31
0.0
  0
LINE
  5
22C
330
A
100
AcDbEntity
  8
0
 62
     7
100
AcDbLine
 10
200.253754
 20
214.420676
 30
0.0
 11
200.273736
 21
214.420676
 31
0.0
  0
LINE
  5
22B
330
A
100
AcDbEntity
  8
0
 62
     7
100
AcDbLine
 10
200.346944
 20
214.420676
 30
0.0
 11
200.253754
 21
214.420676
 31
0.0
  0
LINE
  5
22A
330
A
100
AcDbEntity
  8
0
 62
     7
100
AcDbLine
 10
200.498701
 20
214.420676
 30
0.0
 11
200.346944
 21
214.420676
 31
0.0
  0
LINE
  5
229
330
A
100
AcDbEntity
  8
0
 62
     7
100
AcDbLine
 10
200.620312
 20
214.420676
 30
0.0
 11
200.498701
 21
214.420676
 31
0.0
  0
LINE
  5
228
330
A
100
AcDbEntity
  8
0
 62
     7
100
AcDbLine
 10
200.640294
 20
214.420676
 30
0.0
 11
200.620312
 21
214.420676
 31
0.0
  0
LINE
  5
227
330
A
100
AcDbEntity
  8
0
 62
     7
100
AcDbLine
 10
200.546932
 20
214.420676
 30
0.0
 11
200.640294
 21
214.420676
 31
0.0
  0
LINE
  5
226
330
A
100
AcDbEntity
  8
0
 62
     7
100
AcDbLine
 10
200.395348
 20
214.420676
 30
0.0
 11
200.546932
 21
214.420676
 31
0.0
  0
LINE
  5
225
330
A
100
AcDbEntity
  8
0
 62
     7
100
AcDbLine
 10
200.273736
 20
214.420676
 30
0.0
 11
200.395348
 21
214.420676
 31
0.0
  0
LINE
  5
224
330
A
100
AcDbEntity
  8
0
 62
     7
100
AcDbLine
 10
199.021788
 20
214.420676
 30
0.0
 11
198.880367
 21
214.420676
 31
0.0
  0
LINE
  5
223
330
A
100
AcDbEntity
  8
0
 62
     7
100
AcDbLine
 10
199.163209
 20
214.420676
 30
0.0
 11
199.021788
 21
214.420676
 31
0.0
  0
LINE
  5
222
330
A
100
AcDbEntity
  8
0
 62
     7
100
AcDbLine
 10
199.221776
 20
214.420676
 30
0.0
 11
199.163209
 21
214.420676
 31
0.0
  0
LINE
  5
221
330
A
100
AcDbEntity
  8
0
 62
     7
100
AcDbLine
 10
199.163209
 20
214.420676
 30
0.0
 11
199.221776
 21
214.420676
 31
0.0
  0
LINE
  5
220
330
A
100
AcDbEntity
  8
0
 62
     7
100
AcDbLine
 10
199.021788
 20
214.420676
 30
0.0
 11
199.163209
 21
214.420676
 31
0.0
  0
LINE
  5
21F
330
A
100
AcDbEntity
  8
0
 62
     7
100
AcDbLine
 10
198.880367
 20
214.420676
 30
0.0
 11
199.021788
 21
214.420676
 31
0.0
  0
LINE
  5
21E
330
A
100
AcDbEntity
  8
0
 62
     7
100
AcDbLine
 10
198.8218
 20
214.420676
 30
0.0
 11
198.880367
 21
214.420676
 31
0.0
  0
LINE
  5
21D
330
A
100
AcDbEntity
  8
0
 62
     7
100
AcDbLine
 10
198.880367
 20
214.420676
 30
0.0
 11
198.8218
 21
214.420676
 31
0.0
  0
LINE
  5
21C
330
A
100
AcDbEntity
  8
0
 62
     7
100
AcDbLine
 10
197.403282
 20
214.826853
 30
0.0
 11
197.403282
 21
214.420676
 31
0.0
  0
LINE
  5
21B
330
A
100
AcDbEntity
  8
0
 62
     7
100
AcDbLine
 10
197.78965
 20
214.420676
 30
0.0
 11
197.69646
 21
214.420676
 31
0.0
  0
LINE
  5
21A
330
A
100
AcDbEntity
  8
0
 62
     7
100
AcDbLine
 10
197.769668
 20
214.420676
 30
0.0
 11
197.78965
 21
214.420676
 31
0.0
  0
LINE
  5
219
330
A
100
AcDbEntity
  8
0
 62
     7
100
AcDbLine
 10
197.648229
 20
214.420676
 30
0.0
 11
197.769668
 21
214.420676
 31
0.0
  0
LINE
  5
218
330
A
100
AcDbEntity
  8
0
 62
     7
100
AcDbLine
 10
197.496472
 20
214.420676
 30
0.0
 11
197.648229
 21
214.420676
 31
0.0
  0
LINE
  5
217
330
A
100
AcDbEntity
  8
0
 62
     7
100
AcDbLine
 10
197.403282
 20
214.420676
 30
0.0
 11
197.496472
 21
214.420676
 31
0.0
  0
LINE
  5
216
330
A
100
AcDbEntity
  8
0
 62
     7
100
AcDbLine
 10
197.423264
 20
214.420676
 30
0.0
 11
197.403282
 21
214.420676
 31
0.0
  0
LINE
  5
215
330
A
100
AcDbEntity
  8
0
 62
     7
100
AcDbLine
 10
197.544704
 20
214.420676
 30
0.0
 11
197.423264
 21
214.420676
 31
0.0
  0
LINE
  5
214
330
A
100
AcDbEntity
  8
0
 62
     7
100
AcDbLine
 10
197.69646
 20
214.420676
 30
0.0
 11
197.544704
 21
214.420676
 31
0.0
  0
LINE
  5
213
330
A
100
AcDbEntity
  8
0
 62
     7
100
AcDbLine
 10
196.359935
 20
214.420676
 30
0.0
 11
196.379917
 21
214.420676
 31
0.0
  0
LINE
  5
212
330
A
100
AcDbEntity
  8
0
 62
     7
100
AcDbLine
 10
196.453125
 20
214.420676
 30
0.0
 11
196.359935
 21
214.420676
 31
0.0
  0
LINE
  5
211
330
A
100
AcDbEntity
  8
0
 62
     7
100
AcDbLine
 10
196.605054
 20
214.420676
 30
0.0
 11
196.453125
 21
214.420676
 31
0.0
  0
LINE
  5
210
330
A
100
AcDbEntity
  8
0
 62
     7
100
AcDbLine
 10
196.726321
 20
214.420676
 30
0.0
 11
196.605054
 21
214.420676
 31
0.0
  0
LINE
  5
20F
330
A
100
AcDbEntity
  8
0
 62
     7
100
AcDbLine
 10
196.746303
 20
214.420676
 30
0.0
 11
196.726321
 21
214.420676
 31
0.0
  0
LINE
  5
20E
330
A
100
AcDbEntity
  8
0
 62
     7
100
AcDbLine
 10
196.653285
 20
214.420676
 30
0.0
 11
196.746303
 21
214.420676
 31
0.0
  0
LINE
  5
20D
330
A
100
AcDbEntity
  8
0
 62
     7
100
AcDbLine
 10
196.501356
 20
214.420676
 30
0.0
 11
196.653285
 21
214.420676
 31
0.0
  0
LINE
  5
20C
330
A
100
AcDbEntity
  8
0
 62
     7
100
AcDbLine
 10
196.379917
 20
214.420676
 30
0.0
 11
196.501356
 21
214.420676
 31
0.0
  0
LINE
  5
20B
330
A
100
AcDbEntity
  8
0
 62
     7
100
AcDbLine
 10
196.312737
 20
214.420676
 30
0.0
 11
196.171316
 21
214.420676
 31
0.0
  0
LINE
  5
20A
330
A
100
AcDbEntity
  8
0
 62
     7
100
AcDbLine
 10
196.371304
 20
214.420676
 30
0.0
 11
196.312737
 21
214.420676
 31
0.0
  0
LINE
  5
209
330
A
100
AcDbEntity
  8
0
 62
     7
100
AcDbLine
 10
196.312737
 20
214.420676
 30
0.0
 11
196.371304
 21
214.420676
 31
0.0
  0
LINE
  5
208
330
A
100
AcDbEntity
  8
0
 62
     7
100
AcDbLine
 10
196.171316
 20
214.420676
 30
0.0
 11
196.312737
 21
214.420676
 31
0.0
  0
LINE
  5
207
330
A
100
AcDbEntity
  8
0
 62
     7
100
AcDbLine
 10
196.029895
 20
214.420676
 30
0.0
 11
196.171316
 21
214.420676
 31
0.0
  0
LINE
  5
206
330
A
100
AcDbEntity
  8
0
 62
     7
100
AcDbLine
 10
195.971328
 20
214.420676
 30
0.0
 11
196.029895
 21
214.420676
 31
0.0
  0
LINE
  5
205
330
A
100
AcDbEntity
  8
0
 62
     7
100
AcDbLine
 10
196.029895
 20
214.420676
 30
0.0
 11
195.971328
 21
214.420676
 31
0.0
  0
LINE
  5
204
330
A
100
AcDbEntity
  8
0
 62
     7
100
AcDbLine
 10
196.171316
 20
214.420676
 30
0.0
 11
196.029895
 21
214.420676
 31
0.0
  0
LINE
  5
203
330
A
100
AcDbEntity
  8
0
 62
     7
100
AcDbLine
 10
196.653285
 20
214.420676
 30
0.0
 11
196.501356
 21
214.420676
 31
0.0
  0
LINE
  5
202
330
A
100
AcDbEntity
  8
0
 62
     7
100
AcDbLine
 10
196.746303
 20
214.420676
 30
0.0
 11
196.653285
 21
214.420676
 31
0.0
  0
LINE
  5
201
330
A
100
AcDbEntity
  8
0
 62
     7
100
AcDbLine
 10
196.726321
 20
214.420676
 30
0.0
 11
196.746303
 21
214.420676
 31
0.0
  0
LINE
  5
200
330
A
100
AcDbEntity
  8
0
 62
     7
100
AcDbLine
 10
196.605054
 20
214.420676
 30
0.0
 11
196.726321
 21
214.420676
 31
0.0
  0
LINE
  5
1FF
330
A
100
AcDbEntity
  8
0
 62
     7
100
AcDbLine
 10
196.453125
 20
214.420676
 30
0.0
 11
196.605054
 21
214.420676
 31
0.0
  0
LINE
  5
1FE
330
A
100
AcDbEntity
  8
0
 62
     7
100
AcDbLine
 10
196.359935
 20
214.420676
 30
0.0
 11
196.453125
 21
214.420676
 31
0.0
  0
LINE
  5
1FD
330
A
100
AcDbEntity
  8
0
 62
     7
100
AcDbLine
 10
196.379917
 20
214.420676
 30
0.0
 11
196.359935
 21
214.420676
 31
0.0
  0
LINE
  5
1FC
330
A
100
AcDbEntity
  8
0
 62
     7
100
AcDbLine
 10
196.501356
 20
214.420676
 30
0.0
 11
196.379917
 21
214.420676
 31
0.0
  0
LINE
  5
1FB
330
A
100
AcDbEntity
  8
0
 62
     7
100
AcDbLine
 10
197.78965
 20
214.826853
 30
0.0
 11
197.78965
 21
214.420676
 31
0.0
  0
LINE
  5
1FA
330
A
100
AcDbEntity
  8
0
 62
     7
100
AcDbLine
 10
197.403282
 20
214.826853
 30
0.0
 11
197.403282
 21
214.420676
 31
0.0
  0
LINE
  5
1F9
330
A
100
AcDbEntity
  8
0
 62
     7
100
AcDbLine
 10
197.423264
 20
214.420676
 30
0.0
 11
197.544704
 21
214.420676
 31
0.0
  0
LINE
  5
1F8
330
A
100
AcDbEntity
  8
0
 62
     7
100
AcDbLine
 10
197.403282
 20
214.420676
 30
0.0
 11
197.423264
 21
214.420676
 31
0.0
  0
LINE
  5
1F7
330
A
100
AcDbEntity
  8
0
 62
     7
100
AcDbLine
 10
197.496472
 20
214.420676
 30
0.0
 11
197.403282
 21
214.420676
 31
0.0
  0
LINE
  5
1F6
330
A
100
AcDbEntity
  8
0
 62
     7
100
AcDbLine
 10
197.648229
 20
214.420676
 30
0.0
 11
197.496472
 21
214.420676
 31
0.0
  0
LINE
  5
1F5
330
A
100
AcDbEntity
  8
0
 62
     7
100
AcDbLine
 10
197.769668
 20
214.420676
 30
0.0
 11
197.648229
 21
214.420676
 31
0.0
  0
LINE
  5
1F4
330
A
100
AcDbEntity
  8
0
 62
     7
100
AcDbLine
 10
197.78965
 20
214.420676
 30
0.0
 11
197.769668
 21
214.420676
 31
0.0
  0
LINE
  5
1F3
330
A
100
AcDbEntity
  8
0
 62
     7
100
AcDbLine
 10
197.69646
 20
214.420676
 30
0.0
 11
197.78965
 21
214.420676
 31
0.0
  0
LINE
  5
1F2
330
A
100
AcDbEntity
  8
0
 62
     7
100
AcDbLine
 10
197.544704
 20
214.420676
 30
0.0
 11
197.69646
 21
214.420676
 31
0.0
  0
LINE
  5
1F1
330
A
100
AcDbEntity
  8
0
 62
     7
100
AcDbLine
 10
199.163209
 20
214.420676
 30
0.0
 11
199.021788
 21
214.420676
 31
0.0
  0
LINE
  5
1F0
330
A
100
AcDbEntity
  8
0
 62
     7
100
AcDbLine
 10
199.221776
 20
214.420676
 30
0.0
 11
199.163209
 21
214.420676
 31
0.0
  0
LINE
  5
1EF
330
A
100
AcDbEntity
  8
0
 62
     7
100
AcDbLine
 10
199.163209
 20
214.420676
 30
0.0
 11
199.221776
 21
214.420676
 31
0.0
  0
LINE
  5
1EE
330
A
100
AcDbEntity
  8
0
 62
     7
100
AcDbLine
 10
199.021788
 20
214.420676
 30
0.0
 11
199.163209
 21
214.420676
 31
0.0
  0
LINE
  5
1ED
330
A
100
AcDbEntity
  8
0
 62
     7
100
AcDbLine
 10
198.880367
 20
214.420676
 30
0.0
 11
199.021788
 21
214.420676
 31
0.0
  0
LINE
  5
1EC
330
A
100
AcDbEntity
  8
0
 62
     7
100
AcDbLine
 10
198.8218
 20
214.420676
 30
0.0
 11
198.880367
 21
214.420676
 31
0.0
  0
LINE
  5
1EB
330
A
100
AcDbEntity
  8
0
 62
     7
100
AcDbLine
 10
198.880367
 20
214.420676
 30
0.0
 11
198.8218
 21
214.420676
 31
0.0
  0
LINE
  5
1EA
330
A
100
AcDbEntity
  8
0
 62
     7
100
AcDbLine
 10
199.021788
 20
214.420676
 30
0.0
 11
198.880367
 21
214.420676
 31
0.0
  0
LINE
  5
1E9
330
A
100
AcDbEntity
  8
0
 62
     7
100
AcDbLine
 10
200.640294
 20
214.826853
 30
0.0
 11
200.640294
 21
214.420676
 31
0.0
  0
LINE
  5
1E8
330
A
100
AcDbEntity
  8
0
 62
     7
100
AcDbLine
 10
200.253754
 20
214.826853
 30
0.0
 11
200.253754
 21
214.420676
 31
0.0
  0
LINE
  5
1E7
330
A
100
AcDbEntity
  8
0
 62
     7
100
AcDbLine
 10
200.640294
 20
214.420676
 30
0.0
 11
200.546932
 21
214.420676
 31
0.0
  0
LINE
  5
1E6
330
A
100
AcDbEntity
  8
0
 62
     7
100
AcDbLine
 10
200.620312
 20
214.420676
 30
0.0
 11
200.640294
 21
214.420676
 31
0.0
  0
LINE
  5
1E5
330
A
100
AcDbEntity
  8
0
 62
     7
100
AcDbLine
 10
200.498701
 20
214.420676
 30
0.0
 11
200.620312
 21
214.420676
 31
0.0
  0
LINE
  5
1E4
330
A
100
AcDbEntity
  8
0
 62
     7
100
AcDbLine
 10
200.346944
 20
214.420676
 30
0.0
 11
200.498701
 21
214.420676
 31
0.0
  0
LINE
  5
1E3
330
A
100
AcDbEntity
  8
0
 62
     7
100
AcDbLine
 10
200.253754
 20
214.420676
 30
0.0
 11
200.346944
 21
214.420676
 31
0.0
  0
LINE
  5
1E2
330
A
100
AcDbEntity
  8
0
 62
     7
100
AcDbLine
 10
200.273736
 20
214.420676
 30
0.0
 11
200.253754
 21
214.420676
 31
0.0
  0
LINE
  5
1E1
330
A
100
AcDbEntity
  8
0
 62
     7
100
AcDbLine
 10
200.395348
 20
214.420676
 30
0.0
 11
200.273736
 21
214.420676
 31
0.0
  0
LINE
  5
1E0
330
A
100
AcDbEntity
  8
0
 62
     7
100
AcDbLine
 10
200.546932
 20
214.420676
 30
0.0
 11
200.395348
 21
214.420676
 31
0.0
  0
LINE
  5
1DF
330
A
100
AcDbEntity
  8
0
 62
     7
100
AcDbLine
 10
201.390291
 20
214.826853
 30
0.0
 11
201.390291
 21
214.420676
 31
0.0
  0
LINE
  5
1DE
330
A
100
AcDbEntity
  8
0
 62
     7
100
AcDbLine
 10
201.54222
 20
214.420676
 30
0.0
 11
201.390291
 21
214.420676
 31
0.0
  0
LINE
  5
1DD
330
A
100
AcDbEntity
  8
0
 62
     7
100
AcDbLine
 10
201.663487
 20
214.420676
 30
0.0
 11
201.54222
 21
214.420676
 31
0.0
  0
LINE
  5
1DC
330
A
100
AcDbEntity
  8
0
 62
     7
100
AcDbLine
 10
201.683469
 20
214.420676
 30
0.0
 11
201.663487
 21
214.420676
 31
0.0
  0
LINE
  5
1DB
330
A
100
AcDbEntity
  8
0
 62
     7
100
AcDbLine
 10
201.590451
 20
214.420676
 30
0.0
 11
201.683469
 21
214.420676
 31
0.0
  0
LINE
  5
1DA
330
A
100
AcDbEntity
  8
0
 62
     7
100
AcDbLine
 10
201.438523
 20
214.420676
 30
0.0
 11
201.590451
 21
214.420676
 31
0.0
  0
LINE
  5
1D9
330
A
100
AcDbEntity
  8
0
 62
     7
100
AcDbLine
 10
201.317255
 20
214.420676
 30
0.0
 11
201.438523
 21
214.420676
 31
0.0
  0
LINE
  5
1D8
330
A
100
AcDbEntity
  8
0
 62
     7
100
AcDbLine
 10
201.297274
 20
214.420676
 30
0.0
 11
201.317255
 21
214.420676
 31
0.0
  0
LINE
  5
1D7
330
A
100
AcDbEntity
  8
0
 62
     7
100
AcDbLine
 10
201.390291
 20
214.420676
 30
0.0
 11
201.297274
 21
214.420676
 31
0.0
  0
LINE
  5
1D6
330
A
100
AcDbEntity
  8
0
 62
     7
100
AcDbLine
 10
192.813554
 20
183.16298
 30
0.0
 11
192.856618
 21
183.113026
 31
0.0
  0
LINE
  5
1D5
330
A
100
AcDbEntity
  8
0
 62
     7
100
AcDbLine
 10
191.3566229999999
 20
183.113026
 30
0.0
 11
191.399687
 21
183.16298
 31
0.0
  0
LINE
  5
1D4
330
A
100
AcDbEntity
  8
0
 62
     7
100
AcDbLine
 10
192.063729
 20
182.63433
 30
0.0
 11
192.149512
 21
182.63433
 31
0.0
  0
LINE
  5
1D3
330
A
100
AcDbEntity
  8
0
 62
     7
100
AcDbLine
 10
192.813382
 20
182.633124
 30
0.0
 11
192.856618
 21
182.6329519999999
 31
0.0
  0
LINE
  5
1D2
330
A
100
AcDbEntity
  8
0
 62
     7
100
AcDbLine
 10
191.3566229999999
 20
182.6329519999999
 30
0.0
 11
191.399859
 21
182.633124
 31
0.0
  0
LINE
  5
1D1
330
A
100
AcDbEntity
  8
0
 62
     7
100
AcDbLine
 10
192.149512
 20
182.63433
 30
0.0
 11
192.813382
 21
182.633124
 31
0.0
  0
LINE
  5
1D0
330
A
100
AcDbEntity
  8
0
 62
     7
100
AcDbLine
 10
192.856618
 20
183.113026
 30
0.0
 11
192.856618
 21
182.6329519999999
 31
0.0
  0
LINE
  5
1CF
330
A
100
AcDbEntity
  8
0
 62
     7
100
AcDbLine
 10
191.3566229999999
 20
182.6329519999999
 30
0.0
 11
191.3566229999999
 21
183.113026
 31
0.0
  0
LINE
  5
1CE
330
A
100
AcDbEntity
  8
0
 62
     7
100
AcDbLine
 10
191.399859
 20
182.633124
 30
0.0
 11
192.063729
 21
182.63433
 31
0.0
  0
LINE
  5
1CD
330
A
100
AcDbEntity
  8
0
 62
     7
100
AcDbLine
 10
192.781859
 20
183.163152
 30
0.0
 11
192.813554
 21
183.16298
 31
0.0
  0
LINE
  5
1CC
330
A
100
AcDbEntity
  8
0
 62
     7
100
AcDbLine
 10
192.138143
 20
183.164186
 30
0.0
 11
192.781859
 21
183.163152
 31
0.0
  0
LINE
  5
1CB
330
A
100
AcDbEntity
  8
0
 62
     7
100
AcDbLine
 10
192.075098
 20
183.164186
 30
0.0
 11
192.138143
 21
183.164186
 31
0.0
  0
LINE
  5
1CA
330
A
100
AcDbEntity
  8
0
 62
     7
100
AcDbLine
 10
191.431382
 20
183.163152
 30
0.0
 11
192.075098
 21
183.164186
 31
0.0
  0
LINE
  5
1C9
330
A
100
AcDbEntity
  8
0
 62
     7
100
AcDbLine
 10
191.399687
 20
183.16298
 30
0.0
 11
191.431382
 21
183.163152
 31
0.0
  0
LINE
  5
1C8
330
A
100
AcDbEntity
  8
0
 62
     7
100
AcDbLine
 10
190.951824
 20
195.01342
 30
0.0
 11
191.064651
 21
194.876133
 31
0.0
  0
LINE
  5
1C7
330
A
100
AcDbEntity
  8
0
 62
     7
100
AcDbLine
 10
191.064651
 20
194.876133
 30
0.0
 11
191.222781
 21
194.752281
 31
0.0
  0
LINE
  5
1C6
330
A
100
AcDbEntity
  8
0
 62
     7
100
AcDbLine
 10
191.222781
 20
194.752281
 30
0.0
 11
191.409333
 21
194.654096
 31
0.0
  0
LINE
  5
1C5
330
A
100
AcDbEntity
  8
0
 62
     7
100
AcDbLine
 10
191.409333
 20
194.654096
 30
0.0
 11
191.628269
 21
194.578476
 31
0.0
  0
LINE
  5
1C4
330
A
100
AcDbEntity
  8
0
 62
     7
100
AcDbLine
 10
191.628269
 20
194.578476
 30
0.0
 11
191.86064
 21
194.534379
 31
0.0
  0
LINE
  5
1C3
330
A
100
AcDbEntity
  8
0
 62
     7
100
AcDbLine
 10
191.86064
 20
194.534379
 30
0.0
 11
192.10662
 21
194.515948
 31
0.0
  0
LINE
  5
1C2
330
A
100
AcDbEntity
  8
0
 62
     7
100
AcDbLine
 10
193.203711
 20
183.161947
 30
0.0
 11
193.311887
 21
183.205699
 31
0.0
  0
LINE
  5
1C1
330
A
100
AcDbEntity
  8
0
 62
     7
100
AcDbLine
 10
193.311887
 20
183.205699
 30
0.0
 11
193.356673
 21
183.311808
 31
0.0
  0
LINE
  5
1C0
330
A
100
AcDbEntity
  8
0
 62
     7
100
AcDbLine
 10
190.901354
 20
183.205699
 30
0.0
 11
191.00953
 21
183.161947
 31
0.0
  0
LINE
  5
1BF
330
A
100
AcDbEntity
  8
0
 62
     7
100
AcDbLine
 10
190.8565669999999
 20
183.311808
 30
0.0
 11
190.901354
 21
183.205699
 31
0.0
  0
LINE
  5
1BE
330
A
100
AcDbEntity
  8
0
 62
     7
100
AcDbLine
 10
190.993165
 20
204.119324
 30
0.0
 11
190.901354
 21
204.117773
 31
0.0
  0
LINE
  5
1BD
330
A
100
AcDbEntity
  8
0
 62
     7
100
AcDbLine
 10
191.254476
 20
204.12053
 30
0.0
 11
190.993165
 21
204.119324
 31
0.0
  0
LINE
  5
1BC
330
A
100
AcDbEntity
  8
0
 62
     7
100
AcDbLine
 10
191.645494
 20
204.121391
 30
0.0
 11
191.254476
 21
204.12053
 31
0.0
  0
LINE
  5
1BB
330
A
100
AcDbEntity
  8
0
 62
     7
100
AcDbLine
 10
192.10662
 20
204.121735
 30
0.0
 11
191.645494
 21
204.121391
 31
0.0
  0
LINE
  5
1BA
330
A
100
AcDbEntity
  8
0
 62
     7
100
AcDbLine
 10
192.567919
 20
204.121391
 30
0.0
 11
192.10662
 21
204.121735
 31
0.0
  0
LINE
  5
1B9
330
A
100
AcDbEntity
  8
0
 62
     7
100
AcDbLine
 10
192.958765
 20
204.12053
 30
0.0
 11
192.567919
 21
204.121391
 31
0.0
  0
LINE
  5
1B8
330
A
100
AcDbEntity
  8
0
 62
     7
100
AcDbLine
 10
193.220075
 20
204.119324
 30
0.0
 11
192.958765
 21
204.12053
 31
0.0
  0
LINE
  5
1B7
330
A
100
AcDbEntity
  8
0
 62
     7
100
AcDbLine
 10
193.311887
 20
204.117773
 30
0.0
 11
193.220075
 21
204.119324
 31
0.0
  0
LINE
  5
1B6
330
A
100
AcDbEntity
  8
0
 62
     7
100
AcDbLine
 10
193.356673
 20
204.011664
 30
0.0
 11
193.311887
 21
204.117773
 31
0.0
  0
LINE
  5
1B5
330
A
100
AcDbEntity
  8
0
 62
     7
100
AcDbLine
 10
193.311887
 20
204.117773
 30
0.0
 11
193.203711
 21
204.161698
 31
0.0
  0
LINE
  5
1B4
330
A
100
AcDbEntity
  8
0
 62
     7
100
AcDbLine
 10
190.901354
 20
204.117773
 30
0.0
 11
190.8565669999999
 21
204.011664
 31
0.0
  0
LINE
  5
1B3
330
A
100
AcDbEntity
  8
0
 62
     7
100
AcDbLine
 10
191.00953
 20
204.161698
 30
0.0
 11
190.901354
 21
204.117773
 31
0.0
  0
LINE
  5
1B2
330
A
100
AcDbEntity
  8
0
 62
     7
100
AcDbLine
 10
191.093073
 20
204.163076
 30
0.0
 11
191.00953
 21
204.161698
 31
0.0
  0
LINE
  5
1B1
330
A
100
AcDbEntity
  8
0
 62
     7
100
AcDbLine
 10
191.330957
 20
204.164282
 30
0.0
 11
191.093073
 21
204.163076
 31
0.0
  0
LINE
  5
1B0
330
A
100
AcDbEntity
  8
0
 62
     7
100
AcDbLine
 10
191.686835
 20
204.164971
 30
0.0
 11
191.330957
 21
204.164282
 31
0.0
  0
LINE
  5
1AF
330
A
100
AcDbEntity
  8
0
 62
     7
100
AcDbLine
 10
192.10662
 20
204.165316
 30
0.0
 11
191.686835
 21
204.164971
 31
0.0
  0
LINE
  5
1AE
330
A
100
AcDbEntity
  8
0
 62
     7
100
AcDbLine
 10
192.526405
 20
204.164971
 30
0.0
 11
192.10662
 21
204.165316
 31
0.0
  0
LINE
  5
1AD
330
A
100
AcDbEntity
  8
0
 62
     7
100
AcDbLine
 10
192.882284
 20
204.164282
 30
0.0
 11
192.526405
 21
204.164971
 31
0.0
  0
LINE
  5
1AC
330
A
100
AcDbEntity
  8
0
 62
     7
100
AcDbLine
 10
193.120167
 20
204.163076
 30
0.0
 11
192.882284
 21
204.164282
 31
0.0
  0
LINE
  5
1AB
330
A
100
AcDbEntity
  8
0
 62
     7
100
AcDbLine
 10
193.203711
 20
204.161698
 30
0.0
 11
193.120167
 21
204.163076
 31
0.0
  0
LINE
  5
1AA
330
A
100
AcDbEntity
  8
0
 62
     7
100
AcDbLine
 10
192.882284
 20
183.159363
 30
0.0
 11
192.816827
 21
183.159191
 31
0.0
  0
LINE
  5
1A9
330
A
100
AcDbEntity
  8
0
 62
     7
100
AcDbLine
 10
193.120167
 20
183.160569
 30
0.0
 11
192.882284
 21
183.159363
 31
0.0
  0
LINE
  5
1A8
330
A
100
AcDbEntity
  8
0
 62
     7
100
AcDbLine
 10
193.203711
 20
183.161947
 30
0.0
 11
193.120167
 21
183.160569
 31
0.0
  0
LINE
  5
1A7
330
A
100
AcDbEntity
  8
0
 62
     7
100
AcDbLine
 10
191.093073
 20
183.160569
 30
0.0
 11
191.00953
 21
183.161947
 31
0.0
  0
LINE
  5
1A6
330
A
100
AcDbEntity
  8
0
 62
     7
100
AcDbLine
 10
191.330957
 20
183.159363
 30
0.0
 11
191.093073
 21
183.160569
 31
0.0
  0
LINE
  5
1A5
330
A
100
AcDbEntity
  8
0
 62
     7
100
AcDbLine
 10
191.396414
 20
183.159191
 30
0.0
 11
191.330957
 21
183.159363
 31
0.0
  0
LINE
  5
1A4
330
A
100
AcDbEntity
  8
0
 62
     7
100
AcDbLine
 10
191.064651
 20
203.151941
 30
0.0
 11
190.951824
 21
203.013276
 31
0.0
  0
LINE
  5
1A3
330
A
100
AcDbEntity
  8
0
 62
     7
100
AcDbLine
 10
191.222781
 20
203.27717
 30
0.0
 11
191.064651
 21
203.151941
 31
0.0
  0
LINE
  5
1A2
330
A
100
AcDbEntity
  8
0
 62
     7
100
AcDbLine
 10
191.409333
 20
203.376217
 30
0.0
 11
191.222781
 21
203.27717
 31
0.0
  0
LINE
  5
1A1
330
A
100
AcDbEntity
  8
0
 62
     7
100
AcDbLine
 10
191.628269
 20
203.452698
 30
0.0
 11
191.409333
 21
203.376217
 31
0.0
  0
LINE
  5
1A0
330
A
100
AcDbEntity
  8
0
 62
     7
100
AcDbLine
 10
191.86064
 20
203.497139
 30
0.0
 11
191.628269
 21
203.452698
 31
0.0
  0
LINE
  5
19F
330
A
100
AcDbEntity
  8
0
 62
     7
100
AcDbLine
 10
192.10662
 20
203.515915
 30
0.0
 11
191.86064
 21
203.497139
 31
0.0
  0
LINE
  5
19E
330
A
100
AcDbEntity
  8
0
 62
     7
100
AcDbLine
 10
192.3526
 20
203.497139
 30
0.0
 11
192.10662
 21
203.515915
 31
0.0
  0
LINE
  5
19D
330
A
100
AcDbEntity
  8
0
 62
     7
100
AcDbLine
 10
192.584972
 20
203.452698
 30
0.0
 11
192.3526
 21
203.497139
 31
0.0
  0
LINE
  5
19C
330
A
100
AcDbEntity
  8
0
 62
     7
100
AcDbLine
 10
192.803908
 20
203.376217
 30
0.0
 11
192.584972
 21
203.452698
 31
0.0
  0
LINE
  5
19B
330
A
100
AcDbEntity
  8
0
 62
     7
100
AcDbLine
 10
192.99046
 20
203.27717
 30
0.0
 11
192.803908
 21
203.376217
 31
0.0
  0
LINE
  5
19A
330
A
100
AcDbEntity
  8
0
 62
     7
100
AcDbLine
 10
193.148589
 20
203.151941
 30
0.0
 11
192.99046
 21
203.27717
 31
0.0
  0
LINE
  5
199
330
A
100
AcDbEntity
  8
0
 62
     7
100
AcDbLine
 10
193.261416
 20
203.013276
 30
0.0
 11
193.148589
 21
203.151941
 31
0.0
  0
LINE
  5
198
330
A
100
AcDbEntity
  8
0
 62
     7
100
AcDbLine
 10
190.951824
 20
203.013276
 30
0.0
 11
190.951824
 21
195.01342
 31
0.0
  0
LINE
  5
197
330
A
100
AcDbEntity
  8
0
 62
     7
100
AcDbLine
 10
190.8565669999999
 20
183.311808
 30
0.0
 11
190.8565669999999
 21
194.778636
 31
0.0
  0
LINE
  5
196
330
A
100
AcDbEntity
  8
0
 62
     7
100
AcDbLine
 10
190.8565669999999
 20
203.247542
 30
0.0
 11
190.8565669999999
 21
204.011664
 31
0.0
  0
LINE
  5
195
330
A
100
AcDbEntity
  8
0
 62
     7
100
AcDbLine
 10
193.356673
 20
204.011664
 30
0.0
 11
193.356673
 21
203.247542
 31
0.0
  0
LINE
  5
194
330
A
100
AcDbEntity
  8
0
 62
     7
100
AcDbLine
 10
193.356673
 20
194.778636
 30
0.0
 11
193.356673
 21
183.311808
 31
0.0
  0
LINE
  5
193
330
A
100
AcDbEntity
  8
0
 62
     7
100
AcDbLine
 10
193.261416
 20
195.01342
 30
0.0
 11
193.261416
 21
203.013276
 31
0.0
  0
LINE
  5
192
330
A
100
AcDbEntity
  8
0
 62
     7
100
AcDbLine
 10
192.10662
 20
194.515948
 30
0.0
 11
192.3526
 21
194.534379
 31
0.0
  0
LINE
  5
191
330
A
100
AcDbEntity
  8
0
 62
     7
100
AcDbLine
 10
192.3526
 20
194.534379
 30
0.0
 11
192.584972
 21
194.578476
 31
0.0
  0
LINE
  5
190
330
A
100
AcDbEntity
  8
0
 62
     7
100
AcDbLine
 10
192.584972
 20
194.578476
 30
0.0
 11
192.803908
 21
194.654096
 31
0.0
  0
LINE
  5
18F
330
A
100
AcDbEntity
  8
0
 62
     7
100
AcDbLine
 10
192.803908
 20
194.654096
 30
0.0
 11
192.99046
 21
194.752281
 31
0.0
  0
LINE
  5
18E
330
A
100
AcDbEntity
  8
0
 62
     7
100
AcDbLine
 10
192.99046
 20
194.752281
 30
0.0
 11
193.148589
 21
194.876133
 31
0.0
  0
LINE
  5
18D
330
A
100
AcDbEntity
  8
0
 62
     7
100
AcDbLine
 10
193.148589
 20
194.876133
 30
0.0
 11
193.261416
 21
195.01342
 31
0.0
  0
LINE
  5
18C
330
A
100
AcDbEntity
  8
0
 62
     7
100
AcDbLine
 10
193.18683
 20
195.101442
 30
0.0
 11
193.18683
 21
202.927493
 31
0.0
  0
LINE
  5
18B
330
A
100
AcDbEntity
  8
0
 62
     7
100
AcDbLine
 10
193.261416
 20
203.013276
 30
0.0
 11
193.261416
 21
195.01342
 31
0.0
  0
LINE
  5
18A
330
A
100
AcDbEntity
  8
0
 62
     7
100
AcDbLine
 10
191.026755
 20
202.927493
 30
0.0
 11
191.026755
 21
195.101442
 31
0.0
  0
LINE
  5
189
330
A
100
AcDbEntity
  8
0
 62
     7
100
AcDbLine
 10
190.951824
 20
195.01342
 30
0.0
 11
190.951824
 21
203.013276
 31
0.0
  0
LINE
  5
188
330
A
100
AcDbEntity
  8
0
 62
     7
100
AcDbLine
 10
191.026755
 20
195.101442
 30
0.0
 11
191.132347
 21
194.985859
 31
0.0
  0
LINE
  5
187
330
A
100
AcDbEntity
  8
0
 62
     7
100
AcDbLine
 10
190.951824
 20
195.01342
 30
0.0
 11
191.026755
 21
195.101442
 31
0.0
  0
LINE
  5
186
330
A
100
AcDbEntity
  8
0
 62
     7
100
AcDbLine
 10
191.064651
 20
194.876133
 30
0.0
 11
190.951824
 21
195.01342
 31
0.0
  0
LINE
  5
185
330
A
100
AcDbEntity
  8
0
 62
     7
100
AcDbLine
 10
191.280142
 20
194.88285
 30
0.0
 11
191.454636
 21
194.800168
 31
0.0
  0
LINE
  5
184
330
A
100
AcDbEntity
  8
0
 62
     7
100
AcDbLine
 10
191.132347
 20
194.985859
 30
0.0
 11
191.280142
 21
194.88285
 31
0.0
  0
LINE
  5
183
330
A
100
AcDbEntity
  8
0
 62
     7
100
AcDbLine
 10
191.454636
 20
194.800168
 30
0.0
 11
191.659447
 21
194.736951
 31
0.0
  0
LINE
  5
182
330
A
100
AcDbEntity
  8
0
 62
     7
100
AcDbLine
 10
191.409333
 20
194.654096
 30
0.0
 11
191.222781
 21
194.752281
 31
0.0
  0
LINE
  5
181
330
A
100
AcDbEntity
  8
0
 62
     7
100
AcDbLine
 10
191.222781
 20
194.752281
 30
0.0
 11
191.064651
 21
194.876133
 31
0.0
  0
LINE
  5
180
330
A
100
AcDbEntity
  8
0
 62
     7
100
AcDbLine
 10
191.86064
 20
194.534379
 30
0.0
 11
191.628269
 21
194.578476
 31
0.0
  0
LINE
  5
17F
330
A
100
AcDbEntity
  8
0
 62
     7
100
AcDbLine
 10
191.628269
 20
194.578476
 30
0.0
 11
191.409333
 21
194.654096
 31
0.0
  0
LINE
  5
17E
330
A
100
AcDbEntity
  8
0
 62
     7
100
AcDbLine
 10
192.10662
 20
194.515948
 30
0.0
 11
191.86064
 21
194.534379
 31
0.0
  0
LINE
  5
17D
330
A
100
AcDbEntity
  8
0
 62
     7
100
AcDbLine
 10
191.876832
 20
194.698882
 30
0.0
 11
192.1067929999999
 21
194.685619
 31
0.0
  0
LINE
  5
17C
330
A
100
AcDbEntity
  8
0
 62
     7
100
AcDbLine
 10
191.659447
 20
194.736951
 30
0.0
 11
191.876832
 21
194.698882
 31
0.0
  0
LINE
  5
17B
330
A
100
AcDbEntity
  8
0
 62
     7
100
AcDbLine
 10
192.758949
 20
194.800168
 30
0.0
 11
192.933443
 21
194.88285
 31
0.0
  0
LINE
  5
17A
330
A
100
AcDbEntity
  8
0
 62
     7
100
AcDbLine
 10
192.554138
 20
194.736951
 30
0.0
 11
192.758949
 21
194.800168
 31
0.0
  0
LINE
  5
179
330
A
100
AcDbEntity
  8
0
 62
     7
100
AcDbLine
 10
193.18683
 20
195.101442
 30
0.0
 11
193.261416
 21
195.01342
 31
0.0
  0
LINE
  5
178
330
A
100
AcDbEntity
  8
0
 62
     7
100
AcDbLine
 10
193.081238
 20
194.985859
 30
0.0
 11
193.18683
 21
195.101442
 31
0.0
  0
LINE
  5
177
330
A
100
AcDbEntity
  8
0
 62
     7
100
AcDbLine
 10
192.933443
 20
194.88285
 30
0.0
 11
193.081238
 21
194.985859
 31
0.0
  0
LINE
  5
176
330
A
100
AcDbEntity
  8
0
 62
     7
100
AcDbLine
 10
193.261416
 20
195.01342
 30
0.0
 11
193.148589
 21
194.876133
 31
0.0
  0
LINE
  5
175
330
A
100
AcDbEntity
  8
0
 62
     7
100
AcDbLine
 10
192.1067929999999
 20
194.685619
 30
0.0
 11
192.336753
 21
194.698882
 31
0.0
  0
LINE
  5
174
330
A
100
AcDbEntity
  8
0
 62
     7
100
AcDbLine
 10
192.584972
 20
194.578476
 30
0.0
 11
192.3526
 21
194.534379
 31
0.0
  0
LINE
  5
173
330
A
100
AcDbEntity
  8
0
 62
     7
100
AcDbLine
 10
192.3526
 20
194.534379
 30
0.0
 11
192.10662
 21
194.515948
 31
0.0
  0
LINE
  5
172
330
A
100
AcDbEntity
  8
0
 62
     7
100
AcDbLine
 10
192.803908
 20
194.654096
 30
0.0
 11
192.584972
 21
194.578476
 31
0.0
  0
LINE
  5
171
330
A
100
AcDbEntity
  8
0
 62
     7
100
AcDbLine
 10
192.336753
 20
194.698882
 30
0.0
 11
192.554138
 21
194.736951
 31
0.0
  0
LINE
  5
170
330
A
100
AcDbEntity
  8
0
 62
     7
100
AcDbLine
 10
192.99046
 20
194.752281
 30
0.0
 11
192.803908
 21
194.654096
 31
0.0
  0
LINE
  5
16F
330
A
100
AcDbEntity
  8
0
 62
     7
100
AcDbLine
 10
193.148589
 20
194.876133
 30
0.0
 11
192.99046
 21
194.752281
 31
0.0
  0
LINE
  5
16E
330
A
100
AcDbEntity
  8
0
 62
     7
100
AcDbLine
 10
191.222781
 20
203.27717
 30
0.0
 11
191.409333
 21
203.376217
 31
0.0
  0
LINE
  5
16D
330
A
100
AcDbEntity
  8
0
 62
     7
100
AcDbLine
 10
191.409333
 20
203.376217
 30
0.0
 11
191.628269
 21
203.452698
 31
0.0
  0
LINE
  5
16C
330
A
100
AcDbEntity
  8
0
 62
     7
100
AcDbLine
 10
192.1067929999999
 20
203.345555
 30
0.0
 11
191.876832
 21
203.332119
 31
0.0
  0
LINE
  5
16B
330
A
100
AcDbEntity
  8
0
 62
     7
100
AcDbLine
 10
191.86064
 20
203.497139
 30
0.0
 11
192.10662
 21
203.515915
 31
0.0
  0
LINE
  5
16A
330
A
100
AcDbEntity
  8
0
 62
     7
100
AcDbLine
 10
191.628269
 20
203.452698
 30
0.0
 11
191.86064
 21
203.497139
 31
0.0
  0
LINE
  5
169
330
A
100
AcDbEntity
  8
0
 62
     7
100
AcDbLine
 10
191.876832
 20
203.332119
 30
0.0
 11
191.659447
 21
203.294051
 31
0.0
  0
LINE
  5
168
330
A
100
AcDbEntity
  8
0
 62
     7
100
AcDbLine
 10
191.132347
 20
203.043593
 30
0.0
 11
191.026755
 21
202.927493
 31
0.0
  0
LINE
  5
167
330
A
100
AcDbEntity
  8
0
 62
     7
100
AcDbLine
 10
191.026755
 20
202.927493
 30
0.0
 11
190.951824
 21
203.013276
 31
0.0
  0
LINE
  5
166
330
A
100
AcDbEntity
  8
0
 62
     7
100
AcDbLine
 10
190.951824
 20
203.013276
 30
0.0
 11
191.064651
 21
203.151941
 31
0.0
  0
LINE
  5
165
330
A
100
AcDbEntity
  8
0
 62
     7
100
AcDbLine
 10
191.454636
 20
203.230489
 30
0.0
 11
191.280142
 21
203.14729
 31
0.0
  0
LINE
  5
164
330
A
100
AcDbEntity
  8
0
 62
     7
100
AcDbLine
 10
191.280142
 20
203.14729
 30
0.0
 11
191.132347
 21
203.043593
 31
0.0
  0
LINE
  5
163
330
A
100
AcDbEntity
  8
0
 62
     7
100
AcDbLine
 10
191.064651
 20
203.151941
 30
0.0
 11
191.222781
 21
203.27717
 31
0.0
  0
LINE
  5
162
330
A
100
AcDbEntity
  8
0
 62
     7
100
AcDbLine
 10
191.659447
 20
203.294051
 30
0.0
 11
191.454636
 21
203.230489
 31
0.0
  0
LINE
  5
161
330
A
100
AcDbEntity
  8
0
 62
     7
100
AcDbLine
 10
192.336753
 20
203.332119
 30
0.0
 11
192.1067929999999
 21
203.345555
 31
0.0
  0
LINE
  5
160
330
A
100
AcDbEntity
  8
0
 62
     7
100
AcDbLine
 10
192.10662
 20
203.515915
 30
0.0
 11
192.3526
 21
203.497139
 31
0.0
  0
LINE
  5
15F
330
A
100
AcDbEntity
  8
0
 62
     7
100
AcDbLine
 10
192.3526
 20
203.497139
 30
0.0
 11
192.584972
 21
203.452698
 31
0.0
  0
LINE
  5
15E
330
A
100
AcDbEntity
  8
0
 62
     7
100
AcDbLine
 10
192.584972
 20
203.452698
 30
0.0
 11
192.803908
 21
203.376217
 31
0.0
  0
LINE
  5
15D
330
A
100
AcDbEntity
  8
0
 62
     7
100
AcDbLine
 10
192.554138
 20
203.294051
 30
0.0
 11
192.336753
 21
203.332119
 31
0.0
  0
LINE
  5
15C
330
A
100
AcDbEntity
  8
0
 62
     7
100
AcDbLine
 10
192.803908
 20
203.376217
 30
0.0
 11
192.99046
 21
203.27717
 31
0.0
  0
LINE
  5
15B
330
A
100
AcDbEntity
  8
0
 62
     7
100
AcDbLine
 10
192.758949
 20
203.230489
 30
0.0
 11
192.554138
 21
203.294051
 31
0.0
  0
LINE
  5
15A
330
A
100
AcDbEntity
  8
0
 62
     7
100
AcDbLine
 10
193.148589
 20
203.151941
 30
0.0
 11
193.261416
 21
203.013276
 31
0.0
  0
LINE
  5
159
330
A
100
AcDbEntity
  8
0
 62
     7
100
AcDbLine
 10
193.261416
 20
203.013276
 30
0.0
 11
193.18683
 21
202.927493
 31
0.0
  0
LINE
  5
158
330
A
100
AcDbEntity
  8
0
 62
     7
100
AcDbLine
 10
193.18683
 20
202.927493
 30
0.0
 11
193.081238
 21
203.043593
 31
0.0
  0
LINE
  5
157
330
A
100
AcDbEntity
  8
0
 62
     7
100
AcDbLine
 10
193.081238
 20
203.043593
 30
0.0
 11
192.933443
 21
203.14729
 31
0.0
  0
LINE
  5
156
330
A
100
AcDbEntity
  8
0
 62
     7
100
AcDbLine
 10
192.99046
 20
203.27717
 30
0.0
 11
193.148589
 21
203.151941
 31
0.0
  0
LINE
  5
155
330
A
100
AcDbEntity
  8
0
 62
     7
100
AcDbLine
 10
192.933443
 20
203.14729
 30
0.0
 11
192.758949
 21
203.230489
 31
0.0
  0
LINE
  5
154
330
A
100
AcDbEntity
  8
0
 62
     7
100
AcDbLine
 10
192.3526
 20
194.534379
 30
0.0
 11
192.10662
 21
194.515948
 31
0.0
  0
LINE
  5
153
330
A
100
AcDbEntity
  8
0
 62
     7
100
AcDbLine
 10
192.10662
 20
194.31596
 30
0.0
 11
192.383434
 21
194.335253
 31
0.0
  0
LINE
  5
152
330
A
100
AcDbEntity
  8
0
 62
     7
100
AcDbLine
 10
192.584972
 20
194.578476
 30
0.0
 11
192.3526
 21
194.534379
 31
0.0
  0
LINE
  5
151
330
A
100
AcDbEntity
  8
0
 62
     7
100
AcDbLine
 10
192.383434
 20
194.335253
 30
0.0
 11
192.645089
 21
194.381245
 31
0.0
  0
LINE
  5
150
330
A
100
AcDbEntity
  8
0
 62
     7
100
AcDbLine
 10
192.803908
 20
194.654096
 30
0.0
 11
192.584972
 21
194.578476
 31
0.0
  0
LINE
  5
14F
330
A
100
AcDbEntity
  8
0
 62
     7
100
AcDbLine
 10
192.645089
 20
194.381245
 30
0.0
 11
192.891585
 21
194.460137
 31
0.0
  0
LINE
  5
14E
330
A
100
AcDbEntity
  8
0
 62
     7
100
AcDbLine
 10
192.99046
 20
194.752281
 30
0.0
 11
192.803908
 21
194.654096
 31
0.0
  0
LINE
  5
14D
330
A
100
AcDbEntity
  8
0
 62
     7
100
AcDbLine
 10
192.891585
 20
194.460137
 30
0.0
 11
193.101564
 21
194.562457
 31
0.0
  0
LINE
  5
14C
330
A
100
AcDbEntity
  8
0
 62
     7
100
AcDbLine
 10
193.148589
 20
194.876133
 30
0.0
 11
192.99046
 21
194.752281
 31
0.0
  0
LINE
  5
14B
330
A
100
AcDbEntity
  8
0
 62
     7
100
AcDbLine
 10
193.101564
 20
194.562457
 30
0.0
 11
193.279675
 21
194.69182
 31
0.0
  0
LINE
  5
14A
330
A
100
AcDbEntity
  8
0
 62
     7
100
AcDbLine
 10
193.261416
 20
195.01342
 30
0.0
 11
193.148589
 21
194.876133
 31
0.0
  0
LINE
  5
149
330
A
100
AcDbEntity
  8
0
 62
     7
100
AcDbLine
 10
193.279675
 20
194.69182
 30
0.0
 11
193.406627
 21
194.834964
 31
0.0
  0
LINE
  5
148
330
A
100
AcDbEntity
  8
0
 62
     7
100
AcDbLine
 10
193.261416
 20
203.013276
 30
0.0
 11
193.261416
 21
195.01342
 31
0.0
  0
LINE
  5
147
330
A
100
AcDbEntity
  8
0
 62
     7
100
AcDbLine
 10
193.406627
 20
194.834964
 30
0.0
 11
193.406627
 21
203.190354
 31
0.0
  0
LINE
  5
146
330
A
100
AcDbEntity
  8
0
 62
     7
100
AcDbLine
 10
193.148589
 20
203.151941
 30
0.0
 11
193.261416
 21
203.013276
 31
0.0
  0
LINE
  5
145
330
A
100
AcDbEntity
  8
0
 62
     7
100
AcDbLine
 10
193.406627
 20
203.190354
 30
0.0
 11
193.279675
 21
203.335392
 31
0.0
  0
LINE
  5
144
330
A
100
AcDbEntity
  8
0
 62
     7
100
AcDbLine
 10
192.99046
 20
203.27717
 30
0.0
 11
193.148589
 21
203.151941
 31
0.0
  0
LINE
  5
143
330
A
100
AcDbEntity
  8
0
 62
     7
100
AcDbLine
 10
193.279675
 20
203.335392
 30
0.0
 11
193.101564
 21
203.466306
 31
0.0
  0
LINE
  5
142
330
A
100
AcDbEntity
  8
0
 62
     7
100
AcDbLine
 10
192.803908
 20
203.376217
 30
0.0
 11
192.99046
 21
203.27717
 31
0.0
  0
LINE
  5
141
330
A
100
AcDbEntity
  8
0
 62
     7
100
AcDbLine
 10
193.101564
 20
203.466306
 30
0.0
 11
192.891585
 21
203.570003
 31
0.0
  0
LINE
  5
140
330
A
100
AcDbEntity
  8
0
 62
     7
100
AcDbLine
 10
192.584972
 20
203.452698
 30
0.0
 11
192.803908
 21
203.376217
 31
0.0
  0
LINE
  5
13F
330
A
100
AcDbEntity
  8
0
 62
     7
100
AcDbLine
 10
192.891585
 20
203.570003
 30
0.0
 11
192.645089
 21
203.649757
 31
0.0
  0
LINE
  5
13E
330
A
100
AcDbEntity
  8
0
 62
     7
100
AcDbLine
 10
192.3526
 20
203.497139
 30
0.0
 11
192.584972
 21
203.452698
 31
0.0
  0
LINE
  5
13D
330
A
100
AcDbEntity
  8
0
 62
     7
100
AcDbLine
 10
192.645089
 20
203.649757
 30
0.0
 11
192.586867
 21
203.660093
 31
0.0
  0
LINE
  5
13C
330
A
100
AcDbEntity
  8
0
 62
     7
100
AcDbLine
 10
192.586867
 20
203.660093
 30
0.0
 11
192.383434
 21
203.696438
 31
0.0
  0
LINE
  5
13B
330
A
100
AcDbEntity
  8
0
 62
     7
100
AcDbLine
 10
192.10662
 20
203.515915
 30
0.0
 11
192.3526
 21
203.497139
 31
0.0
  0
LINE
  5
13A
330
A
100
AcDbEntity
  8
0
 62
     7
100
AcDbLine
 10
192.383434
 20
203.696438
 30
0.0
 11
192.10662
 21
203.715903
 31
0.0
  0
LINE
  5
139
330
A
100
AcDbEntity
  8
0
 62
     7
100
AcDbLine
 10
191.86064
 20
203.497139
 30
0.0
 11
192.10662
 21
203.515915
 31
0.0
  0
LINE
  5
138
330
A
100
AcDbEntity
  8
0
 62
     7
100
AcDbLine
 10
192.10662
 20
203.715903
 30
0.0
 11
191.829807
 21
203.696438
 31
0.0
  0
LINE
  5
137
330
A
100
AcDbEntity
  8
0
 62
     7
100
AcDbLine
 10
191.628269
 20
203.452698
 30
0.0
 11
191.86064
 21
203.497139
 31
0.0
  0
LINE
  5
136
330
A
100
AcDbEntity
  8
0
 62
     7
100
AcDbLine
 10
191.829807
 20
203.696438
 30
0.0
 11
191.568152
 21
203.649757
 31
0.0
  0
LINE
  5
135
330
A
100
AcDbEntity
  8
0
 62
     7
100
AcDbLine
 10
191.409333
 20
203.376217
 30
0.0
 11
191.628269
 21
203.452698
 31
0.0
  0
LINE
  5
134
330
A
100
AcDbEntity
  8
0
 62
     7
100
AcDbLine
 10
191.568152
 20
203.649757
 30
0.0
 11
191.321655
 21
203.570003
 31
0.0
  0
LINE
  5
133
330
A
100
AcDbEntity
  8
0
 62
     7
100
AcDbLine
 10
191.222781
 20
203.27717
 30
0.0
 11
191.409333
 21
203.376217
 31
0.0
  0
LINE
  5
132
330
A
100
AcDbEntity
  8
0
 62
     7
100
AcDbLine
 10
191.321655
 20
203.570003
 30
0.0
 11
191.111677
 21
203.466306
 31
0.0
  0
LINE
  5
131
330
A
100
AcDbEntity
  8
0
 62
     7
100
AcDbLine
 10
191.064651
 20
203.151941
 30
0.0
 11
191.222781
 21
203.27717
 31
0.0
  0
LINE
  5
130
330
A
100
AcDbEntity
  8
0
 62
     7
100
AcDbLine
 10
191.111677
 20
203.466306
 30
0.0
 11
190.933565
 21
203.335392
 31
0.0
  0
LINE
  5
12F
330
A
100
AcDbEntity
  8
0
 62
     7
100
AcDbLine
 10
190.951824
 20
203.013276
 30
0.0
 11
191.064651
 21
203.151941
 31
0.0
  0
LINE
  5
12E
330
A
100
AcDbEntity
  8
0
 62
     7
100
AcDbLine
 10
190.933565
 20
203.335392
 30
0.0
 11
190.806613
 21
203.190526
 31
0.0
  0
LINE
  5
12D
330
A
100
AcDbEntity
  8
0
 62
     7
100
AcDbLine
 10
190.951824
 20
195.01342
 30
0.0
 11
190.951824
 21
203.013276
 31
0.0
  0
LINE
  5
12C
330
A
100
AcDbEntity
  8
0
 62
     7
100
AcDbLine
 10
190.806613
 20
203.190526
 30
0.0
 11
190.806613
 21
194.834964
 31
0.0
  0
LINE
  5
12B
330
A
100
AcDbEntity
  8
0
 62
     7
100
AcDbLine
 10
191.064651
 20
194.876133
 30
0.0
 11
190.951824
 21
195.01342
 31
0.0
  0
LINE
  5
12A
330
A
100
AcDbEntity
  8
0
 62
     7
100
AcDbLine
 10
190.806613
 20
194.834964
 30
0.0
 11
190.933565
 21
194.69182
 31
0.0
  0
LINE
  5
129
330
A
100
AcDbEntity
  8
0
 62
     7
100
AcDbLine
 10
191.222781
 20
194.752281
 30
0.0
 11
191.064651
 21
194.876133
 31
0.0
  0
LINE
  5
128
330
A
100
AcDbEntity
  8
0
 62
     7
100
AcDbLine
 10
190.933565
 20
194.69182
 30
0.0
 11
191.111677
 21
194.562457
 31
0.0
  0
LINE
  5
127
330
A
100
AcDbEntity
  8
0
 62
     7
100
AcDbLine
 10
191.409333
 20
194.654096
 30
0.0
 11
191.222781
 21
194.752281
 31
0.0
  0
LINE
  5
126
330
A
100
AcDbEntity
  8
0
 62
     7
100
AcDbLine
 10
191.111677
 20
194.562457
 30
0.0
 11
191.321655
 21
194.460137
 31
0.0
  0
LINE
  5
125
330
A
100
AcDbEntity
  8
0
 62
     7
100
AcDbLine
 10
191.628269
 20
194.578476
 30
0.0
 11
191.409333
 21
194.654096
 31
0.0
  0
LINE
  5
124
330
A
100
AcDbEntity
  8
0
 62
     7
100
AcDbLine
 10
191.321655
 20
194.460137
 30
0.0
 11
191.568152
 21
194.381245
 31
0.0
  0
LINE
  5
123
330
A
100
AcDbEntity
  8
0
 62
     7
100
AcDbLine
 10
191.86064
 20
194.534379
 30
0.0
 11
191.628269
 21
194.578476
 31
0.0
  0
LINE
  5
122
330
A
100
AcDbEntity
  8
0
 62
     7
100
AcDbLine
 10
191.568152
 20
194.381245
 30
0.0
 11
191.829807
 21
194.335253
 31
0.0
  0
LINE
  5
121
330
A
100
AcDbEntity
  8
0
 62
     7
100
AcDbLine
 10
192.10662
 20
194.515948
 30
0.0
 11
191.86064
 21
194.534379
 31
0.0
  0
LINE
  5
120
330
A
100
AcDbEntity
  8
0
 62
     7
100
AcDbLine
 10
191.829807
 20
194.335253
 30
0.0
 11
192.10662
 21
194.31596
 31
0.0
  0
LINE
  5
11F
330
A
100
AcDbEntity
  8
0
 62
     7
100
AcDbLine
 10
217.022412
 20
140.301169
 30
0.0
 11
216.493245
 21
140.301169
 31
0.0
  0
LINE
  5
11E
330
A
100
AcDbEntity
  8
0
 62
     7
100
AcDbLine
 10
216.493245
 20
140.301169
 30
0.0
 11
216.166306
 21
140.301169
 31
0.0
  0
LINE
  5
11D
330
A
100
AcDbEntity
  8
0
 62
     7
100
AcDbLine
 10
216.166306
 20
123.886667
 30
0.0
 11
216.166306
 21
140.301169
 31
0.0
  0
LINE
  5
11C
330
A
100
AcDbEntity
  8
0
 62
     7
100
AcDbLine
 10
217.878174
 20
123.715446
 30
0.0
 11
217.878174
 21
140.301169
 31
0.0
  0
LINE
  5
11B
330
A
100
AcDbEntity
  8
0
 62
     7
100
AcDbLine
 10
217.878174
 20
140.301169
 30
0.0
 11
217.551234
 21
140.301169
 31
0.0
  0
LINE
  5
11A
330
A
100
AcDbEntity
  8
0
 62
     7
100
AcDbLine
 10
217.551234
 20
140.301169
 30
0.0
 11
217.022412
 21
140.301169
 31
0.0
  0
LINE
  5
119
330
A
100
AcDbEntity
  8
0
 62
     7
100
AcDbLine
 10
215.5489450000001
 20
120.829489
 30
0.0
 11
216.166306
 21
123.886667
 31
0.0
  0
LINE
  5
118
330
A
100
AcDbEntity
  8
0
 62
     7
100
AcDbLine
 10
217.159527
 20
120.155629
 30
0.0
 11
217.878174
 21
123.715446
 31
0.0
  0
LINE
  5
117
330
A
100
AcDbEntity
  8
0
 62
     7
100
AcDbLine
 10
213.91597
 20
118.407243
 30
0.0
 11
215.5489450000001
 21
120.829489
 31
0.0
  0
LINE
  5
116
330
A
100
AcDbEntity
  8
0
 62
     7
100
AcDbLine
 10
215.149314
 20
117.174243
 30
0.0
 11
217.159527
 21
120.155629
 31
0.0
  0
LINE
  5
115
330
A
100
AcDbEntity
  8
0
 62
     7
100
AcDbLine
 10
211.494067
 20
116.774268
 30
0.0
 11
213.91597
 21
118.407243
 31
0.0
  0
LINE
  5
114
330
A
100
AcDbEntity
  8
0
 62
     7
100
AcDbLine
 10
212.167584
 20
115.16403
 30
0.0
 11
215.149314
 21
117.174243
 31
0.0
  0
LINE
  5
113
330
A
100
AcDbEntity
  8
0
 62
     7
100
AcDbLine
 10
208.436545
 20
116.156906
 30
0.0
 11
211.494067
 21
116.774268
 31
0.0
  0
LINE
  5
112
330
A
100
AcDbEntity
  8
0
 62
     7
100
AcDbLine
 10
208.607766
 20
114.445039
 30
0.0
 11
212.167584
 21
115.16403
 31
0.0
  0
LINE
  5
111
330
A
100
AcDbEntity
  8
0
 62
     7
100
AcDbLine
 10
207.607655
 20
116.156906
 30
0.0
 11
208.436545
 21
116.156906
 31
0.0
  0
LINE
  5
110
330
A
100
AcDbEntity
  8
0
 62
     7
100
AcDbLine
 10
207.436778
 20
114.445039
 30
0.0
 11
208.607766
 21
114.445039
 31
0.0
  0
LINE
  5
10F
330
A
100
AcDbEntity
  8
0
 62
     7
100
AcDbLine
 10
207.436778
 20
114.445039
 30
0.0
 11
208.607766
 21
114.445039
 31
0.0
  0
LINE
  5
10E
330
A
100
AcDbEntity
  8
0
 62
     7
100
AcDbLine
 10
204.550477
 20
116.774268
 30
0.0
 11
207.607655
 21
116.156906
 31
0.0
  0
LINE
  5
10D
330
A
100
AcDbEntity
  8
0
 62
     7
100
AcDbLine
 10
203.876617
 20
115.16403
 30
0.0
 11
207.436778
 21
114.445039
 31
0.0
  0
LINE
  5
10C
330
A
100
AcDbEntity
  8
0
 62
     7
100
AcDbLine
 10
202.128575
 20
118.407243
 30
0.0
 11
204.550477
 21
116.774268
 31
0.0
  0
LINE
  5
10B
330
A
100
AcDbEntity
  8
0
 62
     7
100
AcDbLine
 10
200.895231
 20
117.174243
 30
0.0
 11
203.876617
 21
115.16403
 31
0.0
  0
LINE
  5
10A
330
A
100
AcDbEntity
  8
0
 62
     7
100
AcDbLine
 10
200.495256
 20
120.829489
 30
0.0
 11
202.128575
 21
118.407243
 31
0.0
  0
LINE
  5
109
330
A
100
AcDbEntity
  8
0
 62
     7
100
AcDbLine
 10
199.638288
 20
119.038384
 30
0.0
 11
200.895231
 21
117.174243
 31
0.0
  0
LINE
  5
108
330
A
100
AcDbEntity
  8
0
 62
     7
100
AcDbLine
 10
199.878239
 20
123.886667
 30
0.0
 11
200.495256
 21
120.829489
 31
0.0
  0
LINE
  5
107
330
A
100
AcDbEntity
  8
0
 62
     7
100
AcDbLine
 10
199.878239
 20
140.296346
 30
0.0
 11
199.878239
 21
123.886667
 31
0.0
  0
LINE
  5
106
330
A
100
AcDbEntity
  8
0
 62
     7
100
AcDbLine
 10
199.878239
 20
140.44104
 30
0.0
 11
199.878239
 21
123.886667
 31
0.0
  0
LINE
  5
105
330
A
100
AcDbEntity
  8
0
 62
     7
100
AcDbLine
 10
200.182958
 20
222.129594
 30
0.0
 11
200.278731
 21
222.128905
 31
0.0
  0
LINE
  5
104
330
A
100
AcDbEntity
  8
0
 62
     7
100
AcDbLine
 10
200.279076
 20
225.249817
 30
0.0
 11
200.278731
 21
222.128905
 31
0.0
  0
LINE
  5
103
330
A
100
AcDbEntity
  8
0
 62
     7
100
AcDbLine
 10
197.765362
 20
222.128905
 30
0.0
 11
197.860791
 21
222.129594
 31
0.0
  0
LINE
  5
102
330
A
100
AcDbEntity
  8
0
 62
     7
100
AcDbLine
 10
197.765362
 20
225.249817
 30
0.0
 11
197.765017
 21
222.1308
 31
0.0
  0
LINE
  5
101
330
A
100
AcDbEntity
  8
0
 62
     7
100
AcDbLine
 10
197.860791
 20
222.129594
 30
0.0
 11
198.133126
 21
222.130283
 31
0.0
  0
LINE
  5
100
330
A
100
AcDbEntity
  8
0
 62
     7
100
AcDbLine
 10
198.133126
 20
222.130283
 30
0.0
 11
198.540853
 21
222.130627
 31
0.0
  0
LINE
  5
FF
330
A
100
AcDbEntity
  8
0
 62
     7
100
AcDbLine
 10
198.540853
 20
222.130627
 30
0.0
 11
199.021788
 21
222.1308
 31
0.0
  0
LINE
  5
FE
330
A
100
AcDbEntity
  8
0
 62
     7
100
AcDbLine
 10
199.021788
 20
222.1308
 30
0.0
 11
199.502724
 21
222.130627
 31
0.0
  0
LINE
  5
FD
330
A
100
AcDbEntity
  8
0
 62
     7
100
AcDbLine
 10
199.502724
 20
222.130627
 30
0.0
 11
199.910623
 21
222.130283
 31
0.0
  0
LINE
  5
FC
330
A
100
AcDbEntity
  8
0
 62
     7
100
AcDbLine
 10
199.910623
 20
222.130283
 30
0.0
 11
200.182958
 21
222.129594
 31
0.0
  0
LINE
  5
FB
330
A
100
AcDbEntity
  8
0
 62
     7
100
AcDbLine
 10
200.279076
 20
226.932574
 30
0.0
 11
200.279076
 21
225.249817
 31
0.0
  0
LINE
  5
FA
330
A
100
AcDbEntity
  8
0
 62
     7
100
AcDbLine
 10
197.765362
 20
226.932574
 30
0.0
 11
197.765362
 21
225.249817
 31
0.0
  0
LINE
  5
F9
330
A
100
AcDbEntity
  8
0
 62
     7
100
AcDbLine
 10
200.279076
 20
228.300621
 30
0.0
 11
200.279076
 21
226.932574
 31
0.0
  0
LINE
  5
F8
330
A
100
AcDbEntity
  8
0
 62
     7
100
AcDbLine
 10
197.765362
 20
228.300621
 30
0.0
 11
197.765362
 21
226.932574
 31
0.0
  0
LINE
  5
F7
330
A
100
AcDbEntity
  8
0
 62
     7
100
AcDbLine
 10
200.279076
 20
229.380659
 30
0.0
 11
200.279076
 21
228.300621
 31
0.0
  0
LINE
  5
F6
330
A
100
AcDbEntity
  8
0
 62
     7
100
AcDbLine
 10
197.765362
 20
229.380659
 30
0.0
 11
197.765362
 21
228.300621
 31
0.0
  0
LINE
  5
F5
330
A
100
AcDbEntity
  8
0
 62
     7
100
AcDbLine
 10
200.279076
 20
230.08897
 30
0.0
 11
200.279076
 21
229.380659
 31
0.0
  0
LINE
  5
F4
330
A
100
AcDbEntity
  8
0
 62
     7
100
AcDbLine
 10
197.765362
 20
230.08897
 30
0.0
 11
197.765362
 21
229.380659
 31
0.0
  0
LINE
  5
F3
330
A
100
AcDbEntity
  8
0
 62
     7
100
AcDbLine
 10
200.279076
 20
230.348386
 30
0.0
 11
200.279076
 21
230.08897
 31
0.0
  0
LINE
  5
F2
330
A
100
AcDbEntity
  8
0
 62
     7
100
AcDbLine
 10
197.765362
 20
230.348386
 30
0.0
 11
197.765362
 21
230.08897
 31
0.0
  0
LINE
  5
F1
330
A
100
AcDbEntity
  8
0
 62
     7
100
AcDbLine
 10
200.183302
 20
230.827771
 30
0.0
 11
200.279076
 21
230.348386
 31
0.0
  0
LINE
  5
F0
330
A
100
AcDbEntity
  8
0
 62
     7
100
AcDbLine
 10
197.765362
 20
230.348386
 30
0.0
 11
197.861136
 21
230.827771
 31
0.0
  0
LINE
  5
EF
330
A
100
AcDbEntity
  8
0
 62
     7
100
AcDbLine
 10
197.861136
 20
230.827771
 30
0.0
 11
198.13347
 21
231.23412
 31
0.0
  0
LINE
  5
EE
330
A
100
AcDbEntity
  8
0
 62
     7
100
AcDbLine
 10
198.13347
 20
231.23412
 30
0.0
 11
198.541197
 21
231.505766
 31
0.0
  0
LINE
  5
ED
330
A
100
AcDbEntity
  8
0
 62
     7
100
AcDbLine
 10
198.541197
 20
231.505766
 30
0.0
 11
199.022133
 21
231.601023
 31
0.0
  0
LINE
  5
EC
330
A
100
AcDbEntity
  8
0
 62
     7
100
AcDbLine
 10
199.022133
 20
231.601023
 30
0.0
 11
199.5032399999999
 21
231.505766
 31
0.0
  0
LINE
  5
EB
330
A
100
AcDbEntity
  8
0
 62
     7
100
AcDbLine
 10
199.5032399999999
 20
231.505766
 30
0.0
 11
199.910967
 21
231.23412
 31
0.0
  0
LINE
  5
EA
330
A
100
AcDbEntity
  8
0
 62
     7
100
AcDbLine
 10
199.910967
 20
231.23412
 30
0.0
 11
200.183302
 21
230.827771
 31
0.0
  0
LINE
  5
E9
330
A
100
AcDbEntity
  8
0
 62
     7
100
AcDbLine
 10
200.279076
 20
230.08897
 30
0.0
 11
200.279076
 21
230.348386
 31
0.0
  0
LINE
  5
E8
330
A
100
AcDbEntity
  8
0
 62
     7
100
AcDbLine
 10
197.765362
 20
230.08897
 30
0.0
 11
197.765362
 21
230.348386
 31
0.0
  0
LINE
  5
E7
330
A
100
AcDbEntity
  8
0
 62
     7
100
AcDbLine
 10
200.279076
 20
229.380659
 30
0.0
 11
200.279076
 21
230.08897
 31
0.0
  0
LINE
  5
E6
330
A
100
AcDbEntity
  8
0
 62
     7
100
AcDbLine
 10
197.765362
 20
229.380659
 30
0.0
 11
197.765362
 21
230.08897
 31
0.0
  0
LINE
  5
E5
330
A
100
AcDbEntity
  8
0
 62
     7
100
AcDbLine
 10
200.279076
 20
228.300449
 30
0.0
 11
200.279076
 21
229.380659
 31
0.0
  0
LINE
  5
E4
330
A
100
AcDbEntity
  8
0
 62
     7
100
AcDbLine
 10
197.765362
 20
228.300449
 30
0.0
 11
197.765362
 21
229.380659
 31
0.0
  0
LINE
  5
E3
330
A
100
AcDbEntity
  8
0
 62
     7
100
AcDbLine
 10
200.279076
 20
226.932918
 30
0.0
 11
200.279076
 21
228.300449
 31
0.0
  0
LINE
  5
E2
330
A
100
AcDbEntity
  8
0
 62
     7
100
AcDbLine
 10
197.765362
 20
226.933091
 30
0.0
 11
197.765362
 21
228.300449
 31
0.0
  0
LINE
  5
E1
330
A
100
AcDbEntity
  8
0
 62
     7
100
AcDbLine
 10
200.279076
 20
225.251367
 30
0.0
 11
200.279076
 21
226.932918
 31
0.0
  0
LINE
  5
E0
330
A
100
AcDbEntity
  8
0
 62
     7
100
AcDbLine
 10
197.765362
 20
225.251367
 30
0.0
 11
197.765362
 21
226.933091
 31
0.0
  0
LINE
  5
DF
330
A
100
AcDbEntity
  8
0
 62
     7
100
AcDbLine
 10
200.279076
 20
148.663449
 30
0.0
 11
200.279076
 21
207.476053
 31
0.0
  0
LINE
  5
DE
330
A
100
AcDbEntity
  8
0
 62
     7
100
AcDbLine
 10
200.279076
 20
209.628204
 30
0.0
 11
200.279076
 21
214.420676
 31
0.0
  0
LINE
  5
DD
330
A
100
AcDbEntity
  8
0
 62
     7
100
AcDbLine
 10
200.279076
 20
218.752539
 30
0.0
 11
200.279076
 21
225.251367
 31
0.0
  0
LINE
  5
DC
330
A
100
AcDbEntity
  8
0
 62
     7
100
AcDbLine
 10
199.503068
 20
148.663449
 30
0.0
 11
199.910967
 21
148.663449
 31
0.0
  0
LINE
  5
DB
330
A
100
AcDbEntity
  8
0
 62
     7
100
AcDbLine
 10
197.765362
 20
148.663449
 30
0.0
 11
197.765362
 21
207.476053
 31
0.0
  0
LINE
  5
DA
330
A
100
AcDbEntity
  8
0
 62
     7
100
AcDbLine
 10
197.765362
 20
209.628204
 30
0.0
 11
197.765362
 21
214.420676
 31
0.0
  0
LINE
  5
D9
330
A
100
AcDbEntity
  8
0
 62
     7
100
AcDbLine
 10
197.765362
 20
218.752539
 30
0.0
 11
197.765362
 21
219.834644
 31
0.0
  0
LINE
  5
D8
330
A
100
AcDbEntity
  8
0
 62
     7
100
AcDbLine
 10
197.765362
 20
225.065677
 30
0.0
 11
197.765362
 21
225.251367
 31
0.0
  0
LINE
  5
D7
330
A
100
AcDbEntity
  8
0
 62
     7
100
AcDbLine
 10
200.183302
 20
148.663449
 30
0.0
 11
200.279076
 21
148.663449
 31
0.0
  0
LINE
  5
D6
330
A
100
AcDbEntity
  8
0
 62
     7
100
AcDbLine
 10
199.910967
 20
148.663449
 30
0.0
 11
200.183302
 21
148.663449
 31
0.0
  0
LINE
  5
D5
330
A
100
AcDbEntity
  8
0
 62
     7
100
AcDbLine
 10
200.183302
 20
148.663449
 30
0.0
 11
199.910967
 21
148.663449
 31
0.0
  0
LINE
  5
D4
330
A
100
AcDbEntity
  8
0
 62
     7
100
AcDbLine
 10
200.279076
 20
148.663449
 30
0.0
 11
200.183302
 21
148.663449
 31
0.0
  0
LINE
  5
D3
330
A
100
AcDbEntity
  8
0
 62
     7
100
AcDbLine
 10
198.541197
 20
148.663449
 30
0.0
 11
198.13347
 21
148.663449
 31
0.0
  0
LINE
  5
D2
330
A
100
AcDbEntity
  8
0
 62
     7
100
AcDbLine
 10
199.022133
 20
148.663449
 30
0.0
 11
198.541197
 21
148.663449
 31
0.0
  0
LINE
  5
D1
330
A
100
AcDbEntity
  8
0
 62
     7
100
AcDbLine
 10
199.503068
 20
148.663449
 30
0.0
 11
199.022133
 21
148.663449
 31
0.0
  0
LINE
  5
D0
330
A
100
AcDbEntity
  8
0
 62
     7
100
AcDbLine
 10
199.910967
 20
148.663105
 30
0.0
 11
199.503068
 21
148.663449
 31
0.0
  0
LINE
  5
CF
330
A
100
AcDbEntity
  8
0
 62
     7
100
AcDbLine
 10
199.5032399999999
 20
148.663105
 30
0.0
 11
199.910967
 21
148.663105
 31
0.0
  0
LINE
  5
CE
330
A
100
AcDbEntity
  8
0
 62
     7
100
AcDbLine
 10
199.022133
 20
148.663105
 30
0.0
 11
199.5032399999999
 21
148.663105
 31
0.0
  0
LINE
  5
CD
330
A
100
AcDbEntity
  8
0
 62
     7
100
AcDbLine
 10
198.541197
 20
148.663105
 30
0.0
 11
199.022133
 21
148.663105
 31
0.0
  0
LINE
  5
CC
330
A
100
AcDbEntity
  8
0
 62
     7
100
AcDbLine
 10
198.13347
 20
148.663105
 30
0.0
 11
198.541197
 21
148.663105
 31
0.0
  0
LINE
  5
CB
330
A
100
AcDbEntity
  8
0
 62
     7
100
AcDbLine
 10
197.861136
 20
148.663449
 30
0.0
 11
198.13347
 21
148.663105
 31
0.0
  0
LINE
  5
CA
330
A
100
AcDbEntity
  8
0
 62
     7
100
AcDbLine
 10
197.765362
 20
148.663449
 30
0.0
 11
197.861136
 21
148.663449
 31
0.0
  0
LINE
  5
C9
330
A
100
AcDbEntity
  8
0
 62
     7
100
AcDbLine
 10
197.861136
 20
148.663449
 30
0.0
 11
197.765362
 21
148.663449
 31
0.0
  0
LINE
  5
C8
330
A
100
AcDbEntity
  8
0
 62
     7
100
AcDbLine
 10
198.13347
 20
148.663449
 30
0.0
 11
197.861136
 21
148.663449
 31
0.0
  0
LINE
  5
C7
330
A
100
AcDbEntity
  8
0
 62
     7
100
AcDbLine
 10
200.183302
 20
148.663449
 30
0.0
 11
199.910967
 21
148.663105
 31
0.0
  0
LINE
  5
C6
330
A
100
AcDbEntity
  8
0
 62
     7
100
AcDbLine
 10
201.978714
 20
209.777376
 30
0.0
 11
202.222282
 21
208.552645
 31
0.0
  0
LINE
  5
C5
330
A
100
AcDbEntity
  8
0
 62
     7
100
AcDbLine
 10
201.284871
 20
210.815384
 30
0.0
 11
201.978714
 21
209.777376
 31
0.0
  0
LINE
  5
C4
330
A
100
AcDbEntity
  8
0
 62
     7
100
AcDbLine
 10
200.279076
 20
211.487694
 30
0.0
 11
201.284871
 21
210.815384
 31
0.0
  0
LINE
  5
C3
330
A
100
AcDbEntity
  8
0
 62
     7
100
AcDbLine
 10
196.759394
 20
210.815384
 30
0.0
 11
197.765362
 21
211.487522
 31
0.0
  0
LINE
  5
C2
330
A
100
AcDbEntity
  8
0
 62
     7
100
AcDbLine
 10
196.065896
 20
209.777376
 30
0.0
 11
196.759394
 21
210.815384
 31
0.0
  0
LINE
  5
C1
330
A
100
AcDbEntity
  8
0
 62
     7
100
AcDbLine
 10
195.822156
 20
208.552645
 30
0.0
 11
196.065896
 21
209.777376
 31
0.0
  0
LINE
  5
C0
330
A
100
AcDbEntity
  8
0
 62
     7
100
AcDbLine
 10
196.065896
 20
207.328086
 30
0.0
 11
195.822156
 21
208.552645
 31
0.0
  0
LINE
  5
BF
330
A
100
AcDbEntity
  8
0
 62
     7
100
AcDbLine
 10
196.759394
 20
206.289906
 30
0.0
 11
196.065896
 21
207.328086
 31
0.0
  0
LINE
  5
BE
330
A
100
AcDbEntity
  8
0
 62
     7
100
AcDbLine
 10
197.765362
 20
205.617768
 30
0.0
 11
196.759394
 21
206.289906
 31
0.0
  0
LINE
  5
BD
330
A
100
AcDbEntity
  8
0
 62
     7
100
AcDbLine
 10
201.284871
 20
206.289906
 30
0.0
 11
200.279076
 21
205.617768
 31
0.0
  0
LINE
  5
BC
330
A
100
AcDbEntity
  8
0
 62
     7
100
AcDbLine
 10
201.978714
 20
207.328086
 30
0.0
 11
201.284871
 21
206.289906
 31
0.0
  0
LINE
  5
BB
330
A
100
AcDbEntity
  8
0
 62
     7
100
AcDbLine
 10
202.222282
 20
208.552645
 30
0.0
 11
201.978714
 21
207.328086
 31
0.0
  0
LINE
  5
BA
330
A
100
AcDbEntity
  8
0
 62
     7
100
AcDbLine
 10
197.837881
 20
209.736552
 30
0.0
 11
198.381173
 21
210.099665
 31
0.0
  0
LINE
  5
B9
330
A
100
AcDbEntity
  8
0
 62
     7
100
AcDbLine
 10
198.381173
 20
210.099665
 30
0.0
 11
199.022133
 21
210.227134
 31
0.0
  0
LINE
  5
B8
330
A
100
AcDbEntity
  8
0
 62
     7
100
AcDbLine
 10
199.022133
 20
210.227134
 30
0.0
 11
199.663265
 21
210.099665
 31
0.0
  0
LINE
  5
B7
330
A
100
AcDbEntity
  8
0
 62
     7
100
AcDbLine
 10
199.663265
 20
210.099665
 30
0.0
 11
200.206557
 21
209.736552
 31
0.0
  0
LINE
  5
B6
330
A
100
AcDbEntity
  8
0
 62
     7
100
AcDbLine
 10
200.206557
 20
209.736552
 30
0.0
 11
200.56967
 21
209.193088
 31
0.0
  0
LINE
  5
B5
330
A
100
AcDbEntity
  8
0
 62
     7
100
AcDbLine
 10
200.56967
 20
209.193088
 30
0.0
 11
200.697138
 21
208.552128
 31
0.0
  0
LINE
  5
B4
330
A
100
AcDbEntity
  8
0
 62
     7
100
AcDbLine
 10
200.697138
 20
208.552128
 30
0.0
 11
200.56967
 21
207.911168
 31
0.0
  0
LINE
  5
B3
330
A
100
AcDbEntity
  8
0
 62
     7
100
AcDbLine
 10
200.56967
 20
207.911168
 30
0.0
 11
200.206557
 21
207.367704
 31
0.0
  0
LINE
  5
B2
330
A
100
AcDbEntity
  8
0
 62
     7
100
AcDbLine
 10
200.206557
 20
207.367704
 30
0.0
 11
199.663265
 21
207.004591
 31
0.0
  0
LINE
  5
B1
330
A
100
AcDbEntity
  8
0
 62
     7
100
AcDbLine
 10
199.663265
 20
207.004591
 30
0.0
 11
199.022133
 21
206.877123
 31
0.0
  0
LINE
  5
B0
330
A
100
AcDbEntity
  8
0
 62
     7
100
AcDbLine
 10
199.022133
 20
206.877123
 30
0.0
 11
198.381173
 21
207.004591
 31
0.0
  0
LINE
  5
AF
330
A
100
AcDbEntity
  8
0
 62
     7
100
AcDbLine
 10
198.381173
 20
207.004591
 30
0.0
 11
197.837881
 21
207.367704
 31
0.0
  0
LINE
  5
AE
330
A
100
AcDbEntity
  8
0
 62
     7
100
AcDbLine
 10
197.837881
 20
207.367704
 30
0.0
 11
197.474768
 21
207.911168
 31
0.0
  0
LINE
  5
AD
330
A
100
AcDbEntity
  8
0
 62
     7
100
AcDbLine
 10
197.474768
 20
207.911168
 30
0.0
 11
197.3473
 21
208.552128
 31
0.0
  0
LINE
  5
AC
330
A
100
AcDbEntity
  8
0
 62
     7
100
AcDbLine
 10
197.3473
 20
208.552128
 30
0.0
 11
197.474768
 21
209.193088
 31
0.0
  0
LINE
  5
AB
330
A
100
AcDbEntity
  8
0
 62
     7
100
AcDbLine
 10
197.474768
 20
209.193088
 30
0.0
 11
197.837881
 21
209.736552
 31
0.0
  0
LINE
  5
AA
330
A
100
AcDbEntity
  8
0
 62
     7
100
AcDbLine
 10
198.026156
 20
140.421403
 30
0.0
 11
197.998767
 21
140.449653
 31
0.0
  0
LINE
  5
A9
330
A
100
AcDbEntity
  8
0
 62
     7
100
AcDbLine
 10
198.630598
 20
140.449997
 30
0.0
 11
199.022133
 21
140.449997
 31
0.0
  0
LINE
  5
A8
330
A
100
AcDbEntity
  8
0
 62
     7
100
AcDbLine
 10
198.29849
 20
140.449997
 30
0.0
 11
198.630598
 21
140.449997
 31
0.0
  0
LINE
  5
A7
330
A
100
AcDbEntity
  8
0
 62
     7
100
AcDbLine
 10
198.076626
 20
140.449997
 30
0.0
 11
198.29849
 21
140.449997
 31
0.0
  0
LINE
  5
A6
330
A
100
AcDbEntity
  8
0
 62
     7
100
AcDbLine
 10
197.998767
 20
140.449653
 30
0.0
 11
198.076626
 21
140.449997
 31
0.0
  0
LINE
  5
A5
330
A
100
AcDbEntity
  8
0
 62
     7
100
AcDbLine
 10
197.998767
 20
140.449653
 30
0.0
 11
198.002212
 21
140.926799
 31
0.0
  0
LINE
  5
A4
330
A
100
AcDbEntity
  8
0
 62
     7
100
AcDbLine
 10
198.02805
 20
140.449653
 30
0.0
 11
197.998767
 21
140.449653
 31
0.0
  0
LINE
  5
A3
330
A
100
AcDbEntity
  8
0
 62
     7
100
AcDbLine
 10
200.045671
 20
140.449653
 30
0.0
 11
200.042053
 21
140.926454
 31
0.0
  0
LINE
  5
A2
330
A
100
AcDbEntity
  8
0
 62
     7
100
AcDbLine
 10
199.022133
 20
140.449997
 30
0.0
 11
200.026034
 21
140.449997
 31
0.0
  0
LINE
  5
A1
330
A
100
AcDbEntity
  8
0
 62
     7
100
AcDbLine
 10
197.530751
 20
140.926799
 30
0.0
 11
197.449963
 21
140.967795
 31
0.0
  0
LINE
  5
A0
330
A
100
AcDbEntity
  8
0
 62
     7
100
AcDbLine
 10
197.644267
 20
140.926799
 30
0.0
 11
197.530751
 21
140.926799
 31
0.0
  0
LINE
  5
9F
330
A
100
AcDbEntity
  8
0
 62
     7
100
AcDbLine
 10
197.967589
 20
140.926799
 30
0.0
 11
197.644267
 21
140.926799
 31
0.0
  0
LINE
  5
9E
330
A
100
AcDbEntity
  8
0
 62
     7
100
AcDbLine
 10
198.002212
 20
140.926799
 30
0.0
 11
197.967589
 21
140.926799
 31
0.0
  0
LINE
  5
9D
330
A
100
AcDbEntity
  8
0
 62
     7
100
AcDbLine
 10
200.076849
 20
140.926799
 30
0.0
 11
200.042053
 21
140.926454
 31
0.0
  0
LINE
  5
9C
330
A
100
AcDbEntity
  8
0
 62
     7
100
AcDbLine
 10
200.400171
 20
140.926799
 30
0.0
 11
198.022194
 21
140.926799
 31
0.0
  0
LINE
  5
9B
330
A
100
AcDbEntity
  8
0
 62
     7
100
AcDbLine
 10
200.513515
 20
140.926799
 30
0.0
 11
200.400171
 21
140.926799
 31
0.0
  0
LINE
  5
9A
330
A
100
AcDbEntity
  8
0
 62
     7
100
AcDbLine
 10
200.513515
 20
140.926799
 30
0.0
 11
200.594474
 21
140.967795
 31
0.0
  0
LINE
  5
99
330
A
100
AcDbEntity
  8
0
 62
     7
100
AcDbLine
 10
197.449963
 20
140.967795
 30
0.0
 11
197.430499
 21
141.02774
 31
0.0
  0
LINE
  5
98
330
A
100
AcDbEntity
  8
0
 62
     7
100
AcDbLine
 10
200.594474
 20
140.967795
 30
0.0
 11
200.613767
 21
141.02774
 31
0.0
  0
LINE
  5
97
330
A
100
AcDbEntity
  8
0
 62
     7
100
AcDbLine
 10
197.430499
 20
141.02774
 30
0.0
 11
197.432738
 21
141.458032
 31
0.0
  0
LINE
  5
96
330
A
100
AcDbEntity
  8
0
 62
     7
100
AcDbLine
 10
200.613767
 20
141.02774
 30
0.0
 11
200.6117
 21
141.458032
 31
0.0
  0
LINE
  5
95
330
A
100
AcDbEntity
  8
0
 62
     7
100
AcDbLine
 10
197.432738
 20
141.458032
 30
0.0
 11
197.454787
 21
141.5228
 31
0.0
  0
LINE
  5
94
330
A
100
AcDbEntity
  8
0
 62
     7
100
AcDbLine
 10
200.6117
 20
141.458032
 30
0.0
 11
200.589651
 21
141.5228
 31
0.0
  0
LINE
  5
93
330
A
100
AcDbEntity
  8
0
 62
     7
100
AcDbLine
 10
197.454787
 20
141.5228
 30
0.0
 11
197.492166
 21
141.550016
 31
0.0
  0
LINE
  5
92
330
A
100
AcDbEntity
  8
0
 62
     7
100
AcDbLine
 10
200.589651
 20
141.5228
 30
0.0
 11
200.5521
 21
141.550016
 31
0.0
  0
LINE
  5
91
330
A
100
AcDbEntity
  8
0
 62
     7
100
AcDbLine
 10
197.492166
 20
141.550016
 30
0.0
 11
197.703178
 21
141.635455
 31
0.0
  0
LINE
  5
90
330
A
100
AcDbEntity
  8
0
 62
     7
100
AcDbLine
 10
200.5521
 20
141.550016
 30
0.0
 11
200.34126
 21
141.635455
 31
0.0
  0
LINE
  5
8F
330
A
100
AcDbEntity
  8
0
 62
     7
100
AcDbLine
 10
197.703178
 20
141.635455
 30
0.0
 11
197.766568
 21
141.729161
 31
0.0
  0
LINE
  5
8E
330
A
100
AcDbEntity
  8
0
 62
     7
100
AcDbLine
 10
200.34126
 20
141.635455
 30
0.0
 11
200.27787
 21
141.729161
 31
0.0
  0
LINE
  5
8D
330
A
100
AcDbEntity
  8
0
 62
     7
100
AcDbLine
 10
197.766568
 20
141.729161
 30
0.0
 11
197.766568
 21
142.600081
 31
0.0
  0
LINE
  5
8C
330
A
100
AcDbEntity
  8
0
 62
     7
100
AcDbLine
 10
200.27787
 20
141.729161
 30
0.0
 11
200.27787
 21
142.600081
 31
0.0
  0
LINE
  5
8B
330
A
100
AcDbEntity
  8
0
 62
     7
100
AcDbLine
 10
198.134332
 20
142.600081
 30
0.0
 11
198.541714
 21
142.600081
 31
0.0
  0
LINE
  5
8A
330
A
100
AcDbEntity
  8
0
 62
     7
100
AcDbLine
 10
197.862169
 20
142.600081
 30
0.0
 11
198.134332
 21
142.600081
 31
0.0
  0
LINE
  5
89
330
A
100
AcDbEntity
  8
0
 62
     7
100
AcDbLine
 10
199.022133
 20
142.600081
 30
0.0
 11
199.502724
 21
142.600081
 31
0.0
  0
LINE
  5
88
330
A
100
AcDbEntity
  8
0
 62
     7
100
AcDbLine
 10
198.541714
 20
142.600081
 30
0.0
 11
199.022133
 21
142.600081
 31
0.0
  0
LINE
  5
87
330
A
100
AcDbEntity
  8
0
 62
     7
100
AcDbLine
 10
199.502724
 20
142.600081
 30
0.0
 11
199.910106
 21
142.600081
 31
0.0
  0
LINE
  5
86
330
A
100
AcDbEntity
  8
0
 62
     7
100
AcDbLine
 10
197.766568
 20
142.600081
 30
0.0
 11
197.862169
 21
142.600081
 31
0.0
  0
LINE
  5
85
330
A
100
AcDbEntity
  8
0
 62
     7
100
AcDbLine
 10
199.910106
 20
142.600081
 30
0.0
 11
200.182269
 21
142.600081
 31
0.0
  0
LINE
  5
84
330
A
100
AcDbEntity
  8
0
 62
     7
100
AcDbLine
 10
200.182269
 20
142.600081
 30
0.0
 11
200.27787
 21
142.600081
 31
0.0
  0
LINE
  5
83
330
A
100
AcDbEntity
  8
0
 62
     7
100
AcDbLine
 10
197.816005
 20
142.742019
 30
0.0
 11
197.765362
 21
142.792318
 31
0.0
  0
LINE
  5
82
330
A
100
AcDbEntity
  8
0
 62
     7
100
AcDbLine
 10
200.228433
 20
142.742019
 30
0.0
 11
200.278904
 21
142.792318
 31
0.0
  0
LINE
  5
81
330
A
100
AcDbEntity
  8
0
 62
     7
100
AcDbLine
 10
198.541197
 20
142.792318
 30
0.0
 11
199.022133
 21
142.792318
 31
0.0
  0
LINE
  5
80
330
A
100
AcDbEntity
  8
0
 62
     7
100
AcDbLine
 10
198.13347
 20
142.792318
 30
0.0
 11
198.541197
 21
142.792318
 31
0.0
  0
LINE
  5
7F
330
A
100
AcDbEntity
  8
0
 62
     7
100
AcDbLine
 10
197.861136
 20
142.792318
 30
0.0
 11
198.13347
 21
142.792318
 31
0.0
  0
LINE
  5
7E
330
A
100
AcDbEntity
  8
0
 62
     7
100
AcDbLine
 10
197.765362
 20
142.792318
 30
0.0
 11
197.861136
 21
142.792318
 31
0.0
  0
LINE
  5
7D
330
A
100
AcDbEntity
  8
0
 62
     7
100
AcDbLine
 10
197.765362
 20
142.792318
 30
0.0
 11
197.765362
 21
143.063447
 31
0.0
  0
LINE
  5
7C
330
A
100
AcDbEntity
  8
0
 62
     7
100
AcDbLine
 10
197.861136
 20
142.792318
 30
0.0
 11
197.765362
 21
142.792318
 31
0.0
  0
LINE
  5
7B
330
A
100
AcDbEntity
  8
0
 62
     7
100
AcDbLine
 10
200.278904
 20
142.792318
 30
0.0
 11
200.183302
 21
142.792318
 31
0.0
  0
LINE
  5
7A
330
A
100
AcDbEntity
  8
0
 62
     7
100
AcDbLine
 10
200.278904
 20
142.792318
 30
0.0
 11
200.279076
 21
143.063447
 31
0.0
  0
LINE
  5
79
330
A
100
AcDbEntity
  8
0
 62
     7
100
AcDbLine
 10
200.183302
 20
142.792318
 30
0.0
 11
200.278904
 21
142.792318
 31
0.0
  0
LINE
  5
78
330
A
100
AcDbEntity
  8
0
 62
     7
100
AcDbLine
 10
199.910795
 20
142.792318
 30
0.0
 11
200.183302
 21
142.792318
 31
0.0
  0
LINE
  5
77
330
A
100
AcDbEntity
  8
0
 62
     7
100
AcDbLine
 10
199.503068
 20
142.792318
 30
0.0
 11
199.910795
 21
142.792318
 31
0.0
  0
LINE
  5
76
330
A
100
AcDbEntity
  8
0
 62
     7
100
AcDbLine
 10
199.022133
 20
142.792318
 30
0.0
 11
199.503068
 21
142.792318
 31
0.0
  0
LINE
  5
75
330
A
100
AcDbEntity
  8
0
 62
     7
100
AcDbLine
 10
197.861136
 20
143.063447
 30
0.0
 11
197.765362
 21
143.063447
 31
0.0
  0
LINE
  5
74
330
A
100
AcDbEntity
  8
0
 62
     7
100
AcDbLine
 10
198.13347
 20
143.063102
 30
0.0
 11
197.861136
 21
143.063447
 31
0.0
  0
LINE
  5
73
330
A
100
AcDbEntity
  8
0
 62
     7
100
AcDbLine
 10
198.541197
 20
143.063102
 30
0.0
 11
198.13347
 21
143.063102
 31
0.0
  0
LINE
  5
72
330
A
100
AcDbEntity
  8
0
 62
     7
100
AcDbLine
 10
199.022133
 20
143.063102
 30
0.0
 11
198.541197
 21
143.063102
 31
0.0
  0
LINE
  5
71
330
A
100
AcDbEntity
  8
0
 62
     7
100
AcDbLine
 10
199.5032399999999
 20
143.063102
 30
0.0
 11
199.022133
 21
143.063102
 31
0.0
  0
LINE
  5
70
330
A
100
AcDbEntity
  8
0
 62
     7
100
AcDbLine
 10
199.910967
 20
143.063102
 30
0.0
 11
199.5032399999999
 21
143.063102
 31
0.0
  0
LINE
  5
6F
330
A
100
AcDbEntity
  8
0
 62
     7
100
AcDbLine
 10
200.183302
 20
143.063447
 30
0.0
 11
199.910967
 21
143.063102
 31
0.0
  0
LINE
  5
6E
330
A
100
AcDbEntity
  8
0
 62
     7
100
AcDbLine
 10
200.279076
 20
143.063447
 30
0.0
 11
200.183302
 21
143.063447
 31
0.0
  0
LINE
  5
6D
330
A
100
AcDbEntity
  8
0
 62
     7
100
AcDbLine
 10
200.912112
 20
148.663449
 30
0.0
 11
200.912112
 21
143.063447
 31
0.0
  0
LINE
  5
6C
330
A
100
AcDbEntity
  8
0
 62
     7
100
AcDbLine
 10
197.132153
 20
148.663449
 30
0.0
 11
197.132153
 21
143.063447
 31
0.0
  0
LINE
  5
6B
330
A
100
AcDbEntity
  8
0
 62
     7
100
AcDbLine
 10
197.132153
 20
143.063447
 30
0.0
 11
197.132153
 21
148.663449
 31
0.0
  0
LINE
  5
6A
330
A
100
AcDbEntity
  8
0
 62
     7
100
AcDbLine
 10
200.778787
 20
148.663449
 30
0.0
 11
200.912112
 21
148.663449
 31
0.0
  0
LINE
  5
69
330
A
100
AcDbEntity
  8
0
 62
     7
100
AcDbLine
 10
200.414296
 20
148.663449
 30
0.0
 11
200.778787
 21
148.663449
 31
0.0
  0
LINE
  5
68
330
A
100
AcDbEntity
  8
0
 62
     7
100
AcDbLine
 10
199.873933
 20
148.663449
 30
0.0
 11
200.414296
 21
148.663449
 31
0.0
  0
LINE
  5
67
330
A
100
AcDbEntity
  8
0
 62
     7
100
AcDbLine
 10
199.21213
 20
148.663449
 30
0.0
 11
199.873933
 21
148.663449
 31
0.0
  0
LINE
  5
66
330
A
100
AcDbEntity
  8
0
 62
     7
100
AcDbLine
 10
198.832136
 20
148.663449
 30
0.0
 11
199.21213
 21
148.663449
 31
0.0
  0
LINE
  5
65
330
A
100
AcDbEntity
  8
0
 62
     7
100
AcDbLine
 10
198.170505
 20
148.663449
 30
0.0
 11
198.832136
 21
148.663449
 31
0.0
  0
LINE
  5
64
330
A
100
AcDbEntity
  8
0
 62
     7
100
AcDbLine
 10
197.630142
 20
148.663449
 30
0.0
 11
198.170505
 21
148.663449
 31
0.0
  0
LINE
  5
63
330
A
100
AcDbEntity
  8
0
 62
     7
100
AcDbLine
 10
197.265823
 20
148.663449
 30
0.0
 11
197.630142
 21
148.663449
 31
0.0
  0
LINE
  5
62
330
A
100
AcDbEntity
  8
0
 62
     7
100
AcDbLine
 10
197.132153
 20
148.663449
 30
0.0
 11
197.265823
 21
148.663449
 31
0.0
  0
LINE
  5
61
330
A
100
AcDbEntity
  8
0
 62
     7
100
AcDbLine
 10
200.912112
 20
148.663449
 30
0.0
 11
200.279076
 21
148.663449
 31
0.0
  0
LINE
  5
60
330
A
100
AcDbEntity
  8
0
 62
     7
100
AcDbLine
 10
197.265823
 20
143.063447
 30
0.0
 11
197.132153
 21
143.063447
 31
0.0
  0
LINE
  5
5F
330
A
100
AcDbEntity
  8
0
 62
     7
100
AcDbLine
 10
197.630142
 20
143.063447
 30
0.0
 11
197.265823
 21
143.063447
 31
0.0
  0
LINE
  5
5E
330
A
100
AcDbEntity
  8
0
 62
     7
100
AcDbLine
 10
198.170505
 20
143.063447
 30
0.0
 11
197.630142
 21
143.063447
 31
0.0
  0
LINE
  5
5D
330
A
100
AcDbEntity
  8
0
 62
     7
100
AcDbLine
 10
198.832136
 20
143.063447
 30
0.0
 11
198.170505
 21
143.063447
 31
0.0
  0
LINE
  5
5C
330
A
100
AcDbEntity
  8
0
 62
     7
100
AcDbLine
 10
199.21213
 20
143.063447
 30
0.0
 11
198.832136
 21
143.063447
 31
0.0
  0
LINE
  5
5B
330
A
100
AcDbEntity
  8
0
 62
     7
100
AcDbLine
 10
199.873933
 20
143.063447
 30
0.0
 11
199.21213
 21
143.063447
 31
0.0
  0
LINE
  5
5A
330
A
100
AcDbEntity
  8
0
 62
     7
100
AcDbLine
 10
200.414296
 20
143.063447
 30
0.0
 11
199.873933
 21
143.063447
 31
0.0
  0
LINE
  5
59
330
A
100
AcDbEntity
  8
0
 62
     7
100
AcDbLine
 10
200.778787
 20
143.063447
 30
0.0
 11
200.414296
 21
143.063447
 31
0.0
  0
LINE
  5
58
330
A
100
AcDbEntity
  8
0
 62
     7
100
AcDbLine
 10
200.912112
 20
143.063447
 30
0.0
 11
200.778787
 21
143.063447
 31
0.0
  0
LINE
  5
57
330
A
100
AcDbEntity
  8
0
 62
     7
100
AcDbLine
 10
215.993707
 20
140.301169
 30
0.0
 11
215.819729
 21
143.00109
 31
0.0
  0
LINE
  5
56
330
A
100
AcDbEntity
  8
0
 62
     7
100
AcDbLine
 10
218.069721
 20
140.301169
 30
0.0
 11
218.243698
 21
143.00109
 31
0.0
  0
LINE
  5
55
330
A
100
AcDbEntity
  8
0
 62
     7
100
AcDbLine
 10
217.031714
 20
140.301169
 30
0.0
 11
216.390237
 21
140.301169
 31
0.0
  0
LINE
  5
54
330
A
100
AcDbEntity
  8
0
 62
     7
100
AcDbLine
 10
217.673191
 20
140.301169
 30
0.0
 11
217.031714
 21
140.301169
 31
0.0
  0
LINE
  5
53
330
A
100
AcDbEntity
  8
0
 62
     7
100
AcDbLine
 10
218.069721
 20
140.301169
 30
0.0
 11
217.673191
 21
140.301169
 31
0.0
  0
LINE
  5
52
330
A
100
AcDbEntity
  8
0
 62
     7
100
AcDbLine
 10
217.878174
 20
140.301169
 30
0.0
 11
218.069721
 21
140.301169
 31
0.0
  0
LINE
  5
51
330
A
100
AcDbEntity
  8
0
 62
     7
100
AcDbLine
 10
215.993707
 20
140.301169
 30
0.0
 11
216.166306
 21
140.301169
 31
0.0
  0
LINE
  5
50
330
A
100
AcDbEntity
  8
0
 62
     7
100
AcDbLine
 10
216.390237
 20
140.301169
 30
0.0
 11
215.993707
 21
140.301169
 31
0.0
  0
LINE
  5
4F
330
A
100
AcDbEntity
  8
0
 62
     7
100
AcDbLine
 10
217.031714
 20
143.00109
 30
0.0
 11
217.780678
 21
143.00109
 31
0.0
  0
LINE
  5
4E
330
A
100
AcDbEntity
  8
0
 62
     7
100
AcDbLine
 10
216.28275
 20
143.00109
 30
0.0
 11
217.031714
 21
143.00109
 31
0.0
  0
LINE
  5
4D
330
A
100
AcDbEntity
  8
0
 62
     7
100
AcDbLine
 10
215.819729
 20
143.00109
 30
0.0
 11
216.28275
 21
143.00109
 31
0.0
  0
LINE
  5
4C
330
A
100
AcDbEntity
  8
0
 62
     7
100
AcDbLine
 10
216.28275
 20
143.00109
 30
0.0
 11
215.819729
 21
143.00109
 31
0.0
  0
LINE
  5
4B
330
A
100
AcDbEntity
  8
0
 62
     7
100
AcDbLine
 10
217.031714
 20
143.00109
 30
0.0
 11
216.28275
 21
143.00109
 31
0.0
  0
LINE
  5
4A
330
A
100
AcDbEntity
  8
0
 62
     7
100
AcDbLine
 10
217.780678
 20
143.00109
 30
0.0
 11
217.031714
 21
143.00109
 31
0.0
  0
LINE
  5
49
330
A
100
AcDbEntity
  8
0
 62
     7
100
AcDbLine
 10
218.243698
 20
143.00109
 30
0.0
 11
217.780678
 21
143.00109
 31
0.0
  0
LINE
  5
48
330
A
100
AcDbEntity
  8
0
 62
     7
100
AcDbLine
 10
217.780678
 20
143.00109
 30
0.0
 11
218.243698
 21
143.00109
 31
0.0
  0
LINE
  5
47
330
A
100
AcDbEntity
  8
0
 62
     7
100
AcDbLine
 10
197.821172
 20
142.600081
 30
0.0
 11
197.812043
 21
142.745809
 31
0.0
  0
LINE
  5
46
330
A
100
AcDbEntity
  8
0
 62
     7
100
AcDbLine
 10
200.198288
 20
142.594569
 30
0.0
 11
200.207246
 21
142.736507
 31
0.0
  0
LINE
  5
45
330
A
100
AcDbEntity
  8
0
 62
     7
100
AcDbLine
 10
190.607487
 20
137.847228
 30
0.0
 11
191.3566229999999
 21
182.6329519999999
 31
0.0
  0
LINE
  5
44
330
A
100
AcDbEntity
  8
0
 62
     7
100
AcDbLine
 10
192.355356
 20
137.748698
 30
0.0
 11
192.856618
 21
182.6329519999999
 31
0.0
  0
LINE
  5
43
330
A
100
AcDbEntity
  8
0
 62
     7
100
AcDbLine
 10
188.027627
 20
109.930585
 30
0.0
 11
190.607487
 21
137.847228
 31
0.0
  0
LINE
  5
42
330
A
100
AcDbEntity
  8
0
 62
     7
100
AcDbLine
 10
189.75517
 20
109.613637
 30
0.0
 11
192.355356
 21
137.748698
 31
0.0
  0
LINE
  5
41
330
A
100
AcDbEntity
  8
0
 62
     7
100
AcDbLine
 10
185.092578
 20
99.55774699999999
 30
0.0
 11
188.027627
 21
109.930585
 31
0.0
  0
LINE
  5
40
330
A
100
AcDbEntity
  8
0
 62
     7
100
AcDbLine
 10
186.790149
 20
99.13503399999999
 30
0.0
 11
189.75517
 21
109.613637
 31
0.0
  0
LINE
  5
3F
330
A
100
AcDbEntity
  8
0
 62
     7
100
AcDbLine
 10
182.131863
 20
86.269325
 30
0.0
 11
185.092578
 21
99.55774699999999
 31
0.0
  0
LINE
  5
3E
330
A
100
AcDbEntity
  8
0
 62
     7
100
AcDbLine
 10
183.870775
 20
86.03161300000001
 30
0.0
 11
186.790149
 21
99.13503399999999
 31
0.0
  0
LINE
  5
3D
330
A
100
AcDbEntity
  8
0
 62
     7
100
AcDbLine
 10
181.756348
 20
79.496612
 30
0.0
 11
182.131863
 21
86.269325
 31
0.0
  0
LINE
  5
3C
330
A
100
AcDbEntity
  8
0
 62
     7
100
AcDbLine
 10
183.517825
 20
79.665766
 30
0.0
 11
183.870775
 21
86.03161300000001
 31
0.0
  0
LINE
  5
3B
330
A
100
AcDbEntity
  8
0
 62
     7
100
AcDbLine
 10
183.167459
 20
73.85423399999999
 30
0.0
 11
181.756348
 21
79.496612
 31
0.0
  0
LINE
  5
3A
330
A
100
AcDbEntity
  8
0
 62
     7
100
AcDbLine
 10
184.789754
 20
74.579427
 30
0.0
 11
183.517825
 21
79.665766
 31
0.0
  0
LINE
  5
39
330
A
100
AcDbEntity
  8
0
 62
     7
100
AcDbLine
 10
185.844642
 20
69.90133199999999
 30
0.0
 11
183.167459
 21
73.85423399999999
 31
0.0
  0
LINE
  5
38
330
A
100
AcDbEntity
  8
0
 62
     7
100
AcDbLine
 10
187.011841
 20
71.29900699999999
 30
0.0
 11
184.789754
 21
74.579427
 31
0.0
  0
LINE
  5
37
330
A
100
AcDbEntity
  8
0
 62
     7
100
AcDbLine
 10
189.243057
 20
68.398926
 30
0.0
 11
185.844642
 21
69.90133199999999
 31
0.0
  0
LINE
  5
36
330
A
100
AcDbEntity
  8
0
 62
     7
100
AcDbLine
 10
189.6127159999999
 20
70.149034
 30
0.0
 11
187.011841
 21
71.29900699999999
 31
0.0
  0
LINE
  5
35
330
A
100
AcDbEntity
  8
0
 62
     7
100
AcDbLine
 10
191.199699
 20
68.398926
 30
0.0
 11
189.243057
 21
68.398926
 31
0.0
  0
LINE
  5
34
330
A
100
AcDbEntity
  8
0
 62
     7
100
AcDbLine
 10
190.83004
 20
70.149034
 30
0.0
 11
189.6127159999999
 21
70.149034
 31
0.0
  0
LINE
  5
33
330
A
100
AcDbEntity
  8
0
 62
     7
100
AcDbLine
 10
194.598286
 20
69.90133199999999
 30
0.0
 11
191.199699
 21
68.398926
 31
0.0
  0
LINE
  5
32
330
A
100
AcDbEntity
  8
0
 62
     7
100
AcDbLine
 10
193.431087
 20
71.298663
 30
0.0
 11
190.83004
 21
70.149034
 31
0.0
  0
LINE
  5
31
330
A
100
AcDbEntity
  8
0
 62
     7
100
AcDbLine
 10
197.262033
 20
73.834597
 30
0.0
 11
194.598286
 21
69.90133199999999
 31
0.0
  0
LINE
  5
30
330
A
100
AcDbEntity
  8
0
 62
     7
100
AcDbLine
 10
195.666437
 20
74.59940899999999
 30
0.0
 11
193.431087
 21
71.298663
 31
0.0
  0
LINE
  5
2F
330
A
100
AcDbEntity
  8
0
 62
     7
100
AcDbLine
 10
198.978725
 20
79.41048399999999
 30
0.0
 11
197.262033
 21
73.834597
 31
0.0
  0
LINE
  5
2E
330
A
100
AcDbEntity
  8
0
 62
     7
100
AcDbLine
 10
197.252732
 20
79.75189300000001
 30
0.0
 11
195.666437
 21
74.59940899999999
 31
0.0
  0
LINE
  5
2D
330
A
100
AcDbEntity
  8
0
 62
     7
100
AcDbLine
 10
199.59643
 20
86.11016199999999
 30
0.0
 11
198.978725
 21
79.41048399999999
 31
0.0
  0
LINE
  5
2C
330
A
100
AcDbEntity
  8
0
 62
     7
100
AcDbLine
 10
197.846322
 20
86.190777
 30
0.0
 11
197.252732
 21
79.75189300000001
 31
0.0
  0
LINE
  5
2B
330
A
100
AcDbEntity
  8
0
 62
     7
100
AcDbLine
 10
199.59643
 20
140.432427
 30
0.0
 11
199.59643
 21
86.11016199999999
 31
0.0
  0
LINE
  5
2A
330
A
100
AcDbEntity
  8
0
 62
     7
100
AcDbLine
 10
197.846322
 20
112.545068
 30
0.0
 11
197.846322
 21
86.190777
 31
0.0
  0
LINE
  5
29
330
A
100
AcDbEntity
  8
0
 62
     7
100
AcDbLine
 10
198.026156
 20
140.421403
 30
0.0
 11
197.846322
 21
112.545068
 31
0.0
  0
DIMENSION
  5
524
330
A
100
AcDbEntity
  8
Cotation-JacobDelafon
  6
Continuous
370
     0
100
AcDbDimension
  2
*D3
 10
211.722133
 20
252.9911371948549
 30
0.0
 11
199.022219
 21
255.42285615802
 31
0.0
 70
    32
 71
     5
 42
25.39982799999999
 73
     0
 74
     0
 75
     0
  3
Cotation-Jacob-Delafon
100
AcDbAlignedDimension
 13
186.322305
 23
231.601023
 33
0.0
 14
211.722133
 24
216.037115
 34
0.0
100
AcDbRotatedDimension
  0
DIMENSION
  5
531
330
A
100
AcDbEntity
  8
Cotation-JacobDelafon
  6
Continuous
370
     0
100
AcDbDimension
  2
*D4
 10
161.7493906251594
 20
140.926799
 30
0.0
 11
159.3166484696341
 21
186.263911
 31
0.0
 70
    32
  1
91.3
 71
     5
 42
90.67422399999996
 73
     0
 74
     0
 75
     0
  3
Cotation-Jacob-Delafon
100
AcDbAlignedDimension
 13
186.322305
 23
231.601023
 33
0.0
 14
199.0221329999999
 24
140.926799
 34
0.0
 50
90.0
100
AcDbRotatedDimension
  0
ENDSEC
  0
SECTION
  2
OBJECTS
  0
DICTIONARY
  5
19
330
0
100
AcDbDictionary
281
     1
  3
ACAD_COLOR
350
4ED
  3
ACAD_GROUP
350
1A
  3
ACAD_LAYOUT
350
1E
  3
ACAD_MATERIAL
350
4C3
  3
ACAD_MLEADERSTYLE
350
502
  3
ACAD_MLINESTYLE
350
1B
  3
ACAD_PLOTSETTINGS
350
22
  3
ACAD_PLOTSTYLENAME
350
1F
  3
ACAD_SCALELIST
350
4F0
  3
ACAD_TABLESTYLE
350
4EE
  3
ACAD_VISUALSTYLE
350
4DC
  3
ACAD_WIPEOUT_VARS
350
23
  3
ACDB_RECOMPOSE_DATA
350
566
  3
AcDbVariableDictionary
350
55C
  3
AEC_PROPERTY_SET_DEFS
350
514
  0
DICTIONARY
  5
559
330
14
100
AcDbDictionary
280
     1
281
     1
  3
ADSK_XREC_LAYER_RECONCILED
360
55A
  0
DICTIONARY
  5
50D
330
50C
100
AcDbDictionary
280
     1
281
     1
  3
ADSK_XREC_LAYER_RECONCILED
360
55B
  0
DICTIONARY
  5
4ED
102
{ACAD_REACTORS
330
19
102
}
330
19
100
AcDbDictionary
281
     1
  0
DICTIONARY
  5
1A
102
{ACAD_REACTORS
330
19
102
}
330
19
100
AcDbDictionary
281
     1
  0
DICTIONARY
  5
1E
102
{ACAD_REACTORS
330
19
102
}
330
19
100
AcDbDictionary
281
     1
  3
Layout1
350
21
  3
Model
350
20
  0
DICTIONARY
  5
4C3
102
{ACAD_REACTORS
330
19
102
}
330
19
100
AcDbDictionary
281
     1
  3
ByBlock
350
4CC
  3
ByLayer
350
4C4
  3
Global
350
4D4
  0
DICTIONARY
  5
502
102
{ACAD_REACTORS
330
19
102
}
330
19
100
AcDbDictionary
281
     1
  3
Standard
350
503
  0
DICTIONARY
  5
1B
102
{ACAD_REACTORS
330
19
102
}
330
19
100
AcDbDictionary
281
     1
  3
Standard
350
1C
  0
DICTIONARY
  5
22
102
{ACAD_REACTORS
330
19
102
}
330
19
100
AcDbDictionary
281
     1
  0
ACDBDICTIONARYWDFLT
  5
1F
102
{ACAD_REACTORS
330
19
102
}
330
19
100
AcDbDictionary
281
     1
  3
Normal
350
1D
100
AcDbDictionaryWithDefault
340
1D
  0
DICTIONARY
  5
4F0
102
{ACAD_REACTORS
330
19
102
}
330
19
100
AcDbDictionary
281
     1
  3
A0
350
4F1
  3
A1
350
4F2
  3
A2
350
4F3
  3
A3
350
4F4
  3
A4
350
4F5
  3
A5
350
4F6
  3
A6
350
4F7
  3
A7
350
4F8
  3
A8
350
4F9
  3
A9
350
4FA
  3
B0
350
4FB
  3
B1
350
4FC
  3
B2
350
4FD
  3
B3
350
4FE
  3
B4
350
4FF
  3
B5
350
500
  3
B6
350
501
  0
DICTIONARY
  5
4EE
102
{ACAD_REACTORS
330
19
102
}
330
19
100
AcDbDictionary
281
     1
  3
Standard
350
4EF
  0
DICTIONARY
  5
4DC
102
{ACAD_REACTORS
330
19
102
}
330
19
100
AcDbDictionary
281
     1
  3
2dWireframe
350
4E2
  3
3D Hidden
350
4E4
  3
3dWireframe
350
4E3
  3
Basic
350
4E1
  3
Brighten
350
4E8
  3
ColorChange
350
4EC
  3
Conceptual
350
4E5
  3
Dim
350
4E7
  3
Facepattern
350
4EB
  3
Flat
350
4DD
  3
FlatWithEdges
350
4DE
  3
Gouraud
350
4DF
  3
GouraudWithEdges
350
4E0
  3
Linepattern
350
4EA
  3
Realistic
350
4E6
  3
Thicken
350
4E9
  0
WIPEOUTVARIABLES
  5
23
330
19
100
AcDbWipeoutVariables
 70
     1
  0
XRECORD
  5
566
102
{ACAD_REACTORS
330
19
102
}
330
19
100
AcDbXrecord
280
     1
 90
        1
330
4EF
  0
DICTIONARY
  5
55C
102
{ACAD_REACTORS
330
19
102
}
330
19
100
AcDbDictionary
281
     1
  3
CANNOSCALE
350
560
  3
CMLEADERSTYLE
350
55E
  3
CTABLESTYLE
350
55D
  3
LAYEREVAL
350
562
  3
LAYERNOTIFY
350
563
  3
LIGHTINGUNITS
350
561
  3
MSLTSCALE
350
55F
  0
DICTIONARY
  5
514
102
{ACAD_REACTORS
330
19
102
}
330
19
100
AcDbDictionary
281
     1
  0
XRECORD
  5
55A
102
{ACAD_REACTORS
330
559
102
}
330
559
100
AcDbXrecord
280
     1
290
     1
  0
XRECORD
  5
55B
102
{ACAD_REACTORS
330
50D
102
}
330
50D
100
AcDbXrecord
280
     1
290
     1
  0
LAYOUT
  5
21
102
{ACAD_REACTORS
330
1E
102
}
330
1E
100
AcDbPlotSettings
  1

  2

  4

  6

 40
0.0
 41
0.0
 42
0.0
 43
0.0
 44
0.0
 45
0.0
 46
0.0
 47
0.0
 48
0.0
 49
0.0
140
0.0
141
0.0
142
1.0
143
1.0
 70
     0
 72
     0
 73
     0
 74
     0
  7

 75
     0
147
1.0
 76
     0
 77
     2
 78
   300
148
0.0
149
0.0
100
AcDbLayout
  1
Layout1
 70
     0
 71
     1
 10
0.0
 20
0.0
 11
12.0
 21
9.0
 12
0.0
 22
0.0
 32
0.0
 14
1.000000000000000E+20
 24
1.000000000000000E+20
 34
1.000000000000000E+20
 15
-1.000000000000000E+20
 25
-1.000000000000000E+20
 35
-1.000000000000000E+20
146
0.0
 13
0.0
 23
0.0
 33
0.0
 16
1.0
 26
0.0
 36
0.0
 17
0.0
 27
1.0
 37
0.0
 76
     0
330
B
  0
LAYOUT
  5
20
102
{ACAD_REACTORS
330
1E
102
}
330
1E
100
AcDbPlotSettings
  1

  2

  4

  6

 40
0.0
 41
0.0
 42
0.0
 43
0.0
 44
0.0
 45
0.0
 46
0.0
 47
0.0
 48
0.0
 49
0.0
140
0.0
141
0.0
142
1.0
143
1.0
 70
  1024
 72
     0
 73
     0
 74
     0
  7

 75
     0
147
1.0
 76
     0
 77
     2
 78
   300
148
0.0
149
0.0
100
AcDbLayout
  1
Model
 70
     0
 71
     0
 10
0.0
 20
0.0
 11
0.0
 21
0.0
 12
0.0
 22
0.0
 32
0.0
 14
0.0
 24
0.0
 34
0.0
 15
0.0
 25
0.0
 35
0.0
146
0.0
 13
0.0
 23
0.0
 33
0.0
 16
0.0
 26
0.0
 36
0.0
 17
0.0
 27
0.0
 37
0.0
 76
     0
330
A
331
15
  0
MATERIAL
  5
4CC
102
{ACAD_XDICTIONARY
360
4CD
102
}
102
{ACAD_REACTORS
330
4C3
102
}
330
4C3
100
AcDbMaterial
  1
ByBlock
 72
     0
 43
0.0208333333333333
 43
0.0
 43
0.0
 43
0.0
 43
0.0
 43
0.0208333333333333
 43
0.0
 43
0.0
 43
0.0
 43
0.0
 43
1.0
 43
0.0
 43
0.0
 43
0.0
 43
0.0
 43
1.0
 77
     0
 47
0.0208333333333333
 47
0.0
 47
0.0
 47
0.0
 47
0.0
 47
0.0208333333333333
 47
0.0
 47
0.0
 47
0.0
 47
0.0
 47
1.0
 47
0.0
 47
0.0
 47
0.0
 47
0.0
 47
1.0
171
     0
 49
0.0208333333333333
 49
0.0
 49
0.0
 49
0.0
 49
0.0
 49
0.0208333333333333
 49
0.0
 49
0.0
 49
0.0
 49
0.0
 49
1.0
 49
0.0
 49
0.0
 49
0.0
 49
0.0
 49
1.0
175
     0
142
0.0208333333333333
142
0.0
142
0.0
142
0.0
142
0.0
142
0.0208333333333333
142
0.0
142
0.0
142
0.0
142
0.0
142
1.0
142
0.0
142
0.0
142
0.0
142
0.0
142
1.0
179
     0
144
0.0208333333333333
144
0.0
144
0.0
144
0.0
144
0.0
144
0.0208333333333333
144
0.0
144
0.0
144
0.0
144
0.0
144
1.0
144
0.0
144
0.0
144
0.0
144
0.0
144
1.0
147
0.0208333333333333
147
0.0
147
0.0
147
0.0
147
0.0
147
0.0208333333333333
147
0.0
147
0.0
147
0.0
147
0.0
147
1.0
147
0.0
147
0.0
147
0.0
147
0.0
147
1.0
  0
MATERIAL
  5
4C4
102
{ACAD_XDICTIONARY
360
4C5
102
}
102
{ACAD_REACTORS
330
4C3
102
}
330
4C3
100
AcDbMaterial
  1
ByLayer
 72
     0
 43
0.0208333333333333
 43
0.0
 43
0.0
 43
0.0
 43
0.0
 43
0.0208333333333333
 43
0.0
 43
0.0
 43
0.0
 43
0.0
 43
1.0
 43
0.0
 43
0.0
 43
0.0
 43
0.0
 43
1.0
 77
     0
 47
0.0208333333333333
 47
0.0
 47
0.0
 47
0.0
 47
0.0
 47
0.0208333333333333
 47
0.0
 47
0.0
 47
0.0
 47
0.0
 47
1.0
 47
0.0
 47
0.0
 47
0.0
 47
0.0
 47
1.0
171
     0
 49
0.0208333333333333
 49
0.0
 49
0.0
 49
0.0
 49
0.0
 49
0.0208333333333333
 49
0.0
 49
0.0
 49
0.0
 49
0.0
 49
1.0
 49
0.0
 49
0.0
 49
0.0
 49
0.0
 49
1.0
175
     0
142
0.0208333333333333
142
0.0
142
0.0
142
0.0
142
0.0
142
0.0208333333333333
142
0.0
142
0.0
142
0.0
142
0.0
142
1.0
142
0.0
142
0.0
142
0.0
142
0.0
142
1.0
179
     0
144
0.0208333333333333
144
0.0
144
0.0
144
0.0
144
0.0
144
0.0208333333333333
144
0.0
144
0.0
144
0.0
144
0.0
144
1.0
144
0.0
144
0.0
144
0.0
144
0.0
144
1.0
147
0.0208333333333333
147
0.0
147
0.0
147
0.0
147
0.0
147
0.0208333333333333
147
0.0
147
0.0
147
0.0
147
0.0
147
1.0
147
0.0
147
0.0
147
0.0
147
0.0
147
1.0
  0
MATERIAL
  5
4D4
102
{ACAD_XDICTIONARY
360
4D5
102
}
102
{ACAD_REACTORS
330
4C3
102
}
330
4C3
100
AcDbMaterial
  1
Global
 72
     0
 43
0.0208333333333333
 43
0.0
 43
0.0
 43
0.0
 43
0.0
 43
0.0208333333333333
 43
0.0
 43
0.0
 43
0.0
 43
0.0
 43
1.0
 43
0.0
 43
0.0
 43
0.0
 43
0.0
 43
1.0
 77
     0
 47
0.0208333333333333
 47
0.0
 47
0.0
 47
0.0
 47
0.0
 47
0.0208333333333333
 47
0.0
 47
0.0
 47
0.0
 47
0.0
 47
1.0
 47
0.0
 47
0.0
 47
0.0
 47
0.0
 47
1.0
171
     0
 49
0.0208333333333333
 49
0.0
 49
0.0
 49
0.0
 49
0.0
 49
0.0208333333333333
 49
0.0
 49
0.0
 49
0.0
 49
0.0
 49
1.0
 49
0.0
 49
0.0
 49
0.0
 49
0.0
 49
1.0
175
     0
142
0.0208333333333333
142
0.0
142
0.0
142
0.0
142
0.0
142
0.0208333333333333
142
0.0
142
0.0
142
0.0
142
0.0
142
1.0
142
0.0
142
0.0
142
0.0
142
0.0
142
1.0
179
     0
144
0.0208333333333333
144
0.0
144
0.0
144
0.0
144
0.0
144
0.0208333333333333
144
0.0
144
0.0
144
0.0
144
0.0
144
1.0
144
0.0
144
0.0
144
0.0
144
0.0
144
1.0
147
0.0208333333333333
147
0.0
147
0.0
147
0.0
147
0.0
147
0.0208333333333333
147
0.0
147
0.0
147
0.0
147
0.0
147
1.0
147
0.0
147
0.0
147
0.0
147
0.0
147
1.0
  0
MLEADERSTYLE
  5
503
102
{ACAD_REACTORS
330
502
102
}
330
502
100
AcDbMLeaderStyle
170
     2
171
     1
172
     0
 90
        2
 40
0.0
 41
0.0
173
     1
 91
-1056964608
340
11
 92
       -2
290
     1
 42
2.0
291
     1
 43
0.36
  3
Standard
 44
4.0
300

342
17
174
     1
178
     6
175
     1
176
     0
 93
-1056964608
 45
4.0
292
     0
297
     0
 46
4.0
 94
-1056964608
 47
1.0
 49
1.0
140
1.0
293
     1
141
0.0
294
     1
177
     0
142
1.0
295
     0
296
     0
143
0.125
1001
ACAD_MLEADERVER
1070
     2
  0
MLINESTYLE
  5
1C
102
{ACAD_REACTORS
330
1B
102
}
330
1B
100
AcDbMlineStyle
  2
STANDARD
 70
     0
  3

 62
     0
 51
90.0
 52
90.0
 71
     2
 49
0.5
 62
   256
  6
BYLAYER
 49
-0.5
 62
   256
  6
BYLAYER
  0
ACDBPLACEHOLDER
  5
1D
102
{ACAD_REACTORS
330
1F
102
}
330
1F
  0
SCALE
  5
4F1
102
{ACAD_REACTORS
330
4F0
102
}
330
4F0
100
AcDbScale
 70
     0
300
1:1
140
1.0
141
1.0
290
     1
  0
SCALE
  5
4F2
102
{ACAD_REACTORS
330
4F0
102
}
330
4F0
100
AcDbScale
 70
     0
300
1:2
140
1.0
141
2.0
290
     0
  0
SCALE
  5
4F3
102
{ACAD_REACTORS
330
4F0
102
}
330
4F0
100
AcDbScale
 70
     0
300
1:4
140
1.0
141
4.0
290
     0
  0
SCALE
  5
4F4
102
{ACAD_REACTORS
330
4F0
102
}
330
4F0
100
AcDbScale
 70
     0
300
1:5
140
1.0
141
5.0
290
     0
  0
SCALE
  5
4F5
102
{ACAD_REACTORS
330
4F0
102
}
330
4F0
100
AcDbScale
 70
     0
300
1:8
140
1.0
141
8.0
290
     0
  0
SCALE
  5
4F6
102
{ACAD_REACTORS
330
4F0
102
}
330
4F0
100
AcDbScale
 70
     0
300
1:10
140
1.0
141
10.0
290
     0
  0
SCALE
  5
4F7
102
{ACAD_REACTORS
330
4F0
102
}
330
4F0
100
AcDbScale
 70
     0
300
1:16
140
1.0
141
16.0
290
     0
  0
SCALE
  5
4F8
102
{ACAD_REACTORS
330
4F0
102
}
330
4F0
100
AcDbScale
 70
     0
300
1:20
140
1.0
141
20.0
290
     0
  0
SCALE
  5
4F9
102
{ACAD_REACTORS
330
4F0
102
}
330
4F0
100
AcDbScale
 70
     0
300
1:30
140
1.0
141
30.0
290
     0
  0
SCALE
  5
4FA
102
{ACAD_REACTORS
330
4F0
102
}
330
4F0
100
AcDbScale
 70
     0
300
1:40
140
1.0
141
40.0
290
     0
  0
SCALE
  5
4FB
102
{ACAD_REACTORS
330
4F0
102
}
330
4F0
100
AcDbScale
 70
     0
300
1:50
140
1.0
141
50.0
290
     0
  0
SCALE
  5
4FC
102
{ACAD_REACTORS
330
4F0
102
}
330
4F0
100
AcDbScale
 70
     0
300
1:100
140
1.0
141
100.0
290
     0
  0
SCALE
  5
4FD
102
{ACAD_REACTORS
330
4F0
102
}
330
4F0
100
AcDbScale
 70
     0
300
2:1
140
2.0
141
1.0
290
     0
  0
SCALE
  5
4FE
102
{ACAD_REACTORS
330
4F0
102
}
330
4F0
100
AcDbScale
 70
     0
300
4:1
140
4.0
141
1.0
290
     0
  0
SCALE
  5
4FF
102
{ACAD_REACTORS
330
4F0
102
}
330
4F0
100
AcDbScale
 70
     0
300
8:1
140
8.0
141
1.0
290
     0
  0
SCALE
  5
500
102
{ACAD_REACTORS
330
4F0
102
}
330
4F0
100
AcDbScale
 70
     0
300
10:1
140
10.0
141
1.0
290
     0
  0
SCALE
  5
501
102
{ACAD_REACTORS
330
4F0
102
}
330
4F0
100
AcDbScale
 70
     0
300
100:1
140
100.0
141
1.0
290
     0
  0
TABLESTYLE
  5
4EF
102
{ACAD_XDICTIONARY
360
564
102
}
102
{ACAD_REACTORS
330
4EE
102
}
330
4EE
100
AcDbTableStyle
  3
Standard
 70
     0
 71
     0
 40
1.5
 41
1.5
280
     0
281
     0
  7
Standard
140
4.5
170
     2
 62
     0
 63
     7
283
     0
 90
      512
 91
        0
  1

274
    -2
284
     1
 64
     0
275
    -2
285
     1
 65
     0
276
    -2
286
     1
 66
     0
277
    -2
287
     1
 67
     0
278
    -2
288
     1
 68
     0
279
    -2
289
     1
 69
     0
  7
Standard
140
6.0
170
     5
 62
     0
 63
     7
283
     0
 90
      512
 91
        0
  1

274
    -2
284
     1
 64
     0
275
    -2
285
     1
 65
     0
276
    -2
286
     1
 66
     0
277
    -2
287
     1
 67
     0
278
    -2
288
     1
 68
     0
279
    -2
289
     1
 69
     0
  7
Standard
140
4.5
170
     5
 62
     0
 63
     7
283
     0
 90
      512
 91
        0
  1

274
    -2
284
     1
 64
     0
275
    -2
285
     1
 65
     0
276
    -2
286
     1
 66
     0
277
    -2
287
     1
 67
     0
278
    -2
288
     1
 68
     0
279
    -2
289
     1
 69
     0
  0
VISUALSTYLE
  5
4E2
102
{ACAD_REACTORS
330
4DC
102
}
330
4DC
100
AcDbVisualStyle
  2
2dWireframe
 70
     4
 71
     0
 72
     2
 73
     0
 90
        0
 40
-0.6
 41
-30.0
 62
     5
 63
     7
421
 16777215
 74
     1
 91
        4
 64
     7
 65
   257
 75
     1
175
     1
 42
1.0
 92
        0
 66
   257
 43
1.0
 76
     1
 77
     6
 78
     2
 67
     7
 79
     5
170
     0
171
     0
290
     0
174
     0
 93
        1
 44
0.0
173
     0
291
     0
 45
0.0
  0
VISUALSTYLE
  5
4E4
102
{ACAD_REACTORS
330
4DC
102
}
330
4DC
100
AcDbVisualStyle
  2
3D Hidden
 70
     6
 71
     1
 72
     2
 73
     2
 90
        0
 40
-0.6
 41
-30.0
 62
     5
 63
     7
421
 16777215
 74
     2
 91
        2
 64
     7
 65
   257
 75
     2
175
     1
 42
40.0
 92
        0
 66
   257
 43
1.0
 76
     1
 77
     6
 78
     2
 67
     7
 79
     3
170
     0
171
     0
290
     0
174
     0
 93
        1
 44
0.0
173
     0
291
     0
 45
0.0
  0
VISUALSTYLE
  5
4E3
102
{ACAD_REACTORS
330
4DC
102
}
330
4DC
100
AcDbVisualStyle
  2
3dWireframe
 70
     5
 71
     0
 72
     2
 73
     0
 90
        0
 40
-0.6
 41
-30.0
 62
     5
 63
     7
421
 16777215
 74
     1
 91
        4
 64
     7
 65
   257
 75
     1
175
     1
 42
1.0
 92
        0
 66
   257
 43
1.0
 76
     1
 77
     6
 78
     2
 67
     7
 79
     5
170
     0
171
     0
290
     0
174
     0
 93
        1
 44
0.0
173
     0
291
     0
 45
0.0
  0
VISUALSTYLE
  5
4E1
102
{ACAD_REACTORS
330
4DC
102
}
330
4DC
100
AcDbVisualStyle
  2
Basic
 70
     7
 71
     1
 72
     0
 73
     1
 90
        0
 40
-0.6
 41
-30.0
 62
     5
 63
     7
421
 16777215
 74
     0
 91
        4
 64
     7
 65
   257
 75
     1
175
     1
 42
1.0
 92
        8
 66
     7
 43
1.0
 76
     1
 77
     6
 78
     2
 67
     7
 79
     5
170
     0
171
     0
290
     0
174
     0
 93
        1
 44
0.0
173
     0
291
     1
 45
0.0
  0
VISUALSTYLE
  5
4E8
102
{ACAD_REACTORS
330
4DC
102
}
330
4DC
100
AcDbVisualStyle
  2
Brighten
 70
    12
 71
     2
 72
     2
 73
     0
 90
        0
 40
-0.6
 41
-30.0
 62
     5
 63
     7
421
 16777215
 74
     1
 91
        4
 64
     7
 65
   257
 75
     1
175
     1
 42
1.0
 92
        8
 66
     7
 43
1.0
 76
     1
 77
     6
 78
     2
 67
     7
 79
     5
170
     0
171
     0
290
     0
174
     0
 93
        1
 44
50.0
173
     0
291
     1
 45
0.0
  0
VISUALSTYLE
  5
4EC
102
{ACAD_REACTORS
330
4DC
102
}
330
4DC
100
AcDbVisualStyle
  2
ColorChange
 70
    16
 71
     2
 72
     2
 73
     3
 90
        0
 40
-0.6
 41
-30.0
 62
     5
 63
     8
421
  8421504
 74
     1
 91
        4
 64
     7
 65
   257
 75
     1
175
     1
 42
1.0
 92
        8
 66
     8
424
  8421504
 43
1.0
 76
     1
 77
     6
 78
     2
 67
     7
 79
     5
170
     0
171
     0
290
     0
174
     0
 93
        1
 44
0.0
173
     0
291
     1
 45
0.0
  0
VISUALSTYLE
  5
4E5
102
{ACAD_REACTORS
330
4DC
102
}
330
4DC
100
AcDbVisualStyle
  2
Conceptual
 70
     9
 71
     3
 72
     2
 73
     0
 90
        0
 40
-0.6
 41
-30.0
 62
     5
 63
     7
421
 16777215
 74
     2
 91
        2
 64
     7
 65
   257
 75
     1
175
     1
 42
40.0
 92
        8
 66
     7
 43
1.0
 76
     1
 77
     6
 78
     2
 67
     7
 79
     3
170
     0
171
     0
290
     0
174
     0
 93
        1
 44
0.0
173
     0
291
     0
 45
0.0
  0
VISUALSTYLE
  5
4E7
102
{ACAD_REACTORS
330
4DC
102
}
330
4DC
100
AcDbVisualStyle
  2
Dim
 70
    11
 71
     2
 72
     2
 73
     0
 90
        0
 40
-0.6
 41
-30.0
 62
     5
 63
     7
421
 16777215
 74
     1
 91
        4
 64
     7
 65
   257
 75
     1
175
     1
 42
1.0
 92
        8
 66
     7
 43
1.0
 76
     1
 77
     6
 78
     2
 67
     7
 79
     5
170
     0
171
     0
290
     0
174
     0
 93
        1
 44
-50.0
173
     0
291
     1
 45
0.0
  0
VISUALSTYLE
  5
4EB
102
{ACAD_REACTORS
330
4DC
102
}
330
4DC
100
AcDbVisualStyle
  2
Facepattern
 70
    15
 71
     2
 72
     2
 73
     0
 90
        0
 40
-0.6
 41
-30.0
 62
     5
 63
     7
421
 16777215
 74
     1
 91
        4
 64
     7
 65
   257
 75
     1
175
     1
 42
1.0
 92
        8
 66
     7
 43
1.0
 76
     1
 77
     6
 78
     2
 67
     7
 79
     5
170
     0
171
     0
290
     0
174
     0
 93
        1
 44
0.0
173
     0
291
     1
 45
0.0
  0
VISUALSTYLE
  5
4DD
102
{ACAD_REACTORS
330
4DC
102
}
330
4DC
100
AcDbVisualStyle
  2
Flat
 70
     0
 71
     2
 72
     1
 73
     1
 90
        2
 40
-0.6
 41
30.0
 62
     5
 63
     7
421
 16777215
 74
     0
 91
        4
 64
     7
 65
   257
 75
     1
175
     1
 42
1.0
 92
        8
 66
     7
 43
1.0
 76
     1
 77
     6
 78
     2
 67
     7
 79
     5
170
     0
171
     0
290
     0
174
     0
 93
       13
 44
0.0
173
     0
291
     1
 45
0.0
  0
VISUALSTYLE
  5
4DE
102
{ACAD_REACTORS
330
4DC
102
}
330
4DC
100
AcDbVisualStyle
  2
FlatWithEdges
 70
     1
 71
     2
 72
     1
 73
     1
 90
        2
 40
-0.6
 41
30.0
 62
     5
 63
     7
421
 16777215
 74
     1
 91
        4
 64
     7
 65
   257
 75
     1
175
     1
 42
1.0
 92
        0
 66
   257
 43
1.0
 76
     1
 77
     6
 78
     2
 67
     7
 79
     5
170
     0
171
     0
290
     0
174
     0
 93
       13
 44
0.0
173
     0
291
     1
 45
0.0
  0
VISUALSTYLE
  5
4DF
102
{ACAD_REACTORS
330
4DC
102
}
330
4DC
100
AcDbVisualStyle
  2
Gouraud
 70
     2
 71
     2
 72
     2
 73
     1
 90
        2
 40
-0.6
 41
30.0
 62
     5
 63
     7
421
 16777215
 74
     0
 91
        4
 64
     7
 65
   257
 75
     1
175
     1
 42
1.0
 92
        0
 66
     7
 43
1.0
 76
     1
 77
     6
 78
     2
 67
     7
 79
     5
170
     0
171
     0
290
     0
174
     0
 93
       13
 44
0.0
173
     0
291
     1
 45
0.0
  0
VISUALSTYLE
  5
4E0
102
{ACAD_REACTORS
330
4DC
102
}
330
4DC
100
AcDbVisualStyle
  2
GouraudWithEdges
 70
     3
 71
     2
 72
     2
 73
     1
 90
        2
 40
-0.6
 41
30.0
 62
     5
 63
     7
421
 16777215
 74
     1
 91
        4
 64
     7
 65
   257
 75
     1
175
     1
 42
1.0
 92
        0
 66
   257
 43
1.0
 76
     1
 77
     6
 78
     2
 67
     7
 79
     5
170
     0
171
     0
290
     0
174
     0
 93
       13
 44
0.0
173
     0
291
     1
 45
0.0
  0
VISUALSTYLE
  5
4EA
102
{ACAD_REACTORS
330
4DC
102
}
330
4DC
100
AcDbVisualStyle
  2
Linepattern
 70
    14
 71
     2
 72
     2
 73
     0
 90
        0
 40
-0.6
 41
-30.0
 62
     5
 63
     7
421
 16777215
 74
     1
 91
        4
 64
     7
 65
   257
 75
     7
175
     7
 42
1.0
 92
        8
 66
     7
 43
1.0
 76
     1
 77
     6
 78
     2
 67
     7
 79
     5
170
     0
171
     0
290
     0
174
     0
 93
        1
 44
0.0
173
     0
291
     1
 45
0.0
  0
VISUALSTYLE
  5
4E6
102
{ACAD_REACTORS
330
4DC
102
}
330
4DC
100
AcDbVisualStyle
  2
Realistic
 70
     8
 71
     2
 72
     2
 73
     0
 90
        0
 40
-0.6
 41
-30.0
 62
     5
 63
     7
421
 16777215
 74
     1
 91
        0
 64
     7
 65
   257
 75
     1
175
     1
 42
1.0
 92
        8
 66
     8
424
  7895160
 43
1.0
 76
     1
 77
     6
 78
     2
 67
     7
 79
     5
170
     0
171
     0
290
     0
174
     0
 93
       13
 44
0.0
173
     0
291
     0
 45
0.0
  0
VISUALSTYLE
  5
4E9
102
{ACAD_REACTORS
330
4DC
102
}
330
4DC
100
AcDbVisualStyle
  2
Thicken
 70
    13
 71
     2
 72
     2
 73
     0
 90
        0
 40
-0.6
 41
-30.0
 62
     5
 63
     7
421
 16777215
 74
     1
 91
        4
 64
     7
 65
   257
 75
     1
175
     1
 42
1.0
 92
       12
 66
     7
 43
1.0
 76
     1
 77
     6
 78
     2
 67
     7
 79
     5
170
     0
171
     0
290
     0
174
     0
 93
        1
 44
0.0
173
     0
291
     1
 45
0.0
  0
DICTIONARYVAR
  5
560
102
{ACAD_REACTORS
330
55C
102
}
330
55C
100
DictionaryVariables
280
     0
  1
1:1
  0
DICTIONARYVAR
  5
55E
102
{ACAD_REACTORS
330
55C
102
}
330
55C
100
DictionaryVariables
280
     0
  1
STANDARD
  0
DICTIONARYVAR
  5
55D
102
{ACAD_REACTORS
330
55C
102
}
330
55C
100
DictionaryVariables
280
     0
  1
STANDARD
  0
DICTIONARYVAR
  5
562
102
{ACAD_REACTORS
330
55C
102
}
330
55C
100
DictionaryVariables
280
     0
  1
1
  0
DICTIONARYVAR
  5
563
102
{ACAD_REACTORS
330
55C
102
}
330
55C
100
DictionaryVariables
280
     0
  1
15
  0
DICTIONARYVAR
  5
561
102
{ACAD_REACTORS
330
55C
102
}
330
55C
100
DictionaryVariables
280
     0
  1
0
  0
DICTIONARYVAR
  5
55F
102
{ACAD_REACTORS
330
55C
102
}
330
55C
100
DictionaryVariables
280
     0
  1
0
  0
DICTIONARY
  5
4CD
330
4CC
100
AcDbDictionary
280
     1
281
     1
  3
BUMPTILE
360
4CF
  3
DIFFUSETILE
360
4CE
  3
OPACITYTILE
360
4D2
  3
REFLECTIONTILE
360
4D1
  3
REFRACTIONTILE
360
4D3
  3
SPECULARTILE
360
4D0
  0
DICTIONARY
  5
4C5
330
4C4
100
AcDbDictionary
280
     1
281
     1
  3
BUMPTILE
360
4C7
  3
DIFFUSETILE
360
4C6
  3
OPACITYTILE
360
4CA
  3
REFLECTIONTILE
360
4C9
  3
REFRACTIONTILE
360
4CB
  3
SPECULARTILE
360
4C8
  0
DICTIONARY
  5
4D5
330
4D4
100
AcDbDictionary
280
     1
281
     1
  3
BUMPTILE
360
4D7
  3
DIFFUSETILE
360
4D6
  3
OPACITYTILE
360
4DA
  3
REFLECTIONTILE
360
4D9
  3
REFRACTIONTILE
360
4DB
  3
SPECULARTILE
360
4D8
  0
DICTIONARY
  5
564
330
4EF
100
AcDbDictionary
280
     1
281
     1
  3
ACAD_ROUNDTRIP_2008_TABLESTYLE_CELLSTYLEMAP
360
565
  0
XRECORD
  5
4CF
102
{ACAD_REACTORS
330
4CD
102
}
330
4CD
100
AcDbXrecord
280
     1
270
     1
271
     1
  0
XRECORD
  5
4CE
102
{ACAD_REACTORS
330
4CD
102
}
330
4CD
100
AcDbXrecord
280
     1
270
     1
271
     1
  0
XRECORD
  5
4D2
102
{ACAD_REACTORS
330
4CD
102
}
330
4CD
100
AcDbXrecord
280
     1
270
     1
271
     1
  0
XRECORD
  5
4D1
102
{ACAD_REACTORS
330
4CD
102
}
330
4CD
100
AcDbXrecord
280
     1
270
     1
271
     1
  0
XRECORD
  5
4D3
102
{ACAD_REACTORS
330
4CD
102
}
330
4CD
100
AcDbXrecord
280
     1
270
     1
271
     1
  0
XRECORD
  5
4D0
102
{ACAD_REACTORS
330
4CD
102
}
330
4CD
100
AcDbXrecord
280
     1
270
     1
271
     1
  0
XRECORD
  5
4C7
102
{ACAD_REACTORS
330
4C5
102
}
330
4C5
100
AcDbXrecord
280
     1
270
     1
271
     1
  0
XRECORD
  5
4C6
102
{ACAD_REACTORS
330
4C5
102
}
330
4C5
100
AcDbXrecord
280
     1
270
     1
271
     1
  0
XRECORD
  5
4CA
102
{ACAD_REACTORS
330
4C5
102
}
330
4C5
100
AcDbXrecord
280
     1
270
     1
271
     1
  0
XRECORD
  5
4C9
102
{ACAD_REACTORS
330
4C5
102
}
330
4C5
100
AcDbXrecord
280
     1
270
     1
271
     1
  0
XRECORD
  5
4CB
102
{ACAD_REACTORS
330
4C5
102
}
330
4C5
100
AcDbXrecord
280
     1
270
     1
271
     1
  0
XRECORD
  5
4C8
102
{ACAD_REACTORS
330
4C5
102
}
330
4C5
100
AcDbXrecord
280
     1
270
     1
271
     1
  0
XRECORD
  5
4D7
102
{ACAD_REACTORS
330
4D5
102
}
330
4D5
100
AcDbXrecord
280
     1
270
     1
271
     1
  0
XRECORD
  5
4D6
102
{ACAD_REACTORS
330
4D5
102
}
330
4D5
100
AcDbXrecord
280
     1
270
     1
271
     1
  0
XRECORD
  5
4DA
102
{ACAD_REACTORS
330
4D5
102
}
330
4D5
100
AcDbXrecord
280
     1
270
     1
271
     1
  0
XRECORD
  5
4D9
102
{ACAD_REACTORS
330
4D5
102
}
330
4D5
100
AcDbXrecord
280
     1
270
     1
271
     1
  0
XRECORD
  5
4DB
102
{ACAD_REACTORS
330
4D5
102
}
330
4D5
100
AcDbXrecord
280
     1
270
     1
271
     1
  0
XRECORD
  5
4D8
102
{ACAD_REACTORS
330
4D5
102
}
330
4D5
100
AcDbXrecord
280
     1
270
     1
271
     1
  0
CELLSTYLEMAP
  5
565
102
{ACAD_REACTORS
330
564
102
}
330
564
100
AcDbCellStyleMap
 90
        3
300
CELLSTYLE
  1
TABLEFORMAT_BEGIN
 90
        5
170
     1
 91
        0
 92
    32768
 62
   257
 93
        1
300
CONTENTFORMAT
  1
CONTENTFORMAT_BEGIN
 90
        0
 91
        0
 92
      512
 93
        0
300

 40
0.0
140
1.0
 94
        5
 62
     0
340
17
144
6.0
309
CONTENTFORMAT_END
171
     1
301
MARGIN
  1
CELLMARGIN_BEGIN
 40
1.5
 40
1.5
 40
1.5
 40
1.5
 40
4.5
 40
4.5
309
CELLMARGIN_END
 94
        6
 95
        1
302
GRIDFORMAT
  1
GRIDFORMAT_BEGIN
 90
        0
 91
        1
 62
     0
 92
       -2
340
0
 93
        0
 40
1.125
309
GRIDFORMAT_END
 95
        2
302
GRIDFORMAT
  1
GRIDFORMAT_BEGIN
 90
        0
 91
        1
 62
     0
 92
       -2
340
0
 93
        0
 40
1.125
309
GRIDFORMAT_END
 95
        4
302
GRIDFORMAT
  1
GRIDFORMAT_BEGIN
 90
        0
 91
        1
 62
     0
 92
       -2
340
0
 93
        0
 40
1.125
309
GRIDFORMAT_END
 95
        8
302
GRIDFORMAT
  1
GRIDFORMAT_BEGIN
 90
        0
 91
        1
 62
     0
 92
       -2
340
0
 93
        0
 40
1.125
309
GRIDFORMAT_END
 95
       16
302
GRIDFORMAT
  1
GRIDFORMAT_BEGIN
 90
        0
 91
        1
 62
     0
 92
       -2
340
0
 93
        0
 40
1.125
309
GRIDFORMAT_END
 95
       32
302
GRIDFORMAT
  1
GRIDFORMAT_BEGIN
 90
        0
 91
        1
 62
     0
 92
       -2
340
0
 93
        0
 40
1.125
309
GRIDFORMAT_END
309
TABLEFORMAT_END
  1
CELLSTYLE_BEGIN
 90
        1
 91
        1
300
_TITLE
309
CELLSTYLE_END
300
CELLSTYLE
  1
TABLEFORMAT_BEGIN
 90
        5
170
     1
 91
        0
 92
        0
 62
   257
 93
        1
300
CONTENTFORMAT
  1
CONTENTFORMAT_BEGIN
 90
        0
 91
        0
 92
      512
 93
        0
300

 40
0.0
140
1.0
 94
        5
 62
     0
340
17
144
4.5
309
CONTENTFORMAT_END
171
     1
301
MARGIN
  1
CELLMARGIN_BEGIN
 40
1.5
 40
1.5
 40
1.5
 40
1.5
 40
4.5
 40
4.5
309
CELLMARGIN_END
 94
        6
 95
        1
302
GRIDFORMAT
  1
GRIDFORMAT_BEGIN
 90
        0
 91
        1
 62
     0
 92
       -2
340
0
 93
        0
 40
1.125
309
GRIDFORMAT_END
 95
        2
302
GRIDFORMAT
  1
GRIDFORMAT_BEGIN
 90
        0
 91
        1
 62
     0
 92
       -2
340
0
 93
        0
 40
1.125
309
GRIDFORMAT_END
 95
        4
302
GRIDFORMAT
  1
GRIDFORMAT_BEGIN
 90
        0
 91
        1
 62
     0
 92
       -2
340
0
 93
        0
 40
1.125
309
GRIDFORMAT_END
 95
        8
302
GRIDFORMAT
  1
GRIDFORMAT_BEGIN
 90
        0
 91
        1
 62
     0
 92
       -2
340
0
 93
        0
 40
1.125
309
GRIDFORMAT_END
 95
       16
302
GRIDFORMAT
  1
GRIDFORMAT_BEGIN
 90
        0
 91
        1
 62
     0
 92
       -2
340
0
 93
        0
 40
1.125
309
GRIDFORMAT_END
 95
       32
302
GRIDFORMAT
  1
GRIDFORMAT_BEGIN
 90
        0
 91
        1
 62
     0
 92
       -2
340
0
 93
        0
 40
1.125
309
GRIDFORMAT_END
309
TABLEFORMAT_END
  1
CELLSTYLE_BEGIN
 90
        2
 91
        1
300
_HEADER
309
CELLSTYLE_END
300
CELLSTYLE
  1
TABLEFORMAT_BEGIN
 90
        5
170
     1
 91
        0
 92
        0
 62
   257
 93
        1
300
CONTENTFORMAT
  1
CONTENTFORMAT_BEGIN
 90
        0
 91
        0
 92
      512
 93
        0
300

 40
0.0
140
1.0
 94
        2
 62
     0
340
17
144
4.5
309
CONTENTFORMAT_END
171
     1
301
MARGIN
  1
CELLMARGIN_BEGIN
 40
1.5
 40
1.5
 40
1.5
 40
1.5
 40
4.5
 40
4.5
309
CELLMARGIN_END
 94
        6
 95
        1
302
GRIDFORMAT
  1
GRIDFORMAT_BEGIN
 90
        0
 91
        1
 62
     0
 92
       -2
340
0
 93
        0
 40
1.125
309
GRIDFORMAT_END
 95
        2
302
GRIDFORMAT
  1
GRIDFORMAT_BEGIN
 90
        0
 91
        1
 62
     0
 92
       -2
340
0
 93
        0
 40
1.125
309
GRIDFORMAT_END
 95
        4
302
GRIDFORMAT
  1
GRIDFORMAT_BEGIN
 90
        0
 91
        1
 62
     0
 92
       -2
340
0
 93
        0
 40
1.125
309
GRIDFORMAT_END
 95
        8
302
GRIDFORMAT
  1
GRIDFORMAT_BEGIN
 90
        0
 91
        1
 62
     0
 92
       -2
340
0
 93
        0
 40
1.125
309
GRIDFORMAT_END
 95
       16
302
GRIDFORMAT
  1
GRIDFORMAT_BEGIN
 90
        0
 91
        1
 62
     0
 92
       -2
340
0
 93
        0
 40
1.125
309
GRIDFORMAT_END
 95
       32
302
GRIDFORMAT
  1
GRIDFORMAT_BEGIN
 90
        0
 91
        1
 62
     0
 92
       -2
340
0
 93
        0
 40
1.125
309
GRIDFORMAT_END
309
TABLEFORMAT_END
  1
CELLSTYLE_BEGIN
 90
        3
 91
        2
300
_DATA
309
CELLSTYLE_END
  0
ENDSEC
  0
EOF
