  0
SECTION
  2
HEADER
  9
$ACADVER
  1
AC1021
  9
$ACADMAINTVER
 70
    50
  9
$DWGCODEPAGE
  3
ANSI_1252
  9
$LASTSAVEDBY
  1
François
  9
$INSBASE
 10
173.401647
 20
140.301169
 30
0.0
  9
$EXTMIN
 10
138.2941877973606
 20
68.39399532252571
 30
-0.0015258207003583
  9
$EXTMAX
 10
227.4984
 20
268.4803914278487
 30
0.0000000349246037
  9
$LIMMIN
 10
173.389072
 20
68.38652299999999
  9
$LIMMAX
 10
226.610802
 20
231.613597
  9
$ORTHOMODE
 70
     0
  9
$REGENMODE
 70
     1
  9
$FILLMODE
 70
     1
  9
$QTEXTMODE
 70
     0
  9
$MIRRTEXT
 70
     1
  9
$LTSCALE
 40
1.0
  9
$ATTMODE
 70
     1
  9
$TEXTSIZE
 40
0.0
  9
$TRACEWID
 40
0.05
  9
$TEXTSTYLE
  7
Standard
  9
$CLAYER
  8
Cotation-JacobDelafon
  9
$CELTYPE
  6
Continuous
  9
$CECOLOR
 62
   256
  9
$CELTSCALE
 40
1.0
  9
$DISPSILH
 70
     0
  9
$DIMSCALE
 40
1.0
  9
$DIMASZ
 40
1.8
  9
$DIMEXO
 40
0.625
  9
$DIMDLI
 40
3.799999999999998
  9
$DIMRND
 40
0.0
  9
$DIMDLE
 40
0.0
  9
$DIMEXE
 40
1.8
  9
$DIMTP
 40
0.0
  9
$DIMTM
 40
0.0
  9
$DIMTXT
 40
3.0
  9
$DIMCEN
 40
0.9
  9
$DIMTSZ
 40
0.0
  9
$DIMTOL
 70
     0
  9
$DIMLIM
 70
     0
  9
$DIMTIH
 70
     0
  9
$DIMTOH
 70
     0
  9
$DIMSE1
 70
     0
  9
$DIMSE2
 70
     0
  9
$DIMTAD
 70
     1
  9
$DIMZIN
 70
    12
  9
$DIMBLK
  1
Oblique
  9
$DIMASO
 70
     1
  9
$DIMSHO
 70
     1
  9
$DIMPOST
  1

  9
$DIMAPOST
  1

  9
$DIMALT
 70
     0
  9
$DIMALTD
 70
     2
  9
$DIMALTF
 40
25.4
  9
$DIMLFAC
 40
1.0
  9
$DIMTOFL
 70
     0
  9
$DIMTVP
 40
0.0
  9
$DIMTIX
 70
     0
  9
$DIMSOXD
 70
     0
  9
$DIMSAH
 70
     0
  9
$DIMBLK1
  1

  9
$DIMBLK2
  1

  9
$DIMSTYLE
  2
Cotation-Jacob-Delafon
  9
$DIMCLRD
 70
     0
  9
$DIMCLRE
 70
     0
  9
$DIMCLRT
 70
     0
  9
$DIMTFAC
 40
1.0
  9
$DIMGAP
 40
0.9
  9
$DIMJUST
 70
     0
  9
$DIMSD1
 70
     0
  9
$DIMSD2
 70
     0
  9
$DIMTOLJ
 70
     1
  9
$DIMTZIN
 70
     0
  9
$DIMALTZ
 70
     0
  9
$DIMALTTZ
 70
     0
  9
$DIMUPT
 70
     0
  9
$DIMDEC
 70
     2
  9
$DIMTDEC
 70
     2
  9
$DIMALTU
 70
     2
  9
$DIMALTTD
 70
     2
  9
$DIMTXSTY
  7
Jacob-Delafon
  9
$DIMAUNIT
 70
     0
  9
$DIMADEC
 70
     0
  9
$DIMALTRND
 40
0.0
  9
$DIMAZIN
 70
     3
  9
$DIMDSEP
 70
    46
  9
$DIMATFIT
 70
     3
  9
$DIMFRAC
 70
     0
  9
$DIMLDRBLK
  1
Oblique
  9
$DIMLUNIT
 70
     2
  9
$DIMLWD
 70
    -2
  9
$DIMLWE
 70
    -2
  9
$DIMTMOVE
 70
     2
  9
$DIMFXL
 40
1.0
  9
$DIMFXLON
 70
     0
  9
$DIMJOGANG
 40
0.7853981633974483
  9
$DIMTFILL
 70
     0
  9
$DIMTFILLCLR
 70
     0
  9
$DIMARCSYM
 70
     0
  9
$DIMLTYPE
  6

  9
$DIMLTEX1
  6

  9
$DIMLTEX2
  6

  9
$LUNITS
 70
     2
  9
$LUPREC
 70
     4
  9
$SKETCHINC
 40
0.1
  9
$FILLETRAD
 40
0.0
  9
$AUNITS
 70
     0
  9
$AUPREC
 70
     0
  9
$MENU
  1
acad
  9
$ELEVATION
 40
0.0
  9
$PELEVATION
 40
0.0
  9
$THICKNESS
 40
0.0
  9
$LIMCHECK
 70
     0
  9
$CHAMFERA
 40
0.0
  9
$CHAMFERB
 40
0.0
  9
$CHAMFERC
 40
0.0
  9
$CHAMFERD
 40
0.0
  9
$SKPOLY
 70
     0
  9
$TDCREATE
 40
2455398.667948496
  9
$TDUCREATE
 40
2455398.584615162
  9
$TDUPDATE
 40
2455398.672252419
  9
$TDUUPDATE
 40
2455398.588919086
  9
$TDINDWG
 40
0.0043057407
  9
$TDUSRTIMER
 40
0.0043055556
  9
$USRTIMER
 70
     1
  9
$ANGBASE
 50
0.0
  9
$ANGDIR
 70
     0
  9
$PDMODE
 70
     0
  9
$PDSIZE
 40
0.0
  9
$PLINEWID
 40
0.0
  9
$SPLFRAME
 70
     0
  9
$SPLINETYPE
 70
     6
  9
$SPLINESEGS
 70
     8
  9
$HANDSEED
  5
531
  9
$SURFTAB1
 70
     6
  9
$SURFTAB2
 70
     6
  9
$SURFTYPE
 70
     6
  9
$SURFU
 70
     6
  9
$SURFV
 70
     6
  9
$UCSBASE
  2

  9
$UCSNAME
  2

  9
$UCSORG
 10
0.0
 20
0.0
 30
0.0
  9
$UCSXDIR
 10
1.0
 20
0.0
 30
0.0
  9
$UCSYDIR
 10
0.0
 20
1.0
 30
0.0
  9
$UCSORTHOREF
  2

  9
$UCSORTHOVIEW
 70
     0
  9
$UCSORGTOP
 10
0.0
 20
0.0
 30
0.0
  9
$UCSORGBOTTOM
 10
0.0
 20
0.0
 30
0.0
  9
$UCSORGLEFT
 10
0.0
 20
0.0
 30
0.0
  9
$UCSORGRIGHT
 10
0.0
 20
0.0
 30
0.0
  9
$UCSORGFRONT
 10
0.0
 20
0.0
 30
0.0
  9
$UCSORGBACK
 10
0.0
 20
0.0
 30
0.0
  9
$PUCSBASE
  2

  9
$PUCSNAME
  2

  9
$PUCSORG
 10
0.0
 20
0.0
 30
0.0
  9
$PUCSXDIR
 10
1.0
 20
0.0
 30
0.0
  9
$PUCSYDIR
 10
0.0
 20
1.0
 30
0.0
  9
$PUCSORTHOREF
  2

  9
$PUCSORTHOVIEW
 70
     0
  9
$PUCSORGTOP
 10
0.0
 20
0.0
 30
0.0
  9
$PUCSORGBOTTOM
 10
0.0
 20
0.0
 30
0.0
  9
$PUCSORGLEFT
 10
0.0
 20
0.0
 30
0.0
  9
$PUCSORGRIGHT
 10
0.0
 20
0.0
 30
0.0
  9
$PUCSORGFRONT
 10
0.0
 20
0.0
 30
0.0
  9
$PUCSORGBACK
 10
0.0
 20
0.0
 30
0.0
  9
$USERI1
 70
     0
  9
$USERI2
 70
     0
  9
$USERI3
 70
     0
  9
$USERI4
 70
     0
  9
$USERI5
 70
     0
  9
$USERR1
 40
0.0
  9
$USERR2
 40
0.0
  9
$USERR3
 40
0.0
  9
$USERR4
 40
0.0
  9
$USERR5
 40
0.0
  9
$WORLDVIEW
 70
     1
  9
$SHADEDGE
 70
     3
  9
$SHADEDIF
 70
    70
  9
$TILEMODE
 70
     1
  9
$MAXACTVP
 70
    16
  9
$PINSBASE
 10
0.0
 20
0.0
 30
0.0
  9
$PLIMCHECK
 70
     0
  9
$PEXTMIN
 10
1.000000000000000E+20
 20
1.000000000000000E+20
 30
1.000000000000000E+20
  9
$PEXTMAX
 10
-1.000000000000000E+20
 20
-1.000000000000000E+20
 30
-1.000000000000000E+20
  9
$PLIMMIN
 10
0.0
 20
0.0
  9
$PLIMMAX
 10
12.0
 20
9.0
  9
$UNITMODE
 70
     0
  9
$VISRETAIN
 70
     0
  9
$PLINEGEN
 70
     1
  9
$PSLTSCALE
 70
     0
  9
$TREEDEPTH
 70
  3020
  9
$CMLSTYLE
  2
Standard
  9
$CMLJUST
 70
     0
  9
$CMLSCALE
 40
1.0
  9
$PROXYGRAPHICS
 70
     0
  9
$MEASUREMENT
 70
     1
  9
$CELWEIGHT
370
     0
  9
$ENDCAPS
280
     0
  9
$JOINSTYLE
280
     0
  9
$LWDISPLAY
290
     0
  9
$INSUNITS
 70
     0
  9
$HYPERLINKBASE
  1

  9
$STYLESHEET
  1

  9
$XEDIT
290
     1
  9
$CEPSNTYPE
380
     0
  9
$PSTYLEMODE
290
     1
  9
$FINGERPRINTGUID
  2

  9
$VERSIONGUID
  2
{C852C364-9DE7-42FC-9367-595AA4647989}
  9
$EXTNAMES
290
     1
  9
$PSVPSCALE
 40
0.0
  9
$OLESTARTUP
290
     0
  9
$SORTENTS
280
   127
  9
$INDEXCTL
280
     0
  9
$HIDETEXT
280
     0
  9
$XCLIPFRAME
290
     0
  9
$HALOGAP
280
     0
  9
$OBSCOLOR
 70
   257
  9
$OBSLTYPE
280
     0
  9
$INTERSECTIONDISPLAY
280
     0
  9
$INTERSECTIONCOLOR
 70
   257
  9
$DIMASSOC
280
     1
  9
$PROJECTNAME
  1

  9
$CAMERADISPLAY
290
     0
  9
$LENSLENGTH
 40
50.0
  9
$CAMERAHEIGHT
 40
0.0
  9
$STEPSPERSEC
 40
2.0
  9
$STEPSIZE
 40
6.0
  9
$3DDWFPREC
 40
2.0
  9
$PSOLWIDTH
 40
0.25
  9
$PSOLHEIGHT
 40
4.0
  9
$LOFTANG1
 40
1.570796326794896
  9
$LOFTANG2
 40
1.570796326794896
  9
$LOFTMAG1
 40
0.0
  9
$LOFTMAG2
 40
0.0
  9
$LOFTPARAM
 70
     7
  9
$LOFTNORMALS
280
     1
  9
$LATITUDE
 40
37.795
  9
$LONGITUDE
 40
-122.394
  9
$NORTHDIRECTION
 40
0.0
  9
$TIMEZONE
 70
 -8000
  9
$LIGHTGLYPHDISPLAY
280
     1
  9
$TILEMODELIGHTSYNCH
280
     1
  9
$CMATERIAL
347
48E
  9
$SOLIDHIST
280
     1
  9
$SHOWHIST
280
     1
  9
$DWFFRAME
280
     2
  9
$DGNFRAME
280
     0
  9
$REALWORLDSCALE
290
     1
  9
$INTERFERECOLOR
 62
     1
  9
$INTERFEREOBJVS
345
4B0
  9
$INTERFEREVPVS
346
4AD
  9
$CSHADOW
280
     0
  9
$SHADOWPLANELOCATION
 40
0.0
  0
ENDSEC
  0
SECTION
  2
CLASSES
  0
CLASS
  1
IMAGE
  2
AcDbRasterImage
  3
ISM
 90
     2175
 91
        0
280
     0
281
     1
  0
CLASS
  1
DICTIONARYVAR
  2
AcDbDictionaryVar
  3
ObjectDBX Classes
 90
        0
 91
        7
280
     0
281
     0
  0
CLASS
  1
RASTERVARIABLES
  2
AcDbRasterVariables
  3
ISM
 90
        0
 91
        0
280
     0
281
     0
  0
CLASS
  1
IMAGEDEF
  2
AcDbRasterImageDef
  3
ISM
 90
        0
 91
        0
280
     0
281
     0
  0
CLASS
  1
IMAGEDEF_REACTOR
  2
AcDbRasterImageDefReactor
  3
ISM
 90
        1
 91
        0
280
     0
281
     0
  0
CLASS
  1
IDBUFFER
  2
AcDbIdBuffer
  3
ObjectDBX Classes
 90
        0
 91
        0
280
     0
281
     0
  0
CLASS
  1
SPATIAL_FILTER
  2
AcDbSpatialFilter
  3
ObjectDBX Classes
 90
        0
 91
        0
280
     0
281
     0
  0
CLASS
  1
SORTENTSTABLE
  2
AcDbSortentsTable
  3
ObjectDBX Classes
 90
        0
 91
        0
280
     0
281
     0
  0
CLASS
  1
LAYER_INDEX
  2
AcDbLayerIndex
  3
ObjectDBX Classes
 90
        0
 91
        0
280
     0
281
     0
  0
CLASS
  1
SPATIAL_INDEX
  2
AcDbSpatialIndex
  3
ObjectDBX Classes
 90
        0
 91
        0
280
     0
281
     0
  0
CLASS
  1
OBJECT_PTR
  2
CAseDLPNTableRecord
  3
"ASE-LPNTableRecord"
 90
        1
 91
        0
280
     0
281
     0
  0
CLASS
  1
PLOTSETTINGS
  2
AcDbPlotSettings
  3
ObjectDBX Classes
 90
        0
 91
        0
280
     0
281
     0
  0
CLASS
  1
ACDBDICTIONARYWDFLT
  2
AcDbDictionaryWithDefault
  3
ObjectDBX Classes
 90
        0
 91
        1
280
     0
281
     0
  0
CLASS
  1
WIPEOUT
  2
AcDbWipeout
  3
"WipeOut|Product Desc: Object Enabler for WipeOut entity                        |Company: Autodesk, Inc.                        |WEB Address: www.autodesk.com"
 90
     2175
 91
        0
280
     0
281
     1
  0
CLASS
  1
WIPEOUTVARIABLES
  2
AcDbWipeoutVariables
  3
"WipeOut|Product Desc:     WipeOut Dbx Application|Company:          Autodesk, Inc.|WEB Address:      www.autodesk.com"
 90
        0
 91
        1
280
     0
281
     0
  0
CLASS
  1
RTEXT
  2
RText
  3
RText|AutoCAD Express Tool|expresstools@autodesk.com
 90
        0
 91
        0
280
     0
281
     1
  0
CLASS
  1
ARCALIGNEDTEXT
  2
AcDbArcAlignedText
  3
ATEXT|AutoCAD Express Tool|expresstools@autodesk.com
 90
        0
 91
        0
280
     0
281
     1
  0
CLASS
  1
MATERIAL
  2
AcDbMaterial
  3
ObjectDBX Classes
 90
     1153
 91
        3
280
     0
281
     0
  0
CLASS
  1
VISUALSTYLE
  2
AcDbVisualStyle
  3
ObjectDBX Classes
 90
     4095
 91
       16
280
     0
281
     0
  0
CLASS
  1
TABLESTYLE
  2
AcDbTableStyle
  3
ObjectDBX Classes
 90
     4095
 91
        1
280
     0
281
     0
  0
CLASS
  1
SCALE
  2
AcDbScale
  3
ObjectDBX Classes
 90
     1153
 91
       17
280
     0
281
     0
  0
CLASS
  1
MLEADERSTYLE
  2
AcDbMLeaderStyle
  3
ACDB_MLEADERSTYLE_CLASS
 90
     4095
 91
        1
280
     0
281
     0
  0
CLASS
  1
AEC_REFEDIT_STATUS_TRACKER
  2
AecDbRefEditStatusTracker
  3
AecArchBase50|Product Desc: Autodesk Architectural Desktop 2007 |Company: Autodesk,Inc. |WEB Address: www.autodesk.com
 90
      129
 91
        1
280
     0
281
     0
  0
CLASS
  1
NPOCOLLECTION
  2
AcDbImpNonPersistentObjectsCollection
  3
ObjectDBX Classes
 90
     1153
 91
        1
280
     0
281
     0
  0
CLASS
  1
CELLSTYLEMAP
  2
AcDbCellStyleMap
  3
ObjectDBX Classes
 90
     1152
 91
        1
280
     0
281
     0
  0
ENDSEC
  0
SECTION
  2
TABLES
  0
TABLE
  2
VPORT
  5
7
330
0
100
AcDbSymbolTable
 70
     1
  0
VPORT
  5
15
330
7
100
AcDbSymbolTableRecord
100
AcDbViewportTableRecord
  2
*ACTIVE
 70
     0
 10
0.0
 20
0.0
 11
1.0
 21
1.0
 12
194.2804623452578
 22
199.9686914440409
 13
0.0
 23
0.0
 14
1.0
 24
1.0
 15
0.0
 25
0.0
 16
0.0
 26
0.0
 36
1.0
 17
0.0
 27
0.0
 37
0.0
 40
163.7341249690232
 41
1.31063829787234
 42
50.0
 43
0.0
 44
0.0
 50
0.0
 51
0.0
 71
     0
 72
   100
 73
     1
 74
     1
 75
     0
 76
     0
 77
     0
 78
     0
281
     0
 65
     0
110
0.0
120
0.0
130
0.0
111
1.0
121
0.0
131
0.0
112
0.0
122
1.0
132
0.0
 79
     0
146
0.0
348
4AC
 60
     3
 61
     5
292
     1
282
     1
141
0.0
142
0.0
 63
   250
421
  3355443
  0
ENDTAB
  0
TABLE
  2
LTYPE
  5
4
330
0
100
AcDbSymbolTable
 70
     1
  0
LTYPE
  5
11
330
4
100
AcDbSymbolTableRecord
100
AcDbLinetypeTableRecord
  2
ByBlock
 70
     0
  3

 72
    65
 73
     0
 40
0.0
  0
LTYPE
  5
12
330
4
100
AcDbSymbolTableRecord
100
AcDbLinetypeTableRecord
  2
ByLayer
 70
     0
  3

 72
    65
 73
     0
 40
0.0
  0
LTYPE
  5
13
330
4
100
AcDbSymbolTableRecord
100
AcDbLinetypeTableRecord
  2
Continuous
 70
     0
  3
Solid line
 72
    65
 73
     0
 40
0.0
  0
ENDTAB
  0
TABLE
  2
LAYER
  5
2
330
0
100
AcDbSymbolTable
 70
     3
  0
LAYER
  5
14
102
{ACAD_XDICTIONARY
360
523
102
}
330
2
100
AcDbSymbolTableRecord
100
AcDbLayerTableRecord
  2
0
 70
     0
 62
     7
  6
Continuous
370
    -3
390
1D
347
49E
  0
LAYER
  5
4D9
330
2
100
AcDbSymbolTableRecord
100
AcDbLayerTableRecord
  2
Defpoints
 70
     0
 62
     7
  6
Continuous
290
     0
370
    -3
390
1D
347
49E
  0
LAYER
  5
4E7
102
{ACAD_XDICTIONARY
360
4E8
102
}
330
2
100
AcDbSymbolTableRecord
100
AcDbLayerTableRecord
  2
Cotation-JacobDelafon
 70
     0
 62
     8
  6
Continuous
370
    -3
390
1D
347
49E
  0
ENDTAB
  0
TABLE
  2
STYLE
  5
3
330
0
100
AcDbSymbolTable
 70
     7
  0
STYLE
  5
17
330
3
100
AcDbSymbolTableRecord
100
AcDbTextStyleTableRecord
  2
Standard
 70
     0
 40
0.0
 41
1.0
 50
0.0
 71
     0
 42
0.0
  3
txt
  4

  0
STYLE
  5
24
330
3
100
AcDbSymbolTableRecord
100
AcDbTextStyleTableRecord
  2
STD
 70
     0
 40
0.0
 41
1.0
 50
0.0
 71
     0
 42
0.0
  3
txt
  4

  0
STYLE
  5
25
330
3
100
AcDbSymbolTableRecord
100
AcDbTextStyleTableRecord
  2
TATESTD
 70
     4
 40
0.0
 41
1.0
 50
0.0
 71
     0
 42
0.0
  3
txt
  4

  0
STYLE
  5
26
330
3
100
AcDbSymbolTableRecord
100
AcDbTextStyleTableRecord
  2
KANJISTD
 70
     0
 40
0.0
 41
1.0
 50
0.0
 71
     0
 42
0.0
  3
txt
  4
extfont
  0
STYLE
  5
27
330
3
100
AcDbSymbolTableRecord
100
AcDbTextStyleTableRecord
  2
KANJITATE
 70
     4
 40
0.0
 41
1.0
 50
0.0
 71
     0
 42
0.0
  3
txt
  4
extfont
  0
STYLE
  5
4DA
330
3
100
AcDbSymbolTableRecord
100
AcDbTextStyleTableRecord
  2
Annotative
 70
     0
 40
0.0
 41
1.0
 50
0.0
 71
     0
 42
0.2
  3
txt
  4

1001
AcadAnnotative
1000
AnnotativeData
1002
{
1070
     1
1070
     1
1002
}
  0
STYLE
  5
4DB
330
3
100
AcDbSymbolTableRecord
100
AcDbTextStyleTableRecord
  2
Jacob-Delafon
 70
     0
 40
0.0
 41
1.0
 50
0.0
 71
     0
 42
2.5
  3
ARIAL.TTF
  4

1001
ACAD
1000
Arial
1071
       34
  0
ENDTAB
  0
TABLE
  2
VIEW
  5
5
330
0
100
AcDbSymbolTable
 70
     1
  0
ENDTAB
  0
TABLE
  2
UCS
  5
6
330
0
100
AcDbSymbolTable
 70
     0
  0
ENDTAB
  0
TABLE
  2
APPID
  5
8
330
0
100
AcDbSymbolTable
 70
     3
  0
APPID
  5
16
330
8
100
AcDbSymbolTableRecord
100
AcDbRegAppTableRecord
  2
ACAD
 70
     0
  0
APPID
  5
4CE
330
8
100
AcDbSymbolTableRecord
100
AcDbRegAppTableRecord
  2
ACAD_MLEADERVER
 70
     0
  0
APPID
  5
4DE
330
8
100
AcDbSymbolTableRecord
100
AcDbRegAppTableRecord
  2
AcadAnnotative
 70
     0
  0
ENDTAB
  0
TABLE
  2
DIMSTYLE
  5
9
330
0
100
AcDbSymbolTable
 70
     3
100
AcDbDimStyleTable
 71
     1
340
4DD
  0
DIMSTYLE
105
18
330
9
100
AcDbSymbolTableRecord
100
AcDbDimStyleTableRecord
  2
Standard
 70
     0
340
17
  0
DIMSTYLE
105
4DC
330
9
100
AcDbSymbolTableRecord
100
AcDbDimStyleTableRecord
  2
Annotative
 70
     0
340
17
1001
AcadAnnotative
1000
AnnotativeData
1002
{
1070
     1
1070
     1
1002
}
  0
DIMSTYLE
105
4DD
102
{ACAD_REACTORS
330
4EE
330
504
102
}
330
9
100
AcDbSymbolTableRecord
100
AcDbDimStyleTableRecord
  2
Cotation-Jacob-Delafon
 70
     0
 41
1.8
 42
0.625
 43
3.799999999999998
 44
1.8
 73
     0
 74
     0
 77
     1
 78
    12
 79
     3
140
3.0
141
0.9
147
0.9
271
     2
272
     2
279
     2
340
4DB
341
4D5
342
4D5
  0
ENDTAB
  0
TABLE
  2
BLOCK_RECORD
  5
1
330
0
100
AcDbSymbolTable
 70
     5
  0
BLOCK_RECORD
  5
A
330
1
100
AcDbSymbolTableRecord
100
AcDbBlockTableRecord
  2
*MODEL_SPACE
340
20
 70
     0
280
     1
281
     0
  0
BLOCK_RECORD
  5
B
330
1
100
AcDbSymbolTableRecord
100
AcDbBlockTableRecord
  2
*PAPER_SPACE
340
21
 70
     0
280
     1
281
     0
  0
BLOCK_RECORD
  5
4D5
330
1
100
AcDbSymbolTableRecord
100
AcDbBlockTableRecord
  2
_Oblique
340
0
102
{BLKREFS
331
514
331
515
331
51D
331
51E
102
}
 70
     0
280
     1
281
     0
  0
BLOCK_RECORD
  5
4EF
330
1
100
AcDbSymbolTableRecord
100
AcDbBlockTableRecord
  2
*D3
340
0
 70
     0
280
     1
281
     0
  0
BLOCK_RECORD
  5
505
330
1
100
AcDbSymbolTableRecord
100
AcDbBlockTableRecord
  2
*D4
340
0
 70
     0
280
     1
281
     0
  0
ENDTAB
  0
ENDSEC
  0
SECTION
  2
BLOCKS
  0
BLOCK
  5
D
330
A
100
AcDbEntity
  8
0
100
AcDbBlockBegin
  2
*MODEL_SPACE
 70
     0
 10
0.0
 20
0.0
 30
0.0
  3
*MODEL_SPACE
  1

  0
ENDBLK
  5
E
330
A
100
AcDbEntity
  8
0
100
AcDbBlockEnd
  0
BLOCK
  5
F
330
B
100
AcDbEntity
 67
     1
  8
0
100
AcDbBlockBegin
  2
*PAPER_SPACE
 70
     0
 10
0.0
 20
0.0
 30
0.0
  3
*PAPER_SPACE
  1

  0
ENDBLK
  5
10
330
B
100
AcDbEntity
 67
     1
  8
0
100
AcDbBlockEnd
  0
BLOCK
  5
4D6
330
4D5
100
AcDbEntity
  8
0
100
AcDbBlockBegin
  2
_Oblique
 70
     0
 10
0.0
 20
0.0
 30
0.0
  3
_Oblique
  1

  0
LINE
  5
4D7
330
4D5
100
AcDbEntity
  8
0
  6
ByBlock
 62
     0
370
    -2
380
     1
100
AcDbLine
 10
-0.5
 20
-0.5
 30
0.0
 11
0.5
 21
0.5
 31
0.0
  0
ENDBLK
  5
4D8
330
4D5
100
AcDbEntity
  8
0
100
AcDbBlockEnd
  0
BLOCK
  5
4F0
330
4EF
100
AcDbEntity
  8
0
370
     0
100
AcDbBlockBegin
  2
*D3
 70
     1
 10
0.0
 20
0.0
 30
0.0
  3
*D3
  1

  0
LINE
  5
511
330
4EF
100
AcDbEntity
  8
Cotation-JacobDelafon
  6
Continuous
 62
     0
370
    -2
100
AcDbLine
 10
173.42025
 20
232.226023
 30
0.0
 11
173.42025
 21
265.5270489994722
 31
0.0
  0
LINE
  5
512
330
4EF
100
AcDbEntity
  8
Cotation-JacobDelafon
  6
Continuous
 62
     0
370
    -2
100
AcDbLine
 10
226.5984
 20
216.662115
 30
0.0
 11
226.5984
 21
265.5270489994722
 31
0.0
  0
LINE
  5
513
330
4EF
100
AcDbEntity
  8
Cotation-JacobDelafon
  6
Continuous
 62
     0
370
    -2
100
AcDbLine
 10
173.42025
 20
263.7270489994722
 30
0.0
 11
226.5984
 21
263.7270489994722
 31
0.0
  0
INSERT
  5
514
330
4EF
100
AcDbEntity
  8
Cotation-JacobDelafon
  6
Continuous
 62
     0
370
    -2
100
AcDbBlockReference
  2
_Oblique
 10
173.42025
 20
263.7270489994722
 30
0.0
 41
1.8
 42
1.8
 43
1.8
 50
180.0
  0
INSERT
  5
515
330
4EF
100
AcDbEntity
  8
Cotation-JacobDelafon
  6
Continuous
 62
     0
370
    -2
100
AcDbBlockReference
  2
_Oblique
 10
226.5984
 20
263.7270489994722
 30
0.0
 41
1.8
 42
1.8
 43
1.8
  0
MTEXT
  5
516
330
4EF
100
AcDbEntity
  8
Cotation-JacobDelafon
  6
Continuous
 62
     0
370
     0
100
AcDbMText
 10
200.009325
 20
266.1597911549975
 30
0.0
 40
3.0
 41
0.0
 46
0.0
 71
     5
 72
     1
  1
\A1;53.2
  7
Jacob-Delafon
 73
     1
 44
1.0
  0
POINT
  5
517
330
4EF
100
AcDbEntity
  8
Defpoints
  6
Continuous
 62
     0
370
     0
100
AcDbPoint
 10
173.42025
 20
231.601023
 30
0.0
  0
POINT
  5
518
330
4EF
100
AcDbEntity
  8
Defpoints
  6
Continuous
 62
     0
370
     0
100
AcDbPoint
 10
226.5984
 20
216.037115
 30
0.0
  0
POINT
  5
519
330
4EF
100
AcDbEntity
  8
Defpoints
  6
Continuous
 62
     0
370
     0
100
AcDbPoint
 10
226.5984
 20
263.7270489994722
 30
0.0
  0
ENDBLK
  5
4F1
330
4EF
100
AcDbEntity
  8
0
370
     0
100
AcDbBlockEnd
  0
BLOCK
  5
506
330
505
100
AcDbEntity
  8
0
370
     0
100
AcDbBlockBegin
  2
*D4
 70
     1
 10
0.0
 20
0.0
 30
0.0
  3
*D4
  1

  0
LINE
  5
51A
330
505
100
AcDbEntity
  8
Cotation-JacobDelafon
  6
Continuous
 62
     0
370
    -2
100
AcDbLine
 10
172.79525
 20
231.601023
 30
0.0
 11
141.2475302257372
 21
231.601023
 31
0.0
  0
LINE
  5
51B
330
505
100
AcDbEntity
  8
Cotation-JacobDelafon
  6
Continuous
 62
     0
370
    -2
100
AcDbLine
 10
178.2393625
 20
140.296346
 30
0.0
 11
141.2475302257372
 21
140.296346
 31
0.0
  0
LINE
  5
51C
330
505
100
AcDbEntity
  8
Cotation-JacobDelafon
  6
Continuous
 62
     0
370
    -2
100
AcDbLine
 10
143.0475302257372
 20
231.601023
 30
0.0
 11
143.0475302257372
 21
140.296346
 31
0.0
  0
INSERT
  5
51D
330
505
100
AcDbEntity
  8
Cotation-JacobDelafon
  6
Continuous
 62
     0
370
    -2
100
AcDbBlockReference
  2
_Oblique
 10
143.0475302257372
 20
231.601023
 30
0.0
 41
1.8
 42
1.8
 43
1.8
 50
90.0
  0
INSERT
  5
51E
330
505
100
AcDbEntity
  8
Cotation-JacobDelafon
  6
Continuous
 62
     0
370
    -2
100
AcDbBlockReference
  2
_Oblique
 10
143.0475302257372
 20
140.296346
 30
0.0
 41
1.8
 42
1.8
 43
1.8
 50
270.0
  0
MTEXT
  5
51F
330
505
100
AcDbEntity
  8
Cotation-JacobDelafon
  6
Continuous
 62
     0
370
     0
100
AcDbMText
 10
140.6147880702119
 20
185.9486845
 30
0.0
 40
3.0
 41
0.0
 46
0.0
 71
     5
 72
     1
  1
\A1;91.3
  7
Jacob-Delafon
 11
0.0000000000000001
 21
1.0
 31
0.0
 73
     1
 44
1.0
  0
POINT
  5
520
330
505
100
AcDbEntity
  8
Defpoints
  6
Continuous
 62
     0
370
     0
100
AcDbPoint
 10
173.42025
 20
231.601023
 30
0.0
  0
POINT
  5
521
330
505
100
AcDbEntity
  8
Defpoints
  6
Continuous
 62
     0
370
     0
100
AcDbPoint
 10
178.8643625
 20
140.296346
 30
0.0
  0
POINT
  5
522
330
505
100
AcDbEntity
  8
Defpoints
  6
Continuous
 62
     0
370
     0
100
AcDbPoint
 10
143.0475302257372
 20
140.296346
 30
0.0
  0
ENDBLK
  5
507
330
505
100
AcDbEntity
  8
0
370
     0
100
AcDbBlockEnd
  0
ENDSEC
  0
SECTION
  2
ENTITIES
  0
LINE
  5
48A
330
A
100
AcDbEntity
  8
0
 62
     7
100
AcDbLine
 10
201.227683
 20
214.856136
 30
0.0
 11
201.298996
 21
214.826853
 31
0.0
  0
LINE
  5
489
330
A
100
AcDbEntity
  8
0
 62
     7
100
AcDbLine
 10
201.1984
 20
214.926933
 30
0.0
 11
201.227683
 21
214.856136
 31
0.0
  0
LINE
  5
488
330
A
100
AcDbEntity
  8
0
 62
     7
100
AcDbLine
 10
226.568772
 20
214.856136
 30
0.0
 11
226.497803
 21
214.826853
 31
0.0
  0
LINE
  5
487
330
A
100
AcDbEntity
  8
0
 62
     7
100
AcDbLine
 10
226.5984
 20
214.926933
 30
0.0
 11
226.568772
 21
214.856136
 31
0.0
  0
LINE
  5
486
330
A
100
AcDbEntity
  8
0
 62
     7
100
AcDbLine
 10
201.1984
 20
216.037115
 30
0.0
 11
201.1984
 21
214.926933
 31
0.0
  0
LINE
  5
485
330
A
100
AcDbEntity
  8
0
 62
     7
100
AcDbLine
 10
226.5984
 20
216.037115
 30
0.0
 11
226.5984
 21
214.926933
 31
0.0
  0
LINE
  5
484
330
A
100
AcDbEntity
  8
0
 62
     7
100
AcDbLine
 10
226.280073
 20
216.037115
 30
0.0
 11
226.5984
 21
216.037115
 31
0.0
  0
LINE
  5
483
330
A
100
AcDbEntity
  8
0
 62
     7
100
AcDbLine
 10
225.340595
 20
216.037115
 30
0.0
 11
226.280073
 21
216.037115
 31
0.0
  0
LINE
  5
482
330
A
100
AcDbEntity
  8
0
 62
     7
100
AcDbLine
 10
223.827509
 20
216.037115
 30
0.0
 11
225.340595
 21
216.037115
 31
0.0
  0
LINE
  5
481
330
A
100
AcDbEntity
  8
0
 62
     7
100
AcDbLine
 10
221.816607
 20
216.037115
 30
0.0
 11
223.827509
 21
216.037115
 31
0.0
  0
LINE
  5
480
330
A
100
AcDbEntity
  8
0
 62
     7
100
AcDbLine
 10
219.408485
 20
216.037115
 30
0.0
 11
221.816607
 21
216.037115
 31
0.0
  0
LINE
  5
47F
330
A
100
AcDbEntity
  8
0
 62
     7
100
AcDbLine
 10
216.724411
 20
216.037115
 30
0.0
 11
219.408485
 21
216.037115
 31
0.0
  0
LINE
  5
47E
330
A
100
AcDbEntity
  8
0
 62
     7
100
AcDbLine
 10
213.8984
 20
216.037115
 30
0.0
 11
216.724411
 21
216.037115
 31
0.0
  0
LINE
  5
47D
330
A
100
AcDbEntity
  8
0
 62
     7
100
AcDbLine
 10
211.072388
 20
216.037115
 30
0.0
 11
213.8984
 21
216.037115
 31
0.0
  0
LINE
  5
47C
330
A
100
AcDbEntity
  8
0
 62
     7
100
AcDbLine
 10
208.387969
 20
216.037115
 30
0.0
 11
211.072388
 21
216.037115
 31
0.0
  0
LINE
  5
47B
330
A
100
AcDbEntity
  8
0
 62
     7
100
AcDbLine
 10
205.979848
 20
216.037115
 30
0.0
 11
208.387969
 21
216.037115
 31
0.0
  0
LINE
  5
47A
330
A
100
AcDbEntity
  8
0
 62
     7
100
AcDbLine
 10
203.968945
 20
216.037115
 30
0.0
 11
205.979848
 21
216.037115
 31
0.0
  0
LINE
  5
479
330
A
100
AcDbEntity
  8
0
 62
     7
100
AcDbLine
 10
202.455859
 20
216.037115
 30
0.0
 11
203.968945
 21
216.037115
 31
0.0
  0
LINE
  5
478
330
A
100
AcDbEntity
  8
0
 62
     7
100
AcDbLine
 10
201.516726
 20
216.037115
 30
0.0
 11
202.455859
 21
216.037115
 31
0.0
  0
LINE
  5
477
330
A
100
AcDbEntity
  8
0
 62
     7
100
AcDbLine
 10
201.1984
 20
216.037115
 30
0.0
 11
201.516726
 21
216.037115
 31
0.0
  0
LINE
  5
476
330
A
100
AcDbEntity
  8
0
 62
     7
100
AcDbLine
 10
201.516726
 20
216.037115
 30
0.0
 11
201.1984
 21
216.037115
 31
0.0
  0
LINE
  5
475
330
A
100
AcDbEntity
  8
0
 62
     7
100
AcDbLine
 10
202.455859
 20
216.037115
 30
0.0
 11
201.516726
 21
216.037115
 31
0.0
  0
LINE
  5
474
330
A
100
AcDbEntity
  8
0
 62
     7
100
AcDbLine
 10
203.968945
 20
216.037115
 30
0.0
 11
202.455859
 21
216.037115
 31
0.0
  0
LINE
  5
473
330
A
100
AcDbEntity
  8
0
 62
     7
100
AcDbLine
 10
205.979848
 20
216.037115
 30
0.0
 11
203.968945
 21
216.037115
 31
0.0
  0
LINE
  5
472
330
A
100
AcDbEntity
  8
0
 62
     7
100
AcDbLine
 10
208.387969
 20
216.037115
 30
0.0
 11
205.979848
 21
216.037115
 31
0.0
  0
LINE
  5
471
330
A
100
AcDbEntity
  8
0
 62
     7
100
AcDbLine
 10
211.072388
 20
216.037115
 30
0.0
 11
208.387969
 21
216.037115
 31
0.0
  0
LINE
  5
470
330
A
100
AcDbEntity
  8
0
 62
     7
100
AcDbLine
 10
212.073188
 20
216.037115
 30
0.0
 11
211.072388
 21
216.037115
 31
0.0
  0
LINE
  5
46F
330
A
100
AcDbEntity
  8
0
 62
     7
100
AcDbLine
 10
216.724411
 20
216.037115
 30
0.0
 11
215.723267
 21
216.037115
 31
0.0
  0
LINE
  5
46E
330
A
100
AcDbEntity
  8
0
 62
     7
100
AcDbLine
 10
219.408485
 20
216.037115
 30
0.0
 11
216.724411
 21
216.037115
 31
0.0
  0
LINE
  5
46D
330
A
100
AcDbEntity
  8
0
 62
     7
100
AcDbLine
 10
221.816607
 20
216.037115
 30
0.0
 11
219.408485
 21
216.037115
 31
0.0
  0
LINE
  5
46C
330
A
100
AcDbEntity
  8
0
 62
     7
100
AcDbLine
 10
223.827509
 20
216.037115
 30
0.0
 11
221.816607
 21
216.037115
 31
0.0
  0
LINE
  5
46B
330
A
100
AcDbEntity
  8
0
 62
     7
100
AcDbLine
 10
225.340595
 20
216.037115
 30
0.0
 11
223.827509
 21
216.037115
 31
0.0
  0
LINE
  5
46A
330
A
100
AcDbEntity
  8
0
 62
     7
100
AcDbLine
 10
226.280073
 20
216.037115
 30
0.0
 11
225.340595
 21
216.037115
 31
0.0
  0
LINE
  5
469
330
A
100
AcDbEntity
  8
0
 62
     7
100
AcDbLine
 10
226.5984
 20
216.037115
 30
0.0
 11
226.280073
 21
216.037115
 31
0.0
  0
LINE
  5
468
330
A
100
AcDbEntity
  8
0
 62
     7
100
AcDbLine
 10
201.614912
 20
214.826853
 30
0.0
 11
201.298996
 21
214.826853
 31
0.0
  0
LINE
  5
467
330
A
100
AcDbEntity
  8
0
 62
     7
100
AcDbLine
 10
202.54681
 20
214.826853
 30
0.0
 11
201.614912
 21
214.826853
 31
0.0
  0
LINE
  5
466
330
A
100
AcDbEntity
  8
0
 62
     7
100
AcDbLine
 10
204.047838
 20
214.826853
 30
0.0
 11
202.54681
 21
214.826853
 31
0.0
  0
LINE
  5
465
330
A
100
AcDbEntity
  8
0
 62
     7
100
AcDbLine
 10
206.042893
 20
214.826853
 30
0.0
 11
204.047838
 21
214.826853
 31
0.0
  0
LINE
  5
464
330
A
100
AcDbEntity
  8
0
 62
     7
100
AcDbLine
 10
208.431722
 20
214.826853
 30
0.0
 11
206.042893
 21
214.826853
 31
0.0
  0
LINE
  5
463
330
A
100
AcDbEntity
  8
0
 62
     7
100
AcDbLine
 10
211.094781
 20
214.826853
 30
0.0
 11
208.431722
 21
214.826853
 31
0.0
  0
LINE
  5
462
330
A
100
AcDbEntity
  8
0
 62
     7
100
AcDbLine
 10
213.8984
 20
214.826853
 30
0.0
 11
211.094781
 21
214.826853
 31
0.0
  0
LINE
  5
461
330
A
100
AcDbEntity
  8
0
 62
     7
100
AcDbLine
 10
216.702018
 20
214.826853
 30
0.0
 11
213.8984
 21
214.826853
 31
0.0
  0
LINE
  5
460
330
A
100
AcDbEntity
  8
0
 62
     7
100
AcDbLine
 10
219.365077
 20
214.826853
 30
0.0
 11
216.702018
 21
214.826853
 31
0.0
  0
LINE
  5
45F
330
A
100
AcDbEntity
  8
0
 62
     7
100
AcDbLine
 10
221.753906
 20
214.826853
 30
0.0
 11
219.365077
 21
214.826853
 31
0.0
  0
LINE
  5
45E
330
A
100
AcDbEntity
  8
0
 62
     7
100
AcDbLine
 10
223.748961
 20
214.826853
 30
0.0
 11
221.753906
 21
214.826853
 31
0.0
  0
LINE
  5
45D
330
A
100
AcDbEntity
  8
0
 62
     7
100
AcDbLine
 10
225.249989
 20
214.826853
 30
0.0
 11
223.748961
 21
214.826853
 31
0.0
  0
LINE
  5
45C
330
A
100
AcDbEntity
  8
0
 62
     7
100
AcDbLine
 10
226.181887
 20
214.826853
 30
0.0
 11
225.249989
 21
214.826853
 31
0.0
  0
LINE
  5
45B
330
A
100
AcDbEntity
  8
0
 62
     7
100
AcDbLine
 10
226.497803
 20
214.826853
 30
0.0
 11
226.181887
 21
214.826853
 31
0.0
  0
LINE
  5
45A
330
A
100
AcDbEntity
  8
0
 62
     7
100
AcDbLine
 10
215.15517
 20
222.1308
 30
0.0
 11
215.15517
 21
219.83895
 31
0.0
  0
LINE
  5
459
330
A
100
AcDbEntity
  8
0
 62
     7
100
AcDbLine
 10
212.641629
 20
222.1308
 30
0.0
 11
212.641284
 21
219.83895
 31
0.0
  0
LINE
  5
458
330
A
100
AcDbEntity
  8
0
 62
     7
100
AcDbLine
 10
215.15517
 20
219.83895
 30
0.0
 11
215.137256
 21
219.709931
 31
0.0
  0
LINE
  5
457
330
A
100
AcDbEntity
  8
0
 62
     7
100
AcDbLine
 10
212.641284
 20
219.83895
 30
0.0
 11
212.659543
 21
219.709931
 31
0.0
  0
LINE
  5
456
330
A
100
AcDbEntity
  8
0
 62
     7
100
AcDbLine
 10
215.137256
 20
219.709931
 30
0.0
 11
215.005309
 21
219.498058
 31
0.0
  0
LINE
  5
455
330
A
100
AcDbEntity
  8
0
 62
     7
100
AcDbLine
 10
212.659543
 20
219.709931
 30
0.0
 11
212.79149
 21
219.498058
 31
0.0
  0
LINE
  5
454
330
A
100
AcDbEntity
  8
0
 62
     7
100
AcDbLine
 10
215.005309
 20
219.498058
 30
0.0
 11
214.777932
 21
219.386092
 31
0.0
  0
LINE
  5
453
330
A
100
AcDbEntity
  8
0
 62
     7
100
AcDbLine
 10
212.79149
 20
219.498058
 30
0.0
 11
213.018522
 21
219.386092
 31
0.0
  0
LINE
  5
452
330
A
100
AcDbEntity
  8
0
 62
     7
100
AcDbLine
 10
214.777932
 20
219.386092
 30
0.0
 11
214.706963
 21
219.339067
 31
0.0
  0
LINE
  5
451
330
A
100
AcDbEntity
  8
0
 62
     7
100
AcDbLine
 10
213.018522
 20
219.386092
 30
0.0
 11
213.089836
 21
219.339067
 31
0.0
  0
LINE
  5
450
330
A
100
AcDbEntity
  8
0
 62
     7
100
AcDbLine
 10
214.706963
 20
219.339067
 30
0.0
 11
214.689393
 21
219.247772
 31
0.0
  0
LINE
  5
44F
330
A
100
AcDbEntity
  8
0
 62
     7
100
AcDbLine
 10
214.645296
 20
219.339067
 30
0.0
 11
214.706963
 21
219.339067
 31
0.0
  0
LINE
  5
44E
330
A
100
AcDbEntity
  8
0
 62
     7
100
AcDbLine
 10
214.469941
 20
219.339067
 30
0.0
 11
214.645296
 21
219.339067
 31
0.0
  0
LINE
  5
44D
330
A
100
AcDbEntity
  8
0
 62
     7
100
AcDbLine
 10
214.207769
 20
219.339067
 30
0.0
 11
214.469941
 21
219.339067
 31
0.0
  0
LINE
  5
44C
330
A
100
AcDbEntity
  8
0
 62
     7
100
AcDbLine
 10
213.8984
 20
219.339067
 30
0.0
 11
214.207769
 21
219.339067
 31
0.0
  0
LINE
  5
44B
330
A
100
AcDbEntity
  8
0
 62
     7
100
AcDbLine
 10
213.58903
 20
219.339067
 30
0.0
 11
213.8984
 21
219.339067
 31
0.0
  0
LINE
  5
44A
330
A
100
AcDbEntity
  8
0
 62
     7
100
AcDbLine
 10
213.326514
 20
219.339067
 30
0.0
 11
213.58903
 21
219.339067
 31
0.0
  0
LINE
  5
449
330
A
100
AcDbEntity
  8
0
 62
     7
100
AcDbLine
 10
213.151158
 20
219.339067
 30
0.0
 11
213.326514
 21
219.339067
 31
0.0
  0
LINE
  5
448
330
A
100
AcDbEntity
  8
0
 62
     7
100
AcDbLine
 10
213.089836
 20
219.339067
 30
0.0
 11
213.151158
 21
219.339067
 31
0.0
  0
LINE
  5
447
330
A
100
AcDbEntity
  8
0
 62
     7
100
AcDbLine
 10
213.089836
 20
219.339067
 30
0.0
 11
213.107406
 21
219.247772
 31
0.0
  0
LINE
  5
446
330
A
100
AcDbEntity
  8
0
 62
     7
100
AcDbLine
 10
214.689393
 20
219.247772
 30
0.0
 11
214.728323
 21
219.186621
 31
0.0
  0
LINE
  5
445
330
A
100
AcDbEntity
  8
0
 62
     7
100
AcDbLine
 10
214.629104
 20
219.247772
 30
0.0
 11
214.689393
 21
219.247772
 31
0.0
  0
LINE
  5
444
330
A
100
AcDbEntity
  8
0
 62
     7
100
AcDbLine
 10
214.457539
 20
219.247772
 30
0.0
 11
214.629104
 21
219.247772
 31
0.0
  0
LINE
  5
443
330
A
100
AcDbEntity
  8
0
 62
     7
100
AcDbLine
 10
214.200879
 20
219.247772
 30
0.0
 11
214.457539
 21
219.247772
 31
0.0
  0
LINE
  5
442
330
A
100
AcDbEntity
  8
0
 62
     7
100
AcDbLine
 10
213.8984
 20
219.247772
 30
0.0
 11
214.200879
 21
219.247772
 31
0.0
  0
LINE
  5
441
330
A
100
AcDbEntity
  8
0
 62
     7
100
AcDbLine
 10
213.595576
 20
219.247772
 30
0.0
 11
213.8984
 21
219.247772
 31
0.0
  0
LINE
  5
440
330
A
100
AcDbEntity
  8
0
 62
     7
100
AcDbLine
 10
213.338916
 20
219.247772
 30
0.0
 11
213.595576
 21
219.247772
 31
0.0
  0
LINE
  5
43F
330
A
100
AcDbEntity
  8
0
 62
     7
100
AcDbLine
 10
213.16735
 20
219.247772
 30
0.0
 11
213.338916
 21
219.247772
 31
0.0
  0
LINE
  5
43E
330
A
100
AcDbEntity
  8
0
 62
     7
100
AcDbLine
 10
213.107406
 20
219.247772
 30
0.0
 11
213.16735
 21
219.247772
 31
0.0
  0
LINE
  5
43D
330
A
100
AcDbEntity
  8
0
 62
     7
100
AcDbLine
 10
213.107406
 20
219.247772
 30
0.0
 11
213.068476
 21
219.186621
 31
0.0
  0
LINE
  5
43C
330
A
100
AcDbEntity
  8
0
 62
     7
100
AcDbLine
 10
214.728323
 20
219.186621
 30
0.0
 11
214.814106
 21
219.112552
 31
0.0
  0
LINE
  5
43B
330
A
100
AcDbEntity
  8
0
 62
     7
100
AcDbLine
 10
213.068476
 20
219.186621
 30
0.0
 11
212.982349
 21
219.112552
 31
0.0
  0
LINE
  5
43A
330
A
100
AcDbEntity
  8
0
 62
     7
100
AcDbLine
 10
214.814106
 20
219.112552
 30
0.0
 11
214.965346
 21
218.944086
 31
0.0
  0
LINE
  5
439
330
A
100
AcDbEntity
  8
0
 62
     7
100
AcDbLine
 10
212.982349
 20
219.112552
 30
0.0
 11
212.831109
 21
218.944086
 31
0.0
  0
LINE
  5
438
330
A
100
AcDbEntity
  8
0
 62
     7
100
AcDbLine
 10
214.965346
 20
218.944086
 30
0.0
 11
215.086957
 21
218.752539
 31
0.0
  0
LINE
  5
437
330
A
100
AcDbEntity
  8
0
 62
     7
100
AcDbLine
 10
212.831109
 20
218.944086
 30
0.0
 11
212.709842
 21
218.752539
 31
0.0
  0
LINE
  5
436
330
A
100
AcDbEntity
  8
0
 62
     7
100
AcDbLine
 10
215.723267
 20
218.752539
 30
0.0
 11
215.723267
 21
216.037115
 31
0.0
  0
LINE
  5
435
330
A
100
AcDbEntity
  8
0
 62
     7
100
AcDbLine
 10
215.584429
 20
218.752539
 30
0.0
 11
215.723267
 21
218.752539
 31
0.0
  0
LINE
  5
434
330
A
100
AcDbEntity
  8
0
 62
     7
100
AcDbLine
 10
215.723267
 20
216.037115
 30
0.0
 11
215.584429
 21
216.037115
 31
0.0
  0
LINE
  5
433
330
A
100
AcDbEntity
  8
0
 62
     7
100
AcDbLine
 10
215.188932
 20
218.752539
 30
0.0
 11
215.584429
 21
218.752539
 31
0.0
  0
LINE
  5
432
330
A
100
AcDbEntity
  8
0
 62
     7
100
AcDbLine
 10
215.584429
 20
216.037115
 30
0.0
 11
215.188932
 21
216.037115
 31
0.0
  0
LINE
  5
431
330
A
100
AcDbEntity
  8
0
 62
     7
100
AcDbLine
 10
215.188932
 20
216.037115
 30
0.0
 11
214.59672
 21
216.037115
 31
0.0
  0
LINE
  5
430
330
A
100
AcDbEntity
  8
0
 62
     7
100
AcDbLine
 10
214.59672
 20
218.752539
 30
0.0
 11
215.188932
 21
218.752539
 31
0.0
  0
LINE
  5
42F
330
A
100
AcDbEntity
  8
0
 62
     7
100
AcDbLine
 10
214.59672
 20
216.037115
 30
0.0
 11
213.8984
 21
216.037115
 31
0.0
  0
LINE
  5
42E
330
A
100
AcDbEntity
  8
0
 62
     7
100
AcDbLine
 10
213.8984
 20
218.752539
 30
0.0
 11
214.59672
 21
218.752539
 31
0.0
  0
LINE
  5
42D
330
A
100
AcDbEntity
  8
0
 62
     7
100
AcDbLine
 10
213.200079
 20
218.752539
 30
0.0
 11
213.8984
 21
218.752539
 31
0.0
  0
LINE
  5
42C
330
A
100
AcDbEntity
  8
0
 62
     7
100
AcDbLine
 10
213.8984
 20
216.037115
 30
0.0
 11
213.200079
 21
216.037115
 31
0.0
  0
LINE
  5
42B
330
A
100
AcDbEntity
  8
0
 62
     7
100
AcDbLine
 10
213.200079
 20
216.037115
 30
0.0
 11
212.607867
 21
216.037115
 31
0.0
  0
LINE
  5
42A
330
A
100
AcDbEntity
  8
0
 62
     7
100
AcDbLine
 10
212.607867
 20
218.752539
 30
0.0
 11
213.200079
 21
218.752539
 31
0.0
  0
LINE
  5
429
330
A
100
AcDbEntity
  8
0
 62
     7
100
AcDbLine
 10
212.21237
 20
218.752539
 30
0.0
 11
212.607867
 21
218.752539
 31
0.0
  0
LINE
  5
428
330
A
100
AcDbEntity
  8
0
 62
     7
100
AcDbLine
 10
212.607867
 20
216.037115
 30
0.0
 11
212.21237
 21
216.037115
 31
0.0
  0
LINE
  5
427
330
A
100
AcDbEntity
  8
0
 62
     7
100
AcDbLine
 10
212.073188
 20
218.752539
 30
0.0
 11
212.21237
 21
218.752539
 31
0.0
  0
LINE
  5
426
330
A
100
AcDbEntity
  8
0
 62
     7
100
AcDbLine
 10
212.21237
 20
216.037115
 30
0.0
 11
212.073188
 21
216.037115
 31
0.0
  0
LINE
  5
425
330
A
100
AcDbEntity
  8
0
 62
     7
100
AcDbLine
 10
212.073188
 20
218.752539
 30
0.0
 11
212.073188
 21
216.037115
 31
0.0
  0
LINE
  5
424
330
A
100
AcDbEntity
  8
0
 62
     7
100
AcDbLine
 10
212.737058
 20
222.1308
 30
0.0
 11
212.641629
 21
222.1308
 31
0.0
  0
LINE
  5
423
330
A
100
AcDbEntity
  8
0
 62
     7
100
AcDbLine
 10
213.009565
 20
222.1308
 30
0.0
 11
212.737058
 21
222.1308
 31
0.0
  0
LINE
  5
422
330
A
100
AcDbEntity
  8
0
 62
     7
100
AcDbLine
 10
213.417464
 20
222.1308
 30
0.0
 11
213.009565
 21
222.1308
 31
0.0
  0
LINE
  5
421
330
A
100
AcDbEntity
  8
0
 62
     7
100
AcDbLine
 10
213.8984
 20
222.1308
 30
0.0
 11
213.417464
 21
222.1308
 31
0.0
  0
LINE
  5
420
330
A
100
AcDbEntity
  8
0
 62
     7
100
AcDbLine
 10
214.78689
 20
222.1308
 30
0.0
 11
214.379335
 21
222.1308
 31
0.0
  0
LINE
  5
41F
330
A
100
AcDbEntity
  8
0
 62
     7
100
AcDbLine
 10
215.059397
 20
222.1308
 30
0.0
 11
214.78689
 21
222.1308
 31
0.0
  0
LINE
  5
41E
330
A
100
AcDbEntity
  8
0
 62
     7
100
AcDbLine
 10
215.15517
 20
222.1308
 30
0.0
 11
215.059397
 21
222.1308
 31
0.0
  0
LINE
  5
41D
330
A
100
AcDbEntity
  8
0
 62
     7
100
AcDbLine
 10
213.698239
 20
214.826853
 30
0.0
 11
213.698239
 21
214.420676
 31
0.0
  0
LINE
  5
41C
330
A
100
AcDbEntity
  8
0
 62
     7
100
AcDbLine
 10
214.039648
 20
214.420676
 30
0.0
 11
214.098215
 21
214.420676
 31
0.0
  0
LINE
  5
41B
330
A
100
AcDbEntity
  8
0
 62
     7
100
AcDbLine
 10
213.8984
 20
214.420676
 30
0.0
 11
214.039648
 21
214.420676
 31
0.0
  0
LINE
  5
41A
330
A
100
AcDbEntity
  8
0
 62
     7
100
AcDbLine
 10
213.756806
 20
214.420676
 30
0.0
 11
213.8984
 21
214.420676
 31
0.0
  0
LINE
  5
419
330
A
100
AcDbEntity
  8
0
 62
     7
100
AcDbLine
 10
213.698239
 20
214.420676
 30
0.0
 11
213.756806
 21
214.420676
 31
0.0
  0
LINE
  5
418
330
A
100
AcDbEntity
  8
0
 62
     7
100
AcDbLine
 10
213.756806
 20
214.420676
 30
0.0
 11
213.698239
 21
214.420676
 31
0.0
  0
LINE
  5
417
330
A
100
AcDbEntity
  8
0
 62
     7
100
AcDbLine
 10
213.8984
 20
214.420676
 30
0.0
 11
213.756806
 21
214.420676
 31
0.0
  0
LINE
  5
416
330
A
100
AcDbEntity
  8
0
 62
     7
100
AcDbLine
 10
214.039648
 20
214.420676
 30
0.0
 11
213.8984
 21
214.420676
 31
0.0
  0
LINE
  5
415
330
A
100
AcDbEntity
  8
0
 62
     7
100
AcDbLine
 10
214.098215
 20
214.420676
 30
0.0
 11
214.039648
 21
214.420676
 31
0.0
  0
LINE
  5
414
330
A
100
AcDbEntity
  8
0
 62
     7
100
AcDbLine
 10
210.754405
 20
214.826853
 30
0.0
 11
210.754405
 21
214.420676
 31
0.0
  0
LINE
  5
413
330
A
100
AcDbEntity
  8
0
 62
     7
100
AcDbLine
 10
211.140945
 20
214.420676
 30
0.0
 11
211.120964
 21
214.420676
 31
0.0
  0
LINE
  5
412
330
A
100
AcDbEntity
  8
0
 62
     7
100
AcDbLine
 10
211.047583
 20
214.420676
 30
0.0
 11
211.140945
 21
214.420676
 31
0.0
  0
LINE
  5
411
330
A
100
AcDbEntity
  8
0
 62
     7
100
AcDbLine
 10
210.895999
 20
214.420676
 30
0.0
 11
211.047583
 21
214.420676
 31
0.0
  0
LINE
  5
410
330
A
100
AcDbEntity
  8
0
 62
     7
100
AcDbLine
 10
210.774387
 20
214.420676
 30
0.0
 11
210.895999
 21
214.420676
 31
0.0
  0
LINE
  5
40F
330
A
100
AcDbEntity
  8
0
 62
     7
100
AcDbLine
 10
210.754405
 20
214.420676
 30
0.0
 11
210.774387
 21
214.420676
 31
0.0
  0
LINE
  5
40E
330
A
100
AcDbEntity
  8
0
 62
     7
100
AcDbLine
 10
210.847767
 20
214.420676
 30
0.0
 11
210.754405
 21
214.420676
 31
0.0
  0
LINE
  5
40D
330
A
100
AcDbEntity
  8
0
 62
     7
100
AcDbLine
 10
210.999352
 20
214.420676
 30
0.0
 11
210.847767
 21
214.420676
 31
0.0
  0
LINE
  5
40C
330
A
100
AcDbEntity
  8
0
 62
     7
100
AcDbLine
 10
211.120964
 20
214.420676
 30
0.0
 11
210.999352
 21
214.420676
 31
0.0
  0
LINE
  5
40B
330
A
100
AcDbEntity
  8
0
 62
     7
100
AcDbLine
 10
208.249821
 20
214.420676
 30
0.0
 11
208.371433
 21
214.420676
 31
0.0
  0
LINE
  5
40A
330
A
100
AcDbEntity
  8
0
 62
     7
100
AcDbLine
 10
208.098237
 20
214.420676
 30
0.0
 11
208.249821
 21
214.420676
 31
0.0
  0
LINE
  5
409
330
A
100
AcDbEntity
  8
0
 62
     7
100
AcDbLine
 10
208.004875
 20
214.420676
 30
0.0
 11
208.098237
 21
214.420676
 31
0.0
  0
LINE
  5
408
330
A
100
AcDbEntity
  8
0
 62
     7
100
AcDbLine
 10
208.024856
 20
214.420676
 30
0.0
 11
208.004875
 21
214.420676
 31
0.0
  0
LINE
  5
407
330
A
100
AcDbEntity
  8
0
 62
     7
100
AcDbLine
 10
208.146468
 20
214.420676
 30
0.0
 11
208.024856
 21
214.420676
 31
0.0
  0
LINE
  5
406
330
A
100
AcDbEntity
  8
0
 62
     7
100
AcDbLine
 10
208.298052
 20
214.420676
 30
0.0
 11
208.146468
 21
214.420676
 31
0.0
  0
LINE
  5
405
330
A
100
AcDbEntity
  8
0
 62
     7
100
AcDbLine
 10
208.391414
 20
214.420676
 30
0.0
 11
208.298052
 21
214.420676
 31
0.0
  0
LINE
  5
404
330
A
100
AcDbEntity
  8
0
 62
     7
100
AcDbLine
 10
208.371433
 20
214.420676
 30
0.0
 11
208.391414
 21
214.420676
 31
0.0
  0
LINE
  5
403
330
A
100
AcDbEntity
  8
0
 62
     7
100
AcDbLine
 10
205.97847
 20
214.420676
 30
0.0
 11
206.037036
 21
214.420676
 31
0.0
  0
LINE
  5
402
330
A
100
AcDbEntity
  8
0
 62
     7
100
AcDbLine
 10
205.836876
 20
214.420676
 30
0.0
 11
205.97847
 21
214.420676
 31
0.0
  0
LINE
  5
401
330
A
100
AcDbEntity
  8
0
 62
     7
100
AcDbLine
 10
205.695627
 20
214.420676
 30
0.0
 11
205.836876
 21
214.420676
 31
0.0
  0
LINE
  5
400
330
A
100
AcDbEntity
  8
0
 62
     7
100
AcDbLine
 10
205.637061
 20
214.420676
 30
0.0
 11
205.695627
 21
214.420676
 31
0.0
  0
LINE
  5
3FF
330
A
100
AcDbEntity
  8
0
 62
     7
100
AcDbLine
 10
205.695627
 20
214.420676
 30
0.0
 11
205.637061
 21
214.420676
 31
0.0
  0
LINE
  5
3FE
330
A
100
AcDbEntity
  8
0
 62
     7
100
AcDbLine
 10
205.836876
 20
214.420676
 30
0.0
 11
205.695627
 21
214.420676
 31
0.0
  0
LINE
  5
3FD
330
A
100
AcDbEntity
  8
0
 62
     7
100
AcDbLine
 10
205.97847
 20
214.420676
 30
0.0
 11
205.836876
 21
214.420676
 31
0.0
  0
LINE
  5
3FC
330
A
100
AcDbEntity
  8
0
 62
     7
100
AcDbLine
 10
206.037036
 20
214.420676
 30
0.0
 11
205.97847
 21
214.420676
 31
0.0
  0
LINE
  5
3FB
330
A
100
AcDbEntity
  8
0
 62
     7
100
AcDbLine
 10
204.21837
 20
214.420676
 30
0.0
 11
204.198389
 21
214.420676
 31
0.0
  0
LINE
  5
3FA
330
A
100
AcDbEntity
  8
0
 62
     7
100
AcDbLine
 10
204.125353
 20
214.420676
 30
0.0
 11
204.21837
 21
214.420676
 31
0.0
  0
LINE
  5
3F9
330
A
100
AcDbEntity
  8
0
 62
     7
100
AcDbLine
 10
203.973424
 20
214.420676
 30
0.0
 11
204.125353
 21
214.420676
 31
0.0
  0
LINE
  5
3F8
330
A
100
AcDbEntity
  8
0
 62
     7
100
AcDbLine
 10
203.852157
 20
214.420676
 30
0.0
 11
203.973424
 21
214.420676
 31
0.0
  0
LINE
  5
3F7
330
A
100
AcDbEntity
  8
0
 62
     7
100
AcDbLine
 10
203.832175
 20
214.420676
 30
0.0
 11
203.852157
 21
214.420676
 31
0.0
  0
LINE
  5
3F6
330
A
100
AcDbEntity
  8
0
 62
     7
100
AcDbLine
 10
203.925193
 20
214.420676
 30
0.0
 11
203.832175
 21
214.420676
 31
0.0
  0
LINE
  5
3F5
330
A
100
AcDbEntity
  8
0
 62
     7
100
AcDbLine
 10
204.077121
 20
214.420676
 30
0.0
 11
203.925193
 21
214.420676
 31
0.0
  0
LINE
  5
3F4
330
A
100
AcDbEntity
  8
0
 62
     7
100
AcDbLine
 10
204.198389
 20
214.420676
 30
0.0
 11
204.077121
 21
214.420676
 31
0.0
  0
LINE
  5
3F3
330
A
100
AcDbEntity
  8
0
 62
     7
100
AcDbLine
 10
202.938173
 20
214.420676
 30
0.0
 11
203.05944
 21
214.420676
 31
0.0
  0
LINE
  5
3F2
330
A
100
AcDbEntity
  8
0
 62
     7
100
AcDbLine
 10
202.786244
 20
214.420676
 30
0.0
 11
202.938173
 21
214.420676
 31
0.0
  0
LINE
  5
3F1
330
A
100
AcDbEntity
  8
0
 62
     7
100
AcDbLine
 10
202.693226
 20
214.420676
 30
0.0
 11
202.786244
 21
214.420676
 31
0.0
  0
LINE
  5
3F0
330
A
100
AcDbEntity
  8
0
 62
     7
100
AcDbLine
 10
202.713208
 20
214.420676
 30
0.0
 11
202.693226
 21
214.420676
 31
0.0
  0
LINE
  5
3EF
330
A
100
AcDbEntity
  8
0
 62
     7
100
AcDbLine
 10
202.834475
 20
214.420676
 30
0.0
 11
202.713208
 21
214.420676
 31
0.0
  0
LINE
  5
3EE
330
A
100
AcDbEntity
  8
0
 62
     7
100
AcDbLine
 10
202.986404
 20
214.420676
 30
0.0
 11
202.834475
 21
214.420676
 31
0.0
  0
LINE
  5
3ED
330
A
100
AcDbEntity
  8
0
 62
     7
100
AcDbLine
 10
203.079422
 20
214.420676
 30
0.0
 11
202.986404
 21
214.420676
 31
0.0
  0
LINE
  5
3EC
330
A
100
AcDbEntity
  8
0
 62
     7
100
AcDbLine
 10
203.05944
 20
214.420676
 30
0.0
 11
203.079422
 21
214.420676
 31
0.0
  0
LINE
  5
3EB
330
A
100
AcDbEntity
  8
0
 62
     7
100
AcDbLine
 10
202.297729
 20
214.420676
 30
0.0
 11
202.297729
 21
214.826853
 31
0.0
  0
LINE
  5
3EA
330
A
100
AcDbEntity
  8
0
 62
     7
100
AcDbLine
 10
202.49789
 20
214.420676
 30
0.0
 11
202.639138
 21
214.420676
 31
0.0
  0
LINE
  5
3E9
330
A
100
AcDbEntity
  8
0
 62
     7
100
AcDbLine
 10
202.356641
 20
214.420676
 30
0.0
 11
202.49789
 21
214.420676
 31
0.0
  0
LINE
  5
3E8
330
A
100
AcDbEntity
  8
0
 62
     7
100
AcDbLine
 10
202.297729
 20
214.420676
 30
0.0
 11
202.356641
 21
214.420676
 31
0.0
  0
LINE
  5
3E7
330
A
100
AcDbEntity
  8
0
 62
     7
100
AcDbLine
 10
202.356296
 20
214.420676
 30
0.0
 11
202.297729
 21
214.420676
 31
0.0
  0
LINE
  5
3E6
330
A
100
AcDbEntity
  8
0
 62
     7
100
AcDbLine
 10
202.49789
 20
214.420676
 30
0.0
 11
202.356296
 21
214.420676
 31
0.0
  0
LINE
  5
3E5
330
A
100
AcDbEntity
  8
0
 62
     7
100
AcDbLine
 10
202.639138
 20
214.420676
 30
0.0
 11
202.49789
 21
214.420676
 31
0.0
  0
LINE
  5
3E4
330
A
100
AcDbEntity
  8
0
 62
     7
100
AcDbLine
 10
202.697705
 20
214.420676
 30
0.0
 11
202.639138
 21
214.420676
 31
0.0
  0
LINE
  5
3E3
330
A
100
AcDbEntity
  8
0
 62
     7
100
AcDbLine
 10
202.639138
 20
214.420676
 30
0.0
 11
202.697705
 21
214.420676
 31
0.0
  0
LINE
  5
3E2
330
A
100
AcDbEntity
  8
0
 62
     7
100
AcDbLine
 10
203.079422
 20
214.826853
 30
0.0
 11
203.079422
 21
214.420676
 31
0.0
  0
LINE
  5
3E1
330
A
100
AcDbEntity
  8
0
 62
     7
100
AcDbLine
 10
202.693226
 20
214.420676
 30
0.0
 11
202.693226
 21
214.826853
 31
0.0
  0
LINE
  5
3E0
330
A
100
AcDbEntity
  8
0
 62
     7
100
AcDbLine
 10
202.986404
 20
214.420676
 30
0.0
 11
203.079422
 21
214.420676
 31
0.0
  0
LINE
  5
3DF
330
A
100
AcDbEntity
  8
0
 62
     7
100
AcDbLine
 10
202.834475
 20
214.420676
 30
0.0
 11
202.986404
 21
214.420676
 31
0.0
  0
LINE
  5
3DE
330
A
100
AcDbEntity
  8
0
 62
     7
100
AcDbLine
 10
202.713208
 20
214.420676
 30
0.0
 11
202.834475
 21
214.420676
 31
0.0
  0
LINE
  5
3DD
330
A
100
AcDbEntity
  8
0
 62
     7
100
AcDbLine
 10
202.693226
 20
214.420676
 30
0.0
 11
202.713208
 21
214.420676
 31
0.0
  0
LINE
  5
3DC
330
A
100
AcDbEntity
  8
0
 62
     7
100
AcDbLine
 10
202.786244
 20
214.420676
 30
0.0
 11
202.693226
 21
214.420676
 31
0.0
  0
LINE
  5
3DB
330
A
100
AcDbEntity
  8
0
 62
     7
100
AcDbLine
 10
202.938173
 20
214.420676
 30
0.0
 11
202.786244
 21
214.420676
 31
0.0
  0
LINE
  5
3DA
330
A
100
AcDbEntity
  8
0
 62
     7
100
AcDbLine
 10
203.05944
 20
214.420676
 30
0.0
 11
202.938173
 21
214.420676
 31
0.0
  0
LINE
  5
3D9
330
A
100
AcDbEntity
  8
0
 62
     7
100
AcDbLine
 10
203.079422
 20
214.420676
 30
0.0
 11
203.05944
 21
214.420676
 31
0.0
  0
LINE
  5
3D8
330
A
100
AcDbEntity
  8
0
 62
     7
100
AcDbLine
 10
204.21837
 20
214.826853
 30
0.0
 11
204.21837
 21
214.420676
 31
0.0
  0
LINE
  5
3D7
330
A
100
AcDbEntity
  8
0
 62
     7
100
AcDbLine
 10
203.832175
 20
214.826853
 30
0.0
 11
203.832175
 21
214.420676
 31
0.0
  0
LINE
  5
3D6
330
A
100
AcDbEntity
  8
0
 62
     7
100
AcDbLine
 10
204.077121
 20
214.420676
 30
0.0
 11
204.198389
 21
214.420676
 31
0.0
  0
LINE
  5
3D5
330
A
100
AcDbEntity
  8
0
 62
     7
100
AcDbLine
 10
203.925193
 20
214.420676
 30
0.0
 11
204.077121
 21
214.420676
 31
0.0
  0
LINE
  5
3D4
330
A
100
AcDbEntity
  8
0
 62
     7
100
AcDbLine
 10
203.832175
 20
214.420676
 30
0.0
 11
203.925193
 21
214.420676
 31
0.0
  0
LINE
  5
3D3
330
A
100
AcDbEntity
  8
0
 62
     7
100
AcDbLine
 10
203.852157
 20
214.420676
 30
0.0
 11
203.832175
 21
214.420676
 31
0.0
  0
LINE
  5
3D2
330
A
100
AcDbEntity
  8
0
 62
     7
100
AcDbLine
 10
203.973424
 20
214.420676
 30
0.0
 11
203.852157
 21
214.420676
 31
0.0
  0
LINE
  5
3D1
330
A
100
AcDbEntity
  8
0
 62
     7
100
AcDbLine
 10
204.125353
 20
214.420676
 30
0.0
 11
203.973424
 21
214.420676
 31
0.0
  0
LINE
  5
3D0
330
A
100
AcDbEntity
  8
0
 62
     7
100
AcDbLine
 10
204.21837
 20
214.420676
 30
0.0
 11
204.125353
 21
214.420676
 31
0.0
  0
LINE
  5
3CF
330
A
100
AcDbEntity
  8
0
 62
     7
100
AcDbLine
 10
204.198389
 20
214.420676
 30
0.0
 11
204.21837
 21
214.420676
 31
0.0
  0
LINE
  5
3CE
330
A
100
AcDbEntity
  8
0
 62
     7
100
AcDbLine
 10
206.037036
 20
214.826853
 30
0.0
 11
206.037036
 21
214.420676
 31
0.0
  0
LINE
  5
3CD
330
A
100
AcDbEntity
  8
0
 62
     7
100
AcDbLine
 10
206.037036
 20
214.420676
 30
0.0
 11
205.97847
 21
214.420676
 31
0.0
  0
LINE
  5
3CC
330
A
100
AcDbEntity
  8
0
 62
     7
100
AcDbLine
 10
205.97847
 20
214.420676
 30
0.0
 11
206.037036
 21
214.420676
 31
0.0
  0
LINE
  5
3CB
330
A
100
AcDbEntity
  8
0
 62
     7
100
AcDbLine
 10
205.836876
 20
214.420676
 30
0.0
 11
205.97847
 21
214.420676
 31
0.0
  0
LINE
  5
3CA
330
A
100
AcDbEntity
  8
0
 62
     7
100
AcDbLine
 10
205.695627
 20
214.420676
 30
0.0
 11
205.836876
 21
214.420676
 31
0.0
  0
LINE
  5
3C9
330
A
100
AcDbEntity
  8
0
 62
     7
100
AcDbLine
 10
205.637061
 20
214.420676
 30
0.0
 11
205.695627
 21
214.420676
 31
0.0
  0
LINE
  5
3C8
330
A
100
AcDbEntity
  8
0
 62
     7
100
AcDbLine
 10
205.695627
 20
214.420676
 30
0.0
 11
205.637061
 21
214.420676
 31
0.0
  0
LINE
  5
3C7
330
A
100
AcDbEntity
  8
0
 62
     7
100
AcDbLine
 10
205.836876
 20
214.420676
 30
0.0
 11
205.695627
 21
214.420676
 31
0.0
  0
LINE
  5
3C6
330
A
100
AcDbEntity
  8
0
 62
     7
100
AcDbLine
 10
205.97847
 20
214.420676
 30
0.0
 11
205.836876
 21
214.420676
 31
0.0
  0
LINE
  5
3C5
330
A
100
AcDbEntity
  8
0
 62
     7
100
AcDbLine
 10
208.391414
 20
214.826853
 30
0.0
 11
208.391414
 21
214.420676
 31
0.0
  0
LINE
  5
3C4
330
A
100
AcDbEntity
  8
0
 62
     7
100
AcDbLine
 10
208.004875
 20
214.826853
 30
0.0
 11
208.004875
 21
214.420676
 31
0.0
  0
LINE
  5
3C3
330
A
100
AcDbEntity
  8
0
 62
     7
100
AcDbLine
 10
208.249821
 20
214.420676
 30
0.0
 11
208.098237
 21
214.420676
 31
0.0
  0
LINE
  5
3C2
330
A
100
AcDbEntity
  8
0
 62
     7
100
AcDbLine
 10
208.371433
 20
214.420676
 30
0.0
 11
208.249821
 21
214.420676
 31
0.0
  0
LINE
  5
3C1
330
A
100
AcDbEntity
  8
0
 62
     7
100
AcDbLine
 10
208.391414
 20
214.420676
 30
0.0
 11
208.371433
 21
214.420676
 31
0.0
  0
LINE
  5
3C0
330
A
100
AcDbEntity
  8
0
 62
     7
100
AcDbLine
 10
208.298052
 20
214.420676
 30
0.0
 11
208.391414
 21
214.420676
 31
0.0
  0
LINE
  5
3BF
330
A
100
AcDbEntity
  8
0
 62
     7
100
AcDbLine
 10
208.146468
 20
214.420676
 30
0.0
 11
208.298052
 21
214.420676
 31
0.0
  0
LINE
  5
3BE
330
A
100
AcDbEntity
  8
0
 62
     7
100
AcDbLine
 10
208.024856
 20
214.420676
 30
0.0
 11
208.146468
 21
214.420676
 31
0.0
  0
LINE
  5
3BD
330
A
100
AcDbEntity
  8
0
 62
     7
100
AcDbLine
 10
208.004875
 20
214.420676
 30
0.0
 11
208.024856
 21
214.420676
 31
0.0
  0
LINE
  5
3BC
330
A
100
AcDbEntity
  8
0
 62
     7
100
AcDbLine
 10
208.098237
 20
214.420676
 30
0.0
 11
208.004875
 21
214.420676
 31
0.0
  0
LINE
  5
3BB
330
A
100
AcDbEntity
  8
0
 62
     7
100
AcDbLine
 10
210.754405
 20
214.826853
 30
0.0
 11
210.754405
 21
214.420676
 31
0.0
  0
LINE
  5
3BA
330
A
100
AcDbEntity
  8
0
 62
     7
100
AcDbLine
 10
211.047583
 20
214.420676
 30
0.0
 11
210.895999
 21
214.420676
 31
0.0
  0
LINE
  5
3B9
330
A
100
AcDbEntity
  8
0
 62
     7
100
AcDbLine
 10
211.140945
 20
214.420676
 30
0.0
 11
211.047583
 21
214.420676
 31
0.0
  0
LINE
  5
3B8
330
A
100
AcDbEntity
  8
0
 62
     7
100
AcDbLine
 10
211.120964
 20
214.420676
 30
0.0
 11
211.140945
 21
214.420676
 31
0.0
  0
LINE
  5
3B7
330
A
100
AcDbEntity
  8
0
 62
     7
100
AcDbLine
 10
210.999352
 20
214.420676
 30
0.0
 11
211.120964
 21
214.420676
 31
0.0
  0
LINE
  5
3B6
330
A
100
AcDbEntity
  8
0
 62
     7
100
AcDbLine
 10
210.847767
 20
214.420676
 30
0.0
 11
210.999352
 21
214.420676
 31
0.0
  0
LINE
  5
3B5
330
A
100
AcDbEntity
  8
0
 62
     7
100
AcDbLine
 10
210.754405
 20
214.420676
 30
0.0
 11
210.847767
 21
214.420676
 31
0.0
  0
LINE
  5
3B4
330
A
100
AcDbEntity
  8
0
 62
     7
100
AcDbLine
 10
210.774387
 20
214.420676
 30
0.0
 11
210.754405
 21
214.420676
 31
0.0
  0
LINE
  5
3B3
330
A
100
AcDbEntity
  8
0
 62
     7
100
AcDbLine
 10
210.895999
 20
214.420676
 30
0.0
 11
210.774387
 21
214.420676
 31
0.0
  0
LINE
  5
3B2
330
A
100
AcDbEntity
  8
0
 62
     7
100
AcDbLine
 10
214.098215
 20
214.826853
 30
0.0
 11
214.098215
 21
214.420676
 31
0.0
  0
LINE
  5
3B1
330
A
100
AcDbEntity
  8
0
 62
     7
100
AcDbLine
 10
213.698239
 20
214.826853
 30
0.0
 11
213.698239
 21
214.420676
 31
0.0
  0
LINE
  5
3B0
330
A
100
AcDbEntity
  8
0
 62
     7
100
AcDbLine
 10
214.039648
 20
214.420676
 30
0.0
 11
213.8984
 21
214.420676
 31
0.0
  0
LINE
  5
3AF
330
A
100
AcDbEntity
  8
0
 62
     7
100
AcDbLine
 10
214.098215
 20
214.420676
 30
0.0
 11
214.039648
 21
214.420676
 31
0.0
  0
LINE
  5
3AE
330
A
100
AcDbEntity
  8
0
 62
     7
100
AcDbLine
 10
214.039648
 20
214.420676
 30
0.0
 11
214.098215
 21
214.420676
 31
0.0
  0
LINE
  5
3AD
330
A
100
AcDbEntity
  8
0
 62
     7
100
AcDbLine
 10
213.8984
 20
214.420676
 30
0.0
 11
214.039648
 21
214.420676
 31
0.0
  0
LINE
  5
3AC
330
A
100
AcDbEntity
  8
0
 62
     7
100
AcDbLine
 10
213.756806
 20
214.420676
 30
0.0
 11
213.8984
 21
214.420676
 31
0.0
  0
LINE
  5
3AB
330
A
100
AcDbEntity
  8
0
 62
     7
100
AcDbLine
 10
213.698239
 20
214.420676
 30
0.0
 11
213.756806
 21
214.420676
 31
0.0
  0
LINE
  5
3AA
330
A
100
AcDbEntity
  8
0
 62
     7
100
AcDbLine
 10
213.756806
 20
214.420676
 30
0.0
 11
213.698239
 21
214.420676
 31
0.0
  0
LINE
  5
3A9
330
A
100
AcDbEntity
  8
0
 62
     7
100
AcDbLine
 10
213.8984
 20
214.420676
 30
0.0
 11
213.756806
 21
214.420676
 31
0.0
  0
LINE
  5
3A8
330
A
100
AcDbEntity
  8
0
 62
     7
100
AcDbLine
 10
217.042049
 20
214.826853
 30
0.0
 11
217.042049
 21
214.420676
 31
0.0
  0
LINE
  5
3A7
330
A
100
AcDbEntity
  8
0
 62
     7
100
AcDbLine
 10
216.949032
 20
214.420676
 30
0.0
 11
217.042049
 21
214.420676
 31
0.0
  0
LINE
  5
3A6
330
A
100
AcDbEntity
  8
0
 62
     7
100
AcDbLine
 10
216.797103
 20
214.420676
 30
0.0
 11
216.949032
 21
214.420676
 31
0.0
  0
LINE
  5
3A5
330
A
100
AcDbEntity
  8
0
 62
     7
100
AcDbLine
 10
216.675836
 20
214.420676
 30
0.0
 11
216.797103
 21
214.420676
 31
0.0
  0
LINE
  5
3A4
330
A
100
AcDbEntity
  8
0
 62
     7
100
AcDbLine
 10
216.655854
 20
214.420676
 30
0.0
 11
216.675836
 21
214.420676
 31
0.0
  0
LINE
  5
3A3
330
A
100
AcDbEntity
  8
0
 62
     7
100
AcDbLine
 10
216.7488720000001
 20
214.420676
 30
0.0
 11
216.655854
 21
214.420676
 31
0.0
  0
LINE
  5
3A2
330
A
100
AcDbEntity
  8
0
 62
     7
100
AcDbLine
 10
216.9008
 20
214.420676
 30
0.0
 11
216.7488720000001
 21
214.420676
 31
0.0
  0
LINE
  5
3A1
330
A
100
AcDbEntity
  8
0
 62
     7
100
AcDbLine
 10
217.022068
 20
214.420676
 30
0.0
 11
216.9008
 21
214.420676
 31
0.0
  0
LINE
  5
3A0
330
A
100
AcDbEntity
  8
0
 62
     7
100
AcDbLine
 10
217.042049
 20
214.420676
 30
0.0
 11
217.022068
 21
214.420676
 31
0.0
  0
LINE
  5
39F
330
A
100
AcDbEntity
  8
0
 62
     7
100
AcDbLine
 10
219.79158
 20
214.826853
 30
0.0
 11
219.79158
 21
214.420676
 31
0.0
  0
LINE
  5
39E
330
A
100
AcDbEntity
  8
0
 62
     7
100
AcDbLine
 10
219.405385
 20
214.826853
 30
0.0
 11
219.405385
 21
214.420676
 31
0.0
  0
LINE
  5
39D
330
A
100
AcDbEntity
  8
0
 62
     7
100
AcDbLine
 10
219.650331
 20
214.420676
 30
0.0
 11
219.771598
 21
214.420676
 31
0.0
  0
LINE
  5
39C
330
A
100
AcDbEntity
  8
0
 62
     7
100
AcDbLine
 10
219.498402
 20
214.420676
 30
0.0
 11
219.650331
 21
214.420676
 31
0.0
  0
LINE
  5
39B
330
A
100
AcDbEntity
  8
0
 62
     7
100
AcDbLine
 10
219.405385
 20
214.420676
 30
0.0
 11
219.498402
 21
214.420676
 31
0.0
  0
LINE
  5
39A
330
A
100
AcDbEntity
  8
0
 62
     7
100
AcDbLine
 10
219.425366
 20
214.420676
 30
0.0
 11
219.405385
 21
214.420676
 31
0.0
  0
LINE
  5
399
330
A
100
AcDbEntity
  8
0
 62
     7
100
AcDbLine
 10
219.546634
 20
214.420676
 30
0.0
 11
219.425366
 21
214.420676
 31
0.0
  0
LINE
  5
398
330
A
100
AcDbEntity
  8
0
 62
     7
100
AcDbLine
 10
219.698562
 20
214.420676
 30
0.0
 11
219.546634
 21
214.420676
 31
0.0
  0
LINE
  5
397
330
A
100
AcDbEntity
  8
0
 62
     7
100
AcDbLine
 10
219.79158
 20
214.420676
 30
0.0
 11
219.698562
 21
214.420676
 31
0.0
  0
LINE
  5
396
330
A
100
AcDbEntity
  8
0
 62
     7
100
AcDbLine
 10
219.771598
 20
214.420676
 30
0.0
 11
219.79158
 21
214.420676
 31
0.0
  0
LINE
  5
395
330
A
100
AcDbEntity
  8
0
 62
     7
100
AcDbLine
 10
221.759763
 20
214.826853
 30
0.0
 11
221.759763
 21
214.420676
 31
0.0
  0
LINE
  5
394
330
A
100
AcDbEntity
  8
0
 62
     7
100
AcDbLine
 10
221.959578
 20
214.420676
 30
0.0
 11
222.101172
 21
214.420676
 31
0.0
  0
LINE
  5
393
330
A
100
AcDbEntity
  8
0
 62
     7
100
AcDbLine
 10
221.81833
 20
214.420676
 30
0.0
 11
221.959578
 21
214.420676
 31
0.0
  0
LINE
  5
392
330
A
100
AcDbEntity
  8
0
 62
     7
100
AcDbLine
 10
221.759763
 20
214.420676
 30
0.0
 11
221.81833
 21
214.420676
 31
0.0
  0
LINE
  5
391
330
A
100
AcDbEntity
  8
0
 62
     7
100
AcDbLine
 10
221.81833
 20
214.420676
 30
0.0
 11
221.759763
 21
214.420676
 31
0.0
  0
LINE
  5
390
330
A
100
AcDbEntity
  8
0
 62
     7
100
AcDbLine
 10
221.959578
 20
214.420676
 30
0.0
 11
221.81833
 21
214.420676
 31
0.0
  0
LINE
  5
38F
330
A
100
AcDbEntity
  8
0
 62
     7
100
AcDbLine
 10
222.101172
 20
214.420676
 30
0.0
 11
221.959578
 21
214.420676
 31
0.0
  0
LINE
  5
38E
330
A
100
AcDbEntity
  8
0
 62
     7
100
AcDbLine
 10
222.159738
 20
214.420676
 30
0.0
 11
222.101172
 21
214.420676
 31
0.0
  0
LINE
  5
38D
330
A
100
AcDbEntity
  8
0
 62
     7
100
AcDbLine
 10
222.101172
 20
214.420676
 30
0.0
 11
222.159738
 21
214.420676
 31
0.0
  0
LINE
  5
38C
330
A
100
AcDbEntity
  8
0
 62
     7
100
AcDbLine
 10
223.964624
 20
214.826853
 30
0.0
 11
223.964624
 21
214.420676
 31
0.0
  0
LINE
  5
38B
330
A
100
AcDbEntity
  8
0
 62
     7
100
AcDbLine
 10
223.578084
 20
214.826853
 30
0.0
 11
223.578084
 21
214.420676
 31
0.0
  0
LINE
  5
38A
330
A
100
AcDbEntity
  8
0
 62
     7
100
AcDbLine
 10
223.823031
 20
214.420676
 30
0.0
 11
223.671446
 21
214.420676
 31
0.0
  0
LINE
  5
389
330
A
100
AcDbEntity
  8
0
 62
     7
100
AcDbLine
 10
223.944642
 20
214.420676
 30
0.0
 11
223.823031
 21
214.420676
 31
0.0
  0
LINE
  5
388
330
A
100
AcDbEntity
  8
0
 62
     7
100
AcDbLine
 10
223.964624
 20
214.420676
 30
0.0
 11
223.944642
 21
214.420676
 31
0.0
  0
LINE
  5
387
330
A
100
AcDbEntity
  8
0
 62
     7
100
AcDbLine
 10
223.871262
 20
214.420676
 30
0.0
 11
223.964624
 21
214.420676
 31
0.0
  0
LINE
  5
386
330
A
100
AcDbEntity
  8
0
 62
     7
100
AcDbLine
 10
223.719678
 20
214.420676
 30
0.0
 11
223.871262
 21
214.420676
 31
0.0
  0
LINE
  5
385
330
A
100
AcDbEntity
  8
0
 62
     7
100
AcDbLine
 10
223.598066
 20
214.420676
 30
0.0
 11
223.719678
 21
214.420676
 31
0.0
  0
LINE
  5
384
330
A
100
AcDbEntity
  8
0
 62
     7
100
AcDbLine
 10
223.578084
 20
214.420676
 30
0.0
 11
223.598066
 21
214.420676
 31
0.0
  0
LINE
  5
383
330
A
100
AcDbEntity
  8
0
 62
     7
100
AcDbLine
 10
223.671446
 20
214.420676
 30
0.0
 11
223.578084
 21
214.420676
 31
0.0
  0
LINE
  5
382
330
A
100
AcDbEntity
  8
0
 62
     7
100
AcDbLine
 10
224.717033
 20
214.826853
 30
0.0
 11
224.717033
 21
214.420676
 31
0.0
  0
LINE
  5
381
330
A
100
AcDbEntity
  8
0
 62
     7
100
AcDbLine
 10
225.103573
 20
214.420676
 30
0.0
 11
225.103573
 21
214.826853
 31
0.0
  0
LINE
  5
380
330
A
100
AcDbEntity
  8
0
 62
     7
100
AcDbLine
 10
225.010211
 20
214.420676
 30
0.0
 11
224.858626
 21
214.420676
 31
0.0
  0
LINE
  5
37F
330
A
100
AcDbEntity
  8
0
 62
     7
100
AcDbLine
 10
225.103573
 20
214.420676
 30
0.0
 11
225.010211
 21
214.420676
 31
0.0
  0
LINE
  5
37E
330
A
100
AcDbEntity
  8
0
 62
     7
100
AcDbLine
 10
225.083591
 20
214.420676
 30
0.0
 11
225.103573
 21
214.420676
 31
0.0
  0
LINE
  5
37D
330
A
100
AcDbEntity
  8
0
 62
     7
100
AcDbLine
 10
224.961979
 20
214.420676
 30
0.0
 11
225.083591
 21
214.420676
 31
0.0
  0
LINE
  5
37C
330
A
100
AcDbEntity
  8
0
 62
     7
100
AcDbLine
 10
224.810395
 20
214.420676
 30
0.0
 11
224.961979
 21
214.420676
 31
0.0
  0
LINE
  5
37B
330
A
100
AcDbEntity
  8
0
 62
     7
100
AcDbLine
 10
224.717033
 20
214.420676
 30
0.0
 11
224.810395
 21
214.420676
 31
0.0
  0
LINE
  5
37A
330
A
100
AcDbEntity
  8
0
 62
     7
100
AcDbLine
 10
224.737014
 20
214.420676
 30
0.0
 11
224.717033
 21
214.420676
 31
0.0
  0
LINE
  5
379
330
A
100
AcDbEntity
  8
0
 62
     7
100
AcDbLine
 10
224.858626
 20
214.420676
 30
0.0
 11
224.737014
 21
214.420676
 31
0.0
  0
LINE
  5
378
330
A
100
AcDbEntity
  8
0
 62
     7
100
AcDbLine
 10
225.498725
 20
214.420676
 30
0.0
 11
225.498725
 21
214.826853
 31
0.0
  0
LINE
  5
377
330
A
100
AcDbEntity
  8
0
 62
     7
100
AcDbLine
 10
225.440158
 20
214.420676
 30
0.0
 11
225.29891
 21
214.420676
 31
0.0
  0
LINE
  5
376
330
A
100
AcDbEntity
  8
0
 62
     7
100
AcDbLine
 10
225.498725
 20
214.420676
 30
0.0
 11
225.440158
 21
214.420676
 31
0.0
  0
LINE
  5
375
330
A
100
AcDbEntity
  8
0
 62
     7
100
AcDbLine
 10
225.440158
 20
214.420676
 30
0.0
 11
225.498725
 21
214.420676
 31
0.0
  0
LINE
  5
374
330
A
100
AcDbEntity
  8
0
 62
     7
100
AcDbLine
 10
225.29891
 20
214.420676
 30
0.0
 11
225.440158
 21
214.420676
 31
0.0
  0
LINE
  5
373
330
A
100
AcDbEntity
  8
0
 62
     7
100
AcDbLine
 10
225.157316
 20
214.420676
 30
0.0
 11
225.29891
 21
214.420676
 31
0.0
  0
LINE
  5
372
330
A
100
AcDbEntity
  8
0
 62
     7
100
AcDbLine
 10
225.098749
 20
214.420676
 30
0.0
 11
225.157316
 21
214.420676
 31
0.0
  0
LINE
  5
371
330
A
100
AcDbEntity
  8
0
 62
     7
100
AcDbLine
 10
225.157316
 20
214.420676
 30
0.0
 11
225.098749
 21
214.420676
 31
0.0
  0
LINE
  5
370
330
A
100
AcDbEntity
  8
0
 62
     7
100
AcDbLine
 10
225.29891
 20
214.420676
 30
0.0
 11
225.157316
 21
214.420676
 31
0.0
  0
LINE
  5
36F
330
A
100
AcDbEntity
  8
0
 62
     7
100
AcDbLine
 10
224.717033
 20
214.826853
 30
0.0
 11
224.717033
 21
214.420676
 31
0.0
  0
LINE
  5
36E
330
A
100
AcDbEntity
  8
0
 62
     7
100
AcDbLine
 10
225.010211
 20
214.420676
 30
0.0
 11
225.103573
 21
214.420676
 31
0.0
  0
LINE
  5
36D
330
A
100
AcDbEntity
  8
0
 62
     7
100
AcDbLine
 10
224.858626
 20
214.420676
 30
0.0
 11
225.010211
 21
214.420676
 31
0.0
  0
LINE
  5
36C
330
A
100
AcDbEntity
  8
0
 62
     7
100
AcDbLine
 10
224.737014
 20
214.420676
 30
0.0
 11
224.858626
 21
214.420676
 31
0.0
  0
LINE
  5
36B
330
A
100
AcDbEntity
  8
0
 62
     7
100
AcDbLine
 10
224.717033
 20
214.420676
 30
0.0
 11
224.737014
 21
214.420676
 31
0.0
  0
LINE
  5
36A
330
A
100
AcDbEntity
  8
0
 62
     7
100
AcDbLine
 10
224.810395
 20
214.420676
 30
0.0
 11
224.717033
 21
214.420676
 31
0.0
  0
LINE
  5
369
330
A
100
AcDbEntity
  8
0
 62
     7
100
AcDbLine
 10
224.961979
 20
214.420676
 30
0.0
 11
224.810395
 21
214.420676
 31
0.0
  0
LINE
  5
368
330
A
100
AcDbEntity
  8
0
 62
     7
100
AcDbLine
 10
225.083591
 20
214.420676
 30
0.0
 11
224.961979
 21
214.420676
 31
0.0
  0
LINE
  5
367
330
A
100
AcDbEntity
  8
0
 62
     7
100
AcDbLine
 10
225.103573
 20
214.420676
 30
0.0
 11
225.083591
 21
214.420676
 31
0.0
  0
LINE
  5
366
330
A
100
AcDbEntity
  8
0
 62
     7
100
AcDbLine
 10
223.578084
 20
214.826853
 30
0.0
 11
223.578084
 21
214.420676
 31
0.0
  0
LINE
  5
365
330
A
100
AcDbEntity
  8
0
 62
     7
100
AcDbLine
 10
223.871262
 20
214.420676
 30
0.0
 11
223.719678
 21
214.420676
 31
0.0
  0
LINE
  5
364
330
A
100
AcDbEntity
  8
0
 62
     7
100
AcDbLine
 10
223.964624
 20
214.420676
 30
0.0
 11
223.871262
 21
214.420676
 31
0.0
  0
LINE
  5
363
330
A
100
AcDbEntity
  8
0
 62
     7
100
AcDbLine
 10
223.944642
 20
214.420676
 30
0.0
 11
223.964624
 21
214.420676
 31
0.0
  0
LINE
  5
362
330
A
100
AcDbEntity
  8
0
 62
     7
100
AcDbLine
 10
223.823031
 20
214.420676
 30
0.0
 11
223.944642
 21
214.420676
 31
0.0
  0
LINE
  5
361
330
A
100
AcDbEntity
  8
0
 62
     7
100
AcDbLine
 10
223.671446
 20
214.420676
 30
0.0
 11
223.823031
 21
214.420676
 31
0.0
  0
LINE
  5
360
330
A
100
AcDbEntity
  8
0
 62
     7
100
AcDbLine
 10
223.578084
 20
214.420676
 30
0.0
 11
223.671446
 21
214.420676
 31
0.0
  0
LINE
  5
35F
330
A
100
AcDbEntity
  8
0
 62
     7
100
AcDbLine
 10
223.598066
 20
214.420676
 30
0.0
 11
223.578084
 21
214.420676
 31
0.0
  0
LINE
  5
35E
330
A
100
AcDbEntity
  8
0
 62
     7
100
AcDbLine
 10
223.719678
 20
214.420676
 30
0.0
 11
223.598066
 21
214.420676
 31
0.0
  0
LINE
  5
35D
330
A
100
AcDbEntity
  8
0
 62
     7
100
AcDbLine
 10
221.959578
 20
214.420676
 30
0.0
 11
221.81833
 21
214.420676
 31
0.0
  0
LINE
  5
35C
330
A
100
AcDbEntity
  8
0
 62
     7
100
AcDbLine
 10
222.101172
 20
214.420676
 30
0.0
 11
221.959578
 21
214.420676
 31
0.0
  0
LINE
  5
35B
330
A
100
AcDbEntity
  8
0
 62
     7
100
AcDbLine
 10
222.159738
 20
214.420676
 30
0.0
 11
222.101172
 21
214.420676
 31
0.0
  0
LINE
  5
35A
330
A
100
AcDbEntity
  8
0
 62
     7
100
AcDbLine
 10
222.101172
 20
214.420676
 30
0.0
 11
222.159738
 21
214.420676
 31
0.0
  0
LINE
  5
359
330
A
100
AcDbEntity
  8
0
 62
     7
100
AcDbLine
 10
221.959578
 20
214.420676
 30
0.0
 11
222.101172
 21
214.420676
 31
0.0
  0
LINE
  5
358
330
A
100
AcDbEntity
  8
0
 62
     7
100
AcDbLine
 10
221.81833
 20
214.420676
 30
0.0
 11
221.959578
 21
214.420676
 31
0.0
  0
LINE
  5
357
330
A
100
AcDbEntity
  8
0
 62
     7
100
AcDbLine
 10
221.759763
 20
214.420676
 30
0.0
 11
221.81833
 21
214.420676
 31
0.0
  0
LINE
  5
356
330
A
100
AcDbEntity
  8
0
 62
     7
100
AcDbLine
 10
221.81833
 20
214.420676
 30
0.0
 11
221.759763
 21
214.420676
 31
0.0
  0
LINE
  5
355
330
A
100
AcDbEntity
  8
0
 62
     7
100
AcDbLine
 10
219.79158
 20
214.420676
 30
0.0
 11
219.771598
 21
214.420676
 31
0.0
  0
LINE
  5
354
330
A
100
AcDbEntity
  8
0
 62
     7
100
AcDbLine
 10
219.698562
 20
214.420676
 30
0.0
 11
219.79158
 21
214.420676
 31
0.0
  0
LINE
  5
353
330
A
100
AcDbEntity
  8
0
 62
     7
100
AcDbLine
 10
219.546634
 20
214.420676
 30
0.0
 11
219.698562
 21
214.420676
 31
0.0
  0
LINE
  5
352
330
A
100
AcDbEntity
  8
0
 62
     7
100
AcDbLine
 10
219.425366
 20
214.420676
 30
0.0
 11
219.546634
 21
214.420676
 31
0.0
  0
LINE
  5
351
330
A
100
AcDbEntity
  8
0
 62
     7
100
AcDbLine
 10
219.405385
 20
214.420676
 30
0.0
 11
219.425366
 21
214.420676
 31
0.0
  0
LINE
  5
350
330
A
100
AcDbEntity
  8
0
 62
     7
100
AcDbLine
 10
219.498402
 20
214.420676
 30
0.0
 11
219.405385
 21
214.420676
 31
0.0
  0
LINE
  5
34F
330
A
100
AcDbEntity
  8
0
 62
     7
100
AcDbLine
 10
219.650331
 20
214.420676
 30
0.0
 11
219.498402
 21
214.420676
 31
0.0
  0
LINE
  5
34E
330
A
100
AcDbEntity
  8
0
 62
     7
100
AcDbLine
 10
219.771598
 20
214.420676
 30
0.0
 11
219.650331
 21
214.420676
 31
0.0
  0
LINE
  5
34D
330
A
100
AcDbEntity
  8
0
 62
     7
100
AcDbLine
 10
216.949032
 20
214.420676
 30
0.0
 11
216.797103
 21
214.420676
 31
0.0
  0
LINE
  5
34C
330
A
100
AcDbEntity
  8
0
 62
     7
100
AcDbLine
 10
217.042049
 20
214.420676
 30
0.0
 11
216.949032
 21
214.420676
 31
0.0
  0
LINE
  5
34B
330
A
100
AcDbEntity
  8
0
 62
     7
100
AcDbLine
 10
217.022068
 20
214.420676
 30
0.0
 11
217.042049
 21
214.420676
 31
0.0
  0
LINE
  5
34A
330
A
100
AcDbEntity
  8
0
 62
     7
100
AcDbLine
 10
216.9008
 20
214.420676
 30
0.0
 11
217.022068
 21
214.420676
 31
0.0
  0
LINE
  5
349
330
A
100
AcDbEntity
  8
0
 62
     7
100
AcDbLine
 10
216.7488720000001
 20
214.420676
 30
0.0
 11
216.9008
 21
214.420676
 31
0.0
  0
LINE
  5
348
330
A
100
AcDbEntity
  8
0
 62
     7
100
AcDbLine
 10
216.655854
 20
214.420676
 30
0.0
 11
216.7488720000001
 21
214.420676
 31
0.0
  0
LINE
  5
347
330
A
100
AcDbEntity
  8
0
 62
     7
100
AcDbLine
 10
216.675836
 20
214.420676
 30
0.0
 11
216.655854
 21
214.420676
 31
0.0
  0
LINE
  5
346
330
A
100
AcDbEntity
  8
0
 62
     7
100
AcDbLine
 10
216.797103
 20
214.420676
 30
0.0
 11
216.675836
 21
214.420676
 31
0.0
  0
LINE
  5
345
330
A
100
AcDbEntity
  8
0
 62
     7
100
AcDbLine
 10
213.698239
 20
214.826853
 30
0.0
 11
213.698239
 21
214.420676
 31
0.0
  0
LINE
  5
344
330
A
100
AcDbEntity
  8
0
 62
     7
100
AcDbLine
 10
214.098215
 20
214.420676
 30
0.0
 11
214.039648
 21
214.420676
 31
0.0
  0
LINE
  5
343
330
A
100
AcDbEntity
  8
0
 62
     7
100
AcDbLine
 10
214.039648
 20
214.420676
 30
0.0
 11
214.098215
 21
214.420676
 31
0.0
  0
LINE
  5
342
330
A
100
AcDbEntity
  8
0
 62
     7
100
AcDbLine
 10
213.8984
 20
214.420676
 30
0.0
 11
214.039648
 21
214.420676
 31
0.0
  0
LINE
  5
341
330
A
100
AcDbEntity
  8
0
 62
     7
100
AcDbLine
 10
213.756806
 20
214.420676
 30
0.0
 11
213.8984
 21
214.420676
 31
0.0
  0
LINE
  5
340
330
A
100
AcDbEntity
  8
0
 62
     7
100
AcDbLine
 10
213.698239
 20
214.420676
 30
0.0
 11
213.756806
 21
214.420676
 31
0.0
  0
LINE
  5
33F
330
A
100
AcDbEntity
  8
0
 62
     7
100
AcDbLine
 10
213.756806
 20
214.420676
 30
0.0
 11
213.698239
 21
214.420676
 31
0.0
  0
LINE
  5
33E
330
A
100
AcDbEntity
  8
0
 62
     7
100
AcDbLine
 10
213.8984
 20
214.420676
 30
0.0
 11
213.756806
 21
214.420676
 31
0.0
  0
LINE
  5
33D
330
A
100
AcDbEntity
  8
0
 62
     7
100
AcDbLine
 10
214.039648
 20
214.420676
 30
0.0
 11
213.8984
 21
214.420676
 31
0.0
  0
LINE
  5
33C
330
A
100
AcDbEntity
  8
0
 62
     7
100
AcDbLine
 10
211.346962
 20
214.420676
 30
0.0
 11
211.446181
 21
214.420676
 31
0.0
  0
LINE
  5
33B
330
A
100
AcDbEntity
  8
0
 62
     7
100
AcDbLine
 10
211.194344
 20
214.420676
 30
0.0
 11
211.346962
 21
214.420676
 31
0.0
  0
LINE
  5
33A
330
A
100
AcDbEntity
  8
0
 62
     7
100
AcDbLine
 10
211.0779
 20
214.420676
 30
0.0
 11
211.194344
 21
214.420676
 31
0.0
  0
LINE
  5
339
330
A
100
AcDbEntity
  8
0
 62
     7
100
AcDbLine
 10
211.065842
 20
214.420676
 30
0.0
 11
211.0779
 21
214.420676
 31
0.0
  0
LINE
  5
338
330
A
100
AcDbEntity
  8
0
 62
     7
100
AcDbLine
 10
211.165405
 20
214.420676
 30
0.0
 11
211.065842
 21
214.420676
 31
0.0
  0
LINE
  5
337
330
A
100
AcDbEntity
  8
0
 62
     7
100
AcDbLine
 10
211.318023
 20
214.420676
 30
0.0
 11
211.165405
 21
214.420676
 31
0.0
  0
LINE
  5
336
330
A
100
AcDbEntity
  8
0
 62
     7
100
AcDbLine
 10
211.434467
 20
214.420676
 30
0.0
 11
211.318023
 21
214.420676
 31
0.0
  0
LINE
  5
335
330
A
100
AcDbEntity
  8
0
 62
     7
100
AcDbLine
 10
211.446181
 20
214.420676
 30
0.0
 11
211.434467
 21
214.420676
 31
0.0
  0
LINE
  5
334
330
A
100
AcDbEntity
  8
0
 62
     7
100
AcDbLine
 10
208.9037
 20
214.420676
 30
0.0
 11
209.034269
 21
214.420676
 31
0.0
  0
LINE
  5
333
330
A
100
AcDbEntity
  8
0
 62
     7
100
AcDbLine
 10
208.754872
 20
214.420676
 30
0.0
 11
208.9037
 21
214.420676
 31
0.0
  0
LINE
  5
332
330
A
100
AcDbEntity
  8
0
 62
     7
100
AcDbLine
 10
208.674946
 20
214.420676
 30
0.0
 11
208.754872
 21
214.420676
 31
0.0
  0
LINE
  5
331
330
A
100
AcDbEntity
  8
0
 62
     7
100
AcDbLine
 10
208.710775
 20
214.420676
 30
0.0
 11
208.674946
 21
214.420676
 31
0.0
  0
LINE
  5
330
330
A
100
AcDbEntity
  8
0
 62
     7
100
AcDbLine
 10
208.841344
 20
214.420676
 30
0.0
 11
208.710775
 21
214.420676
 31
0.0
  0
LINE
  5
32F
330
A
100
AcDbEntity
  8
0
 62
     7
100
AcDbLine
 10
208.990172
 20
214.420676
 30
0.0
 11
208.841344
 21
214.420676
 31
0.0
  0
LINE
  5
32E
330
A
100
AcDbEntity
  8
0
 62
     7
100
AcDbLine
 10
209.070098
 20
214.420676
 30
0.0
 11
208.990172
 21
214.420676
 31
0.0
  0
LINE
  5
32D
330
A
100
AcDbEntity
  8
0
 62
     7
100
AcDbLine
 10
209.034269
 20
214.420676
 30
0.0
 11
209.070098
 21
214.420676
 31
0.0
  0
LINE
  5
32C
330
A
100
AcDbEntity
  8
0
 62
     7
100
AcDbLine
 10
207.011998
 20
214.420676
 30
0.0
 11
206.86317
 21
214.420676
 31
0.0
  0
LINE
  5
32B
330
A
100
AcDbEntity
  8
0
 62
     7
100
AcDbLine
 10
207.142567
 20
214.420676
 30
0.0
 11
207.011998
 21
214.420676
 31
0.0
  0
LINE
  5
32A
330
A
100
AcDbEntity
  8
0
 62
     7
100
AcDbLine
 10
207.178396
 20
214.420676
 30
0.0
 11
207.142567
 21
214.420676
 31
0.0
  0
LINE
  5
329
330
A
100
AcDbEntity
  8
0
 62
     7
100
AcDbLine
 10
207.09847
 20
214.420676
 30
0.0
 11
207.178396
 21
214.420676
 31
0.0
  0
LINE
  5
328
330
A
100
AcDbEntity
  8
0
 62
     7
100
AcDbLine
 10
206.949642
 20
214.420676
 30
0.0
 11
207.09847
 21
214.420676
 31
0.0
  0
LINE
  5
327
330
A
100
AcDbEntity
  8
0
 62
     7
100
AcDbLine
 10
206.819073
 20
214.420676
 30
0.0
 11
206.949642
 21
214.420676
 31
0.0
  0
LINE
  5
326
330
A
100
AcDbEntity
  8
0
 62
     7
100
AcDbLine
 10
206.783244
 20
214.420676
 30
0.0
 11
206.819073
 21
214.420676
 31
0.0
  0
LINE
  5
325
330
A
100
AcDbEntity
  8
0
 62
     7
100
AcDbLine
 10
206.86317
 20
214.420676
 30
0.0
 11
206.783244
 21
214.420676
 31
0.0
  0
LINE
  5
324
330
A
100
AcDbEntity
  8
0
 62
     7
100
AcDbLine
 10
205.857202
 20
214.420676
 30
0.0
 11
205.704584
 21
214.420676
 31
0.0
  0
LINE
  5
323
330
A
100
AcDbEntity
  8
0
 62
     7
100
AcDbLine
 10
205.956421
 20
214.420676
 30
0.0
 11
205.857202
 21
214.420676
 31
0.0
  0
LINE
  5
322
330
A
100
AcDbEntity
  8
0
 62
     7
100
AcDbLine
 10
205.944363
 20
214.420676
 30
0.0
 11
205.956421
 21
214.420676
 31
0.0
  0
LINE
  5
321
330
A
100
AcDbEntity
  8
0
 62
     7
100
AcDbLine
 10
205.828263
 20
214.420676
 30
0.0
 11
205.944363
 21
214.420676
 31
0.0
  0
LINE
  5
320
330
A
100
AcDbEntity
  8
0
 62
     7
100
AcDbLine
 10
205.675646
 20
214.420676
 30
0.0
 11
205.828263
 21
214.420676
 31
0.0
  0
LINE
  5
31F
330
A
100
AcDbEntity
  8
0
 62
     7
100
AcDbLine
 10
205.576082
 20
214.420676
 30
0.0
 11
205.675646
 21
214.420676
 31
0.0
  0
LINE
  5
31E
330
A
100
AcDbEntity
  8
0
 62
     7
100
AcDbLine
 10
205.58814
 20
214.420676
 30
0.0
 11
205.576082
 21
214.420676
 31
0.0
  0
LINE
  5
31D
330
A
100
AcDbEntity
  8
0
 62
     7
100
AcDbLine
 10
205.704584
 20
214.420676
 30
0.0
 11
205.58814
 21
214.420676
 31
0.0
  0
LINE
  5
31C
330
A
100
AcDbEntity
  8
0
 62
     7
100
AcDbLine
 10
205.547833
 20
214.826853
 30
0.0
 11
205.547833
 21
214.420676
 31
0.0
  0
LINE
  5
31B
330
A
100
AcDbEntity
  8
0
 62
     7
100
AcDbLine
 10
205.147857
 20
214.420676
 30
0.0
 11
205.147857
 21
214.826853
 31
0.0
  0
LINE
  5
31A
330
A
100
AcDbEntity
  8
0
 62
     7
100
AcDbLine
 10
205.489266
 20
214.420676
 30
0.0
 11
205.547833
 21
214.420676
 31
0.0
  0
LINE
  5
319
330
A
100
AcDbEntity
  8
0
 62
     7
100
AcDbLine
 10
205.347673
 20
214.420676
 30
0.0
 11
205.489266
 21
214.420676
 31
0.0
  0
LINE
  5
318
330
A
100
AcDbEntity
  8
0
 62
     7
100
AcDbLine
 10
205.206424
 20
214.420676
 30
0.0
 11
205.347673
 21
214.420676
 31
0.0
  0
LINE
  5
317
330
A
100
AcDbEntity
  8
0
 62
     7
100
AcDbLine
 10
205.147857
 20
214.420676
 30
0.0
 11
205.206424
 21
214.420676
 31
0.0
  0
LINE
  5
316
330
A
100
AcDbEntity
  8
0
 62
     7
100
AcDbLine
 10
205.206424
 20
214.420676
 30
0.0
 11
205.147857
 21
214.420676
 31
0.0
  0
LINE
  5
315
330
A
100
AcDbEntity
  8
0
 62
     7
100
AcDbLine
 10
205.347673
 20
214.420676
 30
0.0
 11
205.206424
 21
214.420676
 31
0.0
  0
LINE
  5
314
330
A
100
AcDbEntity
  8
0
 62
     7
100
AcDbLine
 10
205.489266
 20
214.420676
 30
0.0
 11
205.347673
 21
214.420676
 31
0.0
  0
LINE
  5
313
330
A
100
AcDbEntity
  8
0
 62
     7
100
AcDbLine
 10
205.547833
 20
214.420676
 30
0.0
 11
205.489266
 21
214.420676
 31
0.0
  0
LINE
  5
312
330
A
100
AcDbEntity
  8
0
 62
     7
100
AcDbLine
 10
205.576082
 20
214.420676
 30
0.0
 11
205.576082
 21
214.826853
 31
0.0
  0
LINE
  5
311
330
A
100
AcDbEntity
  8
0
 62
     7
100
AcDbLine
 10
205.857202
 20
214.420676
 30
0.0
 11
205.956421
 21
214.420676
 31
0.0
  0
LINE
  5
310
330
A
100
AcDbEntity
  8
0
 62
     7
100
AcDbLine
 10
205.704584
 20
214.420676
 30
0.0
 11
205.857202
 21
214.420676
 31
0.0
  0
LINE
  5
30F
330
A
100
AcDbEntity
  8
0
 62
     7
100
AcDbLine
 10
205.58814
 20
214.420676
 30
0.0
 11
205.704584
 21
214.420676
 31
0.0
  0
LINE
  5
30E
330
A
100
AcDbEntity
  8
0
 62
     7
100
AcDbLine
 10
205.576082
 20
214.420676
 30
0.0
 11
205.58814
 21
214.420676
 31
0.0
  0
LINE
  5
30D
330
A
100
AcDbEntity
  8
0
 62
     7
100
AcDbLine
 10
205.675646
 20
214.420676
 30
0.0
 11
205.576082
 21
214.420676
 31
0.0
  0
LINE
  5
30C
330
A
100
AcDbEntity
  8
0
 62
     7
100
AcDbLine
 10
205.828263
 20
214.420676
 30
0.0
 11
205.675646
 21
214.420676
 31
0.0
  0
LINE
  5
30B
330
A
100
AcDbEntity
  8
0
 62
     7
100
AcDbLine
 10
205.944363
 20
214.420676
 30
0.0
 11
205.828263
 21
214.420676
 31
0.0
  0
LINE
  5
30A
330
A
100
AcDbEntity
  8
0
 62
     7
100
AcDbLine
 10
205.956421
 20
214.420676
 30
0.0
 11
205.944363
 21
214.420676
 31
0.0
  0
LINE
  5
309
330
A
100
AcDbEntity
  8
0
 62
     7
100
AcDbLine
 10
207.178396
 20
214.826853
 30
0.0
 11
207.178396
 21
214.420676
 31
0.0
  0
LINE
  5
308
330
A
100
AcDbEntity
  8
0
 62
     7
100
AcDbLine
 10
206.783244
 20
214.826853
 30
0.0
 11
206.783244
 21
214.420676
 31
0.0
  0
LINE
  5
307
330
A
100
AcDbEntity
  8
0
 62
     7
100
AcDbLine
 10
207.011998
 20
214.420676
 30
0.0
 11
207.142567
 21
214.420676
 31
0.0
  0
LINE
  5
306
330
A
100
AcDbEntity
  8
0
 62
     7
100
AcDbLine
 10
206.86317
 20
214.420676
 30
0.0
 11
207.011998
 21
214.420676
 31
0.0
  0
LINE
  5
305
330
A
100
AcDbEntity
  8
0
 62
     7
100
AcDbLine
 10
206.783244
 20
214.420676
 30
0.0
 11
206.86317
 21
214.420676
 31
0.0
  0
LINE
  5
304
330
A
100
AcDbEntity
  8
0
 62
     7
100
AcDbLine
 10
206.819073
 20
214.420676
 30
0.0
 11
206.783244
 21
214.420676
 31
0.0
  0
LINE
  5
303
330
A
100
AcDbEntity
  8
0
 62
     7
100
AcDbLine
 10
206.949642
 20
214.420676
 30
0.0
 11
206.819073
 21
214.420676
 31
0.0
  0
LINE
  5
302
330
A
100
AcDbEntity
  8
0
 62
     7
100
AcDbLine
 10
207.09847
 20
214.420676
 30
0.0
 11
206.949642
 21
214.420676
 31
0.0
  0
LINE
  5
301
330
A
100
AcDbEntity
  8
0
 62
     7
100
AcDbLine
 10
207.178396
 20
214.420676
 30
0.0
 11
207.09847
 21
214.420676
 31
0.0
  0
LINE
  5
300
330
A
100
AcDbEntity
  8
0
 62
     7
100
AcDbLine
 10
207.142567
 20
214.420676
 30
0.0
 11
207.178396
 21
214.420676
 31
0.0
  0
LINE
  5
2FF
330
A
100
AcDbEntity
  8
0
 62
     7
100
AcDbLine
 10
209.070098
 20
214.826853
 30
0.0
 11
209.070098
 21
214.420676
 31
0.0
  0
LINE
  5
2FE
330
A
100
AcDbEntity
  8
0
 62
     7
100
AcDbLine
 10
209.070098
 20
214.420676
 30
0.0
 11
209.034269
 21
214.420676
 31
0.0
  0
LINE
  5
2FD
330
A
100
AcDbEntity
  8
0
 62
     7
100
AcDbLine
 10
208.990172
 20
214.420676
 30
0.0
 11
209.070098
 21
214.420676
 31
0.0
  0
LINE
  5
2FC
330
A
100
AcDbEntity
  8
0
 62
     7
100
AcDbLine
 10
208.841344
 20
214.420676
 30
0.0
 11
208.990172
 21
214.420676
 31
0.0
  0
LINE
  5
2FB
330
A
100
AcDbEntity
  8
0
 62
     7
100
AcDbLine
 10
208.710775
 20
214.420676
 30
0.0
 11
208.841344
 21
214.420676
 31
0.0
  0
LINE
  5
2FA
330
A
100
AcDbEntity
  8
0
 62
     7
100
AcDbLine
 10
208.674946
 20
214.420676
 30
0.0
 11
208.710775
 21
214.420676
 31
0.0
  0
LINE
  5
2F9
330
A
100
AcDbEntity
  8
0
 62
     7
100
AcDbLine
 10
208.754872
 20
214.420676
 30
0.0
 11
208.674946
 21
214.420676
 31
0.0
  0
LINE
  5
2F8
330
A
100
AcDbEntity
  8
0
 62
     7
100
AcDbLine
 10
208.9037
 20
214.420676
 30
0.0
 11
208.754872
 21
214.420676
 31
0.0
  0
LINE
  5
2F7
330
A
100
AcDbEntity
  8
0
 62
     7
100
AcDbLine
 10
209.034269
 20
214.420676
 30
0.0
 11
208.9037
 21
214.420676
 31
0.0
  0
LINE
  5
2F6
330
A
100
AcDbEntity
  8
0
 62
     7
100
AcDbLine
 10
211.194344
 20
214.420676
 30
0.0
 11
211.194344
 21
214.826853
 31
0.0
  0
LINE
  5
2F5
330
A
100
AcDbEntity
  8
0
 62
     7
100
AcDbLine
 10
211.346962
 20
214.420676
 30
0.0
 11
211.194344
 21
214.420676
 31
0.0
  0
LINE
  5
2F4
330
A
100
AcDbEntity
  8
0
 62
     7
100
AcDbLine
 10
211.446181
 20
214.420676
 30
0.0
 11
211.346962
 21
214.420676
 31
0.0
  0
LINE
  5
2F3
330
A
100
AcDbEntity
  8
0
 62
     7
100
AcDbLine
 10
211.434467
 20
214.420676
 30
0.0
 11
211.446181
 21
214.420676
 31
0.0
  0
LINE
  5
2F2
330
A
100
AcDbEntity
  8
0
 62
     7
100
AcDbLine
 10
211.318023
 20
214.420676
 30
0.0
 11
211.434467
 21
214.420676
 31
0.0
  0
LINE
  5
2F1
330
A
100
AcDbEntity
  8
0
 62
     7
100
AcDbLine
 10
211.165405
 20
214.420676
 30
0.0
 11
211.318023
 21
214.420676
 31
0.0
  0
LINE
  5
2F0
330
A
100
AcDbEntity
  8
0
 62
     7
100
AcDbLine
 10
211.065842
 20
214.420676
 30
0.0
 11
211.165405
 21
214.420676
 31
0.0
  0
LINE
  5
2EF
330
A
100
AcDbEntity
  8
0
 62
     7
100
AcDbLine
 10
211.0779
 20
214.420676
 30
0.0
 11
211.065842
 21
214.420676
 31
0.0
  0
LINE
  5
2EE
330
A
100
AcDbEntity
  8
0
 62
     7
100
AcDbLine
 10
211.194344
 20
214.420676
 30
0.0
 11
211.0779
 21
214.420676
 31
0.0
  0
LINE
  5
2ED
330
A
100
AcDbEntity
  8
0
 62
     7
100
AcDbLine
 10
213.698239
 20
214.826853
 30
0.0
 11
213.698239
 21
214.420676
 31
0.0
  0
LINE
  5
2EC
330
A
100
AcDbEntity
  8
0
 62
     7
100
AcDbLine
 10
213.8984
 20
214.420676
 30
0.0
 11
213.756806
 21
214.420676
 31
0.0
  0
LINE
  5
2EB
330
A
100
AcDbEntity
  8
0
 62
     7
100
AcDbLine
 10
214.039648
 20
214.420676
 30
0.0
 11
213.8984
 21
214.420676
 31
0.0
  0
LINE
  5
2EA
330
A
100
AcDbEntity
  8
0
 62
     7
100
AcDbLine
 10
214.098215
 20
214.420676
 30
0.0
 11
214.039648
 21
214.420676
 31
0.0
  0
LINE
  5
2E9
330
A
100
AcDbEntity
  8
0
 62
     7
100
AcDbLine
 10
214.039648
 20
214.420676
 30
0.0
 11
214.098215
 21
214.420676
 31
0.0
  0
LINE
  5
2E8
330
A
100
AcDbEntity
  8
0
 62
     7
100
AcDbLine
 10
213.8984
 20
214.420676
 30
0.0
 11
214.039648
 21
214.420676
 31
0.0
  0
LINE
  5
2E7
330
A
100
AcDbEntity
  8
0
 62
     7
100
AcDbLine
 10
213.756806
 20
214.420676
 30
0.0
 11
213.8984
 21
214.420676
 31
0.0
  0
LINE
  5
2E6
330
A
100
AcDbEntity
  8
0
 62
     7
100
AcDbLine
 10
213.698239
 20
214.420676
 30
0.0
 11
213.756806
 21
214.420676
 31
0.0
  0
LINE
  5
2E5
330
A
100
AcDbEntity
  8
0
 62
     7
100
AcDbLine
 10
213.756806
 20
214.420676
 30
0.0
 11
213.698239
 21
214.420676
 31
0.0
  0
LINE
  5
2E4
330
A
100
AcDbEntity
  8
0
 62
     7
100
AcDbLine
 10
216.602455
 20
214.420676
 30
0.0
 11
216.602455
 21
214.826853
 31
0.0
  0
LINE
  5
2E3
330
A
100
AcDbEntity
  8
0
 62
     7
100
AcDbLine
 10
216.631394
 20
214.420676
 30
0.0
 11
216.730613
 21
214.420676
 31
0.0
  0
LINE
  5
2E2
330
A
100
AcDbEntity
  8
0
 62
     7
100
AcDbLine
 10
216.478776
 20
214.420676
 30
0.0
 11
216.631394
 21
214.420676
 31
0.0
  0
LINE
  5
2E1
330
A
100
AcDbEntity
  8
0
 62
     7
100
AcDbLine
 10
216.362332
 20
214.420676
 30
0.0
 11
216.478776
 21
214.420676
 31
0.0
  0
LINE
  5
2E0
330
A
100
AcDbEntity
  8
0
 62
     7
100
AcDbLine
 10
216.350274
 20
214.420676
 30
0.0
 11
216.362332
 21
214.420676
 31
0.0
  0
LINE
  5
2DF
330
A
100
AcDbEntity
  8
0
 62
     7
100
AcDbLine
 10
216.449837
 20
214.420676
 30
0.0
 11
216.350274
 21
214.420676
 31
0.0
  0
LINE
  5
2DE
330
A
100
AcDbEntity
  8
0
 62
     7
100
AcDbLine
 10
216.602455
 20
214.420676
 30
0.0
 11
216.449837
 21
214.420676
 31
0.0
  0
LINE
  5
2DD
330
A
100
AcDbEntity
  8
0
 62
     7
100
AcDbLine
 10
216.718899
 20
214.420676
 30
0.0
 11
216.602455
 21
214.420676
 31
0.0
  0
LINE
  5
2DC
330
A
100
AcDbEntity
  8
0
 62
     7
100
AcDbLine
 10
216.730613
 20
214.420676
 30
0.0
 11
216.718899
 21
214.420676
 31
0.0
  0
LINE
  5
2DB
330
A
100
AcDbEntity
  8
0
 62
     7
100
AcDbLine
 10
218.726701
 20
214.826853
 30
0.0
 11
218.726701
 21
214.420676
 31
0.0
  0
LINE
  5
2DA
330
A
100
AcDbEntity
  8
0
 62
     7
100
AcDbLine
 10
219.041583
 20
214.420676
 30
0.0
 11
219.041583
 21
214.826853
 31
0.0
  0
LINE
  5
2D9
330
A
100
AcDbEntity
  8
0
 62
     7
100
AcDbLine
 10
218.955455
 20
214.420676
 30
0.0
 11
219.086024
 21
214.420676
 31
0.0
  0
LINE
  5
2D8
330
A
100
AcDbEntity
  8
0
 62
     7
100
AcDbLine
 10
218.806627
 20
214.420676
 30
0.0
 11
218.955455
 21
214.420676
 31
0.0
  0
LINE
  5
2D7
330
A
100
AcDbEntity
  8
0
 62
     7
100
AcDbLine
 10
218.726701
 20
214.420676
 30
0.0
 11
218.806627
 21
214.420676
 31
0.0
  0
LINE
  5
2D6
330
A
100
AcDbEntity
  8
0
 62
     7
100
AcDbLine
 10
218.762185
 20
214.420676
 30
0.0
 11
218.726701
 21
214.420676
 31
0.0
  0
LINE
  5
2D5
330
A
100
AcDbEntity
  8
0
 62
     7
100
AcDbLine
 10
218.892754
 20
214.420676
 30
0.0
 11
218.762185
 21
214.420676
 31
0.0
  0
LINE
  5
2D4
330
A
100
AcDbEntity
  8
0
 62
     7
100
AcDbLine
 10
219.041583
 20
214.420676
 30
0.0
 11
218.892754
 21
214.420676
 31
0.0
  0
LINE
  5
2D3
330
A
100
AcDbEntity
  8
0
 62
     7
100
AcDbLine
 10
219.121853
 20
214.420676
 30
0.0
 11
219.041583
 21
214.420676
 31
0.0
  0
LINE
  5
2D2
330
A
100
AcDbEntity
  8
0
 62
     7
100
AcDbLine
 10
219.086024
 20
214.420676
 30
0.0
 11
219.121853
 21
214.420676
 31
0.0
  0
LINE
  5
2D1
330
A
100
AcDbEntity
  8
0
 62
     7
100
AcDbLine
 10
221.013211
 20
214.826853
 30
0.0
 11
221.013211
 21
214.420676
 31
0.0
  0
LINE
  5
2D0
330
A
100
AcDbEntity
  8
0
 62
     7
100
AcDbLine
 10
220.618403
 20
214.826853
 30
0.0
 11
220.618403
 21
214.420676
 31
0.0
  0
LINE
  5
2CF
330
A
100
AcDbEntity
  8
0
 62
     7
100
AcDbLine
 10
220.847157
 20
214.420676
 30
0.0
 11
220.698329
 21
214.420676
 31
0.0
  0
LINE
  5
2CE
330
A
100
AcDbEntity
  8
0
 62
     7
100
AcDbLine
 10
220.977726
 20
214.420676
 30
0.0
 11
220.847157
 21
214.420676
 31
0.0
  0
LINE
  5
2CD
330
A
100
AcDbEntity
  8
0
 62
     7
100
AcDbLine
 10
221.013211
 20
214.420676
 30
0.0
 11
220.977726
 21
214.420676
 31
0.0
  0
LINE
  5
2CC
330
A
100
AcDbEntity
  8
0
 62
     7
100
AcDbLine
 10
220.933285
 20
214.420676
 30
0.0
 11
221.013211
 21
214.420676
 31
0.0
  0
LINE
  5
2CB
330
A
100
AcDbEntity
  8
0
 62
     7
100
AcDbLine
 10
220.784456
 20
214.420676
 30
0.0
 11
220.933285
 21
214.420676
 31
0.0
  0
LINE
  5
2CA
330
A
100
AcDbEntity
  8
0
 62
     7
100
AcDbLine
 10
220.653887
 20
214.420676
 30
0.0
 11
220.784456
 21
214.420676
 31
0.0
  0
LINE
  5
2C9
330
A
100
AcDbEntity
  8
0
 62
     7
100
AcDbLine
 10
220.618403
 20
214.420676
 30
0.0
 11
220.653887
 21
214.420676
 31
0.0
  0
LINE
  5
2C8
330
A
100
AcDbEntity
  8
0
 62
     7
100
AcDbLine
 10
220.698329
 20
214.420676
 30
0.0
 11
220.618403
 21
214.420676
 31
0.0
  0
LINE
  5
2C7
330
A
100
AcDbEntity
  8
0
 62
     7
100
AcDbLine
 10
222.220372
 20
214.420676
 30
0.0
 11
222.220372
 21
214.826853
 31
0.0
  0
LINE
  5
2C6
330
A
100
AcDbEntity
  8
0
 62
     7
100
AcDbLine
 10
222.208659
 20
214.420676
 30
0.0
 11
222.220372
 21
214.420676
 31
0.0
  0
LINE
  5
2C5
330
A
100
AcDbEntity
  8
0
 62
     7
100
AcDbLine
 10
222.092215
 20
214.420676
 30
0.0
 11
222.208659
 21
214.420676
 31
0.0
  0
LINE
  5
2C4
330
A
100
AcDbEntity
  8
0
 62
     7
100
AcDbLine
 10
221.939597
 20
214.420676
 30
0.0
 11
222.092215
 21
214.420676
 31
0.0
  0
LINE
  5
2C3
330
A
100
AcDbEntity
  8
0
 62
     7
100
AcDbLine
 10
221.840034
 20
214.420676
 30
0.0
 11
221.939597
 21
214.420676
 31
0.0
  0
LINE
  5
2C2
330
A
100
AcDbEntity
  8
0
 62
     7
100
AcDbLine
 10
221.852091
 20
214.420676
 30
0.0
 11
221.840034
 21
214.420676
 31
0.0
  0
LINE
  5
2C1
330
A
100
AcDbEntity
  8
0
 62
     7
100
AcDbLine
 10
221.968536
 20
214.420676
 30
0.0
 11
221.852091
 21
214.420676
 31
0.0
  0
LINE
  5
2C0
330
A
100
AcDbEntity
  8
0
 62
     7
100
AcDbLine
 10
222.121153
 20
214.420676
 30
0.0
 11
221.968536
 21
214.420676
 31
0.0
  0
LINE
  5
2BF
330
A
100
AcDbEntity
  8
0
 62
     7
100
AcDbLine
 10
222.220372
 20
214.420676
 30
0.0
 11
222.121153
 21
214.420676
 31
0.0
  0
LINE
  5
2BE
330
A
100
AcDbEntity
  8
0
 62
     7
100
AcDbLine
 10
222.648942
 20
214.420676
 30
0.0
 11
222.648942
 21
214.826853
 31
0.0
  0
LINE
  5
2BD
330
A
100
AcDbEntity
  8
0
 62
     7
100
AcDbLine
 10
222.590375
 20
214.420676
 30
0.0
 11
222.648942
 21
214.420676
 31
0.0
  0
LINE
  5
2BC
330
A
100
AcDbEntity
  8
0
 62
     7
100
AcDbLine
 10
222.448782
 20
214.420676
 30
0.0
 11
222.590375
 21
214.420676
 31
0.0
  0
LINE
  5
2BB
330
A
100
AcDbEntity
  8
0
 62
     7
100
AcDbLine
 10
222.307189
 20
214.420676
 30
0.0
 11
222.448782
 21
214.420676
 31
0.0
  0
LINE
  5
2BA
330
A
100
AcDbEntity
  8
0
 62
     7
100
AcDbLine
 10
222.248622
 20
214.420676
 30
0.0
 11
222.307189
 21
214.420676
 31
0.0
  0
LINE
  5
2B9
330
A
100
AcDbEntity
  8
0
 62
     7
100
AcDbLine
 10
222.307189
 20
214.420676
 30
0.0
 11
222.248622
 21
214.420676
 31
0.0
  0
LINE
  5
2B8
330
A
100
AcDbEntity
  8
0
 62
     7
100
AcDbLine
 10
222.448782
 20
214.420676
 30
0.0
 11
222.307189
 21
214.420676
 31
0.0
  0
LINE
  5
2B7
330
A
100
AcDbEntity
  8
0
 62
     7
100
AcDbLine
 10
222.590375
 20
214.420676
 30
0.0
 11
222.448782
 21
214.420676
 31
0.0
  0
LINE
  5
2B6
330
A
100
AcDbEntity
  8
0
 62
     7
100
AcDbLine
 10
222.648942
 20
214.420676
 30
0.0
 11
222.590375
 21
214.420676
 31
0.0
  0
LINE
  5
2B5
330
A
100
AcDbEntity
  8
0
 62
     7
100
AcDbLine
 10
222.121153
 20
214.420676
 30
0.0
 11
222.220372
 21
214.420676
 31
0.0
  0
LINE
  5
2B4
330
A
100
AcDbEntity
  8
0
 62
     7
100
AcDbLine
 10
221.968536
 20
214.420676
 30
0.0
 11
222.121153
 21
214.420676
 31
0.0
  0
LINE
  5
2B3
330
A
100
AcDbEntity
  8
0
 62
     7
100
AcDbLine
 10
221.852091
 20
214.420676
 30
0.0
 11
221.968536
 21
214.420676
 31
0.0
  0
LINE
  5
2B2
330
A
100
AcDbEntity
  8
0
 62
     7
100
AcDbLine
 10
221.840034
 20
214.420676
 30
0.0
 11
221.852091
 21
214.420676
 31
0.0
  0
LINE
  5
2B1
330
A
100
AcDbEntity
  8
0
 62
     7
100
AcDbLine
 10
221.939597
 20
214.420676
 30
0.0
 11
221.840034
 21
214.420676
 31
0.0
  0
LINE
  5
2B0
330
A
100
AcDbEntity
  8
0
 62
     7
100
AcDbLine
 10
222.092215
 20
214.420676
 30
0.0
 11
221.939597
 21
214.420676
 31
0.0
  0
LINE
  5
2AF
330
A
100
AcDbEntity
  8
0
 62
     7
100
AcDbLine
 10
222.208659
 20
214.420676
 30
0.0
 11
222.092215
 21
214.420676
 31
0.0
  0
LINE
  5
2AE
330
A
100
AcDbEntity
  8
0
 62
     7
100
AcDbLine
 10
222.220372
 20
214.420676
 30
0.0
 11
222.208659
 21
214.420676
 31
0.0
  0
LINE
  5
2AD
330
A
100
AcDbEntity
  8
0
 62
     7
100
AcDbLine
 10
220.847157
 20
214.420676
 30
0.0
 11
220.977726
 21
214.420676
 31
0.0
  0
LINE
  5
2AC
330
A
100
AcDbEntity
  8
0
 62
     7
100
AcDbLine
 10
220.698329
 20
214.420676
 30
0.0
 11
220.847157
 21
214.420676
 31
0.0
  0
LINE
  5
2AB
330
A
100
AcDbEntity
  8
0
 62
     7
100
AcDbLine
 10
220.618403
 20
214.420676
 30
0.0
 11
220.698329
 21
214.420676
 31
0.0
  0
LINE
  5
2AA
330
A
100
AcDbEntity
  8
0
 62
     7
100
AcDbLine
 10
220.653887
 20
214.420676
 30
0.0
 11
220.618403
 21
214.420676
 31
0.0
  0
LINE
  5
2A9
330
A
100
AcDbEntity
  8
0
 62
     7
100
AcDbLine
 10
220.784456
 20
214.420676
 30
0.0
 11
220.653887
 21
214.420676
 31
0.0
  0
LINE
  5
2A8
330
A
100
AcDbEntity
  8
0
 62
     7
100
AcDbLine
 10
220.933285
 20
214.420676
 30
0.0
 11
220.784456
 21
214.420676
 31
0.0
  0
LINE
  5
2A7
330
A
100
AcDbEntity
  8
0
 62
     7
100
AcDbLine
 10
221.013211
 20
214.420676
 30
0.0
 11
220.933285
 21
214.420676
 31
0.0
  0
LINE
  5
2A6
330
A
100
AcDbEntity
  8
0
 62
     7
100
AcDbLine
 10
220.977726
 20
214.420676
 30
0.0
 11
221.013211
 21
214.420676
 31
0.0
  0
LINE
  5
2A5
330
A
100
AcDbEntity
  8
0
 62
     7
100
AcDbLine
 10
218.726701
 20
214.826853
 30
0.0
 11
218.726701
 21
214.420676
 31
0.0
  0
LINE
  5
2A4
330
A
100
AcDbEntity
  8
0
 62
     7
100
AcDbLine
 10
218.955455
 20
214.420676
 30
0.0
 11
218.806627
 21
214.420676
 31
0.0
  0
LINE
  5
2A3
330
A
100
AcDbEntity
  8
0
 62
     7
100
AcDbLine
 10
219.086024
 20
214.420676
 30
0.0
 11
218.955455
 21
214.420676
 31
0.0
  0
LINE
  5
2A2
330
A
100
AcDbEntity
  8
0
 62
     7
100
AcDbLine
 10
219.121853
 20
214.420676
 30
0.0
 11
219.086024
 21
214.420676
 31
0.0
  0
LINE
  5
2A1
330
A
100
AcDbEntity
  8
0
 62
     7
100
AcDbLine
 10
219.041583
 20
214.420676
 30
0.0
 11
219.121853
 21
214.420676
 31
0.0
  0
LINE
  5
2A0
330
A
100
AcDbEntity
  8
0
 62
     7
100
AcDbLine
 10
218.892754
 20
214.420676
 30
0.0
 11
219.041583
 21
214.420676
 31
0.0
  0
LINE
  5
29F
330
A
100
AcDbEntity
  8
0
 62
     7
100
AcDbLine
 10
218.762185
 20
214.420676
 30
0.0
 11
218.892754
 21
214.420676
 31
0.0
  0
LINE
  5
29E
330
A
100
AcDbEntity
  8
0
 62
     7
100
AcDbLine
 10
218.726701
 20
214.420676
 30
0.0
 11
218.762185
 21
214.420676
 31
0.0
  0
LINE
  5
29D
330
A
100
AcDbEntity
  8
0
 62
     7
100
AcDbLine
 10
218.806627
 20
214.420676
 30
0.0
 11
218.726701
 21
214.420676
 31
0.0
  0
LINE
  5
29C
330
A
100
AcDbEntity
  8
0
 62
     7
100
AcDbLine
 10
216.631394
 20
214.420676
 30
0.0
 11
216.478776
 21
214.420676
 31
0.0
  0
LINE
  5
29B
330
A
100
AcDbEntity
  8
0
 62
     7
100
AcDbLine
 10
216.730613
 20
214.420676
 30
0.0
 11
216.631394
 21
214.420676
 31
0.0
  0
LINE
  5
29A
330
A
100
AcDbEntity
  8
0
 62
     7
100
AcDbLine
 10
216.718899
 20
214.420676
 30
0.0
 11
216.730613
 21
214.420676
 31
0.0
  0
LINE
  5
299
330
A
100
AcDbEntity
  8
0
 62
     7
100
AcDbLine
 10
216.602455
 20
214.420676
 30
0.0
 11
216.718899
 21
214.420676
 31
0.0
  0
LINE
  5
298
330
A
100
AcDbEntity
  8
0
 62
     7
100
AcDbLine
 10
216.449837
 20
214.420676
 30
0.0
 11
216.602455
 21
214.420676
 31
0.0
  0
LINE
  5
297
330
A
100
AcDbEntity
  8
0
 62
     7
100
AcDbLine
 10
216.350274
 20
214.420676
 30
0.0
 11
216.449837
 21
214.420676
 31
0.0
  0
LINE
  5
296
330
A
100
AcDbEntity
  8
0
 62
     7
100
AcDbLine
 10
216.362332
 20
214.420676
 30
0.0
 11
216.350274
 21
214.420676
 31
0.0
  0
LINE
  5
295
330
A
100
AcDbEntity
  8
0
 62
     7
100
AcDbLine
 10
216.478776
 20
214.420676
 30
0.0
 11
216.362332
 21
214.420676
 31
0.0
  0
LINE
  5
294
330
A
100
AcDbEntity
  8
0
 62
     7
100
AcDbLine
 10
213.698239
 20
214.826853
 30
0.0
 11
213.698239
 21
214.420676
 31
0.0
  0
LINE
  5
293
330
A
100
AcDbEntity
  8
0
 62
     7
100
AcDbLine
 10
214.039648
 20
214.420676
 30
0.0
 11
214.098215
 21
214.420676
 31
0.0
  0
LINE
  5
292
330
A
100
AcDbEntity
  8
0
 62
     7
100
AcDbLine
 10
213.8984
 20
214.420676
 30
0.0
 11
214.039648
 21
214.420676
 31
0.0
  0
LINE
  5
291
330
A
100
AcDbEntity
  8
0
 62
     7
100
AcDbLine
 10
213.756806
 20
214.420676
 30
0.0
 11
213.8984
 21
214.420676
 31
0.0
  0
LINE
  5
290
330
A
100
AcDbEntity
  8
0
 62
     7
100
AcDbLine
 10
213.698239
 20
214.420676
 30
0.0
 11
213.756806
 21
214.420676
 31
0.0
  0
LINE
  5
28F
330
A
100
AcDbEntity
  8
0
 62
     7
100
AcDbLine
 10
213.756806
 20
214.420676
 30
0.0
 11
213.698239
 21
214.420676
 31
0.0
  0
LINE
  5
28E
330
A
100
AcDbEntity
  8
0
 62
     7
100
AcDbLine
 10
213.8984
 20
214.420676
 30
0.0
 11
213.756806
 21
214.420676
 31
0.0
  0
LINE
  5
28D
330
A
100
AcDbEntity
  8
0
 62
     7
100
AcDbLine
 10
214.039648
 20
214.420676
 30
0.0
 11
213.8984
 21
214.420676
 31
0.0
  0
LINE
  5
28C
330
A
100
AcDbEntity
  8
0
 62
     7
100
AcDbLine
 10
214.098215
 20
214.420676
 30
0.0
 11
214.039648
 21
214.420676
 31
0.0
  0
LINE
  5
28B
330
A
100
AcDbEntity
  8
0
 62
     7
100
AcDbLine
 10
211.793446
 20
214.420676
 30
0.0
 11
211.901622
 21
214.420676
 31
0.0
  0
LINE
  5
28A
330
A
100
AcDbEntity
  8
0
 62
     7
100
AcDbLine
 10
211.640484
 20
214.420676
 30
0.0
 11
211.793446
 21
214.420676
 31
0.0
  0
LINE
  5
289
330
A
100
AcDbEntity
  8
0
 62
     7
100
AcDbLine
 10
211.531963
 20
214.420676
 30
0.0
 11
211.640484
 21
214.420676
 31
0.0
  0
LINE
  5
288
330
A
100
AcDbEntity
  8
0
 62
     7
100
AcDbLine
 10
211.640484
 20
214.420676
 30
0.0
 11
211.531963
 21
214.420676
 31
0.0
  0
LINE
  5
287
330
A
100
AcDbEntity
  8
0
 62
     7
100
AcDbLine
 10
211.793446
 20
214.420676
 30
0.0
 11
211.640484
 21
214.420676
 31
0.0
  0
LINE
  5
286
330
A
100
AcDbEntity
  8
0
 62
     7
100
AcDbLine
 10
211.901622
 20
214.420676
 30
0.0
 11
211.793446
 21
214.420676
 31
0.0
  0
LINE
  5
285
330
A
100
AcDbEntity
  8
0
 62
     7
100
AcDbLine
 10
209.667478
 20
214.826853
 30
0.0
 11
209.667478
 21
214.420676
 31
0.0
  0
LINE
  5
284
330
A
100
AcDbEntity
  8
0
 62
     7
100
AcDbLine
 10
210.008887
 20
214.420676
 30
0.0
 11
210.067453
 21
214.420676
 31
0.0
  0
LINE
  5
283
330
A
100
AcDbEntity
  8
0
 62
     7
100
AcDbLine
 10
209.867638
 20
214.420676
 30
0.0
 11
210.008887
 21
214.420676
 31
0.0
  0
LINE
  5
282
330
A
100
AcDbEntity
  8
0
 62
     7
100
AcDbLine
 10
209.726044
 20
214.420676
 30
0.0
 11
209.867638
 21
214.420676
 31
0.0
  0
LINE
  5
281
330
A
100
AcDbEntity
  8
0
 62
     7
100
AcDbLine
 10
209.667478
 20
214.420676
 30
0.0
 11
209.726044
 21
214.420676
 31
0.0
  0
LINE
  5
280
330
A
100
AcDbEntity
  8
0
 62
     7
100
AcDbLine
 10
209.726044
 20
214.420676
 30
0.0
 11
209.667478
 21
214.420676
 31
0.0
  0
LINE
  5
27F
330
A
100
AcDbEntity
  8
0
 62
     7
100
AcDbLine
 10
209.867638
 20
214.420676
 30
0.0
 11
209.726044
 21
214.420676
 31
0.0
  0
LINE
  5
27E
330
A
100
AcDbEntity
  8
0
 62
     7
100
AcDbLine
 10
210.008887
 20
214.420676
 30
0.0
 11
209.867638
 21
214.420676
 31
0.0
  0
LINE
  5
27D
330
A
100
AcDbEntity
  8
0
 62
     7
100
AcDbLine
 10
210.067453
 20
214.420676
 30
0.0
 11
210.008887
 21
214.420676
 31
0.0
  0
LINE
  5
27C
330
A
100
AcDbEntity
  8
0
 62
     7
100
AcDbLine
 10
208.44688
 20
214.826853
 30
0.0
 11
208.44688
 21
214.420676
 31
0.0
  0
LINE
  5
27B
330
A
100
AcDbEntity
  8
0
 62
     7
100
AcDbLine
 10
208.44688
 20
214.420676
 30
0.0
 11
208.44688
 21
214.826853
 31
0.0
  0
LINE
  5
27A
330
A
100
AcDbEntity
  8
0
 62
     7
100
AcDbLine
 10
208.708363
 20
214.420676
 30
0.0
 11
208.816539
 21
214.420676
 31
0.0
  0
LINE
  5
279
330
A
100
AcDbEntity
  8
0
 62
     7
100
AcDbLine
 10
208.555056
 20
214.420676
 30
0.0
 11
208.708363
 21
214.420676
 31
0.0
  0
LINE
  5
278
330
A
100
AcDbEntity
  8
0
 62
     7
100
AcDbLine
 10
208.44688
 20
214.420676
 30
0.0
 11
208.555056
 21
214.420676
 31
0.0
  0
LINE
  5
277
330
A
100
AcDbEntity
  8
0
 62
     7
100
AcDbLine
 10
208.555056
 20
214.420676
 30
0.0
 11
208.44688
 21
214.420676
 31
0.0
  0
LINE
  5
276
330
A
100
AcDbEntity
  8
0
 62
     7
100
AcDbLine
 10
208.708363
 20
214.420676
 30
0.0
 11
208.555056
 21
214.420676
 31
0.0
  0
LINE
  5
275
330
A
100
AcDbEntity
  8
0
 62
     7
100
AcDbLine
 10
208.816539
 20
214.420676
 30
0.0
 11
208.708363
 21
214.420676
 31
0.0
  0
LINE
  5
274
330
A
100
AcDbEntity
  8
0
 62
     7
100
AcDbLine
 10
208.39796
 20
214.826853
 30
0.0
 11
208.39796
 21
214.420676
 31
0.0
  0
LINE
  5
273
330
A
100
AcDbEntity
  8
0
 62
     7
100
AcDbLine
 10
207.997984
 20
214.420676
 30
0.0
 11
207.997984
 21
214.826853
 31
0.0
  0
LINE
  5
272
330
A
100
AcDbEntity
  8
0
 62
     7
100
AcDbLine
 10
208.39796
 20
214.420676
 30
0.0
 11
208.339393
 21
214.420676
 31
0.0
  0
LINE
  5
271
330
A
100
AcDbEntity
  8
0
 62
     7
100
AcDbLine
 10
208.339393
 20
214.420676
 30
0.0
 11
208.39796
 21
214.420676
 31
0.0
  0
LINE
  5
270
330
A
100
AcDbEntity
  8
0
 62
     7
100
AcDbLine
 10
208.1978
 20
214.420676
 30
0.0
 11
208.339393
 21
214.420676
 31
0.0
  0
LINE
  5
26F
330
A
100
AcDbEntity
  8
0
 62
     7
100
AcDbLine
 10
208.056551
 20
214.420676
 30
0.0
 11
208.1978
 21
214.420676
 31
0.0
  0
LINE
  5
26E
330
A
100
AcDbEntity
  8
0
 62
     7
100
AcDbLine
 10
207.997984
 20
214.420676
 30
0.0
 11
208.056551
 21
214.420676
 31
0.0
  0
LINE
  5
26D
330
A
100
AcDbEntity
  8
0
 62
     7
100
AcDbLine
 10
208.056551
 20
214.420676
 30
0.0
 11
207.997984
 21
214.420676
 31
0.0
  0
LINE
  5
26C
330
A
100
AcDbEntity
  8
0
 62
     7
100
AcDbLine
 10
208.1978
 20
214.420676
 30
0.0
 11
208.056551
 21
214.420676
 31
0.0
  0
LINE
  5
26B
330
A
100
AcDbEntity
  8
0
 62
     7
100
AcDbLine
 10
208.339393
 20
214.420676
 30
0.0
 11
208.1978
 21
214.420676
 31
0.0
  0
LINE
  5
26A
330
A
100
AcDbEntity
  8
0
 62
     7
100
AcDbLine
 10
208.555056
 20
214.826853
 30
0.0
 11
208.555056
 21
214.420676
 31
0.0
  0
LINE
  5
269
330
A
100
AcDbEntity
  8
0
 62
     7
100
AcDbLine
 10
208.44688
 20
214.826853
 30
0.0
 11
208.44688
 21
214.420676
 31
0.0
  0
LINE
  5
268
330
A
100
AcDbEntity
  8
0
 62
     7
100
AcDbLine
 10
208.44688
 20
214.420676
 30
0.0
 11
208.44688
 21
214.826853
 31
0.0
  0
LINE
  5
267
330
A
100
AcDbEntity
  8
0
 62
     7
100
AcDbLine
 10
208.708363
 20
214.420676
 30
0.0
 11
208.816539
 21
214.420676
 31
0.0
  0
LINE
  5
266
330
A
100
AcDbEntity
  8
0
 62
     7
100
AcDbLine
 10
208.555056
 20
214.420676
 30
0.0
 11
208.708363
 21
214.420676
 31
0.0
  0
LINE
  5
265
330
A
100
AcDbEntity
  8
0
 62
     7
100
AcDbLine
 10
208.44688
 20
214.420676
 30
0.0
 11
208.555056
 21
214.420676
 31
0.0
  0
LINE
  5
264
330
A
100
AcDbEntity
  8
0
 62
     7
100
AcDbLine
 10
208.555056
 20
214.420676
 30
0.0
 11
208.44688
 21
214.420676
 31
0.0
  0
LINE
  5
263
330
A
100
AcDbEntity
  8
0
 62
     7
100
AcDbLine
 10
208.708363
 20
214.420676
 30
0.0
 11
208.555056
 21
214.420676
 31
0.0
  0
LINE
  5
262
330
A
100
AcDbEntity
  8
0
 62
     7
100
AcDbLine
 10
208.816539
 20
214.420676
 30
0.0
 11
208.708363
 21
214.420676
 31
0.0
  0
LINE
  5
261
330
A
100
AcDbEntity
  8
0
 62
     7
100
AcDbLine
 10
210.067453
 20
214.826853
 30
0.0
 11
210.067453
 21
214.420676
 31
0.0
  0
LINE
  5
260
330
A
100
AcDbEntity
  8
0
 62
     7
100
AcDbLine
 10
209.667478
 20
214.826853
 30
0.0
 11
209.667478
 21
214.420676
 31
0.0
  0
LINE
  5
25F
330
A
100
AcDbEntity
  8
0
 62
     7
100
AcDbLine
 10
210.008887
 20
214.420676
 30
0.0
 11
209.867638
 21
214.420676
 31
0.0
  0
LINE
  5
25E
330
A
100
AcDbEntity
  8
0
 62
     7
100
AcDbLine
 10
210.067453
 20
214.420676
 30
0.0
 11
210.008887
 21
214.420676
 31
0.0
  0
LINE
  5
25D
330
A
100
AcDbEntity
  8
0
 62
     7
100
AcDbLine
 10
210.008887
 20
214.420676
 30
0.0
 11
210.067453
 21
214.420676
 31
0.0
  0
LINE
  5
25C
330
A
100
AcDbEntity
  8
0
 62
     7
100
AcDbLine
 10
209.867638
 20
214.420676
 30
0.0
 11
210.008887
 21
214.420676
 31
0.0
  0
LINE
  5
25B
330
A
100
AcDbEntity
  8
0
 62
     7
100
AcDbLine
 10
209.726044
 20
214.420676
 30
0.0
 11
209.867638
 21
214.420676
 31
0.0
  0
LINE
  5
25A
330
A
100
AcDbEntity
  8
0
 62
     7
100
AcDbLine
 10
209.667478
 20
214.420676
 30
0.0
 11
209.726044
 21
214.420676
 31
0.0
  0
LINE
  5
259
330
A
100
AcDbEntity
  8
0
 62
     7
100
AcDbLine
 10
209.726044
 20
214.420676
 30
0.0
 11
209.667478
 21
214.420676
 31
0.0
  0
LINE
  5
258
330
A
100
AcDbEntity
  8
0
 62
     7
100
AcDbLine
 10
209.867638
 20
214.420676
 30
0.0
 11
209.726044
 21
214.420676
 31
0.0
  0
LINE
  5
257
330
A
100
AcDbEntity
  8
0
 62
     7
100
AcDbLine
 10
211.901622
 20
214.826853
 30
0.0
 11
211.901622
 21
214.420676
 31
0.0
  0
LINE
  5
256
330
A
100
AcDbEntity
  8
0
 62
     7
100
AcDbLine
 10
211.531963
 20
214.826853
 30
0.0
 11
211.531963
 21
214.420676
 31
0.0
  0
LINE
  5
255
330
A
100
AcDbEntity
  8
0
 62
     7
100
AcDbLine
 10
211.793446
 20
214.420676
 30
0.0
 11
211.901622
 21
214.420676
 31
0.0
  0
LINE
  5
254
330
A
100
AcDbEntity
  8
0
 62
     7
100
AcDbLine
 10
211.640484
 20
214.420676
 30
0.0
 11
211.793446
 21
214.420676
 31
0.0
  0
LINE
  5
253
330
A
100
AcDbEntity
  8
0
 62
     7
100
AcDbLine
 10
211.531963
 20
214.420676
 30
0.0
 11
211.640484
 21
214.420676
 31
0.0
  0
LINE
  5
252
330
A
100
AcDbEntity
  8
0
 62
     7
100
AcDbLine
 10
211.640484
 20
214.420676
 30
0.0
 11
211.531963
 21
214.420676
 31
0.0
  0
LINE
  5
251
330
A
100
AcDbEntity
  8
0
 62
     7
100
AcDbLine
 10
211.793446
 20
214.420676
 30
0.0
 11
211.640484
 21
214.420676
 31
0.0
  0
LINE
  5
250
330
A
100
AcDbEntity
  8
0
 62
     7
100
AcDbLine
 10
211.901622
 20
214.420676
 30
0.0
 11
211.793446
 21
214.420676
 31
0.0
  0
LINE
  5
24F
330
A
100
AcDbEntity
  8
0
 62
     7
100
AcDbLine
 10
213.698239
 20
214.826853
 30
0.0
 11
213.698239
 21
214.420676
 31
0.0
  0
LINE
  5
24E
330
A
100
AcDbEntity
  8
0
 62
     7
100
AcDbLine
 10
214.098215
 20
214.420676
 30
0.0
 11
214.039648
 21
214.420676
 31
0.0
  0
LINE
  5
24D
330
A
100
AcDbEntity
  8
0
 62
     7
100
AcDbLine
 10
214.039648
 20
214.420676
 30
0.0
 11
214.098215
 21
214.420676
 31
0.0
  0
LINE
  5
24C
330
A
100
AcDbEntity
  8
0
 62
     7
100
AcDbLine
 10
213.8984
 20
214.420676
 30
0.0
 11
214.039648
 21
214.420676
 31
0.0
  0
LINE
  5
24B
330
A
100
AcDbEntity
  8
0
 62
     7
100
AcDbLine
 10
213.756806
 20
214.420676
 30
0.0
 11
213.8984
 21
214.420676
 31
0.0
  0
LINE
  5
24A
330
A
100
AcDbEntity
  8
0
 62
     7
100
AcDbLine
 10
213.698239
 20
214.420676
 30
0.0
 11
213.756806
 21
214.420676
 31
0.0
  0
LINE
  5
249
330
A
100
AcDbEntity
  8
0
 62
     7
100
AcDbLine
 10
213.756806
 20
214.420676
 30
0.0
 11
213.698239
 21
214.420676
 31
0.0
  0
LINE
  5
248
330
A
100
AcDbEntity
  8
0
 62
     7
100
AcDbLine
 10
213.8984
 20
214.420676
 30
0.0
 11
213.756806
 21
214.420676
 31
0.0
  0
LINE
  5
247
330
A
100
AcDbEntity
  8
0
 62
     7
100
AcDbLine
 10
214.039648
 20
214.420676
 30
0.0
 11
213.8984
 21
214.420676
 31
0.0
  0
LINE
  5
246
330
A
100
AcDbEntity
  8
0
 62
     7
100
AcDbLine
 10
215.895177
 20
214.826853
 30
0.0
 11
215.895177
 21
214.420676
 31
0.0
  0
LINE
  5
245
330
A
100
AcDbEntity
  8
0
 62
     7
100
AcDbLine
 10
215.895177
 20
214.826853
 30
0.0
 11
215.895177
 21
214.420676
 31
0.0
  0
LINE
  5
244
330
A
100
AcDbEntity
  8
0
 62
     7
100
AcDbLine
 10
216.003353
 20
214.826853
 30
0.0
 11
216.003353
 21
214.420676
 31
0.0
  0
LINE
  5
243
330
A
100
AcDbEntity
  8
0
 62
     7
100
AcDbLine
 10
216.156315
 20
214.420676
 30
0.0
 11
216.156315
 21
214.826853
 31
0.0
  0
LINE
  5
242
330
A
100
AcDbEntity
  8
0
 62
     7
100
AcDbLine
 10
216.003353
 20
214.420676
 30
0.0
 11
215.895177
 21
214.420676
 31
0.0
  0
LINE
  5
241
330
A
100
AcDbEntity
  8
0
 62
     7
100
AcDbLine
 10
216.156315
 20
214.420676
 30
0.0
 11
216.003353
 21
214.420676
 31
0.0
  0
LINE
  5
240
330
A
100
AcDbEntity
  8
0
 62
     7
100
AcDbLine
 10
216.264491
 20
214.420676
 30
0.0
 11
216.156315
 21
214.420676
 31
0.0
  0
LINE
  5
23F
330
A
100
AcDbEntity
  8
0
 62
     7
100
AcDbLine
 10
216.156315
 20
214.420676
 30
0.0
 11
216.264491
 21
214.420676
 31
0.0
  0
LINE
  5
23E
330
A
100
AcDbEntity
  8
0
 62
     7
100
AcDbLine
 10
216.003353
 20
214.420676
 30
0.0
 11
216.156315
 21
214.420676
 31
0.0
  0
LINE
  5
23D
330
A
100
AcDbEntity
  8
0
 62
     7
100
AcDbLine
 10
215.895177
 20
214.420676
 30
0.0
 11
216.003353
 21
214.420676
 31
0.0
  0
LINE
  5
23C
330
A
100
AcDbEntity
  8
0
 62
     7
100
AcDbLine
 10
218.128977
 20
214.826853
 30
0.0
 11
218.128977
 21
214.420676
 31
0.0
  0
LINE
  5
23B
330
A
100
AcDbEntity
  8
0
 62
     7
100
AcDbLine
 10
217.729001
 20
214.826853
 30
0.0
 11
217.729001
 21
214.420676
 31
0.0
  0
LINE
  5
23A
330
A
100
AcDbEntity
  8
0
 62
     7
100
AcDbLine
 10
218.07041
 20
214.420676
 30
0.0
 11
218.128977
 21
214.420676
 31
0.0
  0
LINE
  5
239
330
A
100
AcDbEntity
  8
0
 62
     7
100
AcDbLine
 10
217.929161
 20
214.420676
 30
0.0
 11
218.07041
 21
214.420676
 31
0.0
  0
LINE
  5
238
330
A
100
AcDbEntity
  8
0
 62
     7
100
AcDbLine
 10
217.787912
 20
214.420676
 30
0.0
 11
217.929161
 21
214.420676
 31
0.0
  0
LINE
  5
237
330
A
100
AcDbEntity
  8
0
 62
     7
100
AcDbLine
 10
217.729001
 20
214.420676
 30
0.0
 11
217.787912
 21
214.420676
 31
0.0
  0
LINE
  5
236
330
A
100
AcDbEntity
  8
0
 62
     7
100
AcDbLine
 10
217.787912
 20
214.420676
 30
0.0
 11
217.729001
 21
214.420676
 31
0.0
  0
LINE
  5
235
330
A
100
AcDbEntity
  8
0
 62
     7
100
AcDbLine
 10
217.929161
 20
214.420676
 30
0.0
 11
217.787912
 21
214.420676
 31
0.0
  0
LINE
  5
234
330
A
100
AcDbEntity
  8
0
 62
     7
100
AcDbLine
 10
218.07041
 20
214.420676
 30
0.0
 11
217.929161
 21
214.420676
 31
0.0
  0
LINE
  5
233
330
A
100
AcDbEntity
  8
0
 62
     7
100
AcDbLine
 10
218.128977
 20
214.420676
 30
0.0
 11
218.07041
 21
214.420676
 31
0.0
  0
LINE
  5
232
330
A
100
AcDbEntity
  8
0
 62
     7
100
AcDbLine
 10
219.349574
 20
214.420676
 30
0.0
 11
219.349574
 21
214.826853
 31
0.0
  0
LINE
  5
231
330
A
100
AcDbEntity
  8
0
 62
     7
100
AcDbLine
 10
219.241398
 20
214.420676
 30
0.0
 11
219.349574
 21
214.420676
 31
0.0
  0
LINE
  5
230
330
A
100
AcDbEntity
  8
0
 62
     7
100
AcDbLine
 10
219.088436
 20
214.420676
 30
0.0
 11
219.241398
 21
214.420676
 31
0.0
  0
LINE
  5
22F
330
A
100
AcDbEntity
  8
0
 62
     7
100
AcDbLine
 10
218.979915
 20
214.420676
 30
0.0
 11
219.088436
 21
214.420676
 31
0.0
  0
LINE
  5
22E
330
A
100
AcDbEntity
  8
0
 62
     7
100
AcDbLine
 10
219.088436
 20
214.420676
 30
0.0
 11
218.979915
 21
214.420676
 31
0.0
  0
LINE
  5
22D
330
A
100
AcDbEntity
  8
0
 62
     7
100
AcDbLine
 10
219.241398
 20
214.420676
 30
0.0
 11
219.088436
 21
214.420676
 31
0.0
  0
LINE
  5
22C
330
A
100
AcDbEntity
  8
0
 62
     7
100
AcDbLine
 10
219.349574
 20
214.420676
 30
0.0
 11
219.241398
 21
214.420676
 31
0.0
  0
LINE
  5
22B
330
A
100
AcDbEntity
  8
0
 62
     7
100
AcDbLine
 10
219.398839
 20
214.826853
 30
0.0
 11
219.398839
 21
214.420676
 31
0.0
  0
LINE
  5
22A
330
A
100
AcDbEntity
  8
0
 62
     7
100
AcDbLine
 10
219.798815
 20
214.420676
 30
0.0
 11
219.798815
 21
214.826853
 31
0.0
  0
LINE
  5
229
330
A
100
AcDbEntity
  8
0
 62
     7
100
AcDbLine
 10
219.740248
 20
214.420676
 30
0.0
 11
219.798815
 21
214.420676
 31
0.0
  0
LINE
  5
228
330
A
100
AcDbEntity
  8
0
 62
     7
100
AcDbLine
 10
219.598655
 20
214.420676
 30
0.0
 11
219.740248
 21
214.420676
 31
0.0
  0
LINE
  5
227
330
A
100
AcDbEntity
  8
0
 62
     7
100
AcDbLine
 10
219.457406
 20
214.420676
 30
0.0
 11
219.598655
 21
214.420676
 31
0.0
  0
LINE
  5
226
330
A
100
AcDbEntity
  8
0
 62
     7
100
AcDbLine
 10
219.398839
 20
214.420676
 30
0.0
 11
219.457406
 21
214.420676
 31
0.0
  0
LINE
  5
225
330
A
100
AcDbEntity
  8
0
 62
     7
100
AcDbLine
 10
219.457406
 20
214.420676
 30
0.0
 11
219.398839
 21
214.420676
 31
0.0
  0
LINE
  5
224
330
A
100
AcDbEntity
  8
0
 62
     7
100
AcDbLine
 10
219.598655
 20
214.420676
 30
0.0
 11
219.457406
 21
214.420676
 31
0.0
  0
LINE
  5
223
330
A
100
AcDbEntity
  8
0
 62
     7
100
AcDbLine
 10
219.740248
 20
214.420676
 30
0.0
 11
219.598655
 21
214.420676
 31
0.0
  0
LINE
  5
222
330
A
100
AcDbEntity
  8
0
 62
     7
100
AcDbLine
 10
219.798815
 20
214.420676
 30
0.0
 11
219.740248
 21
214.420676
 31
0.0
  0
LINE
  5
221
330
A
100
AcDbEntity
  8
0
 62
     7
100
AcDbLine
 10
219.241398
 20
214.420676
 30
0.0
 11
219.349574
 21
214.420676
 31
0.0
  0
LINE
  5
220
330
A
100
AcDbEntity
  8
0
 62
     7
100
AcDbLine
 10
219.088436
 20
214.420676
 30
0.0
 11
219.241398
 21
214.420676
 31
0.0
  0
LINE
  5
21F
330
A
100
AcDbEntity
  8
0
 62
     7
100
AcDbLine
 10
218.979915
 20
214.420676
 30
0.0
 11
219.088436
 21
214.420676
 31
0.0
  0
LINE
  5
21E
330
A
100
AcDbEntity
  8
0
 62
     7
100
AcDbLine
 10
219.088436
 20
214.420676
 30
0.0
 11
218.979915
 21
214.420676
 31
0.0
  0
LINE
  5
21D
330
A
100
AcDbEntity
  8
0
 62
     7
100
AcDbLine
 10
219.241398
 20
214.420676
 30
0.0
 11
219.088436
 21
214.420676
 31
0.0
  0
LINE
  5
21C
330
A
100
AcDbEntity
  8
0
 62
     7
100
AcDbLine
 10
219.349574
 20
214.420676
 30
0.0
 11
219.241398
 21
214.420676
 31
0.0
  0
LINE
  5
21B
330
A
100
AcDbEntity
  8
0
 62
     7
100
AcDbLine
 10
217.729001
 20
214.826853
 30
0.0
 11
217.729001
 21
214.420676
 31
0.0
  0
LINE
  5
21A
330
A
100
AcDbEntity
  8
0
 62
     7
100
AcDbLine
 10
218.128977
 20
214.826853
 30
0.0
 11
218.128977
 21
214.420676
 31
0.0
  0
LINE
  5
219
330
A
100
AcDbEntity
  8
0
 62
     7
100
AcDbLine
 10
217.929161
 20
214.420676
 30
0.0
 11
218.07041
 21
214.420676
 31
0.0
  0
LINE
  5
218
330
A
100
AcDbEntity
  8
0
 62
     7
100
AcDbLine
 10
217.787912
 20
214.420676
 30
0.0
 11
217.929161
 21
214.420676
 31
0.0
  0
LINE
  5
217
330
A
100
AcDbEntity
  8
0
 62
     7
100
AcDbLine
 10
217.729001
 20
214.420676
 30
0.0
 11
217.787912
 21
214.420676
 31
0.0
  0
LINE
  5
216
330
A
100
AcDbEntity
  8
0
 62
     7
100
AcDbLine
 10
217.787912
 20
214.420676
 30
0.0
 11
217.729001
 21
214.420676
 31
0.0
  0
LINE
  5
215
330
A
100
AcDbEntity
  8
0
 62
     7
100
AcDbLine
 10
217.929161
 20
214.420676
 30
0.0
 11
217.787912
 21
214.420676
 31
0.0
  0
LINE
  5
214
330
A
100
AcDbEntity
  8
0
 62
     7
100
AcDbLine
 10
218.07041
 20
214.420676
 30
0.0
 11
217.929161
 21
214.420676
 31
0.0
  0
LINE
  5
213
330
A
100
AcDbEntity
  8
0
 62
     7
100
AcDbLine
 10
218.128977
 20
214.420676
 30
0.0
 11
218.07041
 21
214.420676
 31
0.0
  0
LINE
  5
212
330
A
100
AcDbEntity
  8
0
 62
     7
100
AcDbLine
 10
218.07041
 20
214.420676
 30
0.0
 11
218.128977
 21
214.420676
 31
0.0
  0
LINE
  5
211
330
A
100
AcDbEntity
  8
0
 62
     7
100
AcDbLine
 10
215.895177
 20
214.826853
 30
0.0
 11
215.895177
 21
214.420676
 31
0.0
  0
LINE
  5
210
330
A
100
AcDbEntity
  8
0
 62
     7
100
AcDbLine
 10
215.895177
 20
214.826853
 30
0.0
 11
215.895177
 21
214.420676
 31
0.0
  0
LINE
  5
20F
330
A
100
AcDbEntity
  8
0
 62
     7
100
AcDbLine
 10
216.156315
 20
214.420676
 30
0.0
 11
216.264491
 21
214.420676
 31
0.0
  0
LINE
  5
20E
330
A
100
AcDbEntity
  8
0
 62
     7
100
AcDbLine
 10
216.003353
 20
214.420676
 30
0.0
 11
216.156315
 21
214.420676
 31
0.0
  0
LINE
  5
20D
330
A
100
AcDbEntity
  8
0
 62
     7
100
AcDbLine
 10
215.895177
 20
214.420676
 30
0.0
 11
216.003353
 21
214.420676
 31
0.0
  0
LINE
  5
20C
330
A
100
AcDbEntity
  8
0
 62
     7
100
AcDbLine
 10
216.003353
 20
214.420676
 30
0.0
 11
215.895177
 21
214.420676
 31
0.0
  0
LINE
  5
20B
330
A
100
AcDbEntity
  8
0
 62
     7
100
AcDbLine
 10
216.156315
 20
214.420676
 30
0.0
 11
216.003353
 21
214.420676
 31
0.0
  0
LINE
  5
20A
330
A
100
AcDbEntity
  8
0
 62
     7
100
AcDbLine
 10
216.264491
 20
214.420676
 30
0.0
 11
216.156315
 21
214.420676
 31
0.0
  0
LINE
  5
209
330
A
100
AcDbEntity
  8
0
 62
     7
100
AcDbLine
 10
213.698239
 20
214.826853
 30
0.0
 11
213.698239
 21
214.420676
 31
0.0
  0
LINE
  5
208
330
A
100
AcDbEntity
  8
0
 62
     7
100
AcDbLine
 10
214.039648
 20
214.420676
 30
0.0
 11
214.098215
 21
214.420676
 31
0.0
  0
LINE
  5
207
330
A
100
AcDbEntity
  8
0
 62
     7
100
AcDbLine
 10
213.8984
 20
214.420676
 30
0.0
 11
214.039648
 21
214.420676
 31
0.0
  0
LINE
  5
206
330
A
100
AcDbEntity
  8
0
 62
     7
100
AcDbLine
 10
213.756806
 20
214.420676
 30
0.0
 11
213.8984
 21
214.420676
 31
0.0
  0
LINE
  5
205
330
A
100
AcDbEntity
  8
0
 62
     7
100
AcDbLine
 10
213.698239
 20
214.420676
 30
0.0
 11
213.756806
 21
214.420676
 31
0.0
  0
LINE
  5
204
330
A
100
AcDbEntity
  8
0
 62
     7
100
AcDbLine
 10
213.756806
 20
214.420676
 30
0.0
 11
213.698239
 21
214.420676
 31
0.0
  0
LINE
  5
203
330
A
100
AcDbEntity
  8
0
 62
     7
100
AcDbLine
 10
213.8984
 20
214.420676
 30
0.0
 11
213.756806
 21
214.420676
 31
0.0
  0
LINE
  5
202
330
A
100
AcDbEntity
  8
0
 62
     7
100
AcDbLine
 10
214.039648
 20
214.420676
 30
0.0
 11
213.8984
 21
214.420676
 31
0.0
  0
LINE
  5
201
330
A
100
AcDbEntity
  8
0
 62
     7
100
AcDbLine
 10
214.098215
 20
214.420676
 30
0.0
 11
214.039648
 21
214.420676
 31
0.0
  0
LINE
  5
200
330
A
100
AcDbEntity
  8
0
 62
     7
100
AcDbLine
 10
212.573071
 20
214.420676
 30
0.0
 11
212.421143
 21
214.420676
 31
0.0
  0
LINE
  5
1FF
330
A
100
AcDbEntity
  8
0
 62
     7
100
AcDbLine
 10
212.666433
 20
214.420676
 30
0.0
 11
212.573071
 21
214.420676
 31
0.0
  0
LINE
  5
1FE
330
A
100
AcDbEntity
  8
0
 62
     7
100
AcDbLine
 10
212.646452
 20
214.420676
 30
0.0
 11
212.666433
 21
214.420676
 31
0.0
  0
LINE
  5
1FD
330
A
100
AcDbEntity
  8
0
 62
     7
100
AcDbLine
 10
212.52484
 20
214.420676
 30
0.0
 11
212.646452
 21
214.420676
 31
0.0
  0
LINE
  5
1FC
330
A
100
AcDbEntity
  8
0
 62
     7
100
AcDbLine
 10
212.372911
 20
214.420676
 30
0.0
 11
212.52484
 21
214.420676
 31
0.0
  0
LINE
  5
1FB
330
A
100
AcDbEntity
  8
0
 62
     7
100
AcDbLine
 10
212.279894
 20
214.420676
 30
0.0
 11
212.372911
 21
214.420676
 31
0.0
  0
LINE
  5
1FA
330
A
100
AcDbEntity
  8
0
 62
     7
100
AcDbLine
 10
212.299875
 20
214.420676
 30
0.0
 11
212.279894
 21
214.420676
 31
0.0
  0
LINE
  5
1F9
330
A
100
AcDbEntity
  8
0
 62
     7
100
AcDbLine
 10
212.421143
 20
214.420676
 30
0.0
 11
212.299875
 21
214.420676
 31
0.0
  0
LINE
  5
1F8
330
A
100
AcDbEntity
  8
0
 62
     7
100
AcDbLine
 10
211.481321
 20
214.420676
 30
0.0
 11
211.329736
 21
214.420676
 31
0.0
  0
LINE
  5
1F7
330
A
100
AcDbEntity
  8
0
 62
     7
100
AcDbLine
 10
211.602932
 20
214.420676
 30
0.0
 11
211.481321
 21
214.420676
 31
0.0
  0
LINE
  5
1F6
330
A
100
AcDbEntity
  8
0
 62
     7
100
AcDbLine
 10
211.622914
 20
214.420676
 30
0.0
 11
211.602932
 21
214.420676
 31
0.0
  0
LINE
  5
1F5
330
A
100
AcDbEntity
  8
0
 62
     7
100
AcDbLine
 10
211.529896
 20
214.420676
 30
0.0
 11
211.622914
 21
214.420676
 31
0.0
  0
LINE
  5
1F4
330
A
100
AcDbEntity
  8
0
 62
     7
100
AcDbLine
 10
211.377968
 20
214.420676
 30
0.0
 11
211.529896
 21
214.420676
 31
0.0
  0
LINE
  5
1F3
330
A
100
AcDbEntity
  8
0
 62
     7
100
AcDbLine
 10
211.2567
 20
214.420676
 30
0.0
 11
211.377968
 21
214.420676
 31
0.0
  0
LINE
  5
1F2
330
A
100
AcDbEntity
  8
0
 62
     7
100
AcDbLine
 10
211.236719
 20
214.420676
 30
0.0
 11
211.2567
 21
214.420676
 31
0.0
  0
LINE
  5
1F1
330
A
100
AcDbEntity
  8
0
 62
     7
100
AcDbLine
 10
211.329736
 20
214.420676
 30
0.0
 11
211.236719
 21
214.420676
 31
0.0
  0
LINE
  5
1F0
330
A
100
AcDbEntity
  8
0
 62
     7
100
AcDbLine
 10
211.247743
 20
214.420676
 30
0.0
 11
211.189176
 21
214.420676
 31
0.0
  0
LINE
  5
1EF
330
A
100
AcDbEntity
  8
0
 62
     7
100
AcDbLine
 10
211.189176
 20
214.420676
 30
0.0
 11
211.247743
 21
214.420676
 31
0.0
  0
LINE
  5
1EE
330
A
100
AcDbEntity
  8
0
 62
     7
100
AcDbLine
 10
211.047928
 20
214.420676
 30
0.0
 11
211.189176
 21
214.420676
 31
0.0
  0
LINE
  5
1ED
330
A
100
AcDbEntity
  8
0
 62
     7
100
AcDbLine
 10
210.906334
 20
214.420676
 30
0.0
 11
211.047928
 21
214.420676
 31
0.0
  0
LINE
  5
1EC
330
A
100
AcDbEntity
  8
0
 62
     7
100
AcDbLine
 10
210.847767
 20
214.420676
 30
0.0
 11
210.906334
 21
214.420676
 31
0.0
  0
LINE
  5
1EB
330
A
100
AcDbEntity
  8
0
 62
     7
100
AcDbLine
 10
210.906334
 20
214.420676
 30
0.0
 11
210.847767
 21
214.420676
 31
0.0
  0
LINE
  5
1EA
330
A
100
AcDbEntity
  8
0
 62
     7
100
AcDbLine
 10
211.047928
 20
214.420676
 30
0.0
 11
210.906334
 21
214.420676
 31
0.0
  0
LINE
  5
1E9
330
A
100
AcDbEntity
  8
0
 62
     7
100
AcDbLine
 10
211.189176
 20
214.420676
 30
0.0
 11
211.047928
 21
214.420676
 31
0.0
  0
LINE
  5
1E8
330
A
100
AcDbEntity
  8
0
 62
     7
100
AcDbLine
 10
211.529896
 20
214.826853
 30
0.0
 11
211.529896
 21
214.420676
 31
0.0
  0
LINE
  5
1E7
330
A
100
AcDbEntity
  8
0
 62
     7
100
AcDbLine
 10
211.481321
 20
214.420676
 30
0.0
 11
211.602932
 21
214.420676
 31
0.0
  0
LINE
  5
1E6
330
A
100
AcDbEntity
  8
0
 62
     7
100
AcDbLine
 10
211.329736
 20
214.420676
 30
0.0
 11
211.481321
 21
214.420676
 31
0.0
  0
LINE
  5
1E5
330
A
100
AcDbEntity
  8
0
 62
     7
100
AcDbLine
 10
211.236719
 20
214.420676
 30
0.0
 11
211.329736
 21
214.420676
 31
0.0
  0
LINE
  5
1E4
330
A
100
AcDbEntity
  8
0
 62
     7
100
AcDbLine
 10
211.2567
 20
214.420676
 30
0.0
 11
211.236719
 21
214.420676
 31
0.0
  0
LINE
  5
1E3
330
A
100
AcDbEntity
  8
0
 62
     7
100
AcDbLine
 10
211.377968
 20
214.420676
 30
0.0
 11
211.2567
 21
214.420676
 31
0.0
  0
LINE
  5
1E2
330
A
100
AcDbEntity
  8
0
 62
     7
100
AcDbLine
 10
211.529896
 20
214.420676
 30
0.0
 11
211.377968
 21
214.420676
 31
0.0
  0
LINE
  5
1E1
330
A
100
AcDbEntity
  8
0
 62
     7
100
AcDbLine
 10
211.622914
 20
214.420676
 30
0.0
 11
211.529896
 21
214.420676
 31
0.0
  0
LINE
  5
1E0
330
A
100
AcDbEntity
  8
0
 62
     7
100
AcDbLine
 10
211.602932
 20
214.420676
 30
0.0
 11
211.622914
 21
214.420676
 31
0.0
  0
LINE
  5
1DF
330
A
100
AcDbEntity
  8
0
 62
     7
100
AcDbLine
 10
212.666433
 20
214.826853
 30
0.0
 11
212.666433
 21
214.420676
 31
0.0
  0
LINE
  5
1DE
330
A
100
AcDbEntity
  8
0
 62
     7
100
AcDbLine
 10
212.279894
 20
214.826853
 30
0.0
 11
212.279894
 21
214.420676
 31
0.0
  0
LINE
  5
1DD
330
A
100
AcDbEntity
  8
0
 62
     7
100
AcDbLine
 10
212.52484
 20
214.420676
 30
0.0
 11
212.372911
 21
214.420676
 31
0.0
  0
LINE
  5
1DC
330
A
100
AcDbEntity
  8
0
 62
     7
100
AcDbLine
 10
212.646452
 20
214.420676
 30
0.0
 11
212.52484
 21
214.420676
 31
0.0
  0
LINE
  5
1DB
330
A
100
AcDbEntity
  8
0
 62
     7
100
AcDbLine
 10
212.666433
 20
214.420676
 30
0.0
 11
212.646452
 21
214.420676
 31
0.0
  0
LINE
  5
1DA
330
A
100
AcDbEntity
  8
0
 62
     7
100
AcDbLine
 10
212.573071
 20
214.420676
 30
0.0
 11
212.666433
 21
214.420676
 31
0.0
  0
LINE
  5
1D9
330
A
100
AcDbEntity
  8
0
 62
     7
100
AcDbLine
 10
212.421143
 20
214.420676
 30
0.0
 11
212.573071
 21
214.420676
 31
0.0
  0
LINE
  5
1D8
330
A
100
AcDbEntity
  8
0
 62
     7
100
AcDbLine
 10
212.299875
 20
214.420676
 30
0.0
 11
212.421143
 21
214.420676
 31
0.0
  0
LINE
  5
1D7
330
A
100
AcDbEntity
  8
0
 62
     7
100
AcDbLine
 10
212.279894
 20
214.420676
 30
0.0
 11
212.299875
 21
214.420676
 31
0.0
  0
LINE
  5
1D6
330
A
100
AcDbEntity
  8
0
 62
     7
100
AcDbLine
 10
212.372911
 20
214.420676
 30
0.0
 11
212.279894
 21
214.420676
 31
0.0
  0
LINE
  5
1D5
330
A
100
AcDbEntity
  8
0
 62
     7
100
AcDbLine
 10
213.698239
 20
214.826853
 30
0.0
 11
213.698239
 21
214.420676
 31
0.0
  0
LINE
  5
1D4
330
A
100
AcDbEntity
  8
0
 62
     7
100
AcDbLine
 10
214.039648
 20
214.420676
 30
0.0
 11
214.098215
 21
214.420676
 31
0.0
  0
LINE
  5
1D3
330
A
100
AcDbEntity
  8
0
 62
     7
100
AcDbLine
 10
213.8984
 20
214.420676
 30
0.0
 11
214.039648
 21
214.420676
 31
0.0
  0
LINE
  5
1D2
330
A
100
AcDbEntity
  8
0
 62
     7
100
AcDbLine
 10
213.756806
 20
214.420676
 30
0.0
 11
213.8984
 21
214.420676
 31
0.0
  0
LINE
  5
1D1
330
A
100
AcDbEntity
  8
0
 62
     7
100
AcDbLine
 10
213.698239
 20
214.420676
 30
0.0
 11
213.756806
 21
214.420676
 31
0.0
  0
LINE
  5
1D0
330
A
100
AcDbEntity
  8
0
 62
     7
100
AcDbLine
 10
213.756806
 20
214.420676
 30
0.0
 11
213.698239
 21
214.420676
 31
0.0
  0
LINE
  5
1CF
330
A
100
AcDbEntity
  8
0
 62
     7
100
AcDbLine
 10
213.8984
 20
214.420676
 30
0.0
 11
213.756806
 21
214.420676
 31
0.0
  0
LINE
  5
1CE
330
A
100
AcDbEntity
  8
0
 62
     7
100
AcDbLine
 10
214.039648
 20
214.420676
 30
0.0
 11
213.8984
 21
214.420676
 31
0.0
  0
LINE
  5
1CD
330
A
100
AcDbEntity
  8
0
 62
     7
100
AcDbLine
 10
214.098215
 20
214.420676
 30
0.0
 11
214.039648
 21
214.420676
 31
0.0
  0
LINE
  5
1CC
330
A
100
AcDbEntity
  8
0
 62
     7
100
AcDbLine
 10
215.516905
 20
214.826853
 30
0.0
 11
215.516905
 21
214.420676
 31
0.0
  0
LINE
  5
1CB
330
A
100
AcDbEntity
  8
0
 62
     7
100
AcDbLine
 10
215.130366
 20
214.826853
 30
0.0
 11
215.130366
 21
214.420676
 31
0.0
  0
LINE
  5
1CA
330
A
100
AcDbEntity
  8
0
 62
     7
100
AcDbLine
 10
215.271615
 20
214.826853
 30
0.0
 11
215.271615
 21
214.420676
 31
0.0
  0
LINE
  5
1C9
330
A
100
AcDbEntity
  8
0
 62
     7
100
AcDbLine
 10
215.423543
 20
214.420676
 30
0.0
 11
215.423543
 21
214.826853
 31
0.0
  0
LINE
  5
1C8
330
A
100
AcDbEntity
  8
0
 62
     7
100
AcDbLine
 10
215.496924
 20
214.420676
 30
0.0
 11
215.516905
 21
214.420676
 31
0.0
  0
LINE
  5
1C7
330
A
100
AcDbEntity
  8
0
 62
     7
100
AcDbLine
 10
215.375312
 20
214.420676
 30
0.0
 11
215.496924
 21
214.420676
 31
0.0
  0
LINE
  5
1C6
330
A
100
AcDbEntity
  8
0
 62
     7
100
AcDbLine
 10
215.223383
 20
214.420676
 30
0.0
 11
215.375312
 21
214.420676
 31
0.0
  0
LINE
  5
1C5
330
A
100
AcDbEntity
  8
0
 62
     7
100
AcDbLine
 10
215.130366
 20
214.420676
 30
0.0
 11
215.223383
 21
214.420676
 31
0.0
  0
LINE
  5
1C4
330
A
100
AcDbEntity
  8
0
 62
     7
100
AcDbLine
 10
215.150347
 20
214.420676
 30
0.0
 11
215.130366
 21
214.420676
 31
0.0
  0
LINE
  5
1C3
330
A
100
AcDbEntity
  8
0
 62
     7
100
AcDbLine
 10
215.271615
 20
214.420676
 30
0.0
 11
215.150347
 21
214.420676
 31
0.0
  0
LINE
  5
1C2
330
A
100
AcDbEntity
  8
0
 62
     7
100
AcDbLine
 10
215.423543
 20
214.420676
 30
0.0
 11
215.271615
 21
214.420676
 31
0.0
  0
LINE
  5
1C1
330
A
100
AcDbEntity
  8
0
 62
     7
100
AcDbLine
 10
215.516905
 20
214.420676
 30
0.0
 11
215.423543
 21
214.420676
 31
0.0
  0
LINE
  5
1C0
330
A
100
AcDbEntity
  8
0
 62
     7
100
AcDbLine
 10
216.266903
 20
214.420676
 30
0.0
 11
216.173541
 21
214.420676
 31
0.0
  0
LINE
  5
1BF
330
A
100
AcDbEntity
  8
0
 62
     7
100
AcDbLine
 10
216.418831
 20
214.420676
 30
0.0
 11
216.266903
 21
214.420676
 31
0.0
  0
LINE
  5
1BE
330
A
100
AcDbEntity
  8
0
 62
     7
100
AcDbLine
 10
216.540099
 20
214.420676
 30
0.0
 11
216.418831
 21
214.420676
 31
0.0
  0
LINE
  5
1BD
330
A
100
AcDbEntity
  8
0
 62
     7
100
AcDbLine
 10
216.5600799999999
 20
214.420676
 30
0.0
 11
216.540099
 21
214.420676
 31
0.0
  0
LINE
  5
1BC
330
A
100
AcDbEntity
  8
0
 62
     7
100
AcDbLine
 10
216.467063
 20
214.420676
 30
0.0
 11
216.5600799999999
 21
214.420676
 31
0.0
  0
LINE
  5
1BB
330
A
100
AcDbEntity
  8
0
 62
     7
100
AcDbLine
 10
216.315134
 20
214.420676
 30
0.0
 11
216.467063
 21
214.420676
 31
0.0
  0
LINE
  5
1BA
330
A
100
AcDbEntity
  8
0
 62
     7
100
AcDbLine
 10
216.193522
 20
214.420676
 30
0.0
 11
216.315134
 21
214.420676
 31
0.0
  0
LINE
  5
1B9
330
A
100
AcDbEntity
  8
0
 62
     7
100
AcDbLine
 10
216.173541
 20
214.420676
 30
0.0
 11
216.193522
 21
214.420676
 31
0.0
  0
LINE
  5
1B8
330
A
100
AcDbEntity
  8
0
 62
     7
100
AcDbLine
 10
216.89012
 20
214.420676
 30
0.0
 11
216.948687
 21
214.420676
 31
0.0
  0
LINE
  5
1B7
330
A
100
AcDbEntity
  8
0
 62
     7
100
AcDbLine
 10
216.7488720000001
 20
214.420676
 30
0.0
 11
216.89012
 21
214.420676
 31
0.0
  0
LINE
  5
1B6
330
A
100
AcDbEntity
  8
0
 62
     7
100
AcDbLine
 10
216.607278
 20
214.420676
 30
0.0
 11
216.7488720000001
 21
214.420676
 31
0.0
  0
LINE
  5
1B5
330
A
100
AcDbEntity
  8
0
 62
     7
100
AcDbLine
 10
216.548711
 20
214.420676
 30
0.0
 11
216.607278
 21
214.420676
 31
0.0
  0
LINE
  5
1B4
330
A
100
AcDbEntity
  8
0
 62
     7
100
AcDbLine
 10
216.607278
 20
214.420676
 30
0.0
 11
216.548711
 21
214.420676
 31
0.0
  0
LINE
  5
1B3
330
A
100
AcDbEntity
  8
0
 62
     7
100
AcDbLine
 10
216.7488720000001
 20
214.420676
 30
0.0
 11
216.607278
 21
214.420676
 31
0.0
  0
LINE
  5
1B2
330
A
100
AcDbEntity
  8
0
 62
     7
100
AcDbLine
 10
216.89012
 20
214.420676
 30
0.0
 11
216.7488720000001
 21
214.420676
 31
0.0
  0
LINE
  5
1B1
330
A
100
AcDbEntity
  8
0
 62
     7
100
AcDbLine
 10
216.948687
 20
214.420676
 30
0.0
 11
216.89012
 21
214.420676
 31
0.0
  0
LINE
  5
1B0
330
A
100
AcDbEntity
  8
0
 62
     7
100
AcDbLine
 10
216.418831
 20
214.420676
 30
0.0
 11
216.540099
 21
214.420676
 31
0.0
  0
LINE
  5
1AF
330
A
100
AcDbEntity
  8
0
 62
     7
100
AcDbLine
 10
216.266903
 20
214.420676
 30
0.0
 11
216.418831
 21
214.420676
 31
0.0
  0
LINE
  5
1AE
330
A
100
AcDbEntity
  8
0
 62
     7
100
AcDbLine
 10
216.173541
 20
214.420676
 30
0.0
 11
216.266903
 21
214.420676
 31
0.0
  0
LINE
  5
1AD
330
A
100
AcDbEntity
  8
0
 62
     7
100
AcDbLine
 10
216.193522
 20
214.420676
 30
0.0
 11
216.173541
 21
214.420676
 31
0.0
  0
LINE
  5
1AC
330
A
100
AcDbEntity
  8
0
 62
     7
100
AcDbLine
 10
216.315134
 20
214.420676
 30
0.0
 11
216.193522
 21
214.420676
 31
0.0
  0
LINE
  5
1AB
330
A
100
AcDbEntity
  8
0
 62
     7
100
AcDbLine
 10
216.467063
 20
214.420676
 30
0.0
 11
216.315134
 21
214.420676
 31
0.0
  0
LINE
  5
1AA
330
A
100
AcDbEntity
  8
0
 62
     7
100
AcDbLine
 10
216.5600799999999
 20
214.420676
 30
0.0
 11
216.467063
 21
214.420676
 31
0.0
  0
LINE
  5
1A9
330
A
100
AcDbEntity
  8
0
 62
     7
100
AcDbLine
 10
216.540099
 20
214.420676
 30
0.0
 11
216.5600799999999
 21
214.420676
 31
0.0
  0
LINE
  5
1A8
330
A
100
AcDbEntity
  8
0
 62
     7
100
AcDbLine
 10
215.130366
 20
214.826853
 30
0.0
 11
215.130366
 21
214.420676
 31
0.0
  0
LINE
  5
1A7
330
A
100
AcDbEntity
  8
0
 62
     7
100
AcDbLine
 10
215.516905
 20
214.420676
 30
0.0
 11
215.496924
 21
214.420676
 31
0.0
  0
LINE
  5
1A6
330
A
100
AcDbEntity
  8
0
 62
     7
100
AcDbLine
 10
215.423543
 20
214.420676
 30
0.0
 11
215.516905
 21
214.420676
 31
0.0
  0
LINE
  5
1A5
330
A
100
AcDbEntity
  8
0
 62
     7
100
AcDbLine
 10
215.271615
 20
214.420676
 30
0.0
 11
215.423543
 21
214.420676
 31
0.0
  0
LINE
  5
1A4
330
A
100
AcDbEntity
  8
0
 62
     7
100
AcDbLine
 10
215.150347
 20
214.420676
 30
0.0
 11
215.271615
 21
214.420676
 31
0.0
  0
LINE
  5
1A3
330
A
100
AcDbEntity
  8
0
 62
     7
100
AcDbLine
 10
215.130366
 20
214.420676
 30
0.0
 11
215.150347
 21
214.420676
 31
0.0
  0
LINE
  5
1A2
330
A
100
AcDbEntity
  8
0
 62
     7
100
AcDbLine
 10
215.223383
 20
214.420676
 30
0.0
 11
215.130366
 21
214.420676
 31
0.0
  0
LINE
  5
1A1
330
A
100
AcDbEntity
  8
0
 62
     7
100
AcDbLine
 10
215.375312
 20
214.420676
 30
0.0
 11
215.223383
 21
214.420676
 31
0.0
  0
LINE
  5
1A0
330
A
100
AcDbEntity
  8
0
 62
     7
100
AcDbLine
 10
215.496924
 20
214.420676
 30
0.0
 11
215.375312
 21
214.420676
 31
0.0
  0
LINE
  5
19F
330
A
100
AcDbEntity
  8
0
 62
     7
100
AcDbLine
 10
175.492303
 20
183.159535
 30
0.0
 11
175.45389
 21
183.109409
 31
0.0
  0
LINE
  5
19E
330
A
100
AcDbEntity
  8
0
 62
     7
100
AcDbLine
 10
176.953885
 20
183.114404
 30
0.0
 11
176.914955
 21
183.164186
 31
0.0
  0
LINE
  5
19D
330
A
100
AcDbEntity
  8
0
 62
     7
100
AcDbLine
 10
176.545124
 20
183.113026
 30
0.0
 11
176.612131
 21
183.113199
 31
0.0
  0
LINE
  5
19C
330
A
100
AcDbEntity
  8
0
 62
     7
100
AcDbLine
 10
175.425468
 20
182.630541
 30
0.0
 11
175.861962
 21
182.630713
 31
0.0
  0
LINE
  5
19B
330
A
100
AcDbEntity
  8
0
 62
     7
100
AcDbLine
 10
175.862478
 20
183.110787
 30
0.0
 11
175.795471
 21
183.110615
 31
0.0
  0
LINE
  5
19A
330
A
100
AcDbEntity
  8
0
 62
     7
100
AcDbLine
 10
176.612131
 20
183.113199
 30
0.0
 11
176.545124
 21
183.113026
 31
0.0
  0
LINE
  5
199
330
A
100
AcDbEntity
  8
0
 62
     7
100
AcDbLine
 10
176.546674
 20
182.6329519999999
 30
0.0
 11
176.613681
 21
182.633124
 31
0.0
  0
LINE
  5
198
330
A
100
AcDbEntity
  8
0
 62
     7
100
AcDbLine
 10
176.546674
 20
182.6329519999999
 30
0.0
 11
176.501199
 21
182.63278
 31
0.0
  0
LINE
  5
197
330
A
100
AcDbEntity
  8
0
 62
     7
100
AcDbLine
 10
175.45389
 20
183.109409
 30
0.0
 11
175.455268
 21
182.644493
 31
0.0
  0
LINE
  5
196
330
A
100
AcDbEntity
  8
0
 62
     7
100
AcDbLine
 10
175.795471
 20
183.110615
 30
0.0
 11
175.45389
 21
183.109409
 31
0.0
  0
LINE
  5
195
330
A
100
AcDbEntity
  8
0
 62
     7
100
AcDbLine
 10
175.864029
 20
182.630713
 30
0.0
 11
176.546674
 21
182.6329519999999
 31
0.0
  0
LINE
  5
194
330
A
100
AcDbEntity
  8
0
 62
     7
100
AcDbLine
 10
176.545124
 20
183.113026
 30
0.0
 11
175.862478
 21
183.110787
 31
0.0
  0
LINE
  5
193
330
A
100
AcDbEntity
  8
0
 62
     7
100
AcDbLine
 10
176.613681
 20
182.633124
 30
0.0
 11
176.955435
 21
182.63433
 31
0.0
  0
LINE
  5
192
330
A
100
AcDbEntity
  8
0
 62
     7
100
AcDbLine
 10
176.953885
 20
183.114404
 30
0.0
 11
176.612131
 21
183.113199
 31
0.0
  0
LINE
  5
191
330
A
100
AcDbEntity
  8
0
 62
     7
100
AcDbLine
 10
176.955435
 20
182.63433
 30
0.0
 11
176.953885
 21
183.114404
 31
0.0
  0
LINE
  5
190
330
A
100
AcDbEntity
  8
0
 62
     7
100
AcDbLine
 10
176.847431
 20
199.01731
 30
0.0
 11
176.827966
 21
194.895425
 31
0.0
  0
LINE
  5
18F
330
A
100
AcDbEntity
  8
0
 62
     7
100
AcDbLine
 10
176.801095
 20
203.132476
 30
0.0
 11
176.847431
 21
199.01731
 31
0.0
  0
LINE
  5
18E
330
A
100
AcDbEntity
  8
0
 62
     7
100
AcDbLine
 10
176.643137
 20
195.01342
 30
0.0
 11
176.858111
 21
194.876133
 31
0.0
  0
LINE
  5
18D
330
A
100
AcDbEntity
  8
0
 62
     7
100
AcDbLine
 10
176.858111
 20
194.876133
 30
0.0
 11
177.049658
 21
194.752281
 31
0.0
  0
LINE
  5
18C
330
A
100
AcDbEntity
  8
0
 62
     7
100
AcDbLine
 10
177.049658
 20
194.752281
 30
0.0
 11
177.203482
 21
194.654096
 31
0.0
  0
LINE
  5
18B
330
A
100
AcDbEntity
  8
0
 62
     7
100
AcDbLine
 10
177.203482
 20
194.654096
 30
0.0
 11
177.321132
 21
194.578476
 31
0.0
  0
LINE
  5
18A
330
A
100
AcDbEntity
  8
0
 62
     7
100
AcDbLine
 10
177.321132
 20
194.578476
 30
0.0
 11
177.391756
 21
194.534379
 31
0.0
  0
LINE
  5
189
330
A
100
AcDbEntity
  8
0
 62
     7
100
AcDbLine
 10
177.391756
 20
194.534379
 30
0.0
 11
177.416561
 21
194.515948
 31
0.0
  0
LINE
  5
188
330
A
100
AcDbEntity
  8
0
 62
     7
100
AcDbLine
 10
176.664669
 20
183.20725
 30
0.0
 11
176.203543
 21
183.205699
 31
0.0
  0
LINE
  5
187
330
A
100
AcDbEntity
  8
0
 62
     7
100
AcDbLine
 10
177.055687
 20
183.208628
 30
0.0
 11
176.664669
 21
183.20725
 31
0.0
  0
LINE
  5
186
330
A
100
AcDbEntity
  8
0
 62
     7
100
AcDbLine
 10
177.316998
 20
183.209489
 30
0.0
 11
177.055687
 21
183.208628
 31
0.0
  0
LINE
  5
185
330
A
100
AcDbEntity
  8
0
 62
     7
100
AcDbLine
 10
177.408637
 20
183.209833
 30
0.0
 11
177.316998
 21
183.209489
 31
0.0
  0
LINE
  5
184
330
A
100
AcDbEntity
  8
0
 62
     7
100
AcDbLine
 10
177.300633
 20
183.165392
 30
0.0
 11
177.408637
 21
183.209833
 31
0.0
  0
LINE
  5
183
330
A
100
AcDbEntity
  8
0
 62
     7
100
AcDbLine
 10
177.408637
 20
183.209833
 30
0.0
 11
177.453079
 21
183.315942
 31
0.0
  0
LINE
  5
182
330
A
100
AcDbEntity
  8
0
 62
     7
100
AcDbLine
 10
175.106624
 20
183.158329
 30
0.0
 11
174.998276
 21
183.20191
 31
0.0
  0
LINE
  5
181
330
A
100
AcDbEntity
  8
0
 62
     7
100
AcDbLine
 10
174.998276
 20
183.20191
 30
0.0
 11
174.953145
 21
183.307846
 31
0.0
  0
LINE
  5
180
330
A
100
AcDbEntity
  8
0
 62
     7
100
AcDbLine
 10
175.090088
 20
183.202082
 30
0.0
 11
174.998276
 21
183.20191
 31
0.0
  0
LINE
  5
17F
330
A
100
AcDbEntity
  8
0
 62
     7
100
AcDbLine
 10
175.351226
 20
183.202943
 30
0.0
 11
175.090088
 21
183.202082
 31
0.0
  0
LINE
  5
17E
330
A
100
AcDbEntity
  8
0
 62
     7
100
AcDbLine
 10
175.742244
 20
183.204321
 30
0.0
 11
175.351226
 21
183.202943
 31
0.0
  0
LINE
  5
17D
330
A
100
AcDbEntity
  8
0
 62
     7
100
AcDbLine
 10
176.203543
 20
183.205699
 30
0.0
 11
175.742244
 21
183.204321
 31
0.0
  0
LINE
  5
17C
330
A
100
AcDbEntity
  8
0
 62
     7
100
AcDbLine
 10
176.596284
 20
204.119324
 30
0.0
 11
176.134985
 21
204.117773
 31
0.0
  0
LINE
  5
17B
330
A
100
AcDbEntity
  8
0
 62
     7
100
AcDbLine
 10
176.987302
 20
204.12053
 30
0.0
 11
176.596284
 21
204.119324
 31
0.0
  0
LINE
  5
17A
330
A
100
AcDbEntity
  8
0
 62
     7
100
AcDbLine
 10
177.248612
 20
204.121391
 30
0.0
 11
176.987302
 21
204.12053
 31
0.0
  0
LINE
  5
179
330
A
100
AcDbEntity
  8
0
 62
     7
100
AcDbLine
 10
177.340252
 20
204.121735
 30
0.0
 11
177.248612
 21
204.121391
 31
0.0
  0
LINE
  5
178
330
A
100
AcDbEntity
  8
0
 62
     7
100
AcDbLine
 10
177.385383
 20
204.015799
 30
0.0
 11
177.340252
 21
204.121735
 31
0.0
  0
LINE
  5
177
330
A
100
AcDbEntity
  8
0
 62
     7
100
AcDbLine
 10
177.340252
 20
204.121735
 30
0.0
 11
177.231904
 21
204.165316
 31
0.0
  0
LINE
  5
176
330
A
100
AcDbEntity
  8
0
 62
     7
100
AcDbLine
 10
174.929891
 20
204.113812
 30
0.0
 11
175.02153
 21
204.114156
 31
0.0
  0
LINE
  5
175
330
A
100
AcDbEntity
  8
0
 62
     7
100
AcDbLine
 10
174.885449
 20
204.007703
 30
0.0
 11
174.929891
 21
204.113812
 31
0.0
  0
LINE
  5
174
330
A
100
AcDbEntity
  8
0
 62
     7
100
AcDbLine
 10
174.929891
 20
204.113812
 30
0.0
 11
175.037895
 21
204.158081
 31
0.0
  0
LINE
  5
173
330
A
100
AcDbEntity
  8
0
 62
     7
100
AcDbLine
 10
175.02153
 20
204.114156
 30
0.0
 11
174.929891
 21
204.113812
 31
0.0
  0
LINE
  5
172
330
A
100
AcDbEntity
  8
0
 62
     7
100
AcDbLine
 10
175.282841
 20
204.115017
 30
0.0
 11
175.02153
 21
204.114156
 31
0.0
  0
LINE
  5
171
330
A
100
AcDbEntity
  8
0
 62
     7
100
AcDbLine
 10
175.673859
 20
204.116395
 30
0.0
 11
175.282841
 21
204.115017
 31
0.0
  0
LINE
  5
170
330
A
100
AcDbEntity
  8
0
 62
     7
100
AcDbLine
 10
176.134985
 20
204.117773
 30
0.0
 11
175.673859
 21
204.116395
 31
0.0
  0
LINE
  5
16F
330
A
100
AcDbEntity
  8
0
 62
     7
100
AcDbLine
 10
174.953145
 20
183.307846
 30
0.0
 11
174.885449
 21
204.007703
 31
0.0
  0
LINE
  5
16E
330
A
100
AcDbEntity
  8
0
 62
     7
100
AcDbLine
 10
176.134985
 20
204.161698
 30
0.0
 11
176.55477
 21
204.163076
 31
0.0
  0
LINE
  5
16D
330
A
100
AcDbEntity
  8
0
 62
     7
100
AcDbLine
 10
175.037895
 20
204.158081
 30
0.0
 11
175.121438
 21
204.158426
 31
0.0
  0
LINE
  5
16C
330
A
100
AcDbEntity
  8
0
 62
     7
100
AcDbLine
 10
175.190168
 20
183.158502
 30
0.0
 11
175.106624
 21
183.158329
 31
0.0
  0
LINE
  5
16B
330
A
100
AcDbEntity
  8
0
 62
     7
100
AcDbLine
 10
176.831067
 20
203.151941
 30
0.0
 11
176.616954
 21
203.013276
 31
0.0
  0
LINE
  5
16A
330
A
100
AcDbEntity
  8
0
 62
     7
100
AcDbLine
 10
177.021753
 20
203.27717
 30
0.0
 11
176.831067
 21
203.151941
 31
0.0
  0
LINE
  5
169
330
A
100
AcDbEntity
  8
0
 62
     7
100
AcDbLine
 10
177.174887
 20
203.376217
 30
0.0
 11
177.021753
 21
203.27717
 31
0.0
  0
LINE
  5
168
330
A
100
AcDbEntity
  8
0
 62
     7
100
AcDbLine
 10
177.292021
 20
203.452698
 30
0.0
 11
177.174887
 21
203.376217
 31
0.0
  0
LINE
  5
167
330
A
100
AcDbEntity
  8
0
 62
     7
100
AcDbLine
 10
177.362301
 20
203.497139
 30
0.0
 11
177.292021
 21
203.452698
 31
0.0
  0
LINE
  5
166
330
A
100
AcDbEntity
  8
0
 62
     7
100
AcDbLine
 10
177.387105
 20
203.515915
 30
0.0
 11
177.362301
 21
203.497139
 31
0.0
  0
LINE
  5
165
330
A
100
AcDbEntity
  8
0
 62
     7
100
AcDbLine
 10
177.386416
 20
203.713319
 30
0.0
 11
177.385383
 21
204.015799
 31
0.0
  0
LINE
  5
164
330
A
100
AcDbEntity
  8
0
 62
     7
100
AcDbLine
 10
176.616954
 20
203.013276
 30
0.0
 11
176.643137
 21
195.01342
 31
0.0
  0
LINE
  5
163
330
A
100
AcDbEntity
  8
0
 62
     7
100
AcDbLine
 10
177.453079
 20
183.315942
 30
0.0
 11
177.417078
 21
194.318544
 31
0.0
  0
LINE
  5
162
330
A
100
AcDbEntity
  8
0
 62
     7
100
AcDbLine
 10
176.643137
 20
195.01342
 30
0.0
 11
176.616954
 21
203.013276
 31
0.0
  0
LINE
  5
161
330
A
100
AcDbEntity
  8
0
 62
     7
100
AcDbLine
 10
176.858111
 20
194.876133
 30
0.0
 11
176.643137
 21
195.01342
 31
0.0
  0
LINE
  5
160
330
A
100
AcDbEntity
  8
0
 62
     7
100
AcDbLine
 10
177.203482
 20
194.654096
 30
0.0
 11
177.049658
 21
194.752281
 31
0.0
  0
LINE
  5
15F
330
A
100
AcDbEntity
  8
0
 62
     7
100
AcDbLine
 10
177.049658
 20
194.752281
 30
0.0
 11
176.858111
 21
194.876133
 31
0.0
  0
LINE
  5
15E
330
A
100
AcDbEntity
  8
0
 62
     7
100
AcDbLine
 10
177.391756
 20
194.534379
 30
0.0
 11
177.321132
 21
194.578476
 31
0.0
  0
LINE
  5
15D
330
A
100
AcDbEntity
  8
0
 62
     7
100
AcDbLine
 10
177.321132
 20
194.578476
 30
0.0
 11
177.203482
 21
194.654096
 31
0.0
  0
LINE
  5
15C
330
A
100
AcDbEntity
  8
0
 62
     7
100
AcDbLine
 10
177.416561
 20
194.515948
 30
0.0
 11
177.391756
 21
194.534379
 31
0.0
  0
LINE
  5
15B
330
A
100
AcDbEntity
  8
0
 62
     7
100
AcDbLine
 10
177.021753
 20
203.27717
 30
0.0
 11
177.174887
 21
203.376217
 31
0.0
  0
LINE
  5
15A
330
A
100
AcDbEntity
  8
0
 62
     7
100
AcDbLine
 10
177.174887
 20
203.376217
 30
0.0
 11
177.292021
 21
203.452698
 31
0.0
  0
LINE
  5
159
330
A
100
AcDbEntity
  8
0
 62
     7
100
AcDbLine
 10
177.362301
 20
203.497139
 30
0.0
 11
177.387105
 21
203.515915
 31
0.0
  0
LINE
  5
158
330
A
100
AcDbEntity
  8
0
 62
     7
100
AcDbLine
 10
177.292021
 20
203.452698
 30
0.0
 11
177.362301
 21
203.497139
 31
0.0
  0
LINE
  5
157
330
A
100
AcDbEntity
  8
0
 62
     7
100
AcDbLine
 10
176.616954
 20
203.013276
 30
0.0
 11
176.831067
 21
203.151941
 31
0.0
  0
LINE
  5
156
330
A
100
AcDbEntity
  8
0
 62
     7
100
AcDbLine
 10
176.831067
 20
203.151941
 30
0.0
 11
177.021753
 21
203.27717
 31
0.0
  0
LINE
  5
155
330
A
100
AcDbEntity
  8
0
 62
     7
100
AcDbLine
 10
177.362301
 20
203.497139
 30
0.0
 11
177.387105
 21
203.515915
 31
0.0
  0
LINE
  5
154
330
A
100
AcDbEntity
  8
0
 62
     7
100
AcDbLine
 10
177.387105
 20
203.515915
 30
0.0
 11
177.408637
 21
203.535725
 31
0.0
  0
LINE
  5
153
330
A
100
AcDbEntity
  8
0
 62
     7
100
AcDbLine
 10
177.408637
 20
203.535725
 30
0.0
 11
177.424657
 21
203.55984
 31
0.0
  0
LINE
  5
152
330
A
100
AcDbEntity
  8
0
 62
     7
100
AcDbLine
 10
177.424657
 20
203.55984
 30
0.0
 11
177.434992
 21
203.586884
 31
0.0
  0
LINE
  5
151
330
A
100
AcDbEntity
  8
0
 62
     7
100
AcDbLine
 10
177.434992
 20
203.586884
 30
0.0
 11
177.438782
 21
203.615995
 31
0.0
  0
LINE
  5
150
330
A
100
AcDbEntity
  8
0
 62
     7
100
AcDbLine
 10
177.438782
 20
203.615995
 30
0.0
 11
177.435853
 21
203.644762
 31
0.0
  0
LINE
  5
14F
330
A
100
AcDbEntity
  8
0
 62
     7
100
AcDbLine
 10
177.435853
 20
203.644762
 30
0.0
 11
177.426379
 21
203.671634
 31
0.0
  0
LINE
  5
14E
330
A
100
AcDbEntity
  8
0
 62
     7
100
AcDbLine
 10
177.426379
 20
203.671634
 30
0.0
 11
177.411221
 21
203.695749
 31
0.0
  0
LINE
  5
14D
330
A
100
AcDbEntity
  8
0
 62
     7
100
AcDbLine
 10
177.39055
 20
203.715903
 30
0.0
 11
177.359372
 21
203.696438
 31
0.0
  0
LINE
  5
14C
330
A
100
AcDbEntity
  8
0
 62
     7
100
AcDbLine
 10
177.411221
 20
203.695749
 30
0.0
 11
177.39055
 21
203.715903
 31
0.0
  0
LINE
  5
14B
330
A
100
AcDbEntity
  8
0
 62
     7
100
AcDbLine
 10
177.292021
 20
203.452698
 30
0.0
 11
177.362301
 21
203.497139
 31
0.0
  0
LINE
  5
14A
330
A
100
AcDbEntity
  8
0
 62
     7
100
AcDbLine
 10
177.359372
 20
203.696438
 30
0.0
 11
177.270661
 21
203.649757
 31
0.0
  0
LINE
  5
149
330
A
100
AcDbEntity
  8
0
 62
     7
100
AcDbLine
 10
177.174887
 20
203.376217
 30
0.0
 11
177.292021
 21
203.452698
 31
0.0
  0
LINE
  5
148
330
A
100
AcDbEntity
  8
0
 62
     7
100
AcDbLine
 10
177.270661
 20
203.649757
 30
0.0
 11
177.122694
 21
203.570003
 31
0.0
  0
LINE
  5
147
330
A
100
AcDbEntity
  8
0
 62
     7
100
AcDbLine
 10
177.021753
 20
203.27717
 30
0.0
 11
177.174887
 21
203.376217
 31
0.0
  0
LINE
  5
146
330
A
100
AcDbEntity
  8
0
 62
     7
100
AcDbLine
 10
177.122694
 20
203.570003
 30
0.0
 11
176.929252
 21
203.466306
 31
0.0
  0
LINE
  5
145
330
A
100
AcDbEntity
  8
0
 62
     7
100
AcDbLine
 10
176.831067
 20
203.151941
 30
0.0
 11
177.021753
 21
203.27717
 31
0.0
  0
LINE
  5
144
330
A
100
AcDbEntity
  8
0
 62
     7
100
AcDbLine
 10
176.929252
 20
203.466306
 30
0.0
 11
176.688268
 21
203.335392
 31
0.0
  0
LINE
  5
143
330
A
100
AcDbEntity
  8
0
 62
     7
100
AcDbLine
 10
176.616954
 20
203.013276
 30
0.0
 11
176.831067
 21
203.151941
 31
0.0
  0
LINE
  5
142
330
A
100
AcDbEntity
  8
0
 62
     7
100
AcDbLine
 10
176.688268
 20
203.335392
 30
0.0
 11
176.418172
 21
203.190526
 31
0.0
  0
LINE
  5
141
330
A
100
AcDbEntity
  8
0
 62
     7
100
AcDbLine
 10
176.643137
 20
195.01342
 30
0.0
 11
176.616954
 21
203.013276
 31
0.0
  0
LINE
  5
140
330
A
100
AcDbEntity
  8
0
 62
     7
100
AcDbLine
 10
176.418172
 20
203.190526
 30
0.0
 11
176.445561
 21
194.834964
 31
0.0
  0
LINE
  5
13F
330
A
100
AcDbEntity
  8
0
 62
     7
100
AcDbLine
 10
176.858111
 20
194.876133
 30
0.0
 11
176.643137
 21
195.01342
 31
0.0
  0
LINE
  5
13E
330
A
100
AcDbEntity
  8
0
 62
     7
100
AcDbLine
 10
176.445561
 20
194.834964
 30
0.0
 11
176.71669
 21
194.69182
 31
0.0
  0
LINE
  5
13D
330
A
100
AcDbEntity
  8
0
 62
     7
100
AcDbLine
 10
177.049658
 20
194.752281
 30
0.0
 11
176.858111
 21
194.876133
 31
0.0
  0
LINE
  5
13C
330
A
100
AcDbEntity
  8
0
 62
     7
100
AcDbLine
 10
176.71669
 20
194.69182
 30
0.0
 11
176.958363
 21
194.562457
 31
0.0
  0
LINE
  5
13B
330
A
100
AcDbEntity
  8
0
 62
     7
100
AcDbLine
 10
177.203482
 20
194.654096
 30
0.0
 11
177.049658
 21
194.752281
 31
0.0
  0
LINE
  5
13A
330
A
100
AcDbEntity
  8
0
 62
     7
100
AcDbLine
 10
176.958363
 20
194.562457
 30
0.0
 11
177.152494
 21
194.460137
 31
0.0
  0
LINE
  5
139
330
A
100
AcDbEntity
  8
0
 62
     7
100
AcDbLine
 10
177.321132
 20
194.578476
 30
0.0
 11
177.203482
 21
194.654096
 31
0.0
  0
LINE
  5
138
330
A
100
AcDbEntity
  8
0
 62
     7
100
AcDbLine
 10
177.152494
 20
194.460137
 30
0.0
 11
177.300978
 21
194.381245
 31
0.0
  0
LINE
  5
137
330
A
100
AcDbEntity
  8
0
 62
     7
100
AcDbLine
 10
177.391756
 20
194.534379
 30
0.0
 11
177.321132
 21
194.578476
 31
0.0
  0
LINE
  5
136
330
A
100
AcDbEntity
  8
0
 62
     7
100
AcDbLine
 10
177.300978
 20
194.381245
 30
0.0
 11
177.390034
 21
194.335253
 31
0.0
  0
LINE
  5
135
330
A
100
AcDbEntity
  8
0
 62
     7
100
AcDbLine
 10
177.416561
 20
194.515948
 30
0.0
 11
177.391756
 21
194.534379
 31
0.0
  0
LINE
  5
134
330
A
100
AcDbEntity
  8
0
 62
     7
100
AcDbLine
 10
177.4380929999999
 20
194.496139
 30
0.0
 11
177.416561
 21
194.515948
 31
0.0
  0
LINE
  5
133
330
A
100
AcDbEntity
  8
0
 62
     7
100
AcDbLine
 10
177.454457
 20
194.472195
 30
0.0
 11
177.4380929999999
 21
194.496139
 31
0.0
  0
LINE
  5
132
330
A
100
AcDbEntity
  8
0
 62
     7
100
AcDbLine
 10
177.4649639999999
 20
194.445151
 30
0.0
 11
177.454457
 21
194.472195
 31
0.0
  0
LINE
  5
131
330
A
100
AcDbEntity
  8
0
 62
     7
100
AcDbLine
 10
177.468926
 20
194.41604
 30
0.0
 11
177.4649639999999
 21
194.445151
 31
0.0
  0
LINE
  5
130
330
A
100
AcDbEntity
  8
0
 62
     7
100
AcDbLine
 10
177.46617
 20
194.387273
 30
0.0
 11
177.468926
 21
194.41604
 31
0.0
  0
LINE
  5
12F
330
A
100
AcDbEntity
  8
0
 62
     7
100
AcDbLine
 10
177.4568679999999
 20
194.360402
 30
0.0
 11
177.46617
 21
194.387273
 31
0.0
  0
LINE
  5
12E
330
A
100
AcDbEntity
  8
0
 62
     7
100
AcDbLine
 10
177.441882
 20
194.336286
 30
0.0
 11
177.4568679999999
 21
194.360402
 31
0.0
  0
LINE
  5
12D
330
A
100
AcDbEntity
  8
0
 62
     7
100
AcDbLine
 10
177.421384
 20
194.31596
 30
0.0
 11
177.441882
 21
194.336286
 31
0.0
  0
LINE
  5
12C
330
A
100
AcDbEntity
  8
0
 62
     7
100
AcDbLine
 10
177.390034
 20
194.335253
 30
0.0
 11
177.421384
 21
194.31596
 31
0.0
  0
LINE
  5
12B
330
A
100
AcDbEntity
  8
0
 62
     7
100
AcDbLine
 10
174.501321
 20
123.801229
 30
0.0
 11
174.501321
 21
140.301169
 31
0.0
  0
LINE
  5
12A
330
A
100
AcDbEntity
  8
0
 62
     7
100
AcDbLine
 10
174.501321
 20
120.492559
 30
0.0
 11
174.501321
 21
123.801229
 31
0.0
  0
LINE
  5
129
330
A
100
AcDbEntity
  8
0
 62
     7
100
AcDbLine
 10
174.501321
 20
117.790571
 30
0.0
 11
174.501321
 21
120.492559
 31
0.0
  0
LINE
  5
128
330
A
100
AcDbEntity
  8
0
 62
     7
100
AcDbLine
 10
174.501321
 20
115.969149
 30
0.0
 11
174.501321
 21
117.790571
 31
0.0
  0
LINE
  5
127
330
A
100
AcDbEntity
  8
0
 62
     7
100
AcDbLine
 10
174.501321
 20
115.301145
 30
0.0
 11
174.501321
 21
115.969149
 31
0.0
  0
LINE
  5
126
330
A
100
AcDbEntity
  8
0
 62
     7
100
AcDbLine
 10
174.501321
 20
115.301145
 30
0.0
 11
174.673231
 21
114.771978
 31
0.0
  0
LINE
  5
125
330
A
100
AcDbEntity
  8
0
 62
     7
100
AcDbLine
 10
174.501321
 20
115.969149
 30
0.0
 11
174.501321
 21
115.301145
 31
0.0
  0
LINE
  5
124
330
A
100
AcDbEntity
  8
0
 62
     7
100
AcDbLine
 10
174.673231
 20
114.771978
 30
0.0
 11
175.123161
 21
114.445039
 31
0.0
  0
LINE
  5
123
330
A
100
AcDbEntity
  8
0
 62
     7
100
AcDbLine
 10
175.123161
 20
114.445039
 30
0.0
 11
175.679371
 21
114.445039
 31
0.0
  0
LINE
  5
122
330
A
100
AcDbEntity
  8
0
 62
     7
100
AcDbLine
 10
175.679371
 20
114.445039
 30
0.0
 11
176.129473
 21
114.771978
 31
0.0
  0
LINE
  5
121
330
A
100
AcDbEntity
  8
0
 62
     7
100
AcDbLine
 10
176.129473
 20
114.771978
 30
0.0
 11
176.301211
 21
115.301145
 31
0.0
  0
LINE
  5
120
330
A
100
AcDbEntity
  8
0
 62
     7
100
AcDbLine
 10
176.301211
 20
115.301145
 30
0.0
 11
176.301211
 21
115.969149
 31
0.0
  0
LINE
  5
11F
330
A
100
AcDbEntity
  8
0
 62
     7
100
AcDbLine
 10
174.501321
 20
117.790571
 30
0.0
 11
174.501321
 21
115.969149
 31
0.0
  0
LINE
  5
11E
330
A
100
AcDbEntity
  8
0
 62
     7
100
AcDbLine
 10
176.301211
 20
115.969149
 30
0.0
 11
176.301211
 21
117.790571
 31
0.0
  0
LINE
  5
11D
330
A
100
AcDbEntity
  8
0
 62
     7
100
AcDbLine
 10
174.501321
 20
120.492559
 30
0.0
 11
174.501321
 21
117.790571
 31
0.0
  0
LINE
  5
11C
330
A
100
AcDbEntity
  8
0
 62
     7
100
AcDbLine
 10
176.301211
 20
117.790571
 30
0.0
 11
176.301211
 21
120.492559
 31
0.0
  0
LINE
  5
11B
330
A
100
AcDbEntity
  8
0
 62
     7
100
AcDbLine
 10
174.501321
 20
123.801229
 30
0.0
 11
174.501321
 21
120.492559
 31
0.0
  0
LINE
  5
11A
330
A
100
AcDbEntity
  8
0
 62
     7
100
AcDbLine
 10
176.301211
 20
120.492559
 30
0.0
 11
176.301211
 21
123.801229
 31
0.0
  0
LINE
  5
119
330
A
100
AcDbEntity
  8
0
 62
     7
100
AcDbLine
 10
174.501321
 20
140.301169
 30
0.0
 11
174.501321
 21
123.801229
 31
0.0
  0
LINE
  5
118
330
A
100
AcDbEntity
  8
0
 62
     7
100
AcDbLine
 10
174.673231
 20
140.301169
 30
0.0
 11
174.501321
 21
140.301169
 31
0.0
  0
LINE
  5
117
330
A
100
AcDbEntity
  8
0
 62
     7
100
AcDbLine
 10
175.123161
 20
140.301169
 30
0.0
 11
174.673231
 21
140.301169
 31
0.0
  0
LINE
  5
116
330
A
100
AcDbEntity
  8
0
 62
     7
100
AcDbLine
 10
175.615637
 20
140.301169
 30
0.0
 11
175.123161
 21
140.301169
 31
0.0
  0
LINE
  5
115
330
A
100
AcDbEntity
  8
0
 62
     7
100
AcDbLine
 10
176.301211
 20
123.801229
 30
0.0
 11
176.301211
 21
124.892291
 31
0.0
  0
LINE
  5
114
330
A
100
AcDbEntity
  8
0
 62
     7
100
AcDbLine
 10
212.645074
 20
225.148014
 30
0.0
 11
212.641629
 21
222.1308
 31
0.0
  0
LINE
  5
113
330
A
100
AcDbEntity
  8
0
 62
     7
100
AcDbLine
 10
212.737058
 20
222.127182
 30
0.0
 11
213.009565
 21
222.127527
 31
0.0
  0
LINE
  5
112
330
A
100
AcDbEntity
  8
0
 62
     7
100
AcDbLine
 10
213.009565
 20
222.127527
 30
0.0
 11
213.417464
 21
222.128216
 31
0.0
  0
LINE
  5
111
330
A
100
AcDbEntity
  8
0
 62
     7
100
AcDbLine
 10
213.417464
 20
222.128216
 30
0.0
 11
213.8984
 21
222.128905
 31
0.0
  0
LINE
  5
110
330
A
100
AcDbEntity
  8
0
 62
     7
100
AcDbLine
 10
213.8984
 20
222.128905
 30
0.0
 11
214.379335
 21
222.129594
 31
0.0
  0
LINE
  5
10F
330
A
100
AcDbEntity
  8
0
 62
     7
100
AcDbLine
 10
214.379335
 20
222.129594
 30
0.0
 11
214.78689
 21
222.130283
 31
0.0
  0
LINE
  5
10E
330
A
100
AcDbEntity
  8
0
 62
     7
100
AcDbLine
 10
214.78689
 20
222.130283
 30
0.0
 11
215.059397
 21
222.130627
 31
0.0
  0
LINE
  5
10D
330
A
100
AcDbEntity
  8
0
 62
     7
100
AcDbLine
 10
215.059397
 20
222.130627
 30
0.0
 11
215.15517
 21
222.1308
 31
0.0
  0
LINE
  5
10C
330
A
100
AcDbEntity
  8
0
 62
     7
100
AcDbLine
 10
215.150347
 20
225.351792
 30
0.0
 11
215.15517
 21
222.1308
 31
0.0
  0
LINE
  5
10B
330
A
100
AcDbEntity
  8
0
 62
     7
100
AcDbLine
 10
212.443191
 20
226.538455
 30
0.0
 11
212.645074
 21
225.148014
 31
0.0
  0
LINE
  5
10A
330
A
100
AcDbEntity
  8
0
 62
     7
100
AcDbLine
 10
214.829953
 20
227.326865
 30
0.0
 11
215.150347
 21
225.351792
 31
0.0
  0
LINE
  5
109
330
A
100
AcDbEntity
  8
0
 62
     7
100
AcDbLine
 10
211.91368
 20
227.558892
 30
0.0
 11
212.443191
 21
226.538455
 31
0.0
  0
LINE
  5
108
330
A
100
AcDbEntity
  8
0
 62
     7
100
AcDbLine
 10
213.942497
 20
229.04235
 30
0.0
 11
214.829953
 21
227.326865
 31
0.0
  0
LINE
  5
107
330
A
100
AcDbEntity
  8
0
 62
     7
100
AcDbLine
 10
211.10615
 20
228.366078
 30
0.0
 11
211.91368
 21
227.558892
 31
0.0
  0
LINE
  5
106
330
A
100
AcDbEntity
  8
0
 62
     7
100
AcDbLine
 10
212.589952
 20
230.395239
 30
0.0
 11
213.942497
 21
229.04235
 31
0.0
  0
LINE
  5
105
330
A
100
AcDbEntity
  8
0
 62
     7
100
AcDbLine
 10
210.086746
 20
228.895417
 30
0.0
 11
211.10615
 21
228.366078
 31
0.0
  0
LINE
  5
104
330
A
100
AcDbEntity
  8
0
 62
     7
100
AcDbLine
 10
210.87395
 20
231.282524
 30
0.0
 11
212.589952
 21
230.395239
 31
0.0
  0
LINE
  5
103
330
A
100
AcDbEntity
  8
0
 62
     7
100
AcDbLine
 10
208.697683
 20
229.095577
 30
0.0
 11
210.086746
 21
228.895417
 31
0.0
  0
LINE
  5
102
330
A
100
AcDbEntity
  8
0
 62
     7
100
AcDbLine
 10
208.898188
 20
231.601023
 30
0.0
 11
210.87395
 21
231.282524
 31
0.0
  0
LINE
  5
101
330
A
100
AcDbEntity
  8
0
 62
     7
100
AcDbLine
 10
184.099702
 20
229.095577
 30
0.0
 11
208.697683
 21
229.095577
 31
0.0
  0
LINE
  5
100
330
A
100
AcDbEntity
  8
0
 62
     7
100
AcDbLine
 10
183.898853
 20
231.601023
 30
0.0
 11
208.898188
 21
231.601023
 31
0.0
  0
LINE
  5
FF
330
A
100
AcDbEntity
  8
0
 62
     7
100
AcDbLine
 10
182.710295
 20
228.895417
 30
0.0
 11
184.099702
 21
229.095577
 31
0.0
  0
LINE
  5
FE
330
A
100
AcDbEntity
  8
0
 62
     7
100
AcDbLine
 10
181.92309
 20
231.282524
 30
0.0
 11
183.898853
 21
231.601023
 31
0.0
  0
LINE
  5
FD
330
A
100
AcDbEntity
  8
0
 62
     7
100
AcDbLine
 10
181.690374
 20
228.365906
 30
0.0
 11
182.710295
 21
228.895417
 31
0.0
  0
LINE
  5
FC
330
A
100
AcDbEntity
  8
0
 62
     7
100
AcDbLine
 10
180.207088
 20
230.395239
 30
0.0
 11
181.92309
 21
231.282524
 31
0.0
  0
LINE
  5
FB
330
A
100
AcDbEntity
  8
0
 62
     7
100
AcDbLine
 10
180.882499
 20
227.558375
 30
0.0
 11
181.690374
 21
228.365906
 31
0.0
  0
LINE
  5
FA
330
A
100
AcDbEntity
  8
0
 62
     7
100
AcDbLine
 10
178.853682
 20
229.04235
 30
0.0
 11
180.207088
 21
230.395239
 31
0.0
  0
LINE
  5
F9
330
A
100
AcDbEntity
  8
0
 62
     7
100
AcDbLine
 10
180.35316
 20
226.539144
 30
0.0
 11
180.882499
 21
227.558375
 31
0.0
  0
LINE
  5
F8
330
A
100
AcDbEntity
  8
0
 62
     7
100
AcDbLine
 10
177.966054
 20
227.326865
 30
0.0
 11
178.853682
 21
229.04235
 31
0.0
  0
LINE
  5
F7
330
A
100
AcDbEntity
  8
0
 62
     7
100
AcDbLine
 10
180.1529999999999
 20
225.151115
 30
0.0
 11
180.35316
 21
226.539144
 31
0.0
  0
LINE
  5
F6
330
A
100
AcDbEntity
  8
0
 62
     7
100
AcDbLine
 10
177.647382
 20
225.351792
 30
0.0
 11
177.966054
 21
227.326865
 31
0.0
  0
LINE
  5
F5
330
A
100
AcDbEntity
  8
0
 62
     7
100
AcDbLine
 10
180.072902
 20
148.663449
 30
0.0
 11
179.800395
 21
148.663449
 31
0.0
  0
LINE
  5
F4
330
A
100
AcDbEntity
  8
0
 62
     7
100
AcDbLine
 10
180.168503
 20
148.663449
 30
0.0
 11
180.156618
 21
206.877123
 31
0.0
  0
LINE
  5
F3
330
A
100
AcDbEntity
  8
0
 62
     7
100
AcDbLine
 10
180.155929
 20
210.227134
 30
0.0
 11
180.1529999999999
 21
225.151115
 31
0.0
  0
LINE
  5
F2
330
A
100
AcDbEntity
  8
0
 62
     7
100
AcDbLine
 10
177.654961
 20
148.663105
 30
0.0
 11
177.649105
 21
206.877123
 31
0.0
  0
LINE
  5
F1
330
A
100
AcDbEntity
  8
0
 62
     7
100
AcDbLine
 10
177.64876
 20
210.227134
 30
0.0
 11
177.647382
 21
225.351792
 31
0.0
  0
LINE
  5
F0
330
A
100
AcDbEntity
  8
0
 62
     7
100
AcDbLine
 10
178.430797
 20
148.663449
 30
0.0
 11
178.911732
 21
148.663449
 31
0.0
  0
LINE
  5
EF
330
A
100
AcDbEntity
  8
0
 62
     7
100
AcDbLine
 10
179.800395
 20
148.663449
 30
0.0
 11
178.430797
 21
148.663449
 31
0.0
  0
LINE
  5
EE
330
A
100
AcDbEntity
  8
0
 62
     7
100
AcDbLine
 10
179.392668
 20
148.663449
 30
0.0
 11
179.800395
 21
148.663449
 31
0.0
  0
LINE
  5
ED
330
A
100
AcDbEntity
  8
0
 62
     7
100
AcDbLine
 10
178.911732
 20
148.663449
 30
0.0
 11
179.392668
 21
148.663449
 31
0.0
  0
LINE
  5
EC
330
A
100
AcDbEntity
  8
0
 62
     7
100
AcDbLine
 10
180.072729
 20
148.663449
 30
0.0
 11
179.800395
 21
148.663449
 31
0.0
  0
LINE
  5
EB
330
A
100
AcDbEntity
  8
0
 62
     7
100
AcDbLine
 10
180.168503
 20
148.663449
 30
0.0
 11
180.072729
 21
148.663449
 31
0.0
  0
LINE
  5
EA
330
A
100
AcDbEntity
  8
0
 62
     7
100
AcDbLine
 10
178.02307
 20
148.663105
 30
0.0
 11
180.072902
 21
148.663449
 31
0.0
  0
LINE
  5
E9
330
A
100
AcDbEntity
  8
0
 62
     7
100
AcDbLine
 10
177.750563
 20
148.663105
 30
0.0
 11
178.02307
 21
148.663105
 31
0.0
  0
LINE
  5
E8
330
A
100
AcDbEntity
  8
0
 62
     7
100
AcDbLine
 10
177.750563
 20
148.663105
 30
0.0
 11
177.654961
 21
148.663105
 31
0.0
  0
LINE
  5
E7
330
A
100
AcDbEntity
  8
0
 62
     7
100
AcDbLine
 10
178.022898
 20
148.663105
 30
0.0
 11
177.750563
 21
148.663105
 31
0.0
  0
LINE
  5
E6
330
A
100
AcDbEntity
  8
0
 62
     7
100
AcDbLine
 10
178.430797
 20
148.663449
 30
0.0
 11
178.022898
 21
148.663105
 31
0.0
  0
LINE
  5
E5
330
A
100
AcDbEntity
  8
0
 62
     7
100
AcDbLine
 10
178.911732
 20
148.663449
 30
0.0
 11
178.430797
 21
148.663449
 31
0.0
  0
LINE
  5
E4
330
A
100
AcDbEntity
  8
0
 62
     7
100
AcDbLine
 10
179.392668
 20
148.663449
 30
0.0
 11
178.911732
 21
148.663449
 31
0.0
  0
LINE
  5
E3
330
A
100
AcDbEntity
  8
0
 62
     7
100
AcDbLine
 10
179.800395
 20
148.663449
 30
0.0
 11
179.392668
 21
148.663449
 31
0.0
  0
LINE
  5
E2
330
A
100
AcDbEntity
  8
0
 62
     7
100
AcDbLine
 10
178.430797
 20
148.663449
 30
0.0
 11
178.02307
 21
148.663105
 31
0.0
  0
LINE
  5
E1
330
A
100
AcDbEntity
  8
0
 62
     7
100
AcDbLine
 10
175.579636
 20
211.716965
 30
0.0
 11
175.494714
 21
211.752794
 31
0.0
  0
LINE
  5
E0
330
A
100
AcDbEntity
  8
0
 62
     7
100
AcDbLine
 10
175.614776
 20
211.630321
 30
0.0
 11
175.579636
 21
211.716965
 31
0.0
  0
LINE
  5
DF
330
A
100
AcDbEntity
  8
0
 62
     7
100
AcDbLine
 10
175.579636
 20
205.388497
 30
0.0
 11
175.494714
 21
205.352668
 31
0.0
  0
LINE
  5
DE
330
A
100
AcDbEntity
  8
0
 62
     7
100
AcDbLine
 10
175.614776
 20
205.475141
 30
0.0
 11
175.579636
 21
205.388497
 31
0.0
  0
LINE
  5
DD
330
A
100
AcDbEntity
  8
0
 62
     7
100
AcDbLine
 10
175.494714
 20
211.752794
 30
0.0
 11
173.42025
 21
211.752794
 31
0.0
  0
LINE
  5
DC
330
A
100
AcDbEntity
  8
0
 62
     7
100
AcDbLine
 10
175.494714
 20
205.352668
 30
0.0
 11
173.42025
 21
205.352668
 31
0.0
  0
LINE
  5
DB
330
A
100
AcDbEntity
  8
0
 62
     7
100
AcDbLine
 10
173.42025
 20
207.328086
 30
0.0
 11
173.42025
 21
208.552645
 31
0.0
  0
LINE
  5
DA
330
A
100
AcDbEntity
  8
0
 62
     7
100
AcDbLine
 10
173.42025
 20
206.289906
 30
0.0
 11
173.42025
 21
207.328086
 31
0.0
  0
LINE
  5
D9
330
A
100
AcDbEntity
  8
0
 62
     7
100
AcDbLine
 10
173.42025
 20
205.596236
 30
0.0
 11
173.42025
 21
206.289906
 31
0.0
  0
LINE
  5
D8
330
A
100
AcDbEntity
  8
0
 62
     7
100
AcDbLine
 10
173.42025
 20
205.352668
 30
0.0
 11
173.42025
 21
205.596236
 31
0.0
  0
LINE
  5
D7
330
A
100
AcDbEntity
  8
0
 62
     7
100
AcDbLine
 10
173.42025
 20
211.509226
 30
0.0
 11
173.42025
 21
211.752794
 31
0.0
  0
LINE
  5
D6
330
A
100
AcDbEntity
  8
0
 62
     7
100
AcDbLine
 10
173.42025
 20
210.815384
 30
0.0
 11
173.42025
 21
211.509226
 31
0.0
  0
LINE
  5
D5
330
A
100
AcDbEntity
  8
0
 62
     7
100
AcDbLine
 10
173.42025
 20
209.777376
 30
0.0
 11
173.42025
 21
210.815384
 31
0.0
  0
LINE
  5
D4
330
A
100
AcDbEntity
  8
0
 62
     7
100
AcDbLine
 10
173.42025
 20
208.552645
 30
0.0
 11
173.42025
 21
209.777376
 31
0.0
  0
LINE
  5
D3
330
A
100
AcDbEntity
  8
0
 62
     7
100
AcDbLine
 10
175.614776
 20
205.709408
 30
0.0
 11
175.614776
 21
205.475141
 31
0.0
  0
LINE
  5
D2
330
A
100
AcDbEntity
  8
0
 62
     7
100
AcDbLine
 10
175.614776
 20
206.37655
 30
0.0
 11
175.614776
 21
205.709408
 31
0.0
  0
LINE
  5
D1
330
A
100
AcDbEntity
  8
0
 62
     7
100
AcDbLine
 10
175.614776
 20
207.374939
 30
0.0
 11
175.614776
 21
206.37655
 31
0.0
  0
LINE
  5
D0
330
A
100
AcDbEntity
  8
0
 62
     7
100
AcDbLine
 10
175.614776
 20
208.552645
 30
0.0
 11
175.614776
 21
207.374939
 31
0.0
  0
LINE
  5
CF
330
A
100
AcDbEntity
  8
0
 62
     7
100
AcDbLine
 10
175.614776
 20
209.730523
 30
0.0
 11
175.614776
 21
208.552645
 31
0.0
  0
LINE
  5
CE
330
A
100
AcDbEntity
  8
0
 62
     7
100
AcDbLine
 10
175.614776
 20
210.728912
 30
0.0
 11
175.614776
 21
209.730523
 31
0.0
  0
LINE
  5
CD
330
A
100
AcDbEntity
  8
0
 62
     7
100
AcDbLine
 10
175.614776
 20
211.396054
 30
0.0
 11
175.614776
 21
210.728912
 31
0.0
  0
LINE
  5
CC
330
A
100
AcDbEntity
  8
0
 62
     7
100
AcDbLine
 10
175.614776
 20
211.630321
 30
0.0
 11
175.614776
 21
211.396054
 31
0.0
  0
LINE
  5
CB
330
A
100
AcDbEntity
  8
0
 62
     7
100
AcDbLine
 10
180.590011
 20
210.191305
 30
0.0
 11
180.625151
 21
210.104833
 31
0.0
  0
LINE
  5
CA
330
A
100
AcDbEntity
  8
0
 62
     7
100
AcDbLine
 10
180.505089
 20
210.227134
 30
0.0
 11
180.590011
 21
210.191305
 31
0.0
  0
LINE
  5
C9
330
A
100
AcDbEntity
  8
0
 62
     7
100
AcDbLine
 10
180.590011
 20
206.912952
 30
0.0
 11
180.625151
 21
206.999596
 31
0.0
  0
LINE
  5
C8
330
A
100
AcDbEntity
  8
0
 62
     7
100
AcDbLine
 10
180.505089
 20
206.877123
 30
0.0
 11
180.590011
 21
206.912952
 31
0.0
  0
LINE
  5
C7
330
A
100
AcDbEntity
  8
0
 62
     7
100
AcDbLine
 10
175.614776
 20
210.099665
 30
0.0
 11
175.614776
 21
209.736552
 31
0.0
  0
LINE
  5
C6
330
A
100
AcDbEntity
  8
0
 62
     7
100
AcDbLine
 10
175.614776
 20
210.227134
 30
0.0
 11
175.614776
 21
210.099665
 31
0.0
  0
LINE
  5
C5
330
A
100
AcDbEntity
  8
0
 62
     7
100
AcDbLine
 10
175.614776
 20
210.227134
 30
0.0
 11
180.181078
 21
210.227134
 31
0.0
  0
LINE
  5
C4
330
A
100
AcDbEntity
  8
0
 62
     7
100
AcDbLine
 10
180.155929
 20
210.227134
 30
0.0
 11
180.505089
 21
210.227134
 31
0.0
  0
LINE
  5
C3
330
A
100
AcDbEntity
  8
0
 62
     7
100
AcDbLine
 10
175.614776
 20
206.877123
 30
0.0
 11
180.164886
 21
206.877123
 31
0.0
  0
LINE
  5
C2
330
A
100
AcDbEntity
  8
0
 62
     7
100
AcDbLine
 10
180.156618
 20
206.877123
 30
0.0
 11
180.505089
 21
206.877123
 31
0.0
  0
LINE
  5
C1
330
A
100
AcDbEntity
  8
0
 62
     7
100
AcDbLine
 10
175.614776
 20
207.004591
 30
0.0
 11
175.614776
 21
206.877123
 31
0.0
  0
LINE
  5
C0
330
A
100
AcDbEntity
  8
0
 62
     7
100
AcDbLine
 10
175.614776
 20
207.367704
 30
0.0
 11
175.614776
 21
207.004591
 31
0.0
  0
LINE
  5
BF
330
A
100
AcDbEntity
  8
0
 62
     7
100
AcDbLine
 10
175.614776
 20
207.911168
 30
0.0
 11
175.614776
 21
207.367704
 31
0.0
  0
LINE
  5
BE
330
A
100
AcDbEntity
  8
0
 62
     7
100
AcDbLine
 10
175.614776
 20
208.552128
 30
0.0
 11
175.614776
 21
207.911168
 31
0.0
  0
LINE
  5
BD
330
A
100
AcDbEntity
  8
0
 62
     7
100
AcDbLine
 10
175.614776
 20
209.193088
 30
0.0
 11
175.614776
 21
208.552128
 31
0.0
  0
LINE
  5
BC
330
A
100
AcDbEntity
  8
0
 62
     7
100
AcDbLine
 10
175.614776
 20
209.736552
 30
0.0
 11
175.614776
 21
209.193088
 31
0.0
  0
LINE
  5
BB
330
A
100
AcDbEntity
  8
0
 62
     7
100
AcDbLine
 10
180.625151
 20
207.117763
 30
0.0
 11
180.625151
 21
206.999596
 31
0.0
  0
LINE
  5
BA
330
A
100
AcDbEntity
  8
0
 62
     7
100
AcDbLine
 10
180.625151
 20
207.454348
 30
0.0
 11
180.625151
 21
207.117763
 31
0.0
  0
LINE
  5
B9
330
A
100
AcDbEntity
  8
0
 62
     7
100
AcDbLine
 10
180.625151
 20
207.958021
 30
0.0
 11
180.625151
 21
207.454348
 31
0.0
  0
LINE
  5
B8
330
A
100
AcDbEntity
  8
0
 62
     7
100
AcDbLine
 10
180.625151
 20
208.552128
 30
0.0
 11
180.625151
 21
207.958021
 31
0.0
  0
LINE
  5
B7
330
A
100
AcDbEntity
  8
0
 62
     7
100
AcDbLine
 10
180.625151
 20
209.146235
 30
0.0
 11
180.625151
 21
208.552128
 31
0.0
  0
LINE
  5
B6
330
A
100
AcDbEntity
  8
0
 62
     7
100
AcDbLine
 10
180.625151
 20
209.65008
 30
0.0
 11
180.625151
 21
209.146235
 31
0.0
  0
LINE
  5
B5
330
A
100
AcDbEntity
  8
0
 62
     7
100
AcDbLine
 10
180.625151
 20
209.986666
 30
0.0
 11
180.625151
 21
209.65008
 31
0.0
  0
LINE
  5
B4
330
A
100
AcDbEntity
  8
0
 62
     7
100
AcDbLine
 10
180.625151
 20
210.104833
 30
0.0
 11
180.625151
 21
209.986666
 31
0.0
  0
LINE
  5
B3
330
A
100
AcDbEntity
  8
0
 62
     7
100
AcDbLine
 10
178.002744
 20
140.321151
 30
0.0
 11
177.878548
 21
140.449653
 31
0.0
  0
LINE
  5
B2
330
A
100
AcDbEntity
  8
0
 62
     7
100
AcDbLine
 10
179.925452
 20
140.449997
 30
0.0
 11
179.776968
 21
140.296346
 31
0.0
  0
LINE
  5
B1
330
A
100
AcDbEntity
  8
0
 62
     7
100
AcDbLine
 10
179.84742
 20
140.449997
 30
0.0
 11
179.925452
 21
140.449997
 31
0.0
  0
LINE
  5
B0
330
A
100
AcDbEntity
  8
0
 62
     7
100
AcDbLine
 10
179.625556
 20
140.449997
 30
0.0
 11
179.84742
 21
140.449997
 31
0.0
  0
LINE
  5
AF
330
A
100
AcDbEntity
  8
0
 62
     7
100
AcDbLine
 10
179.293621
 20
140.449997
 30
0.0
 11
179.625556
 21
140.449997
 31
0.0
  0
LINE
  5
AE
330
A
100
AcDbEntity
  8
0
 62
     7
100
AcDbLine
 10
178.9019139999999
 20
140.449653
 30
0.0
 11
179.293621
 21
140.449997
 31
0.0
  0
LINE
  5
AD
330
A
100
AcDbEntity
  8
0
 62
     7
100
AcDbLine
 10
178.510206
 20
140.449653
 30
0.0
 11
178.9019139999999
 21
140.449653
 31
0.0
  0
LINE
  5
AC
330
A
100
AcDbEntity
  8
0
 62
     7
100
AcDbLine
 10
178.178271
 20
140.449653
 30
0.0
 11
178.510206
 21
140.449653
 31
0.0
  0
LINE
  5
AB
330
A
100
AcDbEntity
  8
0
 62
     7
100
AcDbLine
 10
177.956407
 20
140.449653
 30
0.0
 11
178.178271
 21
140.449653
 31
0.0
  0
LINE
  5
AA
330
A
100
AcDbEntity
  8
0
 62
     7
100
AcDbLine
 10
177.878548
 20
140.449653
 30
0.0
 11
177.956407
 21
140.449653
 31
0.0
  0
LINE
  5
A9
330
A
100
AcDbEntity
  8
0
 62
     7
100
AcDbLine
 10
177.878548
 20
140.449653
 30
0.0
 11
177.881993
 21
140.926799
 31
0.0
  0
LINE
  5
A8
330
A
100
AcDbEntity
  8
0
 62
     7
100
AcDbLine
 10
178.510206
 20
140.449653
 30
0.0
 11
178.178271
 21
140.449653
 31
0.0
  0
LINE
  5
A7
330
A
100
AcDbEntity
  8
0
 62
     7
100
AcDbLine
 10
178.875731
 20
140.449653
 30
0.0
 11
178.510206
 21
140.449653
 31
0.0
  0
LINE
  5
A6
330
A
100
AcDbEntity
  8
0
 62
     7
100
AcDbLine
 10
179.921834
 20
140.926799
 30
0.0
 11
179.925452
 21
140.449997
 31
0.0
  0
LINE
  5
A5
330
A
100
AcDbEntity
  8
0
 62
     7
100
AcDbLine
 10
177.523876
 20
140.926454
 30
0.0
 11
177.41036
 21
140.926454
 31
0.0
  0
LINE
  5
A4
330
A
100
AcDbEntity
  8
0
 62
     7
100
AcDbLine
 10
179.930792
 20
140.926799
 30
0.0
 11
177.523876
 21
140.926454
 31
0.0
  0
LINE
  5
A3
330
A
100
AcDbEntity
  8
0
 62
     7
100
AcDbLine
 10
179.956458
 20
140.926799
 30
0.0
 11
179.921834
 21
140.926799
 31
0.0
  0
LINE
  5
A2
330
A
100
AcDbEntity
  8
0
 62
     7
100
AcDbLine
 10
180.27978
 20
140.926799
 30
0.0
 11
179.956458
 21
140.926799
 31
0.0
  0
LINE
  5
A1
330
A
100
AcDbEntity
  8
0
 62
     7
100
AcDbLine
 10
180.393468
 20
140.926799
 30
0.0
 11
180.27978
 21
140.926799
 31
0.0
  0
LINE
  5
A0
330
A
100
AcDbEntity
  8
0
 62
     7
100
AcDbLine
 10
180.474083
 20
140.967795
 30
0.0
 11
180.393468
 21
140.926799
 31
0.0
  0
LINE
  5
9F
330
A
100
AcDbEntity
  8
0
 62
     7
100
AcDbLine
 10
180.493548
 20
141.028084
 30
0.0
 11
180.474083
 21
140.967795
 31
0.0
  0
LINE
  5
9E
330
A
100
AcDbEntity
  8
0
 62
     7
100
AcDbLine
 10
180.491309
 20
141.458377
 30
0.0
 11
180.493548
 21
141.028084
 31
0.0
  0
LINE
  5
9D
330
A
100
AcDbEntity
  8
0
 62
     7
100
AcDbLine
 10
180.46926
 20
141.5228
 30
0.0
 11
180.491309
 21
141.458377
 31
0.0
  0
LINE
  5
9C
330
A
100
AcDbEntity
  8
0
 62
     7
100
AcDbLine
 10
180.431708
 20
141.550016
 30
0.0
 11
180.46926
 21
141.5228
 31
0.0
  0
LINE
  5
9B
330
A
100
AcDbEntity
  8
0
 62
     7
100
AcDbLine
 10
177.371947
 20
141.549672
 30
0.0
 11
177.582787
 21
141.63511
 31
0.0
  0
LINE
  5
9A
330
A
100
AcDbEntity
  8
0
 62
     7
100
AcDbLine
 10
180.220869
 20
141.635455
 30
0.0
 11
180.431708
 21
141.550016
 31
0.0
  0
LINE
  5
99
330
A
100
AcDbEntity
  8
0
 62
     7
100
AcDbLine
 10
180.120444
 20
141.635455
 30
0.0
 11
180.220869
 21
141.635455
 31
0.0
  0
LINE
  5
98
330
A
100
AcDbEntity
  8
0
 62
     7
100
AcDbLine
 10
179.834501
 20
141.635455
 30
0.0
 11
180.120444
 21
141.635455
 31
0.0
  0
LINE
  5
97
330
A
100
AcDbEntity
  8
0
 62
     7
100
AcDbLine
 10
179.40662
 20
141.635455
 30
0.0
 11
179.834501
 21
141.635455
 31
0.0
  0
LINE
  5
96
330
A
100
AcDbEntity
  8
0
 62
     7
100
AcDbLine
 10
178.901742
 20
141.635455
 30
0.0
 11
179.40662
 21
141.635455
 31
0.0
  0
LINE
  5
95
330
A
100
AcDbEntity
  8
0
 62
     7
100
AcDbLine
 10
178.397035
 20
141.635455
 30
0.0
 11
178.901742
 21
141.635455
 31
0.0
  0
LINE
  5
94
330
A
100
AcDbEntity
  8
0
 62
     7
100
AcDbLine
 10
177.969154
 20
141.635455
 30
0.0
 11
178.397035
 21
141.635455
 31
0.0
  0
LINE
  5
93
330
A
100
AcDbEntity
  8
0
 62
     7
100
AcDbLine
 10
177.683211
 20
141.63511
 30
0.0
 11
177.969154
 21
141.635455
 31
0.0
  0
LINE
  5
92
330
A
100
AcDbEntity
  8
0
 62
     7
100
AcDbLine
 10
177.582787
 20
141.63511
 30
0.0
 11
177.683211
 21
141.63511
 31
0.0
  0
LINE
  5
91
330
A
100
AcDbEntity
  8
0
 62
     7
100
AcDbLine
 10
177.582787
 20
141.63511
 30
0.0
 11
177.646176
 21
141.729161
 31
0.0
  0
LINE
  5
90
330
A
100
AcDbEntity
  8
0
 62
     7
100
AcDbLine
 10
177.969154
 20
141.635455
 30
0.0
 11
177.683211
 21
141.63511
 31
0.0
  0
LINE
  5
8F
330
A
100
AcDbEntity
  8
0
 62
     7
100
AcDbLine
 10
178.397035
 20
141.635455
 30
0.0
 11
177.969154
 21
141.635455
 31
0.0
  0
LINE
  5
8E
330
A
100
AcDbEntity
  8
0
 62
     7
100
AcDbLine
 10
178.901742
 20
141.635455
 30
0.0
 11
178.397035
 21
141.635455
 31
0.0
  0
LINE
  5
8D
330
A
100
AcDbEntity
  8
0
 62
     7
100
AcDbLine
 10
179.40662
 20
141.635455
 30
0.0
 11
178.901742
 21
141.635455
 31
0.0
  0
LINE
  5
8C
330
A
100
AcDbEntity
  8
0
 62
     7
100
AcDbLine
 10
179.834501
 20
141.635455
 30
0.0
 11
179.40662
 21
141.635455
 31
0.0
  0
LINE
  5
8B
330
A
100
AcDbEntity
  8
0
 62
     7
100
AcDbLine
 10
180.120444
 20
141.635455
 30
0.0
 11
179.834501
 21
141.635455
 31
0.0
  0
LINE
  5
8A
330
A
100
AcDbEntity
  8
0
 62
     7
100
AcDbLine
 10
180.157479
 20
141.729506
 30
0.0
 11
180.220869
 21
141.635455
 31
0.0
  0
LINE
  5
89
330
A
100
AcDbEntity
  8
0
 62
     7
100
AcDbLine
 10
177.646176
 20
141.729161
 30
0.0
 11
177.646004
 21
142.599737
 31
0.0
  0
LINE
  5
88
330
A
100
AcDbEntity
  8
0
 62
     7
100
AcDbLine
 10
180.157479
 20
142.600081
 30
0.0
 11
180.157479
 21
141.729506
 31
0.0
  0
LINE
  5
87
330
A
100
AcDbEntity
  8
0
 62
     7
100
AcDbLine
 10
179.789543
 20
142.600081
 30
0.0
 11
180.061877
 21
142.600081
 31
0.0
  0
LINE
  5
86
330
A
100
AcDbEntity
  8
0
 62
     7
100
AcDbLine
 10
179.38216
 20
142.600081
 30
0.0
 11
179.789543
 21
142.600081
 31
0.0
  0
LINE
  5
85
330
A
100
AcDbEntity
  8
0
 62
     7
100
AcDbLine
 10
180.061877
 20
142.600081
 30
0.0
 11
180.157479
 21
142.600081
 31
0.0
  0
LINE
  5
84
330
A
100
AcDbEntity
  8
0
 62
     7
100
AcDbLine
 10
178.901742
 20
142.600081
 30
0.0
 11
179.38216
 21
142.600081
 31
0.0
  0
LINE
  5
83
330
A
100
AcDbEntity
  8
0
 62
     7
100
AcDbLine
 10
178.421151
 20
142.600081
 30
0.0
 11
178.901742
 21
142.600081
 31
0.0
  0
LINE
  5
82
330
A
100
AcDbEntity
  8
0
 62
     7
100
AcDbLine
 10
178.013768
 20
142.600081
 30
0.0
 11
178.421151
 21
142.600081
 31
0.0
  0
LINE
  5
81
330
A
100
AcDbEntity
  8
0
 62
     7
100
AcDbLine
 10
177.741606
 20
142.600081
 30
0.0
 11
178.013768
 21
142.600081
 31
0.0
  0
LINE
  5
80
330
A
100
AcDbEntity
  8
0
 62
     7
100
AcDbLine
 10
177.741606
 20
142.599737
 30
0.0
 11
177.646004
 21
142.599737
 31
0.0
  0
LINE
  5
7F
330
A
100
AcDbEntity
  8
0
 62
     7
100
AcDbLine
 10
177.646004
 20
142.599737
 30
0.0
 11
177.741606
 21
142.600081
 31
0.0
  0
LINE
  5
7E
330
A
100
AcDbEntity
  8
0
 62
     7
100
AcDbLine
 10
177.811713
 20
142.600081
 30
0.0
 11
177.741606
 21
142.599737
 31
0.0
  0
LINE
  5
7D
330
A
100
AcDbEntity
  8
0
 62
     7
100
AcDbLine
 10
177.811713
 20
142.600081
 30
0.0
 11
177.810335
 21
142.742019
 31
0.0
  0
LINE
  5
7C
330
A
100
AcDbEntity
  8
0
 62
     7
100
AcDbLine
 10
179.993148
 20
142.742019
 30
0.0
 11
179.99177
 21
142.600081
 31
0.0
  0
LINE
  5
7B
330
A
100
AcDbEntity
  8
0
 62
     7
100
AcDbLine
 10
178.484024
 20
142.742019
 30
0.0
 11
178.901742
 21
142.742019
 31
0.0
  0
LINE
  5
7A
330
A
100
AcDbEntity
  8
0
 62
     7
100
AcDbLine
 10
179.910121
 20
142.742019
 30
0.0
 11
179.993148
 21
142.742019
 31
0.0
  0
LINE
  5
79
330
A
100
AcDbEntity
  8
0
 62
     7
100
AcDbLine
 10
179.673443
 20
142.742019
 30
0.0
 11
179.910121
 21
142.742019
 31
0.0
  0
LINE
  5
78
330
A
100
AcDbEntity
  8
0
 62
     7
100
AcDbLine
 10
179.319459
 20
142.742019
 30
0.0
 11
179.673443
 21
142.742019
 31
0.0
  0
LINE
  5
77
330
A
100
AcDbEntity
  8
0
 62
     7
100
AcDbLine
 10
178.901742
 20
142.742019
 30
0.0
 11
179.319459
 21
142.742019
 31
0.0
  0
LINE
  5
76
330
A
100
AcDbEntity
  8
0
 62
     7
100
AcDbLine
 10
180.016058
 20
142.742019
 30
0.0
 11
180.107869
 21
142.742019
 31
0.0
  0
LINE
  5
75
330
A
100
AcDbEntity
  8
0
 62
     7
100
AcDbLine
 10
179.754575
 20
142.742019
 30
0.0
 11
180.016058
 21
142.742019
 31
0.0
  0
LINE
  5
74
330
A
100
AcDbEntity
  8
0
 62
     7
100
AcDbLine
 10
179.363212
 20
142.742019
 30
0.0
 11
179.754575
 21
142.742019
 31
0.0
  0
LINE
  5
73
330
A
100
AcDbEntity
  8
0
 62
     7
100
AcDbLine
 10
178.901742
 20
142.742019
 30
0.0
 11
179.363212
 21
142.742019
 31
0.0
  0
LINE
  5
72
330
A
100
AcDbEntity
  8
0
 62
     7
100
AcDbLine
 10
178.440099
 20
142.742019
 30
0.0
 11
178.901742
 21
142.742019
 31
0.0
  0
LINE
  5
71
330
A
100
AcDbEntity
  8
0
 62
     7
100
AcDbLine
 10
178.048736
 20
142.742019
 30
0.0
 11
178.440099
 21
142.742019
 31
0.0
  0
LINE
  5
70
330
A
100
AcDbEntity
  8
0
 62
     7
100
AcDbLine
 10
177.787253
 20
142.742019
 30
0.0
 11
178.048736
 21
142.742019
 31
0.0
  0
LINE
  5
6F
330
A
100
AcDbEntity
  8
0
 62
     7
100
AcDbLine
 10
177.695441
 20
142.742019
 30
0.0
 11
177.787253
 21
142.742019
 31
0.0
  0
LINE
  5
6E
330
A
100
AcDbEntity
  8
0
 62
     7
100
AcDbLine
 10
177.695441
 20
142.742019
 30
0.0
 11
177.644971
 21
142.791973
 31
0.0
  0
LINE
  5
6D
330
A
100
AcDbEntity
  8
0
 62
     7
100
AcDbLine
 10
177.787253
 20
142.742019
 30
0.0
 11
177.695441
 21
142.742019
 31
0.0
  0
LINE
  5
6C
330
A
100
AcDbEntity
  8
0
 62
     7
100
AcDbLine
 10
177.810335
 20
142.742019
 30
0.0
 11
177.787253
 21
142.742019
 31
0.0
  0
LINE
  5
6B
330
A
100
AcDbEntity
  8
0
 62
     7
100
AcDbLine
 10
180.016058
 20
142.742019
 30
0.0
 11
179.993148
 21
142.742019
 31
0.0
  0
LINE
  5
6A
330
A
100
AcDbEntity
  8
0
 62
     7
100
AcDbLine
 10
180.107869
 20
142.742019
 30
0.0
 11
180.016058
 21
142.742019
 31
0.0
  0
LINE
  5
69
330
A
100
AcDbEntity
  8
0
 62
     7
100
AcDbLine
 10
180.158512
 20
142.792318
 30
0.0
 11
180.107869
 21
142.742019
 31
0.0
  0
LINE
  5
68
330
A
100
AcDbEntity
  8
0
 62
     7
100
AcDbLine
 10
177.644971
 20
142.791973
 30
0.0
 11
177.644971
 21
143.063102
 31
0.0
  0
LINE
  5
67
330
A
100
AcDbEntity
  8
0
 62
     7
100
AcDbLine
 10
180.158512
 20
143.063447
 30
0.0
 11
180.158512
 21
142.792318
 31
0.0
  0
LINE
  5
66
330
A
100
AcDbEntity
  8
0
 62
     7
100
AcDbLine
 10
179.776968
 20
140.296346
 30
0.0
 11
179.710305
 21
140.296346
 31
0.0
  0
LINE
  5
65
330
A
100
AcDbEntity
  8
0
 62
     7
100
AcDbLine
 10
179.75802
 20
140.296346
 30
0.0
 11
179.776968
 21
140.296346
 31
0.0
  0
LINE
  5
64
330
A
100
AcDbEntity
  8
0
 62
     7
100
AcDbLine
 10
179.725981
 20
140.296346
 30
0.0
 11
178.002744
 21
140.296346
 31
0.0
  0
LINE
  5
63
330
A
100
AcDbEntity
  8
0
 62
     7
100
AcDbLine
 10
178.420634
 20
143.063447
 30
0.0
 11
178.961686
 21
143.063447
 31
0.0
  0
LINE
  5
62
330
A
100
AcDbEntity
  8
0
 62
     7
100
AcDbLine
 10
178.012907
 20
143.063102
 30
0.0
 11
178.420634
 21
143.063447
 31
0.0
  0
LINE
  5
61
330
A
100
AcDbEntity
  8
0
 62
     7
100
AcDbLine
 10
177.740572
 20
143.063102
 30
0.0
 11
178.012907
 21
143.063102
 31
0.0
  0
LINE
  5
60
330
A
100
AcDbEntity
  8
0
 62
     7
100
AcDbLine
 10
177.380387
 20
143.063102
 30
0.0
 11
177.740572
 21
143.063102
 31
0.0
  0
LINE
  5
5F
330
A
100
AcDbEntity
  8
0
 62
     7
100
AcDbLine
 10
180.661669
 20
148.663449
 30
0.0
 11
180.661669
 21
143.063447
 31
0.0
  0
LINE
  5
5E
330
A
100
AcDbEntity
  8
0
 62
     7
100
AcDbLine
 10
173.401647
 20
148.663449
 30
0.0
 11
173.401647
 21
143.063447
 31
0.0
  0
LINE
  5
5D
330
A
100
AcDbEntity
  8
0
 62
     7
100
AcDbLine
 10
179.623317
 20
148.663449
 30
0.0
 11
178.961686
 21
148.663449
 31
0.0
  0
LINE
  5
5C
330
A
100
AcDbEntity
  8
0
 62
     7
100
AcDbLine
 10
180.163852
 20
148.663449
 30
0.0
 11
179.623317
 21
148.663449
 31
0.0
  0
LINE
  5
5B
330
A
100
AcDbEntity
  8
0
 62
     7
100
AcDbLine
 10
180.528171
 20
148.663449
 30
0.0
 11
180.163852
 21
148.663449
 31
0.0
  0
LINE
  5
5A
330
A
100
AcDbEntity
  8
0
 62
     7
100
AcDbLine
 10
180.661669
 20
148.663449
 30
0.0
 11
180.528171
 21
148.663449
 31
0.0
  0
LINE
  5
59
330
A
100
AcDbEntity
  8
0
 62
     7
100
AcDbLine
 10
180.528171
 20
148.663449
 30
0.0
 11
180.661669
 21
148.663449
 31
0.0
  0
LINE
  5
58
330
A
100
AcDbEntity
  8
0
 62
     7
100
AcDbLine
 10
180.163852
 20
148.663449
 30
0.0
 11
180.528171
 21
148.663449
 31
0.0
  0
LINE
  5
57
330
A
100
AcDbEntity
  8
0
 62
     7
100
AcDbLine
 10
179.623317
 20
148.663449
 30
0.0
 11
180.163852
 21
148.663449
 31
0.0
  0
LINE
  5
56
330
A
100
AcDbEntity
  8
0
 62
     7
100
AcDbLine
 10
178.961686
 20
148.663449
 30
0.0
 11
179.623317
 21
148.663449
 31
0.0
  0
LINE
  5
55
330
A
100
AcDbEntity
  8
0
 62
     7
100
AcDbLine
 10
173.401647
 20
148.663449
 30
0.0
 11
175.44476
 21
148.663449
 31
0.0
  0
LINE
  5
54
330
A
100
AcDbEntity
  8
0
 62
     7
100
AcDbLine
 10
177.654961
 20
148.663449
 30
0.0
 11
177.348176
 21
148.663449
 31
0.0
  0
LINE
  5
53
330
A
100
AcDbEntity
  8
0
 62
     7
100
AcDbLine
 10
175.610125
 20
148.663449
 30
0.0
 11
173.401647
 21
148.663449
 31
0.0
  0
LINE
  5
52
330
A
100
AcDbEntity
  8
0
 62
     7
100
AcDbLine
 10
179.623317
 20
143.063447
 30
0.0
 11
178.961686
 21
143.063447
 31
0.0
  0
LINE
  5
51
330
A
100
AcDbEntity
  8
0
 62
     7
100
AcDbLine
 10
180.163852
 20
143.063447
 30
0.0
 11
179.623317
 21
143.063447
 31
0.0
  0
LINE
  5
50
330
A
100
AcDbEntity
  8
0
 62
     7
100
AcDbLine
 10
180.528171
 20
143.063447
 30
0.0
 11
180.163852
 21
143.063447
 31
0.0
  0
LINE
  5
4F
330
A
100
AcDbEntity
  8
0
 62
     7
100
AcDbLine
 10
180.661669
 20
143.063447
 30
0.0
 11
180.528171
 21
143.063447
 31
0.0
  0
LINE
  5
4E
330
A
100
AcDbEntity
  8
0
 62
     7
100
AcDbLine
 10
175.559138
 20
143.063447
 30
0.0
 11
173.401647
 21
143.063447
 31
0.0
  0
LINE
  5
4D
330
A
100
AcDbEntity
  8
0
 62
     7
100
AcDbLine
 10
174.306329
 20
140.301169
 30
0.0
 11
174.501321
 21
140.301169
 31
0.0
  0
LINE
  5
4C
330
A
100
AcDbEntity
  8
0
 62
     7
100
AcDbLine
 10
174.501321
 20
140.301169
 30
0.0
 11
174.306329
 21
140.301169
 31
0.0
  0
LINE
  5
4B
330
A
100
AcDbEntity
  8
0
 62
     7
100
AcDbLine
 10
174.246039
 20
140.301169
 30
0.0
 11
174.062416
 21
143.061035
 31
0.0
  0
LINE
  5
4A
330
A
100
AcDbEntity
  8
0
 62
     7
100
AcDbLine
 10
174.455157
 20
140.301169
 30
0.0
 11
174.501321
 21
140.301169
 31
0.0
  0
LINE
  5
49
330
A
100
AcDbEntity
  8
0
 62
     7
100
AcDbLine
 10
174.246039
 20
140.301169
 30
0.0
 11
174.455157
 21
140.301169
 31
0.0
  0
LINE
  5
48
330
A
100
AcDbEntity
  8
0
 62
     7
100
AcDbLine
 10
174.455157
 20
140.301169
 30
0.0
 11
174.246039
 21
140.301169
 31
0.0
  0
LINE
  5
47
330
A
100
AcDbEntity
  8
0
 62
     7
100
AcDbLine
 10
175.002582
 20
140.301169
 30
0.0
 11
174.455157
 21
140.301169
 31
0.0
  0
LINE
  5
46
330
A
100
AcDbEntity
  8
0
 62
     7
100
AcDbLine
 10
175.615637
 20
140.301169
 30
0.0
 11
175.002582
 21
140.301169
 31
0.0
  0
LINE
  5
45
330
A
100
AcDbEntity
  8
0
 62
     7
100
AcDbLine
 10
174.945911
 20
143.061035
 30
0.0
 11
175.55931
 21
143.061035
 31
0.0
  0
LINE
  5
44
330
A
100
AcDbEntity
  8
0
 62
     7
100
AcDbLine
 10
174.306501
 20
143.061035
 30
0.0
 11
174.945911
 21
143.061035
 31
0.0
  0
LINE
  5
43
330
A
100
AcDbEntity
  8
0
 62
     7
100
AcDbLine
 10
174.062416
 20
143.061035
 30
0.0
 11
174.306501
 21
143.061035
 31
0.0
  0
LINE
  5
42
330
A
100
AcDbEntity
  8
0
 62
     7
100
AcDbLine
 10
175.667314
 20
137.766612
 30
0.0
 11
175.425468
 21
182.630541
 31
0.0
  0
LINE
  5
41
330
A
100
AcDbEntity
  8
0
 62
     7
100
AcDbLine
 10
176.955435
 20
182.63433
 30
0.0
 11
177.416044
 21
137.829658
 31
0.0
  0
LINE
  5
40
330
A
100
AcDbEntity
  8
0
 62
     7
100
AcDbLine
 10
178.79391
 20
109.846525
 30
0.0
 11
177.416044
 21
137.829658
 31
0.0
  0
LINE
  5
3F
330
A
100
AcDbEntity
  8
0
 62
     7
100
AcDbLine
 10
177.049486
 20
109.698041
 30
0.0
 11
175.667314
 21
137.766612
 31
0.0
  0
LINE
  5
3E
330
A
100
AcDbEntity
  8
0
 62
     7
100
AcDbLine
 10
180.002622
 20
99.432346
 30
0.0
 11
178.79391
 21
109.846525
 31
0.0
  0
LINE
  5
3D
330
A
100
AcDbEntity
  8
0
 62
     7
100
AcDbLine
 10
178.260782
 20
99.26043599999999
 30
0.0
 11
177.049486
 21
109.698041
 31
0.0
  0
LINE
  5
3C
330
A
100
AcDbEntity
  8
0
 62
     7
100
AcDbLine
 10
179.247801
 20
86.103616
 30
0.0
 11
178.260782
 21
99.26043599999999
 31
0.0
  0
LINE
  5
3B
330
A
100
AcDbEntity
  8
0
 62
     7
100
AcDbLine
 10
180.002622
 20
99.432346
 30
0.0
 11
180.995498
 21
86.196978
 31
0.0
  0
LINE
  5
3A
330
A
100
AcDbEntity
  8
0
 62
     7
100
AcDbLine
 10
181.165686
 20
79.62063499999999
 30
0.0
 11
180.995498
 21
86.196978
 31
0.0
  0
LINE
  5
39
330
A
100
AcDbEntity
  8
0
 62
     7
100
AcDbLine
 10
179.417645
 20
79.54208699999999
 30
0.0
 11
179.247801
 21
86.103616
 31
0.0
  0
LINE
  5
38
330
A
100
AcDbEntity
  8
0
 62
     7
100
AcDbLine
 10
179.786614
 20
74.192198
 30
0.0
 11
179.417645
 21
79.54208699999999
 31
0.0
  0
LINE
  5
37
330
A
100
AcDbEntity
  8
0
 62
     7
100
AcDbLine
 10
181.165686
 20
79.62063499999999
 30
0.0
 11
181.536723
 21
74.24180799999999
 31
0.0
  0
LINE
  5
36
330
A
100
AcDbEntity
  8
0
 62
     7
100
AcDbLine
 10
179.786614
 20
70.600342
 30
0.0
 11
179.786614
 21
74.192198
 31
0.0
  0
LINE
  5
35
330
A
100
AcDbEntity
  8
0
 62
     7
100
AcDbLine
 10
181.536723
 20
74.24180799999999
 30
0.0
 11
181.536723
 21
70.599997
 31
0.0
  0
LINE
  5
34
330
A
100
AcDbEntity
  8
0
 62
     7
100
AcDbLine
 10
179.786614
 20
69.274325
 30
0.0
 11
179.786614
 21
70.600342
 31
0.0
  0
LINE
  5
33
330
A
100
AcDbEntity
  8
0
 62
     7
100
AcDbLine
 10
181.536723
 20
70.599997
 30
0.0
 11
181.536723
 21
69.27363599999999
 31
0.0
  0
LINE
  5
32
330
A
100
AcDbEntity
  8
0
 62
     7
100
AcDbLine
 10
181.536723
 20
69.27363599999999
 30
0.0
 11
181.280235
 21
68.654896
 31
0.0
  0
LINE
  5
31
330
A
100
AcDbEntity
  8
0
 62
     7
100
AcDbLine
 10
181.280235
 20
68.654896
 30
0.0
 11
180.661496
 21
68.398926
 31
0.0
  0
LINE
  5
30
330
A
100
AcDbEntity
  8
0
 62
     7
100
AcDbLine
 10
180.661496
 20
68.398926
 30
0.0
 11
180.042757
 21
68.655241
 31
0.0
  0
LINE
  5
2F
330
A
100
AcDbEntity
  8
0
 62
     7
100
AcDbLine
 10
180.042757
 20
68.655241
 30
0.0
 11
179.786614
 21
69.274325
 31
0.0
  0
LINE
  5
2E
330
A
100
AcDbEntity
  8
0
 62
     7
100
AcDbLine
 10
181.536723
 20
74.21665899999999
 30
0.0
 11
181.536723
 21
79.581361
 31
0.0
  0
LINE
  5
2D
330
A
100
AcDbEntity
  8
0
 62
     7
100
AcDbLine
 10
181.536723
 20
79.581361
 30
0.0
 11
181.536723
 21
86.15046900000001
 31
0.0
  0
LINE
  5
2C
330
A
100
AcDbEntity
  8
0
 62
     7
100
AcDbLine
 10
179.786614
 20
112.514062
 30
0.0
 11
179.786614
 21
101.292353
 31
0.0
  0
LINE
  5
2B
330
A
100
AcDbEntity
  8
0
 62
     7
100
AcDbLine
 10
181.536723
 20
86.15046900000001
 30
0.0
 11
181.536723
 21
112.570218
 31
0.0
  0
LINE
  5
2A
330
A
100
AcDbEntity
  8
0
 62
     7
100
AcDbLine
 10
178.002744
 20
140.321151
 30
0.0
 11
179.786614
 21
112.514062
 31
0.0
  0
LINE
  5
29
330
A
100
AcDbEntity
  8
0
 62
     7
100
AcDbLine
 10
181.536723
 20
112.570218
 30
0.0
 11
179.75802
 21
140.296346
 31
0.0
  0
DIMENSION
  5
4EE
330
A
100
AcDbEntity
  8
Cotation-JacobDelafon
  6
Continuous
370
     0
100
AcDbDimension
  2
*D3
 10
226.5984
 20
263.7270489994722
 30
0.0
 11
200.009325
 21
266.1597911549975
 31
0.0
 70
    32
  1
53.2
 71
     5
 42
53.17814999999999
 73
     0
 74
     0
 75
     0
  3
Cotation-Jacob-Delafon
100
AcDbAlignedDimension
 13
173.42025
 23
231.601023
 33
0.0
 14
226.5984
 24
216.037115
 34
0.0
100
AcDbRotatedDimension
  0
DIMENSION
  5
504
330
A
100
AcDbEntity
  8
Cotation-JacobDelafon
  6
Continuous
370
     0
100
AcDbDimension
  2
*D4
 10
143.0475302257372
 20
140.296346
 30
0.0
 11
140.6147880702119
 21
185.9486845
 31
0.0
 70
    32
 71
     5
 42
91.304677
 73
     0
 74
     0
 75
     0
  3
Cotation-Jacob-Delafon
100
AcDbAlignedDimension
 13
173.42025
 23
231.601023
 33
0.0
 14
178.8643625
 24
140.296346
 34
0.0
 50
90.0
100
AcDbRotatedDimension
  0
ENDSEC
  0
SECTION
  2
OBJECTS
  0
DICTIONARY
  5
19
330
0
100
AcDbDictionary
281
     1
  3
ACAD_COLOR
350
4B7
  3
ACAD_GROUP
350
1A
  3
ACAD_LAYOUT
350
1E
  3
ACAD_MATERIAL
350
48D
  3
ACAD_MLEADERSTYLE
350
4CC
  3
ACAD_MLINESTYLE
350
1B
  3
ACAD_PLOTSETTINGS
350
22
  3
ACAD_PLOTSTYLENAME
350
1F
  3
ACAD_SCALELIST
350
4BA
  3
ACAD_TABLESTYLE
350
4B8
  3
ACAD_VISUALSTYLE
350
4A6
  3
ACAD_WIPEOUT_VARS
350
23
  3
ACDB_RECOMPOSE_DATA
350
530
  3
AcDbVariableDictionary
350
526
  3
AEC_PROPERTY_SET_DEFS
350
4E2
  0
DICTIONARY
  5
523
330
14
100
AcDbDictionary
280
     1
281
     1
  3
ADSK_XREC_LAYER_RECONCILED
360
524
  0
DICTIONARY
  5
4E8
330
4E7
100
AcDbDictionary
280
     1
281
     1
  3
ADSK_XREC_LAYER_RECONCILED
360
525
  0
DICTIONARY
  5
4B7
102
{ACAD_REACTORS
330
19
102
}
330
19
100
AcDbDictionary
281
     1
  0
DICTIONARY
  5
1A
102
{ACAD_REACTORS
330
19
102
}
330
19
100
AcDbDictionary
281
     1
  0
DICTIONARY
  5
1E
102
{ACAD_REACTORS
330
19
102
}
330
19
100
AcDbDictionary
281
     1
  3
Layout1
350
21
  3
Model
350
20
  0
DICTIONARY
  5
48D
102
{ACAD_REACTORS
330
19
102
}
330
19
100
AcDbDictionary
281
     1
  3
ByBlock
350
496
  3
ByLayer
350
48E
  3
Global
350
49E
  0
DICTIONARY
  5
4CC
102
{ACAD_REACTORS
330
19
102
}
330
19
100
AcDbDictionary
281
     1
  3
Standard
350
4CD
  0
DICTIONARY
  5
1B
102
{ACAD_REACTORS
330
19
102
}
330
19
100
AcDbDictionary
281
     1
  3
Standard
350
1C
  0
DICTIONARY
  5
22
102
{ACAD_REACTORS
330
19
102
}
330
19
100
AcDbDictionary
281
     1
  0
ACDBDICTIONARYWDFLT
  5
1F
102
{ACAD_REACTORS
330
19
102
}
330
19
100
AcDbDictionary
281
     1
  3
Normal
350
1D
100
AcDbDictionaryWithDefault
340
1D
  0
DICTIONARY
  5
4BA
102
{ACAD_REACTORS
330
19
102
}
330
19
100
AcDbDictionary
281
     1
  3
A0
350
4BB
  3
A1
350
4BC
  3
A2
350
4BD
  3
A3
350
4BE
  3
A4
350
4BF
  3
A5
350
4C0
  3
A6
350
4C1
  3
A7
350
4C2
  3
A8
350
4C3
  3
A9
350
4C4
  3
B0
350
4C5
  3
B1
350
4C6
  3
B2
350
4C7
  3
B3
350
4C8
  3
B4
350
4C9
  3
B5
350
4CA
  3
B6
350
4CB
  0
DICTIONARY
  5
4B8
102
{ACAD_REACTORS
330
19
102
}
330
19
100
AcDbDictionary
281
     1
  3
Standard
350
4B9
  0
DICTIONARY
  5
4A6
102
{ACAD_REACTORS
330
19
102
}
330
19
100
AcDbDictionary
281
     1
  3
2dWireframe
350
4AC
  3
3D Hidden
350
4AE
  3
3dWireframe
350
4AD
  3
Basic
350
4AB
  3
Brighten
350
4B2
  3
ColorChange
350
4B6
  3
Conceptual
350
4AF
  3
Dim
350
4B1
  3
Facepattern
350
4B5
  3
Flat
350
4A7
  3
FlatWithEdges
350
4A8
  3
Gouraud
350
4A9
  3
GouraudWithEdges
350
4AA
  3
Linepattern
350
4B4
  3
Realistic
350
4B0
  3
Thicken
350
4B3
  0
WIPEOUTVARIABLES
  5
23
330
19
100
AcDbWipeoutVariables
 70
     1
  0
XRECORD
  5
530
102
{ACAD_REACTORS
330
19
102
}
330
19
100
AcDbXrecord
280
     1
 90
        1
330
4B9
  0
DICTIONARY
  5
526
102
{ACAD_REACTORS
330
19
102
}
330
19
100
AcDbDictionary
281
     1
  3
CANNOSCALE
350
52A
  3
CMLEADERSTYLE
350
528
  3
CTABLESTYLE
350
527
  3
LAYEREVAL
350
52C
  3
LAYERNOTIFY
350
52D
  3
LIGHTINGUNITS
350
52B
  3
MSLTSCALE
350
529
  0
DICTIONARY
  5
4E2
102
{ACAD_REACTORS
330
19
102
}
330
19
100
AcDbDictionary
281
     1
  0
XRECORD
  5
524
102
{ACAD_REACTORS
330
523
102
}
330
523
100
AcDbXrecord
280
     1
290
     1
  0
XRECORD
  5
525
102
{ACAD_REACTORS
330
4E8
102
}
330
4E8
100
AcDbXrecord
280
     1
290
     1
  0
LAYOUT
  5
21
102
{ACAD_REACTORS
330
1E
102
}
330
1E
100
AcDbPlotSettings
  1

  2

  4

  6

 40
0.0
 41
0.0
 42
0.0
 43
0.0
 44
0.0
 45
0.0
 46
0.0
 47
0.0
 48
0.0
 49
0.0
140
0.0
141
0.0
142
1.0
143
1.0
 70
     0
 72
     0
 73
     0
 74
     0
  7

 75
     0
147
1.0
 76
     0
 77
     2
 78
   300
148
0.0
149
0.0
100
AcDbLayout
  1
Layout1
 70
     0
 71
     1
 10
0.0
 20
0.0
 11
12.0
 21
9.0
 12
0.0
 22
0.0
 32
0.0
 14
1.000000000000000E+20
 24
1.000000000000000E+20
 34
1.000000000000000E+20
 15
-1.000000000000000E+20
 25
-1.000000000000000E+20
 35
-1.000000000000000E+20
146
0.0
 13
0.0
 23
0.0
 33
0.0
 16
1.0
 26
0.0
 36
0.0
 17
0.0
 27
1.0
 37
0.0
 76
     0
330
B
  0
LAYOUT
  5
20
102
{ACAD_REACTORS
330
1E
102
}
330
1E
100
AcDbPlotSettings
  1

  2

  4

  6

 40
0.0
 41
0.0
 42
0.0
 43
0.0
 44
0.0
 45
0.0
 46
0.0
 47
0.0
 48
0.0
 49
0.0
140
0.0
141
0.0
142
1.0
143
1.0
 70
  1024
 72
     0
 73
     0
 74
     0
  7

 75
     0
147
1.0
 76
     0
 77
     2
 78
   300
148
0.0
149
0.0
100
AcDbLayout
  1
Model
 70
     0
 71
     0
 10
0.0
 20
0.0
 11
0.0
 21
0.0
 12
0.0
 22
0.0
 32
0.0
 14
0.0
 24
0.0
 34
0.0
 15
0.0
 25
0.0
 35
0.0
146
0.0
 13
0.0
 23
0.0
 33
0.0
 16
0.0
 26
0.0
 36
0.0
 17
0.0
 27
0.0
 37
0.0
 76
     0
330
A
331
15
  0
MATERIAL
  5
496
102
{ACAD_XDICTIONARY
360
497
102
}
102
{ACAD_REACTORS
330
48D
102
}
330
48D
100
AcDbMaterial
  1
ByBlock
 72
     0
 43
0.0208333333333333
 43
0.0
 43
0.0
 43
0.0
 43
0.0
 43
0.0208333333333333
 43
0.0
 43
0.0
 43
0.0
 43
0.0
 43
1.0
 43
0.0
 43
0.0
 43
0.0
 43
0.0
 43
1.0
 77
     0
 47
0.0208333333333333
 47
0.0
 47
0.0
 47
0.0
 47
0.0
 47
0.0208333333333333
 47
0.0
 47
0.0
 47
0.0
 47
0.0
 47
1.0
 47
0.0
 47
0.0
 47
0.0
 47
0.0
 47
1.0
171
     0
 49
0.0208333333333333
 49
0.0
 49
0.0
 49
0.0
 49
0.0
 49
0.0208333333333333
 49
0.0
 49
0.0
 49
0.0
 49
0.0
 49
1.0
 49
0.0
 49
0.0
 49
0.0
 49
0.0
 49
1.0
175
     0
142
0.0208333333333333
142
0.0
142
0.0
142
0.0
142
0.0
142
0.0208333333333333
142
0.0
142
0.0
142
0.0
142
0.0
142
1.0
142
0.0
142
0.0
142
0.0
142
0.0
142
1.0
179
     0
144
0.0208333333333333
144
0.0
144
0.0
144
0.0
144
0.0
144
0.0208333333333333
144
0.0
144
0.0
144
0.0
144
0.0
144
1.0
144
0.0
144
0.0
144
0.0
144
0.0
144
1.0
147
0.0208333333333333
147
0.0
147
0.0
147
0.0
147
0.0
147
0.0208333333333333
147
0.0
147
0.0
147
0.0
147
0.0
147
1.0
147
0.0
147
0.0
147
0.0
147
0.0
147
1.0
  0
MATERIAL
  5
48E
102
{ACAD_XDICTIONARY
360
48F
102
}
102
{ACAD_REACTORS
330
48D
102
}
330
48D
100
AcDbMaterial
  1
ByLayer
 72
     0
 43
0.0208333333333333
 43
0.0
 43
0.0
 43
0.0
 43
0.0
 43
0.0208333333333333
 43
0.0
 43
0.0
 43
0.0
 43
0.0
 43
1.0
 43
0.0
 43
0.0
 43
0.0
 43
0.0
 43
1.0
 77
     0
 47
0.0208333333333333
 47
0.0
 47
0.0
 47
0.0
 47
0.0
 47
0.0208333333333333
 47
0.0
 47
0.0
 47
0.0
 47
0.0
 47
1.0
 47
0.0
 47
0.0
 47
0.0
 47
0.0
 47
1.0
171
     0
 49
0.0208333333333333
 49
0.0
 49
0.0
 49
0.0
 49
0.0
 49
0.0208333333333333
 49
0.0
 49
0.0
 49
0.0
 49
0.0
 49
1.0
 49
0.0
 49
0.0
 49
0.0
 49
0.0
 49
1.0
175
     0
142
0.0208333333333333
142
0.0
142
0.0
142
0.0
142
0.0
142
0.0208333333333333
142
0.0
142
0.0
142
0.0
142
0.0
142
1.0
142
0.0
142
0.0
142
0.0
142
0.0
142
1.0
179
     0
144
0.0208333333333333
144
0.0
144
0.0
144
0.0
144
0.0
144
0.0208333333333333
144
0.0
144
0.0
144
0.0
144
0.0
144
1.0
144
0.0
144
0.0
144
0.0
144
0.0
144
1.0
147
0.0208333333333333
147
0.0
147
0.0
147
0.0
147
0.0
147
0.0208333333333333
147
0.0
147
0.0
147
0.0
147
0.0
147
1.0
147
0.0
147
0.0
147
0.0
147
0.0
147
1.0
  0
MATERIAL
  5
49E
102
{ACAD_XDICTIONARY
360
49F
102
}
102
{ACAD_REACTORS
330
48D
102
}
330
48D
100
AcDbMaterial
  1
Global
 72
     0
 43
0.0208333333333333
 43
0.0
 43
0.0
 43
0.0
 43
0.0
 43
0.0208333333333333
 43
0.0
 43
0.0
 43
0.0
 43
0.0
 43
1.0
 43
0.0
 43
0.0
 43
0.0
 43
0.0
 43
1.0
 77
     0
 47
0.0208333333333333
 47
0.0
 47
0.0
 47
0.0
 47
0.0
 47
0.0208333333333333
 47
0.0
 47
0.0
 47
0.0
 47
0.0
 47
1.0
 47
0.0
 47
0.0
 47
0.0
 47
0.0
 47
1.0
171
     0
 49
0.0208333333333333
 49
0.0
 49
0.0
 49
0.0
 49
0.0
 49
0.0208333333333333
 49
0.0
 49
0.0
 49
0.0
 49
0.0
 49
1.0
 49
0.0
 49
0.0
 49
0.0
 49
0.0
 49
1.0
175
     0
142
0.0208333333333333
142
0.0
142
0.0
142
0.0
142
0.0
142
0.0208333333333333
142
0.0
142
0.0
142
0.0
142
0.0
142
1.0
142
0.0
142
0.0
142
0.0
142
0.0
142
1.0
179
     0
144
0.0208333333333333
144
0.0
144
0.0
144
0.0
144
0.0
144
0.0208333333333333
144
0.0
144
0.0
144
0.0
144
0.0
144
1.0
144
0.0
144
0.0
144
0.0
144
0.0
144
1.0
147
0.0208333333333333
147
0.0
147
0.0
147
0.0
147
0.0
147
0.0208333333333333
147
0.0
147
0.0
147
0.0
147
0.0
147
1.0
147
0.0
147
0.0
147
0.0
147
0.0
147
1.0
  0
MLEADERSTYLE
  5
4CD
102
{ACAD_REACTORS
330
4CC
102
}
330
4CC
100
AcDbMLeaderStyle
170
     2
171
     1
172
     0
 90
        2
 40
0.0
 41
0.0
173
     1
 91
-1056964608
340
11
 92
       -2
290
     1
 42
2.0
291
     1
 43
0.36
  3
Standard
 44
4.0
300

342
17
174
     1
178
     6
175
     1
176
     0
 93
-1056964608
 45
4.0
292
     0
297
     0
 46
4.0
 94
-1056964608
 47
1.0
 49
1.0
140
1.0
293
     1
141
0.0
294
     1
177
     0
142
1.0
295
     0
296
     0
143
0.125
1001
ACAD_MLEADERVER
1070
     2
  0
MLINESTYLE
  5
1C
102
{ACAD_REACTORS
330
1B
102
}
330
1B
100
AcDbMlineStyle
  2
STANDARD
 70
     0
  3

 62
     0
 51
90.0
 52
90.0
 71
     2
 49
0.5
 62
   256
  6
BYLAYER
 49
-0.5
 62
   256
  6
BYLAYER
  0
ACDBPLACEHOLDER
  5
1D
102
{ACAD_REACTORS
330
1F
102
}
330
1F
  0
SCALE
  5
4BB
102
{ACAD_REACTORS
330
4BA
102
}
330
4BA
100
AcDbScale
 70
     0
300
1:1
140
1.0
141
1.0
290
     1
  0
SCALE
  5
4BC
102
{ACAD_REACTORS
330
4BA
102
}
330
4BA
100
AcDbScale
 70
     0
300
1:2
140
1.0
141
2.0
290
     0
  0
SCALE
  5
4BD
102
{ACAD_REACTORS
330
4BA
102
}
330
4BA
100
AcDbScale
 70
     0
300
1:4
140
1.0
141
4.0
290
     0
  0
SCALE
  5
4BE
102
{ACAD_REACTORS
330
4BA
102
}
330
4BA
100
AcDbScale
 70
     0
300
1:5
140
1.0
141
5.0
290
     0
  0
SCALE
  5
4BF
102
{ACAD_REACTORS
330
4BA
102
}
330
4BA
100
AcDbScale
 70
     0
300
1:8
140
1.0
141
8.0
290
     0
  0
SCALE
  5
4C0
102
{ACAD_REACTORS
330
4BA
102
}
330
4BA
100
AcDbScale
 70
     0
300
1:10
140
1.0
141
10.0
290
     0
  0
SCALE
  5
4C1
102
{ACAD_REACTORS
330
4BA
102
}
330
4BA
100
AcDbScale
 70
     0
300
1:16
140
1.0
141
16.0
290
     0
  0
SCALE
  5
4C2
102
{ACAD_REACTORS
330
4BA
102
}
330
4BA
100
AcDbScale
 70
     0
300
1:20
140
1.0
141
20.0
290
     0
  0
SCALE
  5
4C3
102
{ACAD_REACTORS
330
4BA
102
}
330
4BA
100
AcDbScale
 70
     0
300
1:30
140
1.0
141
30.0
290
     0
  0
SCALE
  5
4C4
102
{ACAD_REACTORS
330
4BA
102
}
330
4BA
100
AcDbScale
 70
     0
300
1:40
140
1.0
141
40.0
290
     0
  0
SCALE
  5
4C5
102
{ACAD_REACTORS
330
4BA
102
}
330
4BA
100
AcDbScale
 70
     0
300
1:50
140
1.0
141
50.0
290
     0
  0
SCALE
  5
4C6
102
{ACAD_REACTORS
330
4BA
102
}
330
4BA
100
AcDbScale
 70
     0
300
1:100
140
1.0
141
100.0
290
     0
  0
SCALE
  5
4C7
102
{ACAD_REACTORS
330
4BA
102
}
330
4BA
100
AcDbScale
 70
     0
300
2:1
140
2.0
141
1.0
290
     0
  0
SCALE
  5
4C8
102
{ACAD_REACTORS
330
4BA
102
}
330
4BA
100
AcDbScale
 70
     0
300
4:1
140
4.0
141
1.0
290
     0
  0
SCALE
  5
4C9
102
{ACAD_REACTORS
330
4BA
102
}
330
4BA
100
AcDbScale
 70
     0
300
8:1
140
8.0
141
1.0
290
     0
  0
SCALE
  5
4CA
102
{ACAD_REACTORS
330
4BA
102
}
330
4BA
100
AcDbScale
 70
     0
300
10:1
140
10.0
141
1.0
290
     0
  0
SCALE
  5
4CB
102
{ACAD_REACTORS
330
4BA
102
}
330
4BA
100
AcDbScale
 70
     0
300
100:1
140
100.0
141
1.0
290
     0
  0
TABLESTYLE
  5
4B9
102
{ACAD_XDICTIONARY
360
52E
102
}
102
{ACAD_REACTORS
330
4B8
102
}
330
4B8
100
AcDbTableStyle
  3
Standard
 70
     0
 71
     0
 40
1.5
 41
1.5
280
     0
281
     0
  7
Standard
140
4.5
170
     2
 62
     0
 63
     7
283
     0
 90
      512
 91
        0
  1

274
    -2
284
     1
 64
     0
275
    -2
285
     1
 65
     0
276
    -2
286
     1
 66
     0
277
    -2
287
     1
 67
     0
278
    -2
288
     1
 68
     0
279
    -2
289
     1
 69
     0
  7
Standard
140
6.0
170
     5
 62
     0
 63
     7
283
     0
 90
      512
 91
        0
  1

274
    -2
284
     1
 64
     0
275
    -2
285
     1
 65
     0
276
    -2
286
     1
 66
     0
277
    -2
287
     1
 67
     0
278
    -2
288
     1
 68
     0
279
    -2
289
     1
 69
     0
  7
Standard
140
4.5
170
     5
 62
     0
 63
     7
283
     0
 90
      512
 91
        0
  1

274
    -2
284
     1
 64
     0
275
    -2
285
     1
 65
     0
276
    -2
286
     1
 66
     0
277
    -2
287
     1
 67
     0
278
    -2
288
     1
 68
     0
279
    -2
289
     1
 69
     0
  0
VISUALSTYLE
  5
4AC
102
{ACAD_REACTORS
330
4A6
102
}
330
4A6
100
AcDbVisualStyle
  2
2dWireframe
 70
     4
 71
     0
 72
     2
 73
     0
 90
        0
 40
-0.6
 41
-30.0
 62
     5
 63
     7
421
 16777215
 74
     1
 91
        4
 64
     7
 65
   257
 75
     1
175
     1
 42
1.0
 92
        0
 66
   257
 43
1.0
 76
     1
 77
     6
 78
     2
 67
     7
 79
     5
170
     0
171
     0
290
     0
174
     0
 93
        1
 44
0.0
173
     0
291
     0
 45
0.0
  0
VISUALSTYLE
  5
4AE
102
{ACAD_REACTORS
330
4A6
102
}
330
4A6
100
AcDbVisualStyle
  2
3D Hidden
 70
     6
 71
     1
 72
     2
 73
     2
 90
        0
 40
-0.6
 41
-30.0
 62
     5
 63
     7
421
 16777215
 74
     2
 91
        2
 64
     7
 65
   257
 75
     2
175
     1
 42
40.0
 92
        0
 66
   257
 43
1.0
 76
     1
 77
     6
 78
     2
 67
     7
 79
     3
170
     0
171
     0
290
     0
174
     0
 93
        1
 44
0.0
173
     0
291
     0
 45
0.0
  0
VISUALSTYLE
  5
4AD
102
{ACAD_REACTORS
330
4A6
102
}
330
4A6
100
AcDbVisualStyle
  2
3dWireframe
 70
     5
 71
     0
 72
     2
 73
     0
 90
        0
 40
-0.6
 41
-30.0
 62
     5
 63
     7
421
 16777215
 74
     1
 91
        4
 64
     7
 65
   257
 75
     1
175
     1
 42
1.0
 92
        0
 66
   257
 43
1.0
 76
     1
 77
     6
 78
     2
 67
     7
 79
     5
170
     0
171
     0
290
     0
174
     0
 93
        1
 44
0.0
173
     0
291
     0
 45
0.0
  0
VISUALSTYLE
  5
4AB
102
{ACAD_REACTORS
330
4A6
102
}
330
4A6
100
AcDbVisualStyle
  2
Basic
 70
     7
 71
     1
 72
     0
 73
     1
 90
        0
 40
-0.6
 41
-30.0
 62
     5
 63
     7
421
 16777215
 74
     0
 91
        4
 64
     7
 65
   257
 75
     1
175
     1
 42
1.0
 92
        8
 66
     7
 43
1.0
 76
     1
 77
     6
 78
     2
 67
     7
 79
     5
170
     0
171
     0
290
     0
174
     0
 93
        1
 44
0.0
173
     0
291
     1
 45
0.0
  0
VISUALSTYLE
  5
4B2
102
{ACAD_REACTORS
330
4A6
102
}
330
4A6
100
AcDbVisualStyle
  2
Brighten
 70
    12
 71
     2
 72
     2
 73
     0
 90
        0
 40
-0.6
 41
-30.0
 62
     5
 63
     7
421
 16777215
 74
     1
 91
        4
 64
     7
 65
   257
 75
     1
175
     1
 42
1.0
 92
        8
 66
     7
 43
1.0
 76
     1
 77
     6
 78
     2
 67
     7
 79
     5
170
     0
171
     0
290
     0
174
     0
 93
        1
 44
50.0
173
     0
291
     1
 45
0.0
  0
VISUALSTYLE
  5
4B6
102
{ACAD_REACTORS
330
4A6
102
}
330
4A6
100
AcDbVisualStyle
  2
ColorChange
 70
    16
 71
     2
 72
     2
 73
     3
 90
        0
 40
-0.6
 41
-30.0
 62
     5
 63
     8
421
  8421504
 74
     1
 91
        4
 64
     7
 65
   257
 75
     1
175
     1
 42
1.0
 92
        8
 66
     8
424
  8421504
 43
1.0
 76
     1
 77
     6
 78
     2
 67
     7
 79
     5
170
     0
171
     0
290
     0
174
     0
 93
        1
 44
0.0
173
     0
291
     1
 45
0.0
  0
VISUALSTYLE
  5
4AF
102
{ACAD_REACTORS
330
4A6
102
}
330
4A6
100
AcDbVisualStyle
  2
Conceptual
 70
     9
 71
     3
 72
     2
 73
     0
 90
        0
 40
-0.6
 41
-30.0
 62
     5
 63
     7
421
 16777215
 74
     2
 91
        2
 64
     7
 65
   257
 75
     1
175
     1
 42
40.0
 92
        8
 66
     7
 43
1.0
 76
     1
 77
     6
 78
     2
 67
     7
 79
     3
170
     0
171
     0
290
     0
174
     0
 93
        1
 44
0.0
173
     0
291
     0
 45
0.0
  0
VISUALSTYLE
  5
4B1
102
{ACAD_REACTORS
330
4A6
102
}
330
4A6
100
AcDbVisualStyle
  2
Dim
 70
    11
 71
     2
 72
     2
 73
     0
 90
        0
 40
-0.6
 41
-30.0
 62
     5
 63
     7
421
 16777215
 74
     1
 91
        4
 64
     7
 65
   257
 75
     1
175
     1
 42
1.0
 92
        8
 66
     7
 43
1.0
 76
     1
 77
     6
 78
     2
 67
     7
 79
     5
170
     0
171
     0
290
     0
174
     0
 93
        1
 44
-50.0
173
     0
291
     1
 45
0.0
  0
VISUALSTYLE
  5
4B5
102
{ACAD_REACTORS
330
4A6
102
}
330
4A6
100
AcDbVisualStyle
  2
Facepattern
 70
    15
 71
     2
 72
     2
 73
     0
 90
        0
 40
-0.6
 41
-30.0
 62
     5
 63
     7
421
 16777215
 74
     1
 91
        4
 64
     7
 65
   257
 75
     1
175
     1
 42
1.0
 92
        8
 66
     7
 43
1.0
 76
     1
 77
     6
 78
     2
 67
     7
 79
     5
170
     0
171
     0
290
     0
174
     0
 93
        1
 44
0.0
173
     0
291
     1
 45
0.0
  0
VISUALSTYLE
  5
4A7
102
{ACAD_REACTORS
330
4A6
102
}
330
4A6
100
AcDbVisualStyle
  2
Flat
 70
     0
 71
     2
 72
     1
 73
     1
 90
        2
 40
-0.6
 41
30.0
 62
     5
 63
     7
421
 16777215
 74
     0
 91
        4
 64
     7
 65
   257
 75
     1
175
     1
 42
1.0
 92
        8
 66
     7
 43
1.0
 76
     1
 77
     6
 78
     2
 67
     7
 79
     5
170
     0
171
     0
290
     0
174
     0
 93
       13
 44
0.0
173
     0
291
     1
 45
0.0
  0
VISUALSTYLE
  5
4A8
102
{ACAD_REACTORS
330
4A6
102
}
330
4A6
100
AcDbVisualStyle
  2
FlatWithEdges
 70
     1
 71
     2
 72
     1
 73
     1
 90
        2
 40
-0.6
 41
30.0
 62
     5
 63
     7
421
 16777215
 74
     1
 91
        4
 64
     7
 65
   257
 75
     1
175
     1
 42
1.0
 92
        0
 66
   257
 43
1.0
 76
     1
 77
     6
 78
     2
 67
     7
 79
     5
170
     0
171
     0
290
     0
174
     0
 93
       13
 44
0.0
173
     0
291
     1
 45
0.0
  0
VISUALSTYLE
  5
4A9
102
{ACAD_REACTORS
330
4A6
102
}
330
4A6
100
AcDbVisualStyle
  2
Gouraud
 70
     2
 71
     2
 72
     2
 73
     1
 90
        2
 40
-0.6
 41
30.0
 62
     5
 63
     7
421
 16777215
 74
     0
 91
        4
 64
     7
 65
   257
 75
     1
175
     1
 42
1.0
 92
        0
 66
     7
 43
1.0
 76
     1
 77
     6
 78
     2
 67
     7
 79
     5
170
     0
171
     0
290
     0
174
     0
 93
       13
 44
0.0
173
     0
291
     1
 45
0.0
  0
VISUALSTYLE
  5
4AA
102
{ACAD_REACTORS
330
4A6
102
}
330
4A6
100
AcDbVisualStyle
  2
GouraudWithEdges
 70
     3
 71
     2
 72
     2
 73
     1
 90
        2
 40
-0.6
 41
30.0
 62
     5
 63
     7
421
 16777215
 74
     1
 91
        4
 64
     7
 65
   257
 75
     1
175
     1
 42
1.0
 92
        0
 66
   257
 43
1.0
 76
     1
 77
     6
 78
     2
 67
     7
 79
     5
170
     0
171
     0
290
     0
174
     0
 93
       13
 44
0.0
173
     0
291
     1
 45
0.0
  0
VISUALSTYLE
  5
4B4
102
{ACAD_REACTORS
330
4A6
102
}
330
4A6
100
AcDbVisualStyle
  2
Linepattern
 70
    14
 71
     2
 72
     2
 73
     0
 90
        0
 40
-0.6
 41
-30.0
 62
     5
 63
     7
421
 16777215
 74
     1
 91
        4
 64
     7
 65
   257
 75
     7
175
     7
 42
1.0
 92
        8
 66
     7
 43
1.0
 76
     1
 77
     6
 78
     2
 67
     7
 79
     5
170
     0
171
     0
290
     0
174
     0
 93
        1
 44
0.0
173
     0
291
     1
 45
0.0
  0
VISUALSTYLE
  5
4B0
102
{ACAD_REACTORS
330
4A6
102
}
330
4A6
100
AcDbVisualStyle
  2
Realistic
 70
     8
 71
     2
 72
     2
 73
     0
 90
        0
 40
-0.6
 41
-30.0
 62
     5
 63
     7
421
 16777215
 74
     1
 91
        0
 64
     7
 65
   257
 75
     1
175
     1
 42
1.0
 92
        8
 66
     8
424
  7895160
 43
1.0
 76
     1
 77
     6
 78
     2
 67
     7
 79
     5
170
     0
171
     0
290
     0
174
     0
 93
       13
 44
0.0
173
     0
291
     0
 45
0.0
  0
VISUALSTYLE
  5
4B3
102
{ACAD_REACTORS
330
4A6
102
}
330
4A6
100
AcDbVisualStyle
  2
Thicken
 70
    13
 71
     2
 72
     2
 73
     0
 90
        0
 40
-0.6
 41
-30.0
 62
     5
 63
     7
421
 16777215
 74
     1
 91
        4
 64
     7
 65
   257
 75
     1
175
     1
 42
1.0
 92
       12
 66
     7
 43
1.0
 76
     1
 77
     6
 78
     2
 67
     7
 79
     5
170
     0
171
     0
290
     0
174
     0
 93
        1
 44
0.0
173
     0
291
     1
 45
0.0
  0
DICTIONARYVAR
  5
52A
102
{ACAD_REACTORS
330
526
102
}
330
526
100
DictionaryVariables
280
     0
  1
1:1
  0
DICTIONARYVAR
  5
528
102
{ACAD_REACTORS
330
526
102
}
330
526
100
DictionaryVariables
280
     0
  1
STANDARD
  0
DICTIONARYVAR
  5
527
102
{ACAD_REACTORS
330
526
102
}
330
526
100
DictionaryVariables
280
     0
  1
STANDARD
  0
DICTIONARYVAR
  5
52C
102
{ACAD_REACTORS
330
526
102
}
330
526
100
DictionaryVariables
280
     0
  1
1
  0
DICTIONARYVAR
  5
52D
102
{ACAD_REACTORS
330
526
102
}
330
526
100
DictionaryVariables
280
     0
  1
15
  0
DICTIONARYVAR
  5
52B
102
{ACAD_REACTORS
330
526
102
}
330
526
100
DictionaryVariables
280
     0
  1
0
  0
DICTIONARYVAR
  5
529
102
{ACAD_REACTORS
330
526
102
}
330
526
100
DictionaryVariables
280
     0
  1
0
  0
DICTIONARY
  5
497
330
496
100
AcDbDictionary
280
     1
281
     1
  3
BUMPTILE
360
499
  3
DIFFUSETILE
360
498
  3
OPACITYTILE
360
49C
  3
REFLECTIONTILE
360
49B
  3
REFRACTIONTILE
360
49D
  3
SPECULARTILE
360
49A
  0
DICTIONARY
  5
48F
330
48E
100
AcDbDictionary
280
     1
281
     1
  3
BUMPTILE
360
491
  3
DIFFUSETILE
360
490
  3
OPACITYTILE
360
494
  3
REFLECTIONTILE
360
493
  3
REFRACTIONTILE
360
495
  3
SPECULARTILE
360
492
  0
DICTIONARY
  5
49F
330
49E
100
AcDbDictionary
280
     1
281
     1
  3
BUMPTILE
360
4A1
  3
DIFFUSETILE
360
4A0
  3
OPACITYTILE
360
4A4
  3
REFLECTIONTILE
360
4A3
  3
REFRACTIONTILE
360
4A5
  3
SPECULARTILE
360
4A2
  0
DICTIONARY
  5
52E
330
4B9
100
AcDbDictionary
280
     1
281
     1
  3
ACAD_ROUNDTRIP_2008_TABLESTYLE_CELLSTYLEMAP
360
52F
  0
XRECORD
  5
499
102
{ACAD_REACTORS
330
497
102
}
330
497
100
AcDbXrecord
280
     1
270
     1
271
     1
  0
XRECORD
  5
498
102
{ACAD_REACTORS
330
497
102
}
330
497
100
AcDbXrecord
280
     1
270
     1
271
     1
  0
XRECORD
  5
49C
102
{ACAD_REACTORS
330
497
102
}
330
497
100
AcDbXrecord
280
     1
270
     1
271
     1
  0
XRECORD
  5
49B
102
{ACAD_REACTORS
330
497
102
}
330
497
100
AcDbXrecord
280
     1
270
     1
271
     1
  0
XRECORD
  5
49D
102
{ACAD_REACTORS
330
497
102
}
330
497
100
AcDbXrecord
280
     1
270
     1
271
     1
  0
XRECORD
  5
49A
102
{ACAD_REACTORS
330
497
102
}
330
497
100
AcDbXrecord
280
     1
270
     1
271
     1
  0
XRECORD
  5
491
102
{ACAD_REACTORS
330
48F
102
}
330
48F
100
AcDbXrecord
280
     1
270
     1
271
     1
  0
XRECORD
  5
490
102
{ACAD_REACTORS
330
48F
102
}
330
48F
100
AcDbXrecord
280
     1
270
     1
271
     1
  0
XRECORD
  5
494
102
{ACAD_REACTORS
330
48F
102
}
330
48F
100
AcDbXrecord
280
     1
270
     1
271
     1
  0
XRECORD
  5
493
102
{ACAD_REACTORS
330
48F
102
}
330
48F
100
AcDbXrecord
280
     1
270
     1
271
     1
  0
XRECORD
  5
495
102
{ACAD_REACTORS
330
48F
102
}
330
48F
100
AcDbXrecord
280
     1
270
     1
271
     1
  0
XRECORD
  5
492
102
{ACAD_REACTORS
330
48F
102
}
330
48F
100
AcDbXrecord
280
     1
270
     1
271
     1
  0
XRECORD
  5
4A1
102
{ACAD_REACTORS
330
49F
102
}
330
49F
100
AcDbXrecord
280
     1
270
     1
271
     1
  0
XRECORD
  5
4A0
102
{ACAD_REACTORS
330
49F
102
}
330
49F
100
AcDbXrecord
280
     1
270
     1
271
     1
  0
XRECORD
  5
4A4
102
{ACAD_REACTORS
330
49F
102
}
330
49F
100
AcDbXrecord
280
     1
270
     1
271
     1
  0
XRECORD
  5
4A3
102
{ACAD_REACTORS
330
49F
102
}
330
49F
100
AcDbXrecord
280
     1
270
     1
271
     1
  0
XRECORD
  5
4A5
102
{ACAD_REACTORS
330
49F
102
}
330
49F
100
AcDbXrecord
280
     1
270
     1
271
     1
  0
XRECORD
  5
4A2
102
{ACAD_REACTORS
330
49F
102
}
330
49F
100
AcDbXrecord
280
     1
270
     1
271
     1
  0
CELLSTYLEMAP
  5
52F
102
{ACAD_REACTORS
330
52E
102
}
330
52E
100
AcDbCellStyleMap
 90
        3
300
CELLSTYLE
  1
TABLEFORMAT_BEGIN
 90
        5
170
     1
 91
        0
 92
    32768
 62
   257
 93
        1
300
CONTENTFORMAT
  1
CONTENTFORMAT_BEGIN
 90
        0
 91
        0
 92
      512
 93
        0
300

 40
0.0
140
1.0
 94
        5
 62
     0
340
17
144
6.0
309
CONTENTFORMAT_END
171
     1
301
MARGIN
  1
CELLMARGIN_BEGIN
 40
1.5
 40
1.5
 40
1.5
 40
1.5
 40
4.5
 40
4.5
309
CELLMARGIN_END
 94
        6
 95
        1
302
GRIDFORMAT
  1
GRIDFORMAT_BEGIN
 90
        0
 91
        1
 62
     0
 92
       -2
340
0
 93
        0
 40
1.125
309
GRIDFORMAT_END
 95
        2
302
GRIDFORMAT
  1
GRIDFORMAT_BEGIN
 90
        0
 91
        1
 62
     0
 92
       -2
340
0
 93
        0
 40
1.125
309
GRIDFORMAT_END
 95
        4
302
GRIDFORMAT
  1
GRIDFORMAT_BEGIN
 90
        0
 91
        1
 62
     0
 92
       -2
340
0
 93
        0
 40
1.125
309
GRIDFORMAT_END
 95
        8
302
GRIDFORMAT
  1
GRIDFORMAT_BEGIN
 90
        0
 91
        1
 62
     0
 92
       -2
340
0
 93
        0
 40
1.125
309
GRIDFORMAT_END
 95
       16
302
GRIDFORMAT
  1
GRIDFORMAT_BEGIN
 90
        0
 91
        1
 62
     0
 92
       -2
340
0
 93
        0
 40
1.125
309
GRIDFORMAT_END
 95
       32
302
GRIDFORMAT
  1
GRIDFORMAT_BEGIN
 90
        0
 91
        1
 62
     0
 92
       -2
340
0
 93
        0
 40
1.125
309
GRIDFORMAT_END
309
TABLEFORMAT_END
  1
CELLSTYLE_BEGIN
 90
        1
 91
        1
300
_TITLE
309
CELLSTYLE_END
300
CELLSTYLE
  1
TABLEFORMAT_BEGIN
 90
        5
170
     1
 91
        0
 92
        0
 62
   257
 93
        1
300
CONTENTFORMAT
  1
CONTENTFORMAT_BEGIN
 90
        0
 91
        0
 92
      512
 93
        0
300

 40
0.0
140
1.0
 94
        5
 62
     0
340
17
144
4.5
309
CONTENTFORMAT_END
171
     1
301
MARGIN
  1
CELLMARGIN_BEGIN
 40
1.5
 40
1.5
 40
1.5
 40
1.5
 40
4.5
 40
4.5
309
CELLMARGIN_END
 94
        6
 95
        1
302
GRIDFORMAT
  1
GRIDFORMAT_BEGIN
 90
        0
 91
        1
 62
     0
 92
       -2
340
0
 93
        0
 40
1.125
309
GRIDFORMAT_END
 95
        2
302
GRIDFORMAT
  1
GRIDFORMAT_BEGIN
 90
        0
 91
        1
 62
     0
 92
       -2
340
0
 93
        0
 40
1.125
309
GRIDFORMAT_END
 95
        4
302
GRIDFORMAT
  1
GRIDFORMAT_BEGIN
 90
        0
 91
        1
 62
     0
 92
       -2
340
0
 93
        0
 40
1.125
309
GRIDFORMAT_END
 95
        8
302
GRIDFORMAT
  1
GRIDFORMAT_BEGIN
 90
        0
 91
        1
 62
     0
 92
       -2
340
0
 93
        0
 40
1.125
309
GRIDFORMAT_END
 95
       16
302
GRIDFORMAT
  1
GRIDFORMAT_BEGIN
 90
        0
 91
        1
 62
     0
 92
       -2
340
0
 93
        0
 40
1.125
309
GRIDFORMAT_END
 95
       32
302
GRIDFORMAT
  1
GRIDFORMAT_BEGIN
 90
        0
 91
        1
 62
     0
 92
       -2
340
0
 93
        0
 40
1.125
309
GRIDFORMAT_END
309
TABLEFORMAT_END
  1
CELLSTYLE_BEGIN
 90
        2
 91
        1
300
_HEADER
309
CELLSTYLE_END
300
CELLSTYLE
  1
TABLEFORMAT_BEGIN
 90
        5
170
     1
 91
        0
 92
        0
 62
   257
 93
        1
300
CONTENTFORMAT
  1
CONTENTFORMAT_BEGIN
 90
        0
 91
        0
 92
      512
 93
        0
300

 40
0.0
140
1.0
 94
        2
 62
     0
340
17
144
4.5
309
CONTENTFORMAT_END
171
     1
301
MARGIN
  1
CELLMARGIN_BEGIN
 40
1.5
 40
1.5
 40
1.5
 40
1.5
 40
4.5
 40
4.5
309
CELLMARGIN_END
 94
        6
 95
        1
302
GRIDFORMAT
  1
GRIDFORMAT_BEGIN
 90
        0
 91
        1
 62
     0
 92
       -2
340
0
 93
        0
 40
1.125
309
GRIDFORMAT_END
 95
        2
302
GRIDFORMAT
  1
GRIDFORMAT_BEGIN
 90
        0
 91
        1
 62
     0
 92
       -2
340
0
 93
        0
 40
1.125
309
GRIDFORMAT_END
 95
        4
302
GRIDFORMAT
  1
GRIDFORMAT_BEGIN
 90
        0
 91
        1
 62
     0
 92
       -2
340
0
 93
        0
 40
1.125
309
GRIDFORMAT_END
 95
        8
302
GRIDFORMAT
  1
GRIDFORMAT_BEGIN
 90
        0
 91
        1
 62
     0
 92
       -2
340
0
 93
        0
 40
1.125
309
GRIDFORMAT_END
 95
       16
302
GRIDFORMAT
  1
GRIDFORMAT_BEGIN
 90
        0
 91
        1
 62
     0
 92
       -2
340
0
 93
        0
 40
1.125
309
GRIDFORMAT_END
 95
       32
302
GRIDFORMAT
  1
GRIDFORMAT_BEGIN
 90
        0
 91
        1
 62
     0
 92
       -2
340
0
 93
        0
 40
1.125
309
GRIDFORMAT_END
309
TABLEFORMAT_END
  1
CELLSTYLE_BEGIN
 90
        3
 91
        2
300
_DATA
309
CELLSTYLE_END
  0
ENDSEC
  0
EOF
