  0
SECTION
  2
HEADER
  9
$ACADVER
  1
AC1021
  9
$ACADMAINTVER
 70
    50
  9
$DWGCODEPAGE
  3
ANSI_1252
  9
$LASTSAVEDBY
  1
François
  9
$INSBASE
 10
157.1817520835145
 20
105.9160222286669
 30
0.0
  9
$EXTMIN
 10
131.0131626872922
 20
83.0357895
 30
0.0
  9
$EXTMAX
 10
173.158564
 20
116.0012745172093
 30
0.0
  9
$LIMMIN
 10
119.947717
 20
82.91552499999999
  9
$LIMMAX
 10
173.300016
 20
132.106665
  9
$ORTHOMODE
 70
     0
  9
$REGENMODE
 70
     1
  9
$FILLMODE
 70
     1
  9
$QTEXTMODE
 70
     0
  9
$MIRRTEXT
 70
     1
  9
$LTSCALE
 40
1.0
  9
$ATTMODE
 70
     1
  9
$TEXTSIZE
 40
0.0
  9
$TRACEWID
 40
0.05
  9
$TEXTSTYLE
  7
Standard
  9
$CLAYER
  8
0
  9
$CELTYPE
  6
Continuous
  9
$CECOLOR
 62
   256
  9
$CELTSCALE
 40
1.0
  9
$DISPSILH
 70
     0
  9
$DIMSCALE
 40
1.0
  9
$DIMASZ
 40
1.8
  9
$DIMEXO
 40
0.625
  9
$DIMDLI
 40
3.799999999999999
  9
$DIMRND
 40
0.0
  9
$DIMDLE
 40
0.0
  9
$DIMEXE
 40
1.8
  9
$DIMTP
 40
0.0
  9
$DIMTM
 40
0.0
  9
$DIMTXT
 40
3.0
  9
$DIMCEN
 40
0.9
  9
$DIMTSZ
 40
0.0
  9
$DIMTOL
 70
     0
  9
$DIMLIM
 70
     0
  9
$DIMTIH
 70
     0
  9
$DIMTOH
 70
     0
  9
$DIMSE1
 70
     0
  9
$DIMSE2
 70
     0
  9
$DIMTAD
 70
     1
  9
$DIMZIN
 70
    12
  9
$DIMBLK
  1
Oblique
  9
$DIMASO
 70
     1
  9
$DIMSHO
 70
     1
  9
$DIMPOST
  1

  9
$DIMAPOST
  1

  9
$DIMALT
 70
     0
  9
$DIMALTD
 70
     2
  9
$DIMALTF
 40
25.4
  9
$DIMLFAC
 40
1.0
  9
$DIMTOFL
 70
     0
  9
$DIMTVP
 40
0.0
  9
$DIMTIX
 70
     0
  9
$DIMSOXD
 70
     0
  9
$DIMSAH
 70
     0
  9
$DIMBLK1
  1

  9
$DIMBLK2
  1

  9
$DIMSTYLE
  2
Cotation-Jacob-Delafon
  9
$DIMCLRD
 70
     0
  9
$DIMCLRE
 70
     0
  9
$DIMCLRT
 70
     0
  9
$DIMTFAC
 40
1.0
  9
$DIMGAP
 40
0.9
  9
$DIMJUST
 70
     0
  9
$DIMSD1
 70
     0
  9
$DIMSD2
 70
     0
  9
$DIMTOLJ
 70
     1
  9
$DIMTZIN
 70
     0
  9
$DIMALTZ
 70
     0
  9
$DIMALTTZ
 70
     0
  9
$DIMUPT
 70
     0
  9
$DIMDEC
 70
     2
  9
$DIMTDEC
 70
     2
  9
$DIMALTU
 70
     2
  9
$DIMALTTD
 70
     2
  9
$DIMTXSTY
  7
Jacob-Delafon
  9
$DIMAUNIT
 70
     0
  9
$DIMADEC
 70
     0
  9
$DIMALTRND
 40
0.0
  9
$DIMAZIN
 70
     3
  9
$DIMDSEP
 70
    46
  9
$DIMATFIT
 70
     3
  9
$DIMFRAC
 70
     0
  9
$DIMLDRBLK
  1
Oblique
  9
$DIMLUNIT
 70
     2
  9
$DIMLWD
 70
    -2
  9
$DIMLWE
 70
    -2
  9
$DIMTMOVE
 70
     2
  9
$DIMFXL
 40
1.0
  9
$DIMFXLON
 70
     0
  9
$DIMJOGANG
 40
0.7853981633974483
  9
$DIMTFILL
 70
     0
  9
$DIMTFILLCLR
 70
     0
  9
$DIMARCSYM
 70
     0
  9
$DIMLTYPE
  6

  9
$DIMLTEX1
  6

  9
$DIMLTEX2
  6

  9
$LUNITS
 70
     2
  9
$LUPREC
 70
     4
  9
$SKETCHINC
 40
0.1
  9
$FILLETRAD
 40
0.0
  9
$AUNITS
 70
     0
  9
$AUPREC
 70
     0
  9
$MENU
  1
acad
  9
$ELEVATION
 40
0.0
  9
$PELEVATION
 40
0.0
  9
$THICKNESS
 40
0.0
  9
$LIMCHECK
 70
     0
  9
$CHAMFERA
 40
0.0
  9
$CHAMFERB
 40
0.0
  9
$CHAMFERC
 40
0.0
  9
$CHAMFERD
 40
0.0
  9
$SKPOLY
 70
     0
  9
$TDCREATE
 40
2454950.308330972
  9
$TDUCREATE
 40
2454950.224997639
  9
$TDUPDATE
 40
2455006.711870475
  9
$TDUUPDATE
 40
2455006.628537141
  9
$TDINDWG
 40
0.0506459838
  9
$TDUSRTIMER
 40
0.0506458102
  9
$USRTIMER
 70
     1
  9
$ANGBASE
 50
0.0
  9
$ANGDIR
 70
     0
  9
$PDMODE
 70
     0
  9
$PDSIZE
 40
0.0
  9
$PLINEWID
 40
0.0
  9
$SPLFRAME
 70
     0
  9
$SPLINETYPE
 70
     6
  9
$SPLINESEGS
 70
     8
  9
$HANDSEED
  5
6A5
  9
$SURFTAB1
 70
     6
  9
$SURFTAB2
 70
     6
  9
$SURFTYPE
 70
     6
  9
$SURFU
 70
     6
  9
$SURFV
 70
     6
  9
$UCSBASE
  2

  9
$UCSNAME
  2

  9
$UCSORG
 10
0.0
 20
0.0
 30
0.0
  9
$UCSXDIR
 10
1.0
 20
0.0
 30
0.0
  9
$UCSYDIR
 10
0.0
 20
1.0
 30
0.0
  9
$UCSORTHOREF
  2

  9
$UCSORTHOVIEW
 70
     0
  9
$UCSORGTOP
 10
0.0
 20
0.0
 30
0.0
  9
$UCSORGBOTTOM
 10
0.0
 20
0.0
 30
0.0
  9
$UCSORGLEFT
 10
0.0
 20
0.0
 30
0.0
  9
$UCSORGRIGHT
 10
0.0
 20
0.0
 30
0.0
  9
$UCSORGFRONT
 10
0.0
 20
0.0
 30
0.0
  9
$UCSORGBACK
 10
0.0
 20
0.0
 30
0.0
  9
$PUCSBASE
  2

  9
$PUCSNAME
  2

  9
$PUCSORG
 10
0.0
 20
0.0
 30
0.0
  9
$PUCSXDIR
 10
1.0
 20
0.0
 30
0.0
  9
$PUCSYDIR
 10
0.0
 20
1.0
 30
0.0
  9
$PUCSORTHOREF
  2

  9
$PUCSORTHOVIEW
 70
     0
  9
$PUCSORGTOP
 10
0.0
 20
0.0
 30
0.0
  9
$PUCSORGBOTTOM
 10
0.0
 20
0.0
 30
0.0
  9
$PUCSORGLEFT
 10
0.0
 20
0.0
 30
0.0
  9
$PUCSORGRIGHT
 10
0.0
 20
0.0
 30
0.0
  9
$PUCSORGFRONT
 10
0.0
 20
0.0
 30
0.0
  9
$PUCSORGBACK
 10
0.0
 20
0.0
 30
0.0
  9
$USERI1
 70
     0
  9
$USERI2
 70
     0
  9
$USERI3
 70
     0
  9
$USERI4
 70
     0
  9
$USERI5
 70
     0
  9
$USERR1
 40
0.0
  9
$USERR2
 40
0.0
  9
$USERR3
 40
0.0
  9
$USERR4
 40
0.0
  9
$USERR5
 40
0.0
  9
$WORLDVIEW
 70
     1
  9
$SHADEDGE
 70
     3
  9
$SHADEDIF
 70
    70
  9
$TILEMODE
 70
     1
  9
$MAXACTVP
 70
    16
  9
$PINSBASE
 10
0.0
 20
0.0
 30
0.0
  9
$PLIMCHECK
 70
     0
  9
$PEXTMIN
 10
1.000000000000000E+20
 20
1.000000000000000E+20
 30
1.000000000000000E+20
  9
$PEXTMAX
 10
-1.000000000000000E+20
 20
-1.000000000000000E+20
 30
-1.000000000000000E+20
  9
$PLIMMIN
 10
0.0
 20
0.0
  9
$PLIMMAX
 10
12.0
 20
9.0
  9
$UNITMODE
 70
     0
  9
$VISRETAIN
 70
     0
  9
$PLINEGEN
 70
     1
  9
$PSLTSCALE
 70
     0
  9
$TREEDEPTH
 70
  3020
  9
$CMLSTYLE
  2
Standard
  9
$CMLJUST
 70
     0
  9
$CMLSCALE
 40
1.0
  9
$PROXYGRAPHICS
 70
     0
  9
$MEASUREMENT
 70
     1
  9
$CELWEIGHT
370
     0
  9
$ENDCAPS
280
     0
  9
$JOINSTYLE
280
     0
  9
$LWDISPLAY
290
     0
  9
$INSUNITS
 70
     0
  9
$HYPERLINKBASE
  1

  9
$STYLESHEET
  1

  9
$XEDIT
290
     1
  9
$CEPSNTYPE
380
     0
  9
$PSTYLEMODE
290
     1
  9
$FINGERPRINTGUID
  2

  9
$VERSIONGUID
  2
{7CFE8BC5-23FD-40D8-956E-5DE7345EB667}
  9
$EXTNAMES
290
     1
  9
$PSVPSCALE
 40
0.0
  9
$OLESTARTUP
290
     0
  9
$SORTENTS
280
   127
  9
$INDEXCTL
280
     0
  9
$HIDETEXT
280
     0
  9
$XCLIPFRAME
290
     0
  9
$HALOGAP
280
     0
  9
$OBSCOLOR
 70
   257
  9
$OBSLTYPE
280
     0
  9
$INTERSECTIONDISPLAY
280
     0
  9
$INTERSECTIONCOLOR
 70
   257
  9
$DIMASSOC
280
     1
  9
$PROJECTNAME
  1

  9
$CAMERADISPLAY
290
     0
  9
$LENSLENGTH
 40
50.0
  9
$CAMERAHEIGHT
 40
0.0
  9
$STEPSPERSEC
 40
2.0
  9
$STEPSIZE
 40
6.0
  9
$3DDWFPREC
 40
2.0
  9
$PSOLWIDTH
 40
0.25
  9
$PSOLHEIGHT
 40
4.0
  9
$LOFTANG1
 40
1.570796326794896
  9
$LOFTANG2
 40
1.570796326794896
  9
$LOFTMAG1
 40
0.0
  9
$LOFTMAG2
 40
0.0
  9
$LOFTPARAM
 70
     7
  9
$LOFTNORMALS
280
     1
  9
$LATITUDE
 40
37.795
  9
$LONGITUDE
 40
-122.394
  9
$NORTHDIRECTION
 40
0.0
  9
$TIMEZONE
 70
 -8000
  9
$LIGHTGLYPHDISPLAY
280
     1
  9
$TILEMODELIGHTSYNCH
280
     1
  9
$CMATERIAL
347
15D
  9
$SOLIDHIST
280
     1
  9
$SHOWHIST
280
     1
  9
$DWFFRAME
280
     2
  9
$DGNFRAME
280
     0
  9
$REALWORLDSCALE
290
     1
  9
$INTERFERECOLOR
 62
     1
  9
$INTERFEREOBJVS
345
17F
  9
$INTERFEREVPVS
346
17C
  9
$CSHADOW
280
     0
  9
$SHADOWPLANELOCATION
 40
0.0
  0
ENDSEC
  0
SECTION
  2
CLASSES
  0
CLASS
  1
IMAGE
  2
AcDbRasterImage
  3
ISM
 90
     2175
 91
        0
280
     0
281
     1
  0
CLASS
  1
DICTIONARYVAR
  2
AcDbDictionaryVar
  3
ObjectDBX Classes
 90
        0
 91
        7
280
     0
281
     0
  0
CLASS
  1
RASTERVARIABLES
  2
AcDbRasterVariables
  3
ISM
 90
        0
 91
        0
280
     0
281
     0
  0
CLASS
  1
IMAGEDEF
  2
AcDbRasterImageDef
  3
ISM
 90
        0
 91
        7
280
     0
281
     0
  0
CLASS
  1
IMAGEDEF_REACTOR
  2
AcDbRasterImageDefReactor
  3
ISM
 90
        1
 91
        0
280
     0
281
     0
  0
CLASS
  1
IDBUFFER
  2
AcDbIdBuffer
  3
ObjectDBX Classes
 90
        0
 91
        0
280
     0
281
     0
  0
CLASS
  1
SPATIAL_FILTER
  2
AcDbSpatialFilter
  3
ObjectDBX Classes
 90
        0
 91
        0
280
     0
281
     0
  0
CLASS
  1
SORTENTSTABLE
  2
AcDbSortentsTable
  3
ObjectDBX Classes
 90
        0
 91
        1
280
     0
281
     0
  0
CLASS
  1
LAYER_INDEX
  2
AcDbLayerIndex
  3
ObjectDBX Classes
 90
        0
 91
        0
280
     0
281
     0
  0
CLASS
  1
SPATIAL_INDEX
  2
AcDbSpatialIndex
  3
ObjectDBX Classes
 90
        0
 91
        0
280
     0
281
     0
  0
CLASS
  1
OBJECT_PTR
  2
CAseDLPNTableRecord
  3
"ASE-LPNTableRecord"
 90
        1
 91
        0
280
     0
281
     0
  0
CLASS
  1
PLOTSETTINGS
  2
AcDbPlotSettings
  3
ObjectDBX Classes
 90
        0
 91
        0
280
     0
281
     0
  0
CLASS
  1
ACDBDICTIONARYWDFLT
  2
AcDbDictionaryWithDefault
  3
ObjectDBX Classes
 90
        0
 91
        1
280
     0
281
     0
  0
CLASS
  1
WIPEOUT
  2
AcDbWipeout
  3
"WipeOut|Product Desc: Object Enabler for WipeOut entity                        |Company: Autodesk, Inc.                        |WEB Address: www.autodesk.com"
 90
     2175
 91
        0
280
     0
281
     1
  0
CLASS
  1
WIPEOUTVARIABLES
  2
AcDbWipeoutVariables
  3
"WipeOut|Product Desc:     WipeOut Dbx Application|Company:          Autodesk, Inc.|WEB Address:      www.autodesk.com"
 90
        0
 91
        1
280
     0
281
     0
  0
CLASS
  1
RTEXT
  2
RText
  3
RText|AutoCAD Express Tool|expresstools@autodesk.com
 90
        0
 91
        0
280
     0
281
     1
  0
CLASS
  1
ARCALIGNEDTEXT
  2
AcDbArcAlignedText
  3
ATEXT|AutoCAD Express Tool|expresstools@autodesk.com
 90
        0
 91
        0
280
     0
281
     1
  0
CLASS
  1
MATERIAL
  2
AcDbMaterial
  3
ObjectDBX Classes
 90
     1153
 91
        3
280
     0
281
     0
  0
CLASS
  1
VISUALSTYLE
  2
AcDbVisualStyle
  3
ObjectDBX Classes
 90
     4095
 91
       16
280
     0
281
     0
  0
CLASS
  1
TABLESTYLE
  2
AcDbTableStyle
  3
ObjectDBX Classes
 90
     4095
 91
        1
280
     0
281
     0
  0
CLASS
  1
SCALE
  2
AcDbScale
  3
ObjectDBX Classes
 90
     1153
 91
       25
280
     0
281
     0
  0
CLASS
  1
MLEADERSTYLE
  2
AcDbMLeaderStyle
  3
ACDB_MLEADERSTYLE_CLASS
 90
     4095
 91
        1
280
     0
281
     0
  0
CLASS
  1
CELLSTYLEMAP
  2
AcDbCellStyleMap
  3
ObjectDBX Classes
 90
     1152
 91
        2
280
     0
281
     0
  0
CLASS
  1
AEC_DISP_REP_CONFIG
  2
AecDbDispRepConfig
  3
AecBase50|Product Desc: Autodesk Architectural Desktop 2007 |Company: Autodesk,Inc. |WEB Address: www.autodesk.com
 90
      129
 91
        1
280
     0
281
     0
  0
CLASS
  1
AEC_DISP_REP_SET
  2
AecDbDispRepSet
  3
AecBase50|Product Desc: Autodesk Architectural Desktop 2007 |Company: Autodesk,Inc. |WEB Address: www.autodesk.com
 90
      129
 91
        9
280
     0
281
     0
  0
CLASS
  1
AEC_DISP_REP_2D_SECTION
  2
AecDbDispRep2dSection
  3
AecBase50|Product Desc: Autodesk Architectural Desktop 2007 |Company: Autodesk,Inc. |WEB Address: www.autodesk.com
 90
      129
 91
        1
280
     0
281
     0
  0
CLASS
  1
AEC_DISP_REP_ANCHOR
  2
AecDbDispRepAnchor
  3
AecBase50|Product Desc: Autodesk Architectural Desktop 2007 |Company: Autodesk,Inc. |WEB Address: www.autodesk.com
 90
      129
 91
        1
280
     0
281
     0
  0
CLASS
  1
AEC_DISP_REP_ANCHOR_BUB_TO_GRID
  2
AecDbDispRepAnchorBubToGrid
  3
AecStructureBase50|Product Desc: Autodesk Architectural Desktop 2007 |Company: Autodesk,Inc. |WEB Address: www.autodesk.com
 90
      129
 91
        1
280
     0
281
     0
  0
CLASS
  1
AEC_DISP_REP_ANCHOR_BUB_TO_GRID_MODEL
  2
AecDbDispRepAnchorBubToGridMdl
  3
AecStructureBase50|Product Desc: Autodesk Architectural Desktop 2007 |Company: Autodesk,Inc. |WEB Address: www.autodesk.com
 90
      129
 91
        1
280
     0
281
     0
  0
CLASS
  1
AEC_DISP_REP_ANCHOR_BUB_TO_GRID_RCP
  2
AecDbDispRepAnchorBubToGridRcp
  3
AecStructureBase50|Product Desc: Autodesk Architectural Desktop 2007 |Company: Autodesk,Inc. |WEB Address: www.autodesk.com
 90
      129
 91
        1
280
     0
281
     0
  0
CLASS
  1
AEC_DISP_REP_ANCHOR_ENT_TO_NODE
  2
AecDbDispRepAnchorEntToNode
  3
AecBaseEx50|Product Desc: Autodesk Architectural Desktop 2007 |Company: Autodesk,Inc. |WEB Address: www.autodesk.com
 90
      129
 91
        1
280
     0
281
     0
  0
CLASS
  1
AEC_DISP_REP_ANCHOR_TAG_TO_ENT
  2
AecDbDispRepAnchorTagToEnt
  3
AecScheduleData50|Product Desc: Autodesk Architectural Desktop 2007 |Company: Autodesk,Inc. |WEB Address: www.autodesk.com
 90
      129
 91
        1
280
     0
281
     0
  0
CLASS
  1
AEC_DISP_REP_AREA
  2
AecDbDispRepArea
  3
AecAreaCalculationBase50|Product Desc: Autodesk Architectural Desktop 2007 |Company: Autodesk,Inc. |WEB Address: www.autodesk.com
 90
      129
 91
        0
280
     0
281
     0
  0
CLASS
  1
AEC_AECDBDISPREPAREA100
  2
AecDbDispRepArea100
  3
AecArchDACHBase50|Product Desc: Autodesk Architectural Desktop 2007 |Company: Autodesk,Inc. |WEB Address: www.autodesk.com
 90
      129
 91
        0
280
     0
281
     0
  0
CLASS
  1
AEC_AECDBDISPREPAREA50
  2
AecDbDispRepArea50
  3
AecArchDACHBase50|Product Desc: Autodesk Architectural Desktop 2007 |Company: Autodesk,Inc. |WEB Address: www.autodesk.com
 90
      129
 91
        0
280
     0
281
     0
  0
CLASS
  1
AEC_DISP_REP_AREA_DECOMPOSED
  2
AecDbDispRepAreaDecomposed
  3
AecAreaCalculationBase50|Product Desc: Autodesk Architectural Desktop 2007 |Company: Autodesk,Inc. |WEB Address: www.autodesk.com
 90
      129
 91
        0
280
     0
281
     0
  0
CLASS
  1
AEC_DISP_REP_AREAGROUP
  2
AecDbDispRepAreaGroup
  3
AecAreaCalculationBase50|Product Desc: Autodesk Architectural Desktop 2007 |Company: Autodesk,Inc. |WEB Address: www.autodesk.com
 90
      129
 91
        0
280
     0
281
     0
  0
CLASS
  1
AEC_AECDBDISPREPAREAGROUP100
  2
AecDbDispRepAreaGroup100
  3
AecArchDACHBase50|Product Desc: Autodesk Architectural Desktop 2007 |Company: Autodesk,Inc. |WEB Address: www.autodesk.com
 90
      129
 91
        0
280
     0
281
     0
  0
CLASS
  1
AEC_AECDBDISPREPAREAGROUP50
  2
AecDbDispRepAreaGroup50
  3
AecArchDACHBase50|Product Desc: Autodesk Architectural Desktop 2007 |Company: Autodesk,Inc. |WEB Address: www.autodesk.com
 90
      129
 91
        0
280
     0
281
     0
  0
CLASS
  1
AEC_DISP_REP_BDG_ELEVLINE_MODEL
  2
AecDbDispRepBdgElevLineModel
  3
AecArchBase50|Product Desc: Autodesk Architectural Desktop 2007 |Company: Autodesk,Inc. |WEB Address: www.autodesk.com
 90
      129
 91
        1
280
     0
281
     0
  0
CLASS
  1
AEC_DISP_REP_BDG_SECTIONLINE_PLAN
  2
AecDbDispRepBdgElevLinePlan
  3
AecArchBase50|Product Desc: Autodesk Architectural Desktop 2007 |Company: Autodesk,Inc. |WEB Address: www.autodesk.com
 90
      129
 91
        1
280
     0
281
     0
  0
CLASS
  1
AEC_AECDBDISPREPBDGELEVLINEPLAN100
  2
AecDbDispRepBdgElevLinePlan100
  3
AecArchDACHBase50|Product Desc: Autodesk Architectural Desktop 2007 |Company: Autodesk,Inc. |WEB Address: www.autodesk.com
 90
      129
 91
        1
280
     0
281
     0
  0
CLASS
  1
AEC_AECDBDISPREPBDGELEVLINEPLAN50
  2
AecDbDispRepBdgElevLinePlan50
  3
AecArchDACHBase50|Product Desc: Autodesk Architectural Desktop 2007 |Company: Autodesk,Inc. |WEB Address: www.autodesk.com
 90
      129
 91
        1
280
     0
281
     0
  0
CLASS
  1
AEC_DISP_REP_BDG_ELEVLINE_RCP
  2
AecDbDispRepBdgElevLineRcp
  3
AecArchBase50|Product Desc: Autodesk Architectural Desktop 2007 |Company: Autodesk,Inc. |WEB Address: www.autodesk.com
 90
      129
 91
        1
280
     0
281
     0
  0
CLASS
  1
AEC_DISP_REP_BDG_SECTIONLINE_MODEL
  2
AecDbDispRepBdgSectionLineModel
  3
AecArchBase50|Product Desc: Autodesk Architectural Desktop 2007 |Company: Autodesk,Inc. |WEB Address: www.autodesk.com
 90
      129
 91
        1
280
     0
281
     0
  0
CLASS
  1
AEC_DISP_REP_BDG_SECTIONLINE_PLAN
  2
AecDbDispRepBdgSectionLinePlan
  3
AecArchBase50|Product Desc: Autodesk Architectural Desktop 2007 |Company: Autodesk,Inc. |WEB Address: www.autodesk.com
 90
      129
 91
        1
280
     0
281
     0
  0
CLASS
  1
AEC_AECDBDISPREPBDGSECTIONLINEPLAN100
  2
AecDbDispRepBdgSectionLinePlan100
  3
AecArchDACHBase50|Product Desc: Autodesk Architectural Desktop 2007 |Company: Autodesk,Inc. |WEB Address: www.autodesk.com
 90
      129
 91
        1
280
     0
281
     0
  0
CLASS
  1
AEC_AECDBDISPREPBDGSECTIONLINEPLAN50
  2
AecDbDispRepBdgSectionLinePlan50
  3
AecArchDACHBase50|Product Desc: Autodesk Architectural Desktop 2007 |Company: Autodesk,Inc. |WEB Address: www.autodesk.com
 90
      129
 91
        1
280
     0
281
     0
  0
CLASS
  1
AEC_DISP_REP_BDG_SECTIONLINE_RCP
  2
AecDbDispRepBdgSectionLineRcp
  3
AecArchBase50|Product Desc: Autodesk Architectural Desktop 2007 |Company: Autodesk,Inc. |WEB Address: www.autodesk.com
 90
      129
 91
        1
280
     0
281
     0
  0
CLASS
  1
AEC_DISP_REP_BDG_SECTION_MODEL
  2
AecDbDispRepBdgSectionModel
  3
AecArchBase50|Product Desc: Autodesk Architectural Desktop 2007 |Company: Autodesk,Inc. |WEB Address: www.autodesk.com
 90
      129
 91
        1
280
     0
281
     0
  0
CLASS
  1
AEC_DISP_REP_BDG_SECTION_SUBDIV
  2
AecDbDispRepBdgSectionSubDiv
  3
AecArchBase50|Product Desc: Autodesk Architectural Desktop 2007 |Company: Autodesk,Inc. |WEB Address: www.autodesk.com
 90
      129
 91
        1
280
     0
281
     0
  0
CLASS
  1
AEC_DISP_REP_CAMERA
  2
AecDbDispRepCamera
  3
AecBase50|Product Desc: Autodesk Architectural Desktop 2007 |Company: Autodesk,Inc. |WEB Address: www.autodesk.com
 90
      129
 91
        0
280
     0
281
     0
  0
CLASS
  1
AEC_DISP_REP_CEILING_GRID
  2
AecDbDispRepCeilingGrid
  3
AecArchBase50|Product Desc: Autodesk Architectural Desktop 2007 |Company: Autodesk,Inc. |WEB Address: www.autodesk.com
 90
      893
 91
        1
280
     0
281
     0
  0
CLASS
  1
AEC_DISP_REP_CEILING_GRID_MODEL
  2
AecDbDispRepCeilingGridModel
  3
AecArchBase50|Product Desc: Autodesk Architectural Desktop 2007 |Company: Autodesk,Inc. |WEB Address: www.autodesk.com
 90
      129
 91
        1
280
     0
281
     0
  0
CLASS
  1
AEC_AECDBDISPREPCEILINGGRIDPLAN100
  2
AecDbDispRepCeilingGridPlan100
  3
AecArchDACHBase50|Product Desc: Autodesk Architectural Desktop 2007 |Company: Autodesk,Inc. |WEB Address: www.autodesk.com
 90
      129
 91
        1
280
     0
281
     0
  0
CLASS
  1
AEC_AECDBDISPREPCEILINGGRIDPLAN50
  2
AecDbDispRepCeilingGridPlan50
  3
AecArchDACHBase50|Product Desc: Autodesk Architectural Desktop 2007 |Company: Autodesk,Inc. |WEB Address: www.autodesk.com
 90
      129
 91
        1
280
     0
281
     0
  0
CLASS
  1
AEC_DISP_REP_CEILING_GRID_RCP
  2
AecDbDispRepCeilingGridRcp
  3
AecArchBase50|Product Desc: Autodesk Architectural Desktop 2007 |Company: Autodesk,Inc. |WEB Address: www.autodesk.com
 90
      129
 91
        1
280
     0
281
     0
  0
CLASS
  1
AEC_DISP_REP_CLIP_VOLUME_MODEL
  2
AecDbDispRepClipVolModel
  3
AecBase50|Product Desc: Autodesk Architectural Desktop 2007 |Company: Autodesk,Inc. |WEB Address: www.autodesk.com
 90
      129
 91
        1
280
     0
281
     0
  0
CLASS
  1
AEC_DISP_REP_CLIP_VOLUME_PLAN
  2
AecDbDispRepClipVolPlan
  3
AecBase50|Product Desc: Autodesk Architectural Desktop 2007 |Company: Autodesk,Inc. |WEB Address: www.autodesk.com
 90
      129
 91
        1
280
     0
281
     0
  0
CLASS
  1
AEC_DISP_REP_CLIP_VOLUME_RESULT_SUBDIV
  2
AecDbDispRepClipVolResSubDiv
  3
AecBase50|Product Desc: Autodesk Architectural Desktop 2007 |Company: Autodesk,Inc. |WEB Address: www.autodesk.com
 90
      129
 91
        1
280
     0
281
     0
  0
CLASS
  1
AEC_DISP_REP_CLIP_VOLUME_RESULT
  2
AecDbDispRepClipVolResult
  3
AecBase50|Product Desc: Autodesk Architectural Desktop 2007 |Company: Autodesk,Inc. |WEB Address: www.autodesk.com
 90
      129
 91
        1
280
     0
281
     0
  0
CLASS
  1
AEC_DISP_REP_COLUMN_GRID
  2
AecDbDispRepColumnGrid
  3
AecStructureBase50|Product Desc: Autodesk Architectural Desktop 2007 |Company: Autodesk,Inc. |WEB Address: www.autodesk.com
 90
      129
 91
        1
280
     0
281
     0
  0
CLASS
  1
AEC_DISP_REP_COLUMN_GRID_MODEL
  2
AecDbDispRepColumnGridModel
  3
AecStructureBase50|Product Desc: Autodesk Architectural Desktop 2007 |Company: Autodesk,Inc. |WEB Address: www.autodesk.com
 90
      129
 91
        1
280
     0
281
     0
  0
CLASS
  1
AEC_AECDBDISPREPCOLUMNGRIDPLAN100
  2
AecDbDispRepColumnGridPlan100
  3
AecArchDACHBase50|Product Desc: Autodesk Architectural Desktop 2007 |Company: Autodesk,Inc. |WEB Address: www.autodesk.com
 90
      129
 91
        1
280
     0
281
     0
  0
CLASS
  1
AEC_AECDBDISPREPCOLUMNGRIDPLAN50
  2
AecDbDispRepColumnGridPlan50
  3
AecArchDACHBase50|Product Desc: Autodesk Architectural Desktop 2007 |Company: Autodesk,Inc. |WEB Address: www.autodesk.com
 90
      129
 91
        1
280
     0
281
     0
  0
CLASS
  1
AEC_DISP_REP_COLUMN_GRID_RCP
  2
AecDbDispRepColumnGridRcp
  3
AecStructureBase50|Product Desc: Autodesk Architectural Desktop 2007 |Company: Autodesk,Inc. |WEB Address: www.autodesk.com
 90
      129
 91
        1
280
     0
281
     0
  0
CLASS
  1
AEC_DISP_REP_CURTAIN_WALL_LAYOUT_MODEL
  2
AecDbDispRepCurtainWallLayoutModel
  3
AecArchBase50|Product Desc: Autodesk Architectural Desktop 2007 |Company: Autodesk,Inc. |WEB Address: www.autodesk.com
 90
      129
 91
        1
280
     0
281
     0
  0
CLASS
  1
AEC_DISP_REP_CURTAIN_WALL_LAYOUT_PLAN
  2
AecDbDispRepCurtainWallLayoutPlan
  3
AecArchBase50|Product Desc: Autodesk Architectural Desktop 2007 |Company: Autodesk,Inc. |WEB Address: www.autodesk.com
 90
      129
 91
        1
280
     0
281
     0
  0
CLASS
  1
AEC_AECDBDISPREPCURTAINWALLLAYOUTPLAN100
  2
AecDbDispRepCurtainWallLayoutPlan100
  3
AecArchDACHBase50|Product Desc: Autodesk Architectural Desktop 2007 |Company: Autodesk,Inc. |WEB Address: www.autodesk.com
 90
      129
 91
        1
280
     0
281
     0
  0
CLASS
  1
AEC_AECDBDISPREPCURTAINWALLLAYOUTPLAN50
  2
AecDbDispRepCurtainWallLayoutPlan50
  3
AecArchDACHBase50|Product Desc: Autodesk Architectural Desktop 2007 |Company: Autodesk,Inc. |WEB Address: www.autodesk.com
 90
      129
 91
        1
280
     0
281
     0
  0
CLASS
  1
AEC_AECDBDISPREPCURTAINWALLLAYOUTXSECTION
  2
AecDbDispRepCurtainWallLayoutXSection
  3
AecArchDACHBase50|Product Desc: Autodesk Architectural Desktop 2007 |Company: Autodesk,Inc. |WEB Address: www.autodesk.com
 90
      129
 91
        1
280
     0
281
     0
  0
CLASS
  1
AEC_DISP_REP_CURTAIN_WALL_UNIT_MODEL
  2
AecDbDispRepCurtainWallUnitModel
  3
AecArchBase50|Product Desc: Autodesk Architectural Desktop 2007 |Company: Autodesk,Inc. |WEB Address: www.autodesk.com
 90
      129
 91
        1
280
     0
281
     0
  0
CLASS
  1
AEC_DISP_REP_CURTAIN_WALL_UNIT_PLAN
  2
AecDbDispRepCurtainWallUnitPlan
  3
AecArchBase50|Product Desc: Autodesk Architectural Desktop 2007 |Company: Autodesk,Inc. |WEB Address: www.autodesk.com
 90
      129
 91
        1
280
     0
281
     0
  0
CLASS
  1
AEC_AECDBDISPREPCURTAINWALLUNITPLAN100
  2
AecDbDispRepCurtainWallUnitPlan100
  3
AecArchDACHBase50|Product Desc: Autodesk Architectural Desktop 2007 |Company: Autodesk,Inc. |WEB Address: www.autodesk.com
 90
      129
 91
        1
280
     0
281
     0
  0
CLASS
  1
AEC_AECDBDISPREPCURTAINWALLUNITPLAN50
  2
AecDbDispRepCurtainWallUnitPlan50
  3
AecArchDACHBase50|Product Desc: Autodesk Architectural Desktop 2007 |Company: Autodesk,Inc. |WEB Address: www.autodesk.com
 90
      129
 91
        1
280
     0
281
     0
  0
CLASS
  1
AEC_AECDBDISPREPCURTAINWALLUNITXSECTION
  2
AecDbDispRepCurtainWallUnitXSection
  3
AecArchDACHBase50|Product Desc: Autodesk Architectural Desktop 2007 |Company: Autodesk,Inc. |WEB Address: www.autodesk.com
 90
      129
 91
        1
280
     0
281
     0
  0
CLASS
  1
AEC_DB_DISP_REP_DIM_GROUP_PLAN
  2
AecDbDispRepDimGroupPlan
  3
AecArchDACHBase50|Product Desc: Autodesk Architectural Desktop 2007 |Company: Autodesk,Inc. |WEB Address: www.autodesk.com
 90
      129
 91
        1
280
     0
281
     0
  0
CLASS
  1
AEC_DB_DISP_REP_DIM_GROUP_PLAN100
  2
AecDbDispRepDimGroupPlan100
  3
AecArchDACHBase50|Product Desc: Autodesk Architectural Desktop 2007 |Company: Autodesk,Inc. |WEB Address: www.autodesk.com
 90
      129
 91
        1
280
     0
281
     0
  0
CLASS
  1
AEC_DB_DISP_REP_DIM_GROUP_PLAN50
  2
AecDbDispRepDimGroupPlan50
  3
AecArchDACHBase50|Product Desc: Autodesk Architectural Desktop 2007 |Company: Autodesk,Inc. |WEB Address: www.autodesk.com
 90
      129
 91
        1
280
     0
281
     0
  0
CLASS
  1
AEC_DISP_REP_DOOR_ELEV
  2
AecDbDispRepDoorElev
  3
AecArchBase50|Product Desc: Autodesk Architectural Desktop 2007 |Company: Autodesk,Inc. |WEB Address: www.autodesk.com
 90
      129
 91
        1
280
     0
281
     0
  0
CLASS
  1
AEC_DISP_REP_DOOR_MODEL
  2
AecDbDispRepDoorModel
  3
AecArchBase50|Product Desc: Autodesk Architectural Desktop 2007 |Company: Autodesk,Inc. |WEB Address: www.autodesk.com
 90
      129
 91
        1
280
     0
281
     0
  0
CLASS
  1
AEC_DISP_REP_DOOR_NOMINAL
  2
AecDbDispRepDoorNominal
  3
AecArchBase50|Product Desc: Autodesk Architectural Desktop 2007 |Company: Autodesk,Inc. |WEB Address: www.autodesk.com
 90
      129
 91
        1
280
     0
281
     0
  0
CLASS
  1
AEC_DISP_REP_DOOR_PLAN
  2
AecDbDispRepDoorPlan
  3
AecArchBase50|Product Desc: Autodesk Architectural Desktop 2007 |Company: Autodesk,Inc. |WEB Address: www.autodesk.com
 90
      129
 91
        1
280
     0
281
     0
  0
CLASS
  1
AEC_DISP_REP_DOOR_PLAN_50
  2
AecDbDispRepDoorPlan50
  3
AecArchDACHBase50|Product Desc: Autodesk Architectural Desktop 2007 |Company: Autodesk,Inc. |WEB Address: www.autodesk.com
 90
      129
 91
        1
280
     0
281
     0
  0
CLASS
  1
AEC_DISP_REP_DOOR_PLAN_HEKTO
  2
AecDbDispRepDoorPlanHekto
  3
AecArchDACHBase50|Product Desc: Autodesk Architectural Desktop 2007 |Company: Autodesk,Inc. |WEB Address: www.autodesk.com
 90
      129
 91
        1
280
     0
281
     0
  0
CLASS
  1
AEC_DISP_REP_DOOR_RCP
  2
AecDbDispRepDoorRcp
  3
AecArchBase50|Product Desc: Autodesk Architectural Desktop 2007 |Company: Autodesk,Inc. |WEB Address: www.autodesk.com
 90
      129
 91
        1
280
     0
281
     0
  0
CLASS
  1
AEC_DISP_REP_DOOR_THRESHOLD_PLAN
  2
AecDbDispRepDoorThresholdPlan
  3
AecArchBase50|Product Desc: Autodesk Architectural Desktop 2007 |Company: Autodesk,Inc. |WEB Address: www.autodesk.com
 90
      129
 91
        1
280
     0
281
     0
  0
CLASS
  1
AEC_DISP_REP_DOOR_THRESHOLD_SYMBOL_PLAN
  2
AecDbDispRepDoorThresholdSymbolPlan
  3
AecArchDACHBase50|Product Desc: Autodesk Architectural Desktop 2007 |Company: Autodesk,Inc. |WEB Address: www.autodesk.com
 90
      129
 91
        1
280
     0
281
     0
  0
CLASS
  1
AEC_AECDBDISPREPDOORXSECTION
  2
AecDbDispRepDoorXSection
  3
AecArchDACHBase50|Product Desc: Autodesk Architectural Desktop 2007 |Company: Autodesk,Inc. |WEB Address: www.autodesk.com
 90
      129
 91
        1
280
     0
281
     0
  0
CLASS
  1
AEC_DISP_REP_ENT_REF
  2
AecDbDispRepEntRef
  3
AecBase50|Product Desc: Autodesk Architectural Desktop 2007 |Company: Autodesk,Inc. |WEB Address: www.autodesk.com
 90
      129
 91
        1
280
     0
281
     0
  0
CLASS
  1
AEC_DISP_REP_LAYOUT_CURVE
  2
AecDbDispRepLayoutCurve
  3
AecBase50|Product Desc: Autodesk Architectural Desktop 2007 |Company: Autodesk,Inc. |WEB Address: www.autodesk.com
 90
      129
 91
        1
280
     0
281
     0
  0
CLASS
  1
AEC_DISP_REP_LAYOUT_GRID2D
  2
AecDbDispRepLayoutGrid2d
  3
AecBase50|Product Desc: Autodesk Architectural Desktop 2007 |Company: Autodesk,Inc. |WEB Address: www.autodesk.com
 90
      129
 91
        1
280
     0
281
     0
  0
CLASS
  1
AEC_DISP_REP_LAYOUT_GRID3D
  2
AecDbDispRepLayoutGrid3d
  3
AecBase50|Product Desc: Autodesk Architectural Desktop 2007 |Company: Autodesk,Inc. |WEB Address: www.autodesk.com
 90
      129
 91
        1
280
     0
281
     0
  0
CLASS
  1
AEC_DISP_REP_MASKBLOCK_REF
  2
AecDbDispRepMaskBlockRef
  3
AecBase50|Product Desc: Autodesk Architectural Desktop 2007 |Company: Autodesk,Inc. |WEB Address: www.autodesk.com
 90
      129
 91
        1
280
     0
281
     0
  0
CLASS
  1
AEC_DISP_REP_MASKBLOCK_REF_RCP
  2
AecDbDispRepMaskBlockRefRcp
  3
AecArchBase50|Product Desc: Autodesk Architectural Desktop 2007 |Company: Autodesk,Inc. |WEB Address: www.autodesk.com
 90
      129
 91
        1
280
     0
281
     0
  0
CLASS
  1
AEC_DISP_REP_MASS_ELEM_MODEL
  2
AecDbDispRepMassElemModel
  3
AecBaseEx50|Product Desc: Autodesk Architectural Desktop 2007 |Company: Autodesk,Inc. |WEB Address: www.autodesk.com
 90
      129
 91
        1
280
     0
281
     0
  0
CLASS
  1
AEC_DISPREPAECDBDISPREPMASSELEMPLAN100
  2
AecDbDispRepMassElemPlan100
  3
AecArchDACHBase50|Product Desc: Autodesk Architectural Desktop 2007 |Company: Autodesk,Inc. |WEB Address: www.autodesk.com
 90
      129
 91
        1
280
     0
281
     0
  0
CLASS
  1
AEC_DISPREPAECDBDISPREPMASSELEMPLAN50
  2
AecDbDispRepMassElemPlan50
  3
AecArchDACHBase50|Product Desc: Autodesk Architectural Desktop 2007 |Company: Autodesk,Inc. |WEB Address: www.autodesk.com
 90
      129
 91
        1
280
     0
281
     0
  0
CLASS
  1
AEC_DISP_REP_MASS_ELEM_RCP
  2
AecDbDispRepMassElemRcp
  3
AecArchBase50|Product Desc: Autodesk Architectural Desktop 2007 |Company: Autodesk,Inc. |WEB Address: www.autodesk.com
 90
      129
 91
        1
280
     0
281
     0
  0
CLASS
  1
AEC_DISP_REP_MASS_ELEM_SCHEM
  2
AecDbDispRepMassElemSchem
  3
AecBaseEx50|Product Desc: Autodesk Architectural Desktop 2007 |Company: Autodesk,Inc. |WEB Address: www.autodesk.com
 90
      129
 91
        1
280
     0
281
     0
  0
CLASS
  1
AEC_AECDBDISPREPMASSELEMXSECTION
  2
AecDbDispRepMassElemXSection
  3
AecArchDACHBase50|Product Desc: Autodesk Architectural Desktop 2007 |Company: Autodesk,Inc. |WEB Address: www.autodesk.com
 90
      129
 91
        1
280
     0
281
     0
  0
CLASS
  1
AEC_DISP_REP_MASS_GROUP_MODEL
  2
AecDbDispRepMassGroupModel
  3
AecBaseEx50|Product Desc: Autodesk Architectural Desktop 2007 |Company: Autodesk,Inc. |WEB Address: www.autodesk.com
 90
      129
 91
        1
280
     0
281
     0
  0
CLASS
  1
AEC_DISP_REP_MASS_GROUP_PLAN
  2
AecDbDispRepMassGroupPlan
  3
AecBaseEx50|Product Desc: Autodesk Architectural Desktop 2007 |Company: Autodesk,Inc. |WEB Address: www.autodesk.com
 90
      129
 91
        1
280
     0
281
     0
  0
CLASS
  1
AEC_DISPREPAECDBDISPREPMASSGROUPPLAN100
  2
AecDbDispRepMassGroupPlan100
  3
AecArchDACHBase50|Product Desc: Autodesk Architectural Desktop 2007 |Company: Autodesk,Inc. |WEB Address: www.autodesk.com
 90
      129
 91
        1
280
     0
281
     0
  0
CLASS
  1
AEC_DISPREPAECDBDISPREPMASSGROUPPLAN50
  2
AecDbDispRepMassGroupPlan50
  3
AecArchDACHBase50|Product Desc: Autodesk Architectural Desktop 2007 |Company: Autodesk,Inc. |WEB Address: www.autodesk.com
 90
      129
 91
        1
280
     0
281
     0
  0
CLASS
  1
AEC_DISP_REP_MASS_GROUP_RCP
  2
AecDbDispRepMassGroupRcp
  3
AecArchBase50|Product Desc: Autodesk Architectural Desktop 2007 |Company: Autodesk,Inc. |WEB Address: www.autodesk.com
 90
      129
 91
        1
280
     0
281
     0
  0
CLASS
  1
AEC_DISPREPMASSGROUPXSECTION
  2
AecDbDispRepMassGroupXSection
  3
AecArchDACHBase50|Product Desc: Autodesk Architectural Desktop 2007 |Company: Autodesk,Inc. |WEB Address: www.autodesk.com
 90
      129
 91
        1
280
     0
281
     0
  0
CLASS
  1
AEC_AECDBDISPREPMEMBERXSECTION
  2
AecDbDispRepMemberXSection
  3
AecArchDACHBase50|Product Desc: Autodesk Architectural Desktop 2007 |Company: Autodesk,Inc. |WEB Address: www.autodesk.com
 90
      129
 91
        1
280
     0
281
     0
  0
CLASS
  1
AEC_DISP_REP_MVBLOCK_REF
  2
AecDbDispRepMvBlockRef
  3
AecBase50|Product Desc: Autodesk Architectural Desktop 2007 |Company: Autodesk,Inc. |WEB Address: www.autodesk.com
 90
      129
 91
        1
280
     0
281
     0
  0
CLASS
  1
AEC_DISP_REP_MVBLOCK_REF_MODEL
  2
AecDbDispRepMvBlockRefModel
  3
AecBase50|Product Desc: Autodesk Architectural Desktop 2007 |Company: Autodesk,Inc. |WEB Address: www.autodesk.com
 90
      129
 91
        1
280
     0
281
     0
  0
CLASS
  1
AEC_AECDBDISPREPMVBLOCKREFPLAN100
  2
AecDbDispRepMvBlockRefPlan100
  3
AecArchDACHBase50|Product Desc: Autodesk Architectural Desktop 2007 |Company: Autodesk,Inc. |WEB Address: www.autodesk.com
 90
      129
 91
        1
280
     0
281
     0
  0
CLASS
  1
AEC_AECDBDISPREPMVBLOCKREFPLAN50
  2
AecDbDispRepMvBlockRefPlan50
  3
AecArchDACHBase50|Product Desc: Autodesk Architectural Desktop 2007 |Company: Autodesk,Inc. |WEB Address: www.autodesk.com
 90
      129
 91
        1
280
     0
281
     0
  0
CLASS
  1
AEC_DISP_REP_MVBLOCK_REF_RCP
  2
AecDbDispRepMvBlockRefRcp
  3
AecArchBase50|Product Desc: Autodesk Architectural Desktop 2007 |Company: Autodesk,Inc. |WEB Address: www.autodesk.com
 90
      129
 91
        1
280
     0
281
     0
  0
CLASS
  1
AEC_DISP_REP_OPENING
  2
AecDbDispRepOpening
  3
AecArchBase50|Product Desc: Autodesk Architectural Desktop 2007 |Company: Autodesk,Inc. |WEB Address: www.autodesk.com
 90
      129
 91
        1
280
     0
281
     0
  0
CLASS
  1
AEC_DISP_REP_OPENING_MODEL
  2
AecDbDispRepOpeningModel
  3
AecArchBase50|Product Desc: Autodesk Architectural Desktop 2007 |Company: Autodesk,Inc. |WEB Address: www.autodesk.com
 90
      129
 91
        1
280
     0
281
     0
  0
CLASS
  1
AEC_DISPREPAECDBDISPREPOPENINGPLAN100
  2
AecDbDispRepOpeningPlan100
  3
AecArchDACHBase50|Product Desc: Autodesk Architectural Desktop 2007 |Company: Autodesk,Inc. |WEB Address: www.autodesk.com
 90
      129
 91
        1
280
     0
281
     0
  0
CLASS
  1
AEC_DISPREPAECDBDISPREPOPENINGPLAN50
  2
AecDbDispRepOpeningPlan50
  3
AecArchDACHBase50|Product Desc: Autodesk Architectural Desktop 2007 |Company: Autodesk,Inc. |WEB Address: www.autodesk.com
 90
      129
 91
        1
280
     0
281
     0
  0
CLASS
  1
AEC_DISPREPAECDBDISPREPOPENINGPLANREFLECTED
  2
AecDbDispRepOpeningPlanReflected
  3
AecArchDACHBase50|Product Desc: Autodesk Architectural Desktop 2007 |Company: Autodesk,Inc. |WEB Address: www.autodesk.com
 90
      129
 91
        1
280
     0
281
     0
  0
CLASS
  1
AEC_DISPREPAECDBDISPREPOPENINGSILLPLAN
  2
AecDbDispRepOpeningSillPlan
  3
AecArchDACHBase50|Product Desc: Autodesk Architectural Desktop 2007 |Company: Autodesk,Inc. |WEB Address: www.autodesk.com
 90
      129
 91
        1
280
     0
281
     0
  0
CLASS
  1
AEC_DISP_REP_POLYGON_MODEL
  2
AecDbDispRepPolygonModel
  3
AecBaseEx50|Product Desc: Autodesk Architectural Desktop 2007 |Company: Autodesk,Inc. |WEB Address: www.autodesk.com
 90
      129
 91
        1
280
     0
281
     0
  0
CLASS
  1
AEC_DISP_REP_POLYGON_TRUECOLOUR
  2
AecDbDispRepPolygonTrueColour
  3
AecBaseEx50|Product Desc: Autodesk Architectural Desktop 2007 |Company: Autodesk,Inc. |WEB Address: www.autodesk.com
 90
      129
 91
        1
280
     0
281
     0
  0
CLASS
  1
AEC_DISP_REP_RAILING_MODEL
  2
AecDbDispRepRailingModel
  3
AecArchBase50|Product Desc: Autodesk Architectural Desktop 2007 |Company: Autodesk,Inc. |WEB Address: www.autodesk.com
 90
      129
 91
        1
280
     0
281
     0
  0
CLASS
  1
AEC_DISP_REP_RAILING_PLAN
  2
AecDbDispRepRailingPlan
  3
AecArchBase50|Product Desc: Autodesk Architectural Desktop 2007 |Company: Autodesk,Inc. |WEB Address: www.autodesk.com
 90
      129
 91
        1
280
     0
281
     0
  0
CLASS
  1
AEC_DISP_REP_RAILING_PLAN_100
  2
AecDbDispRepRailingPlan100
  3
AecArchDACHBase50|Product Desc: Autodesk Architectural Desktop 2007 |Company: Autodesk,Inc. |WEB Address: www.autodesk.com
 90
      129
 91
        1
280
     0
281
     0
  0
CLASS
  1
AEC_DISP_REP_RAILING_PLAN_50
  2
AecDbDispRepRailingPlan50
  3
AecArchDACHBase50|Product Desc: Autodesk Architectural Desktop 2007 |Company: Autodesk,Inc. |WEB Address: www.autodesk.com
 90
      129
 91
        1
280
     0
281
     0
  0
CLASS
  1
AEC_DISPREPRAILINGXSECTION
  2
AecDbDispRepRailingXSection
  3
AecArchDACHBase50|Product Desc: Autodesk Architectural Desktop 2007 |Company: Autodesk,Inc. |WEB Address: www.autodesk.com
 90
      129
 91
        1
280
     0
281
     0
  0
CLASS
  1
AEC_DISP_REP_ROOF_MODEL
  2
AecDbDispRepRoofModel
  3
AecArchBase50|Product Desc: Autodesk Architectural Desktop 2007 |Company: Autodesk,Inc. |WEB Address: www.autodesk.com
 90
      129
 91
        1
280
     0
281
     0
  0
CLASS
  1
AEC_DISP_REP_ROOF_PLAN
  2
AecDbDispRepRoofPlan
  3
AecArchBase50|Product Desc: Autodesk Architectural Desktop 2007 |Company: Autodesk,Inc. |WEB Address: www.autodesk.com
 90
      129
 91
        1
280
     0
281
     0
  0
CLASS
  1
AEC_AECDBDISPREPROOFPLAN100
  2
AecDbDispRepRoofPlan100
  3
AecArchDACHBase50|Product Desc: Autodesk Architectural Desktop 2007 |Company: Autodesk,Inc. |WEB Address: www.autodesk.com
 90
      129
 91
        1
280
     0
281
     0
  0
CLASS
  1
AEC_AECDBDISPREPROOFPLAN50
  2
AecDbDispRepRoofPlan50
  3
AecArchDACHBase50|Product Desc: Autodesk Architectural Desktop 2007 |Company: Autodesk,Inc. |WEB Address: www.autodesk.com
 90
      129
 91
        1
280
     0
281
     0
  0
CLASS
  1
AEC_DISP_REP_ROOF_RCP
  2
AecDbDispRepRoofRcp
  3
AecArchBase50|Product Desc: Autodesk Architectural Desktop 2007 |Company: Autodesk,Inc. |WEB Address: www.autodesk.com
 90
      129
 91
        1
280
     0
281
     0
  0
CLASS
  1
AEC_DISP_REP_ROOFSLAB_MODEL
  2
AecDbDispRepRoofSlabModel
  3
AecArchBase50|Product Desc: Autodesk Architectural Desktop 2007 |Company: Autodesk,Inc. |WEB Address: www.autodesk.com
 90
      129
 91
        1
280
     0
281
     0
  0
CLASS
  1
AEC_DISP_REP_ROOFSLAB_PLAN
  2
AecDbDispRepRoofSlabPlan
  3
AecArchBase50|Product Desc: Autodesk Architectural Desktop 2007 |Company: Autodesk,Inc. |WEB Address: www.autodesk.com
 90
      129
 91
        1
280
     0
281
     0
  0
CLASS
  1
AEC_AECDBDISPREPROOFSLABPLAN100
  2
AecDbDispRepRoofSlabPlan100
  3
AecArchDACHBase50|Product Desc: Autodesk Architectural Desktop 2007 |Company: Autodesk,Inc. |WEB Address: www.autodesk.com
 90
      129
 91
        1
280
     0
281
     0
  0
CLASS
  1
AEC_AECDBDISPREPROOFSLABPLAN50
  2
AecDbDispRepRoofSlabPlan50
  3
AecArchDACHBase50|Product Desc: Autodesk Architectural Desktop 2007 |Company: Autodesk,Inc. |WEB Address: www.autodesk.com
 90
      129
 91
        1
280
     0
281
     0
  0
CLASS
  1
AEC_AECDBDISPREPROOFSLABXSECTION
  2
AecDbDispRepRoofSlabXSection
  3
AecArchDACHBase50|Product Desc: Autodesk Architectural Desktop 2007 |Company: Autodesk,Inc. |WEB Address: www.autodesk.com
 90
      129
 91
        1
280
     0
281
     0
  0
CLASS
  1
AEC_AECDBDISPREPROOFXSECTION
  2
AecDbDispRepRoofXSection
  3
AecArchDACHBase50|Product Desc: Autodesk Architectural Desktop 2007 |Company: Autodesk,Inc. |WEB Address: www.autodesk.com
 90
      129
 91
        1
280
     0
281
     0
  0
CLASS
  1
AEC_DISP_REP_SCHEDULE_TABLE
  2
AecDbDispRepScheduleTable
  3
AecSchedule50|Product Desc: Autodesk Architectural Desktop 2007 |Company: Autodesk,Inc. |WEB Address: www.autodesk.com
 90
      129
 91
        1
280
     0
281
     0
  0
CLASS
  1
AEC_DISP_REP_SLAB_MODEL
  2
AecDbDispRepSlabModel
  3
AecArchBase50|Product Desc: Autodesk Architectural Desktop 2007 |Company: Autodesk,Inc. |WEB Address: www.autodesk.com
 90
      129
 91
        1
280
     0
281
     0
  0
CLASS
  1
AEC_DISP_REP_SLAB_PLAN
  2
AecDbDispRepSlabPlan
  3
AecArchBase50|Product Desc: Autodesk Architectural Desktop 2007 |Company: Autodesk,Inc. |WEB Address: www.autodesk.com
 90
      129
 91
        1
280
     0
281
     0
  0
CLASS
  1
AEC_AECDBDISPREPSLABPLAN100
  2
AecDbDispRepSlabPlan100
  3
AecArchDACHBase50|Product Desc: Autodesk Architectural Desktop 2007 |Company: Autodesk,Inc. |WEB Address: www.autodesk.com
 90
      129
 91
        1
280
     0
281
     0
  0
CLASS
  1
AEC_AECDBDISPREPSLABPLAN50
  2
AecDbDispRepSlabPlan50
  3
AecArchDACHBase50|Product Desc: Autodesk Architectural Desktop 2007 |Company: Autodesk,Inc. |WEB Address: www.autodesk.com
 90
      129
 91
        1
280
     0
281
     0
  0
CLASS
  1
AEC_AECDBDISPREPSLABXSECTION
  2
AecDbDispRepSlabXSection
  3
AecArchDACHBase50|Product Desc: Autodesk Architectural Desktop 2007 |Company: Autodesk,Inc. |WEB Address: www.autodesk.com
 90
      129
 91
        1
280
     0
281
     0
  0
CLASS
  1
AEC_DISP_REP_SLICE
  2
AecDbDispRepSlice
  3
AecBase50|Product Desc: Autodesk Architectural Desktop 2007 |Company: Autodesk,Inc. |WEB Address: www.autodesk.com
 90
      129
 91
        1
280
     0
281
     0
  0
CLASS
  1
AEC_DISP_REP_SPACE_BOUNDARY_DIAGRAM
  2
AecDbDispRepSpaceBoundaryDgrm
  3
AecArchBase50|Product Desc: Autodesk Architectural Desktop 2007 |Company: Autodesk,Inc. |WEB Address: www.autodesk.com
 90
      129
 91
        0
280
     0
281
     0
  0
CLASS
  1
AEC_DISP_REP_SPACE_BOUNDARY_MODEL
  2
AecDbDispRepSpaceBoundaryModel
  3
AecArchBase50|Product Desc: Autodesk Architectural Desktop 2007 |Company: Autodesk,Inc. |WEB Address: www.autodesk.com
 90
      129
 91
        0
280
     0
281
     0
  0
CLASS
  1
AEC_DISP_REP_SPACE_BOUNDARY_PLAN
  2
AecDbDispRepSpaceBoundaryPlan
  3
AecArchBase50|Product Desc: Autodesk Architectural Desktop 2007 |Company: Autodesk,Inc. |WEB Address: www.autodesk.com
 90
      129
 91
        0
280
     0
281
     0
  0
CLASS
  1
AEC_AECDBDISPREPSPACEBOUNDARYPLAN100
  2
AecDbDispRepSpaceBoundaryPlan100
  3
AecArchDACHBase50|Product Desc: Autodesk Architectural Desktop 2007 |Company: Autodesk,Inc. |WEB Address: www.autodesk.com
 90
      129
 91
        0
280
     0
281
     0
  0
CLASS
  1
AEC_AECDBDISPREPSPACEBOUNDARYPLAN50
  2
AecDbDispRepSpaceBoundaryPlan50
  3
AecArchDACHBase50|Product Desc: Autodesk Architectural Desktop 2007 |Company: Autodesk,Inc. |WEB Address: www.autodesk.com
 90
      129
 91
        0
280
     0
281
     0
  0
CLASS
  1
AEC_DISP_REP_SPACE_BOUNDARY_SCHEM
  2
AecDbDispRepSpaceBoundarySketch
  3
AecArchBase50|Product Desc: Autodesk Architectural Desktop 2007 |Company: Autodesk,Inc. |WEB Address: www.autodesk.com
 90
      129
 91
        0
280
     0
281
     0
  0
CLASS
  1
AEC_AECDBDISPREPSPACEBOUNDARYXSECTION
  2
AecDbDispRepSpaceBoundaryXSection
  3
AecArchDACHBase50|Product Desc: Autodesk Architectural Desktop 2007 |Company: Autodesk,Inc. |WEB Address: www.autodesk.com
 90
      129
 91
        0
280
     0
281
     0
  0
CLASS
  1
AEC_DISP_REP_SPACE_MODEL
  2
AecDbDispRepSpaceModel
  3
AecArchBase50|Product Desc: Autodesk Architectural Desktop 2007 |Company: Autodesk,Inc. |WEB Address: www.autodesk.com
 90
      129
 91
        1
280
     0
281
     0
  0
CLASS
  1
AEC_DISP_REP_SPACE_PLAN
  2
AecDbDispRepSpacePlan
  3
AecArchBase50|Product Desc: Autodesk Architectural Desktop 2007 |Company: Autodesk,Inc. |WEB Address: www.autodesk.com
 90
      129
 91
        1
280
     0
281
     0
  0
CLASS
  1
AEC_AECDBDISPREPSPACEPLAN100
  2
AecDbDispRepSpacePlan100
  3
AecArchDACHBase50|Product Desc: Autodesk Architectural Desktop 2007 |Company: Autodesk,Inc. |WEB Address: www.autodesk.com
 90
      129
 91
        1
280
     0
281
     0
  0
CLASS
  1
AEC_AECDBDISPREPSPACEPLAN50
  2
AecDbDispRepSpacePlan50
  3
AecArchDACHBase50|Product Desc: Autodesk Architectural Desktop 2007 |Company: Autodesk,Inc. |WEB Address: www.autodesk.com
 90
      129
 91
        1
280
     0
281
     0
  0
CLASS
  1
AEC_DISP_REP_SPACE_RCP
  2
AecDbDispRepSpaceRcp
  3
AecArchBase50|Product Desc: Autodesk Architectural Desktop 2007 |Company: Autodesk,Inc. |WEB Address: www.autodesk.com
 90
      129
 91
        1
280
     0
281
     0
  0
CLASS
  1
AEC_DISP_REP_SPACE_VOLUME
  2
AecDbDispRepSpaceVolume
  3
AecArchBase50|Product Desc: Autodesk Architectural Desktop 2007 |Company: Autodesk,Inc. |WEB Address: www.autodesk.com
 90
      129
 91
        1
280
     0
281
     0
  0
CLASS
  1
AEC_AECDBDISPREPSPACEXSECTION
  2
AecDbDispRepSpaceXSection
  3
AecArchDACHBase50|Product Desc: Autodesk Architectural Desktop 2007 |Company: Autodesk,Inc. |WEB Address: www.autodesk.com
 90
      129
 91
        1
280
     0
281
     0
  0
CLASS
  1
AEC_DISP_REP_STAIR_MODEL
  2
AecDbDispRepStairModel
  3
AecArchBase50|Product Desc: Autodesk Architectural Desktop 2007 |Company: Autodesk,Inc. |WEB Address: www.autodesk.com
 90
      129
 91
        1
280
     0
281
     0
  0
CLASS
  1
AEC_DISP_REP_STAIR_PLAN
  2
AecDbDispRepStairPlan
  3
AecArchBase50|Product Desc: Autodesk Architectural Desktop 2007 |Company: Autodesk,Inc. |WEB Address: www.autodesk.com
 90
      129
 91
        1
280
     0
281
     0
  0
CLASS
  1
AEC_DISP_REP_STAIR_PLAN_100
  2
AecDbDispRepStairPlan100
  3
AecArchDACHBase50|Product Desc: Autodesk Architectural Desktop 2007 |Company: Autodesk,Inc. |WEB Address: www.autodesk.com
 90
      129
 91
        1
280
     0
281
     0
  0
CLASS
  1
AEC_DISP_REP_STAIR_PLAN_50
  2
AecDbDispRepStairPlan50
  3
AecArchDACHBase50|Product Desc: Autodesk Architectural Desktop 2007 |Company: Autodesk,Inc. |WEB Address: www.autodesk.com
 90
      129
 91
        1
280
     0
281
     0
  0
CLASS
  1
AEC_DISP_REP_STAIR_RCP
  2
AecDbDispRepStairRcp
  3
AecArchBase50|Product Desc: Autodesk Architectural Desktop 2007 |Company: Autodesk,Inc. |WEB Address: www.autodesk.com
 90
      129
 91
        1
280
     0
281
     0
  0
CLASS
  1
AEC_DISPREPSTAIRXSECTION
  2
AecDbDispRepStairXSection
  3
AecArchDACHBase50|Product Desc: Autodesk Architectural Desktop 2007 |Company: Autodesk,Inc. |WEB Address: www.autodesk.com
 90
      129
 91
        1
280
     0
281
     0
  0
CLASS
  1
AEC_DISP_REP_WALL_GRAPH
  2
AecDbDispRepWallGraph
  3
AecArchBase50|Product Desc: Autodesk Architectural Desktop 2007 |Company: Autodesk,Inc. |WEB Address: www.autodesk.com
 90
      129
 91
        1
280
     0
281
     0
  0
CLASS
  1
AEC_DISP_REP_WALL_MODEL
  2
AecDbDispRepWallModel
  3
AecArchBase50|Product Desc: Autodesk Architectural Desktop 2007 |Company: Autodesk,Inc. |WEB Address: www.autodesk.com
 90
      129
 91
        1
280
     0
281
     0
  0
CLASS
  1
AEC_DISP_REP_WALL_PLAN
  2
AecDbDispRepWallPlan
  3
AecArchBase50|Product Desc: Autodesk Architectural Desktop 2007 |Company: Autodesk,Inc. |WEB Address: www.autodesk.com
 90
      129
 91
        1
280
     0
281
     0
  0
CLASS
  1
AEC_AECDBDISPREPWALLPLAN100
  2
AecDbDispRepWallPlan100
  3
AecArchDACHBase50|Product Desc: Autodesk Architectural Desktop 2007 |Company: Autodesk,Inc. |WEB Address: www.autodesk.com
 90
      129
 91
        1
280
     0
281
     0
  0
CLASS
  1
AEC_AECDBDISPREPWALLPLAN50
  2
AecDbDispRepWallPlan50
  3
AecArchDACHBase50|Product Desc: Autodesk Architectural Desktop 2007 |Company: Autodesk,Inc. |WEB Address: www.autodesk.com
 90
      129
 91
        1
280
     0
281
     0
  0
CLASS
  1
AEC_DISP_REP_WALL_RCP
  2
AecDbDispRepWallRcp
  3
AecArchBase50|Product Desc: Autodesk Architectural Desktop 2007 |Company: Autodesk,Inc. |WEB Address: www.autodesk.com
 90
      129
 91
        1
280
     0
281
     0
  0
CLASS
  1
AEC_DISP_REP_WALL_SCHEM
  2
AecDbDispRepWallSchem
  3
AecArchBase50|Product Desc: Autodesk Architectural Desktop 2007 |Company: Autodesk,Inc. |WEB Address: www.autodesk.com
 90
      129
 91
        1
280
     0
281
     0
  0
CLASS
  1
AEC_DISPREPWALLXSECTION
  2
AecDbDispRepWallXSection
  3
AecArchDACHBase50|Product Desc: Autodesk Architectural Desktop 2007 |Company: Autodesk,Inc. |WEB Address: www.autodesk.com
 90
      129
 91
        1
280
     0
281
     0
  0
CLASS
  1
AEC_DISP_REP_WINDOW_ASSEMBLY_MODEL
  2
AecDbDispRepWindowAssemblyModel
  3
AecArchBase50|Product Desc: Autodesk Architectural Desktop 2007 |Company: Autodesk,Inc. |WEB Address: www.autodesk.com
 90
      129
 91
        1
280
     0
281
     0
  0
CLASS
  1
AEC_DISP_REP_WINDOW_ASSEMBLY_PLAN
  2
AecDbDispRepWindowAssemblyPlan
  3
AecArchBase50|Product Desc: Autodesk Architectural Desktop 2007 |Company: Autodesk,Inc. |WEB Address: www.autodesk.com
 90
      129
 91
        1
280
     0
281
     0
  0
CLASS
  1
AEC_AECDBDISPREPWINDOWASSEMBLYPLAN100
  2
AecDbDispRepWindowAssemblyPlan100
  3
AecArchDACHBase50|Product Desc: Autodesk Architectural Desktop 2007 |Company: Autodesk,Inc. |WEB Address: www.autodesk.com
 90
      129
 91
        1
280
     0
281
     0
  0
CLASS
  1
AEC_AECDBDISPREPWINDOWASSEMBLYPLAN50
  2
AecDbDispRepWindowAssemblyPlan50
  3
AecArchDACHBase50|Product Desc: Autodesk Architectural Desktop 2007 |Company: Autodesk,Inc. |WEB Address: www.autodesk.com
 90
      129
 91
        1
280
     0
281
     0
  0
CLASS
  1
AEC_AECDBDISPREPWINDOWASSEMBLYXSECTION
  2
AecDbDispRepWindowAssemblyXSection
  3
AecArchDACHBase50|Product Desc: Autodesk Architectural Desktop 2007 |Company: Autodesk,Inc. |WEB Address: www.autodesk.com
 90
      129
 91
        1
280
     0
281
     0
  0
CLASS
  1
AEC_DISP_REP_WINDOW_ELEV
  2
AecDbDispRepWindowElev
  3
AecArchBase50|Product Desc: Autodesk Architectural Desktop 2007 |Company: Autodesk,Inc. |WEB Address: www.autodesk.com
 90
      129
 91
        1
280
     0
281
     0
  0
CLASS
  1
AEC_DISP_REP_WINDOW_MODEL
  2
AecDbDispRepWindowModel
  3
AecArchBase50|Product Desc: Autodesk Architectural Desktop 2007 |Company: Autodesk,Inc. |WEB Address: www.autodesk.com
 90
      129
 91
        1
280
     0
281
     0
  0
CLASS
  1
AEC_DISP_REP_WINDOW_NOMINAL
  2
AecDbDispRepWindowNominal
  3
AecArchBase50|Product Desc: Autodesk Architectural Desktop 2007 |Company: Autodesk,Inc. |WEB Address: www.autodesk.com
 90
      129
 91
        1
280
     0
281
     0
  0
CLASS
  1
AEC_DISP_REP_WINDOW_PLAN
  2
AecDbDispRepWindowPlan
  3
AecArchBase50|Product Desc: Autodesk Architectural Desktop 2007 |Company: Autodesk,Inc. |WEB Address: www.autodesk.com
 90
      129
 91
        1
280
     0
281
     0
  0
CLASS
  1
AEC_DISP_REP_WINDOW_PLAN_100
  2
AecDbDispRepWindowPlan100
  3
AecArchDACHBase50|Product Desc: Autodesk Architectural Desktop 2007 |Company: Autodesk,Inc. |WEB Address: www.autodesk.com
 90
      129
 91
        1
280
     0
281
     0
  0
CLASS
  1
AEC_DISP_REP_WINDOW_PLAN_50
  2
AecDbDispRepWindowPlan50
  3
AecArchDACHBase50|Product Desc: Autodesk Architectural Desktop 2007 |Company: Autodesk,Inc. |WEB Address: www.autodesk.com
 90
      129
 91
        1
280
     0
281
     0
  0
CLASS
  1
AEC_DISP_REP_WINDOW_RCP
  2
AecDbDispRepWindowRcp
  3
AecArchBase50|Product Desc: Autodesk Architectural Desktop 2007 |Company: Autodesk,Inc. |WEB Address: www.autodesk.com
 90
      129
 91
        1
280
     0
281
     0
  0
CLASS
  1
AEC_DISP_REP_WINDOW_SILL_PLAN
  2
AecDbDispRepWindowSillPlan
  3
AecArchBase50|Product Desc: Autodesk Architectural Desktop 2007 |Company: Autodesk,Inc. |WEB Address: www.autodesk.com
 90
      129
 91
        1
280
     0
281
     0
  0
CLASS
  1
AEC_AECDBDISPREPWINDOWXSECTION
  2
AecDbDispRepWindowXSection
  3
AecArchDACHBase50|Product Desc: Autodesk Architectural Desktop 2007 |Company: Autodesk,Inc. |WEB Address: www.autodesk.com
 90
      129
 91
        1
280
     0
281
     0
  0
CLASS
  1
AECS_DISP_REP_MEMBER_ELEVATION_DESIGN
  2
AecsDbDispRepMemberElevationDesign
  3
AecStructureBase50|Product Desc: Autodesk Architectural Desktop 2007 |Company: Autodesk,Inc. |WEB Address: www.autodesk.com
 90
      129
 91
        1
280
     0
281
     0
  0
CLASS
  1
AECS_DISP_REP_MEMBER_ELEVATION_DETAIL
  2
AecsDbDispRepMemberElevationDetail
  3
AecStructureBase50|Product Desc: Autodesk Architectural Desktop 2007 |Company: Autodesk,Inc. |WEB Address: www.autodesk.com
 90
      129
 91
        1
280
     0
281
     0
  0
CLASS
  1
AECS_DISP_REP_MEMBER_LOGICAL
  2
AecsDbDispRepMemberLogical
  3
AecStructureBase50|Product Desc: Autodesk Architectural Desktop 2007 |Company: Autodesk,Inc. |WEB Address: www.autodesk.com
 90
      129
 91
        1
280
     0
281
     0
  0
CLASS
  1
AECS_DISP_REP_MEMBER_MODEL_DESIGN
  2
AecsDbDispRepMemberModelDesign
  3
AecStructureBase50|Product Desc: Autodesk Architectural Desktop 2007 |Company: Autodesk,Inc. |WEB Address: www.autodesk.com
 90
      129
 91
        1
280
     0
281
     0
  0
CLASS
  1
AECS_DISP_REP_MEMBER_MODEL_DETAIL
  2
AecsDbDispRepMemberModelDetail
  3
AecStructureBase50|Product Desc: Autodesk Architectural Desktop 2007 |Company: Autodesk,Inc. |WEB Address: www.autodesk.com
 90
      129
 91
        1
280
     0
281
     0
  0
CLASS
  1
AECS_DISP_REP_MEMBER_PLAN_DESIGN
  2
AecsDbDispRepMemberPlanDesign
  3
AecStructureBase50|Product Desc: Autodesk Architectural Desktop 2007 |Company: Autodesk,Inc. |WEB Address: www.autodesk.com
 90
      129
 91
        3
280
     0
281
     0
  0
CLASS
  1
AECS_DISP_REP_MEMBER_PLAN_DETAIL
  2
AecsDbDispRepMemberPlanDetail
  3
AecStructureBase50|Product Desc: Autodesk Architectural Desktop 2007 |Company: Autodesk,Inc. |WEB Address: www.autodesk.com
 90
      129
 91
        1
280
     0
281
     0
  0
CLASS
  1
AECS_DISP_REP_MEMBER_PLAN_SKETCH
  2
AecsDbDispRepMemberPlanSketch
  3
AecStructureBase50|Product Desc: Autodesk Architectural Desktop 2007 |Company: Autodesk,Inc. |WEB Address: www.autodesk.com
 90
      129
 91
        1
280
     0
281
     0
  0
CLASS
  1
AEC_DISP_PROPS_2D_SECTION
  2
AecDbDispProps2dSection
  3
AecBase50|Product Desc: Autodesk Architectural Desktop 2007 |Company: Autodesk,Inc. |WEB Address: www.autodesk.com
 90
      129
 91
        1
280
     0
281
     0
  0
CLASS
  1
AEC_DISPROPSXSECTIONCOMMON
  2
AecDbDispPropsXSectionCmn
  3
AecArchDACHBase50|Product Desc: Autodesk Architectural Desktop 2007 |Company: Autodesk,Inc. |WEB Address: www.autodesk.com
 90
      129
 91
       15
280
     0
281
     0
  0
CLASS
  1
AEC_DISP_PROPS_WINDOW
  2
AecDbDispPropsWindow
  3
AecArchBase50|Product Desc: Autodesk Architectural Desktop 2007 |Company: Autodesk,Inc. |WEB Address: www.autodesk.com
 90
      129
 91
        4
280
     0
281
     0
  0
CLASS
  1
AEC_DISP_PROPS_WINDOW_PLAN_50
  2
AecDbDispPropsWindowPlan50
  3
AecArchDACHBase50|Product Desc: Autodesk Architectural Desktop 2007 |Company: Autodesk,Inc. |WEB Address: www.autodesk.com
 90
      129
 91
        1
280
     0
281
     0
  0
CLASS
  1
AEC_DISP_PROPS_GRID_ASSEMBLY_MODEL
  2
AecDbDispPropsGridAssemblyModel
  3
AecArchBase50|Product Desc: Autodesk Architectural Desktop 2007 |Company: Autodesk,Inc. |WEB Address: www.autodesk.com
 90
      129
 91
        3
280
     0
281
     0
  0
CLASS
  1
AEC_DISP_PROPS_LAYOUT_GRID2D
  2
AecDbDispPropsLayoutGrid2d
  3
AecBase50|Product Desc: Autodesk Architectural Desktop 2007 |Company: Autodesk,Inc. |WEB Address: www.autodesk.com
 90
      129
 91
       11
280
     0
281
     0
  0
CLASS
  1
AEC_DISP_PROPS_GRID_ASSEMBLY_PLAN
  2
AecDbDispPropsGridAssemblyPlan
  3
AecArchBase50|Product Desc: Autodesk Architectural Desktop 2007 |Company: Autodesk,Inc. |WEB Address: www.autodesk.com
 90
      129
 91
        9
280
     0
281
     0
  0
CLASS
  1
AEC_DISP_PROPS_WALL_PLAN
  2
AecDbDispPropsWallPlan
  3
AecArchBase50|Product Desc: Autodesk Architectural Desktop 2007 |Company: Autodesk,Inc. |WEB Address: www.autodesk.com
 90
      129
 91
        4
280
     0
281
     0
  0
CLASS
  1
AEC_DISP_PROPS_STAIR_PLAN
  2
AecDbDispPropsStairPlan
  3
AecArchBase50|Product Desc: Autodesk Architectural Desktop 2007 |Company: Autodesk,Inc. |WEB Address: www.autodesk.com
 90
      129
 91
        2
280
     0
281
     0
  0
CLASS
  1
AEC_DISP_PROPS_CLIP_VOLUME
  2
AecDbDispPropsClipVol
  3
AecBase50|Product Desc: Autodesk Architectural Desktop 2007 |Company: Autodesk,Inc. |WEB Address: www.autodesk.com
 90
      129
 91
       12
280
     0
281
     0
  0
CLASS
  1
AEC_DISP_PROPS_AREAGROUP
  2
AecDbDispPropsAreaGroup
  3
AecAreaCalculationBase50|Product Desc: Autodesk Architectural Desktop 2007 |Company: Autodesk,Inc. |WEB Address: www.autodesk.com
 90
      129
 91
        0
280
     0
281
     0
  0
CLASS
  1
AEC_DISP_ROPS_RAILING_PLAN_COMMON
  2
AecDbDispPropsRailingPlanCommon
  3
AecArchDACHBase50|Product Desc: Autodesk Architectural Desktop 2007 |Company: Autodesk,Inc. |WEB Address: www.autodesk.com
 90
      129
 91
        1
280
     0
281
     0
  0
CLASS
  1
AEC_DISP_ROPS_STAIR_PLAN_100
  2
AecDbDispPropsStairPlan100
  3
AecArchDACHBase50|Product Desc: Autodesk Architectural Desktop 2007 |Company: Autodesk,Inc. |WEB Address: www.autodesk.com
 90
      129
 91
        1
280
     0
281
     0
  0
CLASS
  1
AEC_DISP_PROPS_ROOF
  2
AecDbDispPropsRoof
  3
AecArchBase50|Product Desc: Autodesk Architectural Desktop 2007 |Company: Autodesk,Inc. |WEB Address: www.autodesk.com
 90
      129
 91
        5
280
     0
281
     0
  0
CLASS
  1
AEC_DISP_PROPS_ROOFSLAB_PLAN
  2
AecDbDispPropsRoofSlabPlan
  3
AecArchBase50|Product Desc: Autodesk Architectural Desktop 2007 |Company: Autodesk,Inc. |WEB Address: www.autodesk.com
 90
      129
 91
        3
280
     0
281
     0
  0
CLASS
  1
AEC_DISP_PROPS_DIM
  2
AecDbDispPropsDimGroup
  3
AecArchDACHBase50|Product Desc: Autodesk Architectural Desktop 2007 |Company: Autodesk,Inc. |WEB Address: www.autodesk.com
 90
      129
 91
        3
280
     0
281
     0
  0
CLASS
  1
AEC_DISP_PROPS_DOOR_PLAN_100
  2
AecDbDispPropsDoorPlan100
  3
AecArchDACHBase50|Product Desc: Autodesk Architectural Desktop 2007 |Company: Autodesk,Inc. |WEB Address: www.autodesk.com
 90
      129
 91
        1
280
     0
281
     0
  0
CLASS
  1
AECS_DISP_PROPS_MEMBER_PROJECTED
  2
AecsDbDispPropsMemberProjected
  3
AecStructureBase50|Product Desc: Autodesk Architectural Desktop 2007 |Company: Autodesk,Inc. |WEB Address: www.autodesk.com
 90
      129
 91
        2
280
     0
281
     0
  0
CLASS
  1
AEC_DISP_PROPS_CLIP_VOLUME_RESULT
  2
AecDbDispPropsClipVolResSubDiv
  3
AecBase50|Product Desc: Autodesk Architectural Desktop 2007 |Company: Autodesk,Inc. |WEB Address: www.autodesk.com
 90
      129
 91
        2
280
     0
281
     0
  0
CLASS
  1
AEC_DISP_PROPS_DOOR
  2
AecDbDispPropsDoor
  3
AecArchBase50|Product Desc: Autodesk Architectural Desktop 2007 |Company: Autodesk,Inc. |WEB Address: www.autodesk.com
 90
      129
 91
        4
280
     0
281
     0
  0
CLASS
  1
AEC_DISPROPSMASSGROUPPLANCOMMON
  2
AecDbDispPropsMassGroupPlanCommon
  3
AecArchDACHBase50|Product Desc: Autodesk Architectural Desktop 2007 |Company: Autodesk,Inc. |WEB Address: www.autodesk.com
 90
      129
 91
        2
280
     0
281
     0
  0
CLASS
  1
AEC_DISP_PROPS_ENT
  2
AecDbDispPropsEnt
  3
AecBase50|Product Desc: Autodesk Architectural Desktop 2007 |Company: Autodesk,Inc. |WEB Address: www.autodesk.com
 90
      129
 91
        7
280
     0
281
     0
  0
CLASS
  1
AEC_DISP_ROPS_RAILING_PLAN_100
  2
AecDbDispPropsRailingPlan100
  3
AecArchDACHBase50|Product Desc: Autodesk Architectural Desktop 2007 |Company: Autodesk,Inc. |WEB Address: www.autodesk.com
 90
      129
 91
        1
280
     0
281
     0
  0
CLASS
  1
AEC_DISP_PROPS_SLICE
  2
AecDbDispPropsSlice
  3
AecBase50|Product Desc: Autodesk Architectural Desktop 2007 |Company: Autodesk,Inc. |WEB Address: www.autodesk.com
 90
      129
 91
        1
280
     0
281
     0
  0
CLASS
  1
AEC_DISP_ROPS_STAIR_PLAN_50
  2
AecDbDispPropsStairPlan50
  3
AecArchDACHBase50|Product Desc: Autodesk Architectural Desktop 2007 |Company: Autodesk,Inc. |WEB Address: www.autodesk.com
 90
      129
 91
        1
280
     0
281
     0
  0
CLASS
  1
AEC_DISP_PROPS_SLAB_PLAN
  2
AecDbDispPropsSlabPlan
  3
AecArchBase50|Product Desc: Autodesk Architectural Desktop 2007 |Company: Autodesk,Inc. |WEB Address: www.autodesk.com
 90
      129
 91
        3
280
     0
281
     0
  0
CLASS
  1
AEC_DISP_PROPS_SPACE_BOUNDARY
  2
AecDbDispPropsSpaceBoundary
  3
AecArchBase50|Product Desc: Autodesk Architectural Desktop 2007 |Company: Autodesk,Inc. |WEB Address: www.autodesk.com
 90
      129
 91
        0
280
     0
281
     0
  0
CLASS
  1
AEC_DISP_PROPS_MASKBLOCK
  2
AecDbDispPropsMaskBlock
  3
AecBase50|Product Desc: Autodesk Architectural Desktop 2007 |Company: Autodesk,Inc. |WEB Address: www.autodesk.com
 90
      129
 91
        2
280
     0
281
     0
  0
CLASS
  1
AEC_DISP_PROPS_WALL_MODEL
  2
AecDbDispPropsWallModel
  3
AecArchBase50|Product Desc: Autodesk Architectural Desktop 2007 |Company: Autodesk,Inc. |WEB Address: www.autodesk.com
 90
      129
 91
        1
280
     0
281
     0
  0
CLASS
  1
AEC_DISP_ROPS_RAILING_PLAN_50
  2
AecDbDispPropsRailingPlan50
  3
AecArchDACHBase50|Product Desc: Autodesk Architectural Desktop 2007 |Company: Autodesk,Inc. |WEB Address: www.autodesk.com
 90
      129
 91
        1
280
     0
281
     0
  0
CLASS
  1
AEC_DISP_PROPS_MASS_GROUP
  2
AecDbDispPropsMassGroup
  3
AecBaseEx50|Product Desc: Autodesk Architectural Desktop 2007 |Company: Autodesk,Inc. |WEB Address: www.autodesk.com
 90
      129
 91
        3
280
     0
281
     0
  0
CLASS
  1
AEC_DISP_PROPS_ENT_REF
  2
AecDbDispPropsEntRef
  3
AecBase50|Product Desc: Autodesk Architectural Desktop 2007 |Company: Autodesk,Inc. |WEB Address: www.autodesk.com
 90
      129
 91
        1
280
     0
281
     0
  0
CLASS
  1
AEC_DISP_PROPS_WINDOW_SILL_PLAN
  2
AecDbDispPropsWindowSillPlan
  3
AecArchBase50|Product Desc: Autodesk Architectural Desktop 2007 |Company: Autodesk,Inc. |WEB Address: www.autodesk.com
 90
      129
 91
        1
280
     0
281
     0
  0
CLASS
  1
AECS_DISP_PROPS_MEMBER_PLAN
  2
AecsDbDispPropsMemberPlan
  3
AecStructureBase50|Product Desc: Autodesk Architectural Desktop 2007 |Company: Autodesk,Inc. |WEB Address: www.autodesk.com
 90
      129
 91
        4
280
     0
281
     0
  0
CLASS
  1
AECS_DISP_PROPS_MEMBER
  2
AecsDbDispPropsMember
  3
AecStructureBase50|Product Desc: Autodesk Architectural Desktop 2007 |Company: Autodesk,Inc. |WEB Address: www.autodesk.com
 90
      129
 91
        2
280
     0
281
     0
  0
CLASS
  1
AEC_DISP_PROPS_WALL_GRAPH
  2
AecDbDispPropsWallGraph
  3
AecArchBase50|Product Desc: Autodesk Architectural Desktop 2007 |Company: Autodesk,Inc. |WEB Address: www.autodesk.com
 90
      129
 91
        1
280
     0
281
     0
  0
CLASS
  1
AEC_DISP_PROPS_SPACE_PLAN
  2
AecDbDispPropsSpacePlan
  3
AecArchBase50|Product Desc: Autodesk Architectural Desktop 2007 |Company: Autodesk,Inc. |WEB Address: www.autodesk.com
 90
      129
 91
        4
280
     0
281
     0
  0
CLASS
  1
AEC_DISP_PROPS_DOOR_THRESHOLD_PLAN
  2
AecDbDispPropsDoorThresholdPlan
  3
AecArchBase50|Product Desc: Autodesk Architectural Desktop 2007 |Company: Autodesk,Inc. |WEB Address: www.autodesk.com
 90
      129
 91
        1
280
     0
281
     0
  0
CLASS
  1
AEC_DISP_PROPS_DOOR_PLAN_50
  2
AecDbDispPropsDoorPlan50
  3
AecArchDACHBase50|Product Desc: Autodesk Architectural Desktop 2007 |Company: Autodesk,Inc. |WEB Address: www.autodesk.com
 90
      129
 91
        1
280
     0
281
     0
  0
CLASS
  1
AEC_DISP_PROPS_WALL
  2
AecDbDispPropsWall
  3
AecArchBase50|Product Desc: Autodesk Architectural Desktop 2007 |Company: Autodesk,Inc. |WEB Address: www.autodesk.com
 90
      129
 91
        1
280
     0
281
     0
  0
CLASS
  1
AEC_DISPROPSOPENINGPLANCOMMONHATCHED
  2
AecDbDispPropsOpeningPlanCommonHatched
  3
AecArchDACHBase50|Product Desc: Autodesk Architectural Desktop 2007 |Company: Autodesk,Inc. |WEB Address: www.autodesk.com
 90
      129
 91
        2
280
     0
281
     0
  0
CLASS
  1
AEC_DISP_PROPS_DOOR_NOMINAL
  2
AecDbDispPropsDoorNominal
  3
AecArchBase50|Product Desc: Autodesk Architectural Desktop 2007 |Company: Autodesk,Inc. |WEB Address: www.autodesk.com
 90
      129
 91
        1
280
     0
281
     0
  0
CLASS
  1
AEC_DISP_PROPS_AREA
  2
AecDbDispPropsArea
  3
AecAreaCalculationBase50|Product Desc: Autodesk Architectural Desktop 2007 |Company: Autodesk,Inc. |WEB Address: www.autodesk.com
 90
      129
 91
        0
280
     0
281
     0
  0
CLASS
  1
AEC_DISPROPSMASSELEMPLANCOMMON
  2
AecDbDispPropsMassElemPlanCommon
  3
AecArchDACHBase50|Product Desc: Autodesk Architectural Desktop 2007 |Company: Autodesk,Inc. |WEB Address: www.autodesk.com
 90
      129
 91
        2
280
     0
281
     0
  0
CLASS
  1
AEC_DISP_PROPS_OPENING
  2
AecDbDispPropsOpening
  3
AecArchBase50|Product Desc: Autodesk Architectural Desktop 2007 |Company: Autodesk,Inc. |WEB Address: www.autodesk.com
 90
      129
 91
        2
280
     0
281
     0
  0
CLASS
  1
AEC_DISP_PROPS_RAILING_PLAN
  2
AecDbDispPropsRailingPlan
  3
AecArchBase50|Product Desc: Autodesk Architectural Desktop 2007 |Company: Autodesk,Inc. |WEB Address: www.autodesk.com
 90
      129
 91
        1
280
     0
281
     0
  0
CLASS
  1
AEC_DISP_PROPS_ROOFSLAB
  2
AecDbDispPropsRoofSlab
  3
AecArchBase50|Product Desc: Autodesk Architectural Desktop 2007 |Company: Autodesk,Inc. |WEB Address: www.autodesk.com
 90
      129
 91
        1
280
     0
281
     0
  0
CLASS
  1
AEC_DISP_PROPS_SPACE_MODEL
  2
AecDbDispPropsSpaceModel
  3
AecArchBase50|Product Desc: Autodesk Architectural Desktop 2007 |Company: Autodesk,Inc. |WEB Address: www.autodesk.com
 90
      129
 91
        1
280
     0
281
     0
  0
CLASS
  1
AEC_DISP_PROPS_WALL_SCHEM
  2
AecDbDispPropsWallSchem
  3
AecArchBase50|Product Desc: Autodesk Architectural Desktop 2007 |Company: Autodesk,Inc. |WEB Address: www.autodesk.com
 90
      129
 91
        1
280
     0
281
     0
  0
CLASS
  1
AEC_DISP_PROPS_STAIR_MODEL
  2
AecDbDispPropsStairModel
  3
AecArchBase50|Product Desc: Autodesk Architectural Desktop 2007 |Company: Autodesk,Inc. |WEB Address: www.autodesk.com
 90
      129
 91
        1
280
     0
281
     0
  0
CLASS
  1
AEC_DISP_PROPS_MASS_ELEM_MODEL
  2
AecDbDispPropsMassElem
  3
AecBaseEx50|Product Desc: Autodesk Architectural Desktop 2007 |Company: Autodesk,Inc. |WEB Address: www.autodesk.com
 90
      129
 91
        3
280
     0
281
     0
  0
CLASS
  1
AEC_DISP_PROPS_POLYGON_MODEL
  2
AecDbDispPropsPolygonModel
  3
AecBaseEx50|Product Desc: Autodesk Architectural Desktop 2007 |Company: Autodesk,Inc. |WEB Address: www.autodesk.com
 90
      129
 91
        1
280
     0
281
     0
  0
CLASS
  1
AEC_DISP_PROPS_POLYGON_TRUECOLOUR
  2
AecDbDispPropsPolygonTrueColour
  3
AecBaseEx50|Product Desc: Autodesk Architectural Desktop 2007 |Company: Autodesk,Inc. |WEB Address: www.autodesk.com
 90
      129
 91
        1
280
     0
281
     0
  0
CLASS
  1
AEC_DISP_PROPS_SCHEDULE_TABLE
  2
AecDbDispPropsScheduleTable
  3
AecSchedule50|Product Desc: Autodesk Architectural Desktop 2007 |Company: Autodesk,Inc. |WEB Address: www.autodesk.com
 90
      129
 91
        1
280
     0
281
     0
  0
CLASS
  1
AEC_DISP_PROPS_DOOR_THRESHOLD_SYMBOL_PLAN
  2
AecDbDispPropsDoorThresholdSymbolPlan
  3
AecArchDACHBase50|Product Desc: Autodesk Architectural Desktop 2007 |Company: Autodesk,Inc. |WEB Address: www.autodesk.com
 90
      129
 91
        1
280
     0
281
     0
  0
CLASS
  1
AEC_DISPROPSOPENINGSILLPLAN
  2
AecDbDispPropsOpeningSillPlan
  3
AecArchDACHBase50|Product Desc: Autodesk Architectural Desktop 2007 |Company: Autodesk,Inc. |WEB Address: www.autodesk.com
 90
      129
 91
        1
280
     0
281
     0
  0
CLASS
  1
AEC_DISP_PROPS_LAYOUT_CURVE
  2
AecDbDispPropsLayoutCurve
  3
AecBase50|Product Desc: Autodesk Architectural Desktop 2007 |Company: Autodesk,Inc. |WEB Address: www.autodesk.com
 90
      129
 91
        1
280
     0
281
     0
  0
CLASS
  1
AEC_DISP_PROPS_RAILING_MODEL
  2
AecDbDispPropsRailingModel
  3
AecArchBase50|Product Desc: Autodesk Architectural Desktop 2007 |Company: Autodesk,Inc. |WEB Address: www.autodesk.com
 90
      129
 91
        1
280
     0
281
     0
  0
CLASS
  1
AECS_DISP_PROPS_MEMBER_LOGICAL
  2
AecsDbDispPropsMemberLogical
  3
AecStructureBase50|Product Desc: Autodesk Architectural Desktop 2007 |Company: Autodesk,Inc. |WEB Address: www.autodesk.com
 90
      129
 91
        1
280
     0
281
     0
  0
CLASS
  1
AEC_DISP_PROPS_LAYOUT_GRID3D
  2
AecDbDispPropsLayoutGrid3d
  3
AecBase50|Product Desc: Autodesk Architectural Desktop 2007 |Company: Autodesk,Inc. |WEB Address: www.autodesk.com
 90
      129
 91
        1
280
     0
281
     0
  0
CLASS
  1
AECS_DISP_PROPS_MEMBER_PLAN_SKETCH
  2
AecsDbDispPropsMemberPlanSketch
  3
AecStructureBase50|Product Desc: Autodesk Architectural Desktop 2007 |Company: Autodesk,Inc. |WEB Address: www.autodesk.com
 90
      129
 91
        1
280
     0
281
     0
  0
CLASS
  1
AEC_DISP_PROPS_SLAB
  2
AecDbDispPropsSlab
  3
AecArchBase50|Product Desc: Autodesk Architectural Desktop 2007 |Company: Autodesk,Inc. |WEB Address: www.autodesk.com
 90
      129
 91
        1
280
     0
281
     0
  0
CLASS
  1
AEC_DISP_PROPS_CAMERA
  2
AecDbDispPropsCamera
  3
AecBase50|Product Desc: Autodesk Architectural Desktop 2007 |Company: Autodesk,Inc. |WEB Address: www.autodesk.com
 90
      129
 91
        0
280
     0
281
     0
  0
CLASS
  1
AEC_DISPROPSXSECTIONWALL
  2
AecDbDispPropsWallXSection
  3
AecArchDACHBase50|Product Desc: Autodesk Architectural Desktop 2007 |Company: Autodesk,Inc. |WEB Address: www.autodesk.com
 90
      129
 91
        1
280
     0
281
     0
  0
CLASS
  1
AEC_DISP_PROPS_AREA_DECOMPOSED
  2
AecDbDispPropsAreaDecomposed
  3
AecAreaCalculationBase50|Product Desc: Autodesk Architectural Desktop 2007 |Company: Autodesk,Inc. |WEB Address: www.autodesk.com
 90
      129
 91
        0
280
     0
281
     0
  0
CLASS
  1
AEC_DISP_PROPS_WINDOW_NOMINAL
  2
AecDbDispPropsWindowNominal
  3
AecArchBase50|Product Desc: Autodesk Architectural Desktop 2007 |Company: Autodesk,Inc. |WEB Address: www.autodesk.com
 90
      129
 91
        1
280
     0
281
     0
  0
CLASS
  1
AEC_DISP_PROPS_WINDOW_PLAN_100
  2
AecDbDispPropsWindowPlan100
  3
AecArchDACHBase50|Product Desc: Autodesk Architectural Desktop 2007 |Company: Autodesk,Inc. |WEB Address: www.autodesk.com
 90
      129
 91
        1
280
     0
281
     0
  0
CLASS
  1
AEC_DISPROPSOPENINGPLANCOMMON
  2
AecDbDispPropsOpeningPlanCommon
  3
AecArchDACHBase50|Product Desc: Autodesk Architectural Desktop 2007 |Company: Autodesk,Inc. |WEB Address: www.autodesk.com
 90
      129
 91
        1
280
     0
281
     0
  0
CLASS
  1
AEC_LAYERKEY_STYLE
  2
AecDbLayerKeyStyle
  3
AecBase50|Product Desc: Autodesk Architectural Desktop 2007 |Company: Autodesk,Inc. |WEB Address: www.autodesk.com
 90
      129
 91
        2
280
     0
281
     0
  0
CLASS
  1
AEC_VARS_ARCHBASE
  2
AecDbVarsArchBase
  3
AecArchBase50|Product Desc: Autodesk Architectural Desktop 2007 |Company: Autodesk,Inc. |WEB Address: www.autodesk.com
 90
      129
 91
        1
280
     0
281
     0
  0
CLASS
  1
AEC_VARS_DWG_SETUP
  2
AecDbVarsDwgSetup
  3
AecBase50|Product Desc: Autodesk Architectural Desktop 2007 |Company: Autodesk,Inc. |WEB Address: www.autodesk.com
 90
      129
 91
        1
280
     0
281
     0
  0
CLASS
  1
AEC_NOTIFICATION_TRACKER
  2
AecDbNotificationTracker
  3
AecBase50|Product Desc: Autodesk Architectural Desktop 2007 |Company: Autodesk,Inc. |WEB Address: www.autodesk.com
 90
      129
 91
        0
280
     0
281
     0
  0
CLASS
  1
NPOCOLLECTION
  2
AcDbImpNonPersistentObjectsCollection
  3
ObjectDBX Classes
 90
     1153
 91
        0
280
     0
281
     0
  0
CLASS
  1
AEC_DISP_REP_DISPLAYTHEME
  2
AecDbDispRepDisplayTheme
  3
AecBase50|Product Desc: Autodesk Architectural Desktop 2007 |Company: Autodesk,Inc. |WEB Address: www.autodesk.com
 90
      129
 91
        1
280
     0
281
     0
  0
CLASS
  1
AEC_DISP_PROPS_DISPLAYTHEME
  2
AecDbDispPropsDisplayTheme
  3
AecBase50|Product Desc: Autodesk Architectural Desktop 2007 |Company: Autodesk,Inc. |WEB Address: www.autodesk.com
 90
      129
 91
        1
280
     0
281
     0
  0
CLASS
  1
AEC_DISP_REP_EDITINPLACEPROFILE
  2
AecDbDispRepEditInPlaceProfile
  3
AecBase50|Product Desc: Autodesk Architectural Desktop 2007 |Company: Autodesk,Inc. |WEB Address: www.autodesk.com
 90
      129
 91
        1
280
     0
281
     0
  0
CLASS
  1
AEC_DISP_PROPS_EDITINPLACEPROFILE_MODEL
  2
AecDbDispPropsEditInPlaceProfile
  3
AecBase50|Product Desc: Autodesk Architectural Desktop 2007 |Company: Autodesk,Inc. |WEB Address: www.autodesk.com
 90
      129
 91
        1
280
     0
281
     0
  0
CLASS
  1
AEC_DISP_REP_MATERIAL
  2
AecDbDispRepMaterial
  3
AecBase50|Product Desc: Autodesk Architectural Desktop 2007 |Company: Autodesk,Inc. |WEB Address: www.autodesk.com
 90
      129
 91
        1
280
     0
281
     0
  0
CLASS
  1
AEC_DISP_PROPS_MATERIAL
  2
AecDbDispPropsMaterial
  3
AecBase50|Product Desc: Autodesk Architectural Desktop 2007 |Company: Autodesk,Inc. |WEB Address: www.autodesk.com
 90
      129
 91
        1
280
     0
281
     0
  0
CLASS
  1
AEC_DISP_REP_ANCHOR_EXT_TAG_TO_ENT
  2
AecDbDispRepAnchorExtendedTagToEnt
  3
AecScheduleData50|Product Desc: Autodesk Architectural Desktop 2007 |Company: Autodesk,Inc. |WEB Address: www.autodesk.com
 90
      129
 91
        1
280
     0
281
     0
  0
CLASS
  1
AEC_DISP_REP_SPACE_DECOMPOSED
  2
AecDbDispRepSpaceDecomposed
  3
AecArchBase50|Product Desc: Autodesk Architectural Desktop 2007 |Company: Autodesk,Inc. |WEB Address: www.autodesk.com
 90
      129
 91
        1
280
     0
281
     0
  0
CLASS
  1
AEC_DISP_PROPS_SPACE_DECOMPOSED
  2
AecDbDispPropsSpaceDecomposed
  3
AecArchBase50|Product Desc: Autodesk Architectural Desktop 2007 |Company: Autodesk,Inc. |WEB Address: www.autodesk.com
 90
      129
 91
        1
280
     0
281
     0
  0
CLASS
  1
AEC_DISP_REP_STAIR_PLAN_OVERLAPPING
  2
AecDbDispRepStairPlanOverlapping
  3
AecArchBase50|Product Desc: Autodesk Architectural Desktop 2007 |Company: Autodesk,Inc. |WEB Address: www.autodesk.com
 90
      129
 91
        1
280
     0
281
     0
  0
CLASS
  1
AEC_DISP_PROPS_STAIR_PLAN_OVERLAPPING
  2
AecDbDispPropsStairPlanOverlapping
  3
AecArchBase50|Product Desc: Autodesk Architectural Desktop 2007 |Company: Autodesk,Inc. |WEB Address: www.autodesk.com
 90
      129
 91
        1
280
     0
281
     0
  0
CLASS
  1
AEC_DISP_REP_WINDOWASSEMBLY_SILL_PLAN
  2
AecDbDispRepWindowAssemblySillPlan
  3
AecArchBase50|Product Desc: Autodesk Architectural Desktop 2007 |Company: Autodesk,Inc. |WEB Address: www.autodesk.com
 90
      129
 91
        1
280
     0
281
     0
  0
CLASS
  1
AEC_DISP_PROPS_WINDOW_ASSEMBLY_SILL_PLAN
  2
AecDbDispPropsWindowAssemblySillPlan
  3
AecArchBase50|Product Desc: Autodesk Architectural Desktop 2007 |Company: Autodesk,Inc. |WEB Address: www.autodesk.com
 90
      129
 91
        1
280
     0
281
     0
  0
CLASS
  1
AEC_DISP_REP_ZONE
  2
AecDbDispRepZone
  3
AecArchBase50|Product Desc: Autodesk Architectural Desktop 2007 |Company: Autodesk,Inc. |WEB Address: www.autodesk.com
 90
      129
 91
        1
280
     0
281
     0
  0
CLASS
  1
AEC_DISP_PROPS_ZONE
  2
AecDbDispPropsZone
  3
AecArchBase50|Product Desc: Autodesk Architectural Desktop 2007 |Company: Autodesk,Inc. |WEB Address: www.autodesk.com
 90
      129
 91
        3
280
     0
281
     0
  0
CLASS
  1
AEC_AECDBDISPREPZONE100
  2
AecDbDispRepZonePlan100
  3
AecArchDACHBase50|Product Desc: Autodesk Architectural Desktop 2007 |Company: Autodesk,Inc. |WEB Address: www.autodesk.com
 90
      129
 91
        1
280
     0
281
     0
  0
CLASS
  1
AEC_AECDBDISPREPZONE50
  2
AecDbDispRepZonePlan50
  3
AecArchDACHBase50|Product Desc: Autodesk Architectural Desktop 2007 |Company: Autodesk,Inc. |WEB Address: www.autodesk.com
 90
      129
 91
        1
280
     0
281
     0
  0
CLASS
  1
AEC_REFEDIT_STATUS_TRACKER
  2
AecDbRefEditStatusTracker
  3
AecArchBase50|Product Desc: Autodesk Architectural Desktop 2007 |Company: Autodesk,Inc. |WEB Address: www.autodesk.com
 90
      129
 91
        0
280
     0
281
     0
  0
CLASS
  1
SOLID_BACKGROUND
  2
AcDbSolidBackground
  3
SCENEOE
 90
     4095
 91
        0
280
     0
281
     0
  0
ENDSEC
  0
SECTION
  2
TABLES
  0
TABLE
  2
VPORT
  5
7
330
0
100
AcDbSymbolTable
 70
     1
  0
VPORT
  5
15
330
7
100
AcDbSymbolTableRecord
100
AcDbViewportTableRecord
  2
*ACTIVE
 70
     0
 10
0.0
 20
0.0
 11
1.0
 21
1.0
 12
30.84124281604888
 22
22.16748245635806
 13
0.0
 23
0.0
 14
1.0
 24
1.0
 15
0.0
 25
0.0
 16
-0.0000000000000568
 26
0.0
 36
221.0862723060605
 17
137.1950366113805
 27
104.8683135401573
 37
0.0
 40
107.1137957280795
 41
1.226824457593688
 42
50.0
 43
0.0
 44
0.0
 50
0.0
 51
0.0
 71
     0
 72
   100
 73
     1
 74
     1
 75
     0
 76
     0
 77
     0
 78
     0
281
     0
 65
     0
110
0.0
120
0.0
130
0.0
111
1.0
121
0.0
131
0.0
112
0.0
122
1.0
132
0.0
 79
     0
146
0.0
348
17B
 60
     3
 61
     5
292
     1
282
     1
141
0.0
142
0.0
 63
   250
421
  3355443
  0
ENDTAB
  0
TABLE
  2
LTYPE
  5
4
330
0
100
AcDbSymbolTable
 70
     1
  0
LTYPE
  5
11
330
4
100
AcDbSymbolTableRecord
100
AcDbLinetypeTableRecord
  2
ByBlock
 70
     0
  3

 72
    65
 73
     0
 40
0.0
  0
LTYPE
  5
12
330
4
100
AcDbSymbolTableRecord
100
AcDbLinetypeTableRecord
  2
ByLayer
 70
     0
  3

 72
    65
 73
     0
 40
0.0
  0
LTYPE
  5
13
330
4
100
AcDbSymbolTableRecord
100
AcDbLinetypeTableRecord
  2
Continuous
 70
     0
  3
Solid line
 72
    65
 73
     0
 40
0.0
  0
ENDTAB
  0
TABLE
  2
LAYER
  5
2
330
0
100
AcDbSymbolTable
 70
     3
  0
LAYER
  5
14
102
{ACAD_XDICTIONARY
360
2D4
102
}
330
2
100
AcDbSymbolTableRecord
100
AcDbLayerTableRecord
  2
0
 70
     0
 62
     7
  6
Continuous
370
    -3
390
1D
347
16D
  0
LAYER
  5
309
330
2
100
AcDbSymbolTableRecord
100
AcDbLayerTableRecord
  2
Defpoints
 70
     0
 62
     7
  6
Continuous
290
     0
370
    -3
390
1D
347
16D
  0
LAYER
  5
30A
330
2
100
AcDbSymbolTableRecord
100
AcDbLayerTableRecord
  2
Cotation-JacobDelafon
 70
     0
 62
     8
  6
Continuous
370
    -3
390
1D
347
16D
  0
ENDTAB
  0
TABLE
  2
STYLE
  5
3
330
0
100
AcDbSymbolTable
 70
     3
  0
STYLE
  5
17
330
3
100
AcDbSymbolTableRecord
100
AcDbTextStyleTableRecord
  2
Standard
 70
     0
 40
0.0
 41
1.0
 50
0.0
 71
     0
 42
0.0
  3
txt
  4

  0
STYLE
  5
24
330
3
100
AcDbSymbolTableRecord
100
AcDbTextStyleTableRecord
  2
STD
 70
     0
 40
0.0
 41
1.0
 50
0.0
 71
     0
 42
0.0
  3
txt
  4

  0
STYLE
  5
30B
330
3
100
AcDbSymbolTableRecord
100
AcDbTextStyleTableRecord
  2
Jacob-Delafon
 70
     0
 40
0.0
 41
1.0
 50
0.0
 71
     0
 42
2.5
  3
ARIAL.TTF
  4

1001
ACAD
1000
Arial
1071
       34
  0
ENDTAB
  0
TABLE
  2
VIEW
  5
5
330
0
100
AcDbSymbolTable
 70
     0
  0
ENDTAB
  0
TABLE
  2
UCS
  5
6
330
0
100
AcDbSymbolTable
 70
     0
  0
ENDTAB
  0
TABLE
  2
APPID
  5
8
330
0
100
AcDbSymbolTable
 70
    12
  0
APPID
  5
16
330
8
100
AcDbSymbolTableRecord
100
AcDbRegAppTableRecord
  2
ACAD
 70
     0
  0
APPID
  5
19D
330
8
100
AcDbSymbolTableRecord
100
AcDbRegAppTableRecord
  2
ACAD_MLEADERVER
 70
     0
  0
APPID
  5
30D
330
8
100
AcDbSymbolTableRecord
100
AcDbRegAppTableRecord
  2
DCO15
 70
     0
  0
APPID
  5
30E
330
8
100
AcDbSymbolTableRecord
100
AcDbRegAppTableRecord
  2
ADCADD_ZZ
 70
     0
  0
APPID
  5
30F
330
8
100
AcDbSymbolTableRecord
100
AcDbRegAppTableRecord
  2
SDSK_PMN
 70
     0
  0
APPID
  5
310
330
8
100
AcDbSymbolTableRecord
100
AcDbRegAppTableRecord
  2
AcAecLayerStandard
 70
     0
  0
APPID
  5
311
330
8
100
AcDbSymbolTableRecord
100
AcDbRegAppTableRecord
  2
AECBASE
 70
     0
  0
APPID
  5
312
330
8
100
AcDbSymbolTableRecord
100
AcDbRegAppTableRecord
  2
AEC_DWGVARSSETUP_DATA
 70
     0
  0
APPID
  5
313
330
8
100
AcDbSymbolTableRecord
100
AcDbRegAppTableRecord
  2
AEC_DISPREPCONFIG_DATA
 70
     0
  0
APPID
  5
314
330
8
100
AcDbSymbolTableRecord
100
AcDbRegAppTableRecord
  2
AEC_DISPREPSET_DATA
 70
     0
  0
APPID
  5
69B
330
8
100
AcDbSymbolTableRecord
100
AcDbRegAppTableRecord
  2
ACAD_DSTYLE_DIMJAG
 70
     0
  0
APPID
  5
69C
330
8
100
AcDbSymbolTableRecord
100
AcDbRegAppTableRecord
  2
ACAD_DSTYLE_DIMTALN
 70
     0
  0
ENDTAB
  0
TABLE
  2
DIMSTYLE
  5
9
330
0
100
AcDbSymbolTable
 70
     2
100
AcDbDimStyleTable
 71
     2
340
30C
340
18
  0
DIMSTYLE
105
18
330
9
100
AcDbSymbolTableRecord
100
AcDbDimStyleTableRecord
  2
Standard
 70
     0
340
17
  0
DIMSTYLE
105
30C
102
{ACAD_REACTORS
330
5E1
330
5EE
102
}
330
9
100
AcDbSymbolTableRecord
100
AcDbDimStyleTableRecord
  2
Cotation-Jacob-Delafon
 70
     0
 41
1.8
 42
0.625
 43
3.799999999999999
 44
1.8
 73
     0
 74
     0
 77
     1
 78
    12
 79
     3
140
3.0
141
0.9
147
0.9
271
     2
272
     2
279
     2
340
30B
341
2EA
342
2EA
  0
ENDTAB
  0
TABLE
  2
BLOCK_RECORD
  5
1
330
0
100
AcDbSymbolTable
 70
     3
  0
BLOCK_RECORD
  5
A
102
{ACAD_XDICTIONARY
360
5DF
102
}
330
1
100
AcDbSymbolTableRecord
100
AcDbBlockTableRecord
  2
*MODEL_SPACE
340
20
 70
     0
280
     1
281
     0
  0
BLOCK_RECORD
  5
B
330
1
100
AcDbSymbolTableRecord
100
AcDbBlockTableRecord
  2
*PAPER_SPACE
340
21
 70
     0
280
     1
281
     0
  0
BLOCK_RECORD
  5
2EA
330
1
100
AcDbSymbolTableRecord
100
AcDbBlockTableRecord
  2
_Oblique
340
0
102
{BLKREFS
331
62C
331
62D
331
671
331
672
102
}
 70
     0
280
     1
281
     0
  0
BLOCK_RECORD
  5
5E2
330
1
100
AcDbSymbolTableRecord
100
AcDbBlockTableRecord
  2
*D1
340
0
 70
     0
280
     1
281
     0
  0
BLOCK_RECORD
  5
5EF
330
1
100
AcDbSymbolTableRecord
100
AcDbBlockTableRecord
  2
*D2
340
0
 70
     0
280
     1
281
     0
  0
ENDTAB
  0
ENDSEC
  0
SECTION
  2
BLOCKS
  0
BLOCK
  5
D
330
A
100
AcDbEntity
  8
0
100
AcDbBlockBegin
  2
*MODEL_SPACE
 70
     0
 10
0.0
 20
0.0
 30
0.0
  3
*MODEL_SPACE
  1

  0
ENDBLK
  5
E
330
A
100
AcDbEntity
  8
0
100
AcDbBlockEnd
  0
BLOCK
  5
F
330
B
100
AcDbEntity
 67
     1
  8
0
100
AcDbBlockBegin
  2
*PAPER_SPACE
 70
     0
 10
0.0
 20
0.0
 30
0.0
  3
*PAPER_SPACE
  1

  0
ENDBLK
  5
10
330
B
100
AcDbEntity
 67
     1
  8
0
100
AcDbBlockEnd
  0
BLOCK
  5
2EB
330
2EA
100
AcDbEntity
  8
0
100
AcDbBlockBegin
  2
_Oblique
 70
     0
 10
0.0
 20
0.0
 30
0.0
  3
_Oblique
  1

  0
LINE
  5
2EC
330
2EA
100
AcDbEntity
  8
0
  6
ByBlock
 62
     0
370
    -2
380
     1
100
AcDbLine
 10
-0.5
 20
-0.5
 30
0.0
 11
0.5
 21
0.5
 31
0.0
  0
ENDBLK
  5
2ED
330
2EA
100
AcDbEntity
  8
0
100
AcDbBlockEnd
  0
BLOCK
  5
5E3
330
5E2
100
AcDbEntity
  8
0
370
     0
100
AcDbBlockBegin
  2
*D1
 70
     1
 10
0.0
 20
0.0
 30
0.0
  3
*D1
  1

  0
LINE
  5
629
330
5E2
100
AcDbEntity
  8
Cotation-JacobDelafon
  6
Continuous
 62
     0
370
    -2
100
AcDbLine
 10
141.738635
 20
98.661393
 30
0.0
 11
141.738635
 21
113.0479320888328
 31
0.0
  0
LINE
  5
62A
330
5E2
100
AcDbEntity
  8
Cotation-JacobDelafon
  6
Continuous
 62
     0
370
    -2
100
AcDbLine
 10
172.258564
 20
98.661393
 30
0.0
 11
172.258564
 21
113.0479320888328
 31
0.0
  0
LINE
  5
62B
330
5E2
100
AcDbEntity
  8
Cotation-JacobDelafon
  6
Continuous
 62
     0
370
    -2
100
AcDbLine
 10
141.738635
 20
111.2479320888328
 30
0.0
 11
172.258564
 21
111.2479320888328
 31
0.0
  0
INSERT
  5
62C
330
5E2
100
AcDbEntity
  8
Cotation-JacobDelafon
  6
Continuous
 62
     0
370
    -2
100
AcDbBlockReference
  2
_Oblique
 10
141.738635
 20
111.2479320888328
 30
0.0
 41
1.8
 42
1.8
 43
1.8
 50
180.0
  0
INSERT
  5
62D
330
5E2
100
AcDbEntity
  8
Cotation-JacobDelafon
  6
Continuous
 62
     0
370
    -2
100
AcDbBlockReference
  2
_Oblique
 10
172.258564
 20
111.2479320888328
 30
0.0
 41
1.8
 42
1.8
 43
1.8
  0
MTEXT
  5
62E
330
5E2
100
AcDbEntity
  8
Cotation-JacobDelafon
  6
Continuous
 62
     0
370
     0
100
AcDbMText
 10
156.9985995
 20
113.680674244358
 30
0.0
 40
3.0
 41
0.0
 46
0.0
 71
     5
 72
     1
  1
\A1;30.5
  7
Jacob-Delafon
 73
     1
 44
1.0
  0
POINT
  5
62F
330
5E2
100
AcDbEntity
  8
Defpoints
  6
Continuous
 62
     0
370
     0
100
AcDbPoint
 10
141.738635
 20
98.036393
 30
0.0
  0
POINT
  5
630
330
5E2
100
AcDbEntity
  8
Defpoints
  6
Continuous
 62
     0
370
     0
100
AcDbPoint
 10
172.258564
 20
98.036393
 30
0.0
  0
POINT
  5
631
330
5E2
100
AcDbEntity
  8
Defpoints
  6
Continuous
 62
     0
370
     0
100
AcDbPoint
 10
172.258564
 20
111.2479320888328
 30
0.0
  0
ENDBLK
  5
5E4
330
5E2
100
AcDbEntity
  8
0
370
     0
100
AcDbBlockEnd
  0
BLOCK
  5
5F0
330
5EF
100
AcDbEntity
  8
0
370
     0
100
AcDbBlockBegin
  2
*D2
 70
     1
 10
0.0
 20
0.0
 30
0.0
  3
*D2
  1

  0
LINE
  5
66E
330
5EF
100
AcDbEntity
  8
Cotation-JacobDelafon
  6
Continuous
 62
     0
370
    -2
100
AcDbLine
 10
148.889733
 20
108.341018
 30
0.0
 11
133.9132991129402
 21
108.341018
 31
0.0
  0
LINE
  5
66F
330
5EF
100
AcDbEntity
  8
Cotation-JacobDelafon
  6
Continuous
 62
     0
370
    -2
100
AcDbLine
 10
156.631034
 20
83.9357895
 30
0.0
 11
133.9132991129402
 21
83.9357895
 31
0.0
  0
LINE
  5
670
330
5EF
100
AcDbEntity
  8
Cotation-JacobDelafon
  6
Continuous
 62
     0
370
    -2
100
AcDbLine
 10
135.7132991129402
 20
108.341018
 30
0.0
 11
135.7132991129402
 21
83.9357895
 31
0.0
  0
INSERT
  5
671
330
5EF
100
AcDbEntity
  8
Cotation-JacobDelafon
  6
Continuous
 62
     0
370
    -2
100
AcDbBlockReference
  2
_Oblique
 10
135.7132991129402
 20
108.341018
 30
0.0
 41
1.8
 42
1.8
 43
1.8
 50
90.0
  0
INSERT
  5
672
330
5EF
100
AcDbEntity
  8
Cotation-JacobDelafon
  6
Continuous
 62
     0
370
    -2
100
AcDbBlockReference
  2
_Oblique
 10
135.7132991129402
 20
83.9357895
 30
0.0
 41
1.8
 42
1.8
 43
1.8
 50
270.0
  0
MTEXT
  5
673
330
5EF
100
AcDbEntity
  8
Cotation-JacobDelafon
  6
Continuous
 62
     0
370
     0
100
AcDbMText
 10
133.3071599587792
 20
96.13840375000002
 30
0.0
 40
3.0
 41
0.0
 46
0.0
 71
     5
 72
     1
  1
\A1;24.4
  7
Jacob-Delafon
 11
0.0000000000000001
 21
1.0
 31
0.0
 73
     1
 44
1.0
  0
POINT
  5
674
330
5EF
100
AcDbEntity
  8
Defpoints
  6
Continuous
 62
     0
370
     0
100
AcDbPoint
 10
149.514733
 20
108.341018
 30
0.0
  0
POINT
  5
675
330
5EF
100
AcDbEntity
  8
Defpoints
  6
Continuous
 62
     0
370
     0
100
AcDbPoint
 10
157.256034
 20
83.9357895
 30
0.0
  0
POINT
  5
676
330
5EF
100
AcDbEntity
  8
Defpoints
  6
Continuous
 62
     0
370
     0
100
AcDbPoint
 10
135.7132991129402
 20
83.9357895
 30
0.0
  0
ENDBLK
  5
5F1
330
5EF
100
AcDbEntity
  8
0
370
     0
100
AcDbBlockEnd
  0
ENDSEC
  0
SECTION
  2
ENTITIES
  0
LINE
  5
4B0
330
A
100
AcDbEntity
  8
0
 62
     7
100
AcDbLine
 10
141.738635
 20
93.900901
 30
0.0
 11
141.738635
 21
94.19648999999999
 31
0.0
  0
LINE
  5
4B1
330
A
100
AcDbEntity
  8
0
 62
     7
100
AcDbLine
 10
141.738635
 20
94.19648999999999
 30
0.0
 11
141.738635
 21
94.634706
 31
0.0
  0
LINE
  5
4B2
330
A
100
AcDbEntity
  8
0
 62
     7
100
AcDbLine
 10
141.738635
 20
94.634706
 30
0.0
 11
141.738635
 21
95.18971099999999
 31
0.0
  0
LINE
  5
4B3
330
A
100
AcDbEntity
  8
0
 62
     7
100
AcDbLine
 10
141.738635
 20
95.18971099999999
 30
0.0
 11
141.738635
 21
96.63871800000002
 31
0.0
  0
LINE
  5
4B4
330
A
100
AcDbEntity
  8
0
 62
     7
100
AcDbLine
 10
141.738635
 20
96.63871800000002
 30
0.0
 11
141.738635
 21
97.19372299999999
 31
0.0
  0
LINE
  5
4B5
330
A
100
AcDbEntity
  8
0
 62
     7
100
AcDbLine
 10
141.738635
 20
97.19372299999999
 30
0.0
 11
141.738635
 21
97.632284
 31
0.0
  0
LINE
  5
4B6
330
A
100
AcDbEntity
  8
0
 62
     7
100
AcDbLine
 10
141.738635
 20
97.632284
 30
0.0
 11
141.738635
 21
97.927873
 31
0.0
  0
LINE
  5
4B7
330
A
100
AcDbEntity
  8
0
 62
     7
100
AcDbLine
 10
141.738635
 20
97.927873
 30
0.0
 11
141.738635
 21
98.036393
 31
0.0
  0
LINE
  5
4B8
330
A
100
AcDbEntity
  8
0
 62
     7
100
AcDbLine
 10
141.738635
 20
93.792036
 30
0.0
 11
141.738635
 21
93.900901
 31
0.0
  0
LINE
  5
4B9
330
A
100
AcDbEntity
  8
0
 62
     7
100
AcDbLine
 10
146.738675
 20
97.992985
 30
0.0
 11
146.738675
 21
97.88790999999999
 31
0.0
  0
LINE
  5
4BA
330
A
100
AcDbEntity
  8
0
 62
     7
100
AcDbLine
 10
146.738675
 20
97.88790999999999
 30
0.0
 11
146.738675
 21
97.60162199999999
 31
0.0
  0
LINE
  5
4BB
330
A
100
AcDbEntity
  8
0
 62
     7
100
AcDbLine
 10
146.738675
 20
97.60162199999999
 30
0.0
 11
146.738675
 21
97.17718599999999
 31
0.0
  0
LINE
  5
4BC
330
A
100
AcDbEntity
  8
0
 62
     7
100
AcDbLine
 10
146.738675
 20
97.17718599999999
 30
0.0
 11
146.738675
 21
96.63458400000001
 31
0.0
  0
LINE
  5
4BD
330
A
100
AcDbEntity
  8
0
 62
     7
100
AcDbLine
 10
146.738675
 20
96.63458400000001
 30
0.0
 11
146.738675
 21
95.19384499999999
 31
0.0
  0
LINE
  5
4BE
330
A
100
AcDbEntity
  8
0
 62
     7
100
AcDbLine
 10
146.738675
 20
95.19384499999999
 30
0.0
 11
146.738675
 21
94.65158700000001
 31
0.0
  0
LINE
  5
4BF
330
A
100
AcDbEntity
  8
0
 62
     7
100
AcDbLine
 10
146.738675
 20
94.65158700000001
 30
0.0
 11
146.738675
 21
94.22680699999999
 31
0.0
  0
LINE
  5
4C0
330
A
100
AcDbEntity
  8
0
 62
     7
100
AcDbLine
 10
146.738675
 20
94.22680699999999
 30
0.0
 11
146.738675
 21
93.94051899999999
 31
0.0
  0
LINE
  5
4C1
330
A
100
AcDbEntity
  8
0
 62
     7
100
AcDbLine
 10
146.738675
 20
93.94051899999999
 30
0.0
 11
146.738675
 21
93.83544399999999
 31
0.0
  0
LINE
  5
4C2
330
A
100
AcDbEntity
  8
0
 62
     7
100
AcDbLine
 10
146.526973
 20
98.20933700000001
 30
0.0
 11
141.907962
 21
98.20933700000001
 31
0.0
  0
LINE
  5
4C3
330
A
100
AcDbEntity
  8
0
 62
     7
100
AcDbLine
 10
141.907962
 20
93.61909200000001
 30
0.0
 11
146.526973
 21
93.61909200000001
 31
0.0
  0
LINE
  5
4C4
330
A
100
AcDbEntity
  8
0
 62
     7
100
AcDbLine
 10
141.788245
 20
98.04052699999999
 30
0.0
 11
141.788245
 21
98.158694
 31
0.0
  0
LINE
  5
4C5
330
A
100
AcDbEntity
  8
0
 62
     7
100
AcDbLine
 10
141.788245
 20
98.158694
 30
0.0
 11
141.738635
 21
98.036393
 31
0.0
  0
LINE
  5
4C6
330
A
100
AcDbEntity
  8
0
 62
     7
100
AcDbLine
 10
141.907962
 20
98.20933700000001
 30
0.0
 11
141.788245
 21
98.158694
 31
0.0
  0
LINE
  5
4C7
330
A
100
AcDbEntity
  8
0
 62
     7
100
AcDbLine
 10
141.788245
 20
97.71841100000001
 30
0.0
 11
141.788245
 21
98.04052699999999
 31
0.0
  0
LINE
  5
4C8
330
A
100
AcDbEntity
  8
0
 62
     7
100
AcDbLine
 10
141.788245
 20
97.240921
 30
0.0
 11
141.788245
 21
97.71841100000001
 31
0.0
  0
LINE
  5
4C9
330
A
100
AcDbEntity
  8
0
 62
     7
100
AcDbLine
 10
141.788245
 20
96.65077600000001
 30
0.0
 11
141.788245
 21
97.240921
 31
0.0
  0
LINE
  5
4CA
330
A
100
AcDbEntity
  8
0
 62
     7
100
AcDbLine
 10
141.788245
 20
95.177653
 30
0.0
 11
141.788245
 21
96.65077600000001
 31
0.0
  0
LINE
  5
4CB
330
A
100
AcDbEntity
  8
0
 62
     7
100
AcDbLine
 10
141.788245
 20
94.587508
 30
0.0
 11
141.788245
 21
95.177653
 31
0.0
  0
LINE
  5
4CC
330
A
100
AcDbEntity
  8
0
 62
     7
100
AcDbLine
 10
141.788245
 20
94.11001800000001
 30
0.0
 11
141.788245
 21
94.587508
 31
0.0
  0
LINE
  5
4CD
330
A
100
AcDbEntity
  8
0
 62
     7
100
AcDbLine
 10
141.788245
 20
93.78790100000001
 30
0.0
 11
141.788245
 21
94.11001800000001
 31
0.0
  0
LINE
  5
4CE
330
A
100
AcDbEntity
  8
0
 62
     7
100
AcDbLine
 10
141.738635
 20
93.792036
 30
0.0
 11
141.788245
 21
93.669735
 31
0.0
  0
LINE
  5
4CF
330
A
100
AcDbEntity
  8
0
 62
     7
100
AcDbLine
 10
141.788245
 20
93.669735
 30
0.0
 11
141.788245
 21
93.78790100000001
 31
0.0
  0
LINE
  5
4D0
330
A
100
AcDbEntity
  8
0
 62
     7
100
AcDbLine
 10
141.788245
 20
93.669735
 30
0.0
 11
141.907962
 21
93.61909200000001
 31
0.0
  0
LINE
  5
4D1
330
A
100
AcDbEntity
  8
0
 62
     7
100
AcDbLine
 10
146.676663
 20
98.028814
 30
0.0
 11
146.676663
 21
98.145947
 31
0.0
  0
LINE
  5
4D2
330
A
100
AcDbEntity
  8
0
 62
     7
100
AcDbLine
 10
146.676663
 20
98.145947
 30
0.0
 11
146.526973
 21
98.20933700000001
 31
0.0
  0
LINE
  5
4D3
330
A
100
AcDbEntity
  8
0
 62
     7
100
AcDbLine
 10
146.738675
 20
97.992985
 30
0.0
 11
146.676663
 21
98.145947
 31
0.0
  0
LINE
  5
4D4
330
A
100
AcDbEntity
  8
0
 62
     7
100
AcDbLine
 10
146.676663
 20
97.70945400000002
 30
0.0
 11
146.676663
 21
98.028814
 31
0.0
  0
LINE
  5
4D5
330
A
100
AcDbEntity
  8
0
 62
     7
100
AcDbLine
 10
146.676663
 20
97.236098
 30
0.0
 11
146.676663
 21
97.70945400000002
 31
0.0
  0
LINE
  5
4D6
330
A
100
AcDbEntity
  8
0
 62
     7
100
AcDbLine
 10
146.676663
 20
96.649398
 30
0.0
 11
146.676663
 21
97.236098
 31
0.0
  0
LINE
  5
4D7
330
A
100
AcDbEntity
  8
0
 62
     7
100
AcDbLine
 10
146.676663
 20
95.17903100000001
 30
0.0
 11
146.676663
 21
96.649398
 31
0.0
  0
LINE
  5
4D8
330
A
100
AcDbEntity
  8
0
 62
     7
100
AcDbLine
 10
146.676663
 20
94.592331
 30
0.0
 11
146.676663
 21
95.17903100000001
 31
0.0
  0
LINE
  5
4D9
330
A
100
AcDbEntity
  8
0
 62
     7
100
AcDbLine
 10
146.676663
 20
94.118975
 30
0.0
 11
146.676663
 21
94.592331
 31
0.0
  0
LINE
  5
4DA
330
A
100
AcDbEntity
  8
0
 62
     7
100
AcDbLine
 10
146.676663
 20
93.799615
 30
0.0
 11
146.676663
 21
94.118975
 31
0.0
  0
LINE
  5
4DB
330
A
100
AcDbEntity
  8
0
 62
     7
100
AcDbLine
 10
146.526973
 20
93.61909200000001
 30
0.0
 11
146.676663
 21
93.682482
 31
0.0
  0
LINE
  5
4DC
330
A
100
AcDbEntity
  8
0
 62
     7
100
AcDbLine
 10
146.676663
 20
93.682482
 30
0.0
 11
146.676663
 21
93.799615
 31
0.0
  0
LINE
  5
4DD
330
A
100
AcDbEntity
  8
0
 62
     7
100
AcDbLine
 10
146.676663
 20
93.682482
 30
0.0
 11
146.738675
 21
93.83544399999999
 31
0.0
  0
LINE
  5
4DE
330
A
100
AcDbEntity
  8
0
 62
     7
100
AcDbLine
 10
167.023397
 20
105.832644
 30
0.0
 11
166.832539
 21
104.872668
 31
0.0
  0
LINE
  5
4DF
330
A
100
AcDbEntity
  8
0
 62
     7
100
AcDbLine
 10
166.832539
 20
104.872668
 30
0.0
 11
166.288558
 21
104.058765
 31
0.0
  0
LINE
  5
4E0
330
A
100
AcDbEntity
  8
0
 62
     7
100
AcDbLine
 10
166.288558
 20
104.058765
 30
0.0
 11
165.851375
 21
103.766621
 31
0.0
  0
LINE
  5
4E1
330
A
100
AcDbEntity
  8
0
 62
     7
100
AcDbLine
 10
163.178326
 20
103.766621
 30
0.0
 11
162.741143
 21
104.058765
 31
0.0
  0
LINE
  5
4E2
330
A
100
AcDbEntity
  8
0
 62
     7
100
AcDbLine
 10
162.741143
 20
104.058765
 30
0.0
 11
162.197507
 21
104.872668
 31
0.0
  0
LINE
  5
4E3
330
A
100
AcDbEntity
  8
0
 62
     7
100
AcDbLine
 10
162.197507
 20
104.872668
 30
0.0
 11
162.006304
 21
105.832644
 31
0.0
  0
LINE
  5
4E4
330
A
100
AcDbEntity
  8
0
 62
     7
100
AcDbLine
 10
162.006304
 20
105.832644
 30
0.0
 11
162.197507
 21
106.79262
 31
0.0
  0
LINE
  5
4E5
330
A
100
AcDbEntity
  8
0
 62
     7
100
AcDbLine
 10
162.741143
 20
107.606352
 30
0.0
 11
163.554875
 21
108.15016
 31
0.0
  0
LINE
  5
4E6
330
A
100
AcDbEntity
  8
0
 62
     7
100
AcDbLine
 10
163.554875
 20
108.15016
 30
0.0
 11
164.515023
 21
108.341018
 31
0.0
  0
LINE
  5
4E7
330
A
100
AcDbEntity
  8
0
 62
     7
100
AcDbLine
 10
164.515023
 20
108.341018
 30
0.0
 11
165.474826
 21
108.15016
 31
0.0
  0
LINE
  5
4E8
330
A
100
AcDbEntity
  8
0
 62
     7
100
AcDbLine
 10
165.474826
 20
108.15016
 30
0.0
 11
166.288558
 21
107.606352
 31
0.0
  0
LINE
  5
4E9
330
A
100
AcDbEntity
  8
0
 62
     7
100
AcDbLine
 10
166.288558
 20
107.606352
 30
0.0
 11
166.832539
 21
106.79262
 31
0.0
  0
LINE
  5
4EA
330
A
100
AcDbEntity
  8
0
 62
     7
100
AcDbLine
 10
166.832539
 20
106.79262
 30
0.0
 11
167.023397
 21
105.832644
 31
0.0
  0
LINE
  5
4EB
330
A
100
AcDbEntity
  8
0
 62
     7
100
AcDbLine
 10
166.790508
 20
104.890066
 30
0.0
 11
166.977922
 21
105.832644
 31
0.0
  0
LINE
  5
4EC
330
A
100
AcDbEntity
  8
0
 62
     7
100
AcDbLine
 10
166.256519
 20
104.090804
 30
0.0
 11
166.790508
 21
104.890066
 31
0.0
  0
LINE
  5
4ED
330
A
100
AcDbEntity
  8
0
 62
     7
100
AcDbLine
 10
165.851375
 20
103.820364
 30
0.0
 11
166.256519
 21
104.090804
 31
0.0
  0
LINE
  5
4EE
330
A
100
AcDbEntity
  8
0
 62
     7
100
AcDbLine
 10
162.773183
 20
104.090804
 30
0.0
 11
163.178326
 21
103.820364
 31
0.0
  0
LINE
  5
4EF
330
A
100
AcDbEntity
  8
0
 62
     7
100
AcDbLine
 10
162.239193
 20
104.890066
 30
0.0
 11
162.773183
 21
104.090804
 31
0.0
  0
LINE
  5
4F0
330
A
100
AcDbEntity
  8
0
 62
     7
100
AcDbLine
 10
162.05178
 20
105.832644
 30
0.0
 11
162.239193
 21
104.890066
 31
0.0
  0
LINE
  5
4F1
330
A
100
AcDbEntity
  8
0
 62
     7
100
AcDbLine
 10
162.239193
 20
106.775222
 30
0.0
 11
162.05178
 21
105.832644
 31
0.0
  0
LINE
  5
4F2
330
A
100
AcDbEntity
  8
0
 62
     7
100
AcDbLine
 10
162.773183
 20
107.574312
 30
0.0
 11
162.239193
 21
106.775222
 31
0.0
  0
LINE
  5
4F3
330
A
100
AcDbEntity
  8
0
 62
     7
100
AcDbLine
 10
163.572445
 20
108.10813
 30
0.0
 11
162.773183
 21
107.574312
 31
0.0
  0
LINE
  5
4F4
330
A
100
AcDbEntity
  8
0
 62
     7
100
AcDbLine
 10
164.515023
 20
108.295715
 30
0.0
 11
163.572445
 21
108.10813
 31
0.0
  0
LINE
  5
4F5
330
A
100
AcDbEntity
  8
0
 62
     7
100
AcDbLine
 10
165.457601
 20
108.10813
 30
0.0
 11
164.515023
 21
108.295715
 31
0.0
  0
LINE
  5
4F6
330
A
100
AcDbEntity
  8
0
 62
     7
100
AcDbLine
 10
166.256519
 20
107.574312
 30
0.0
 11
165.457601
 21
108.10813
 31
0.0
  0
LINE
  5
4F7
330
A
100
AcDbEntity
  8
0
 62
     7
100
AcDbLine
 10
166.790508
 20
106.775222
 30
0.0
 11
166.256519
 21
107.574312
 31
0.0
  0
LINE
  5
4F8
330
A
100
AcDbEntity
  8
0
 62
     7
100
AcDbLine
 10
166.977922
 20
105.832644
 30
0.0
 11
166.790508
 21
106.775222
 31
0.0
  0
LINE
  5
4F9
330
A
100
AcDbEntity
  8
0
 62
     7
100
AcDbLine
 10
163.178326
 20
104.947599
 30
0.0
 11
163.004693
 21
105.207187
 31
0.0
  0
LINE
  5
4FA
330
A
100
AcDbEntity
  8
0
 62
     7
100
AcDbLine
 10
163.004693
 20
105.207187
 30
0.0
 11
162.880325
 21
105.832644
 31
0.0
  0
LINE
  5
4FB
330
A
100
AcDbEntity
  8
0
 62
     7
100
AcDbLine
 10
162.880325
 20
105.832644
 30
0.0
 11
163.004693
 21
106.458101
 31
0.0
  0
LINE
  5
4FC
330
A
100
AcDbEntity
  8
0
 62
     7
100
AcDbLine
 10
163.004693
 20
106.458101
 30
0.0
 11
163.359193
 21
106.988302
 31
0.0
  0
LINE
  5
4FD
330
A
100
AcDbEntity
  8
0
 62
     7
100
AcDbLine
 10
163.359193
 20
106.988302
 30
0.0
 11
163.889393
 21
107.34263
 31
0.0
  0
LINE
  5
4FE
330
A
100
AcDbEntity
  8
0
 62
     7
100
AcDbLine
 10
163.889393
 20
107.34263
 30
0.0
 11
164.515023
 21
107.466998
 31
0.0
  0
LINE
  5
4FF
330
A
100
AcDbEntity
  8
0
 62
     7
100
AcDbLine
 10
164.515023
 20
107.466998
 30
0.0
 11
165.140308
 21
107.34263
 31
0.0
  0
LINE
  5
500
330
A
100
AcDbEntity
  8
0
 62
     7
100
AcDbLine
 10
165.140308
 20
107.34263
 30
0.0
 11
165.670508
 21
106.988302
 31
0.0
  0
LINE
  5
501
330
A
100
AcDbEntity
  8
0
 62
     7
100
AcDbLine
 10
165.670508
 20
106.988302
 30
0.0
 11
166.025008
 21
106.458101
 31
0.0
  0
LINE
  5
502
330
A
100
AcDbEntity
  8
0
 62
     7
100
AcDbLine
 10
166.025008
 20
106.458101
 30
0.0
 11
166.149376
 21
105.832644
 31
0.0
  0
LINE
  5
503
330
A
100
AcDbEntity
  8
0
 62
     7
100
AcDbLine
 10
166.149376
 20
105.832644
 30
0.0
 11
166.025008
 21
105.207187
 31
0.0
  0
LINE
  5
504
330
A
100
AcDbEntity
  8
0
 62
     7
100
AcDbLine
 10
166.025008
 20
105.207187
 30
0.0
 11
165.851375
 21
104.947599
 31
0.0
  0
LINE
  5
505
330
A
100
AcDbEntity
  8
0
 62
     7
100
AcDbLine
 10
165.851375
 20
98.661334
 30
0.0
 11
165.749745
 21
98.661334
 31
0.0
  0
LINE
  5
506
330
A
100
AcDbEntity
  8
0
 62
     7
100
AcDbLine
 10
165.749745
 20
98.661334
 30
0.0
 11
165.460012
 21
98.661334
 31
0.0
  0
LINE
  5
507
330
A
100
AcDbEntity
  8
0
 62
     7
100
AcDbLine
 10
165.460012
 20
98.661334
 30
0.0
 11
165.026275
 21
98.661334
 31
0.0
  0
LINE
  5
508
330
A
100
AcDbEntity
  8
0
 62
     7
100
AcDbLine
 10
165.026275
 20
98.661334
 30
0.0
 11
164.515023
 21
98.661334
 31
0.0
  0
LINE
  5
509
330
A
100
AcDbEntity
  8
0
 62
     7
100
AcDbLine
 10
164.515023
 20
98.661334
 30
0.0
 11
164.003426
 21
98.661334
 31
0.0
  0
LINE
  5
50A
330
A
100
AcDbEntity
  8
0
 62
     7
100
AcDbLine
 10
164.003426
 20
98.661334
 30
0.0
 11
163.569689
 21
98.661334
 31
0.0
  0
LINE
  5
50B
330
A
100
AcDbEntity
  8
0
 62
     7
100
AcDbLine
 10
163.569689
 20
98.661334
 30
0.0
 11
163.279956
 21
98.661334
 31
0.0
  0
LINE
  5
50C
330
A
100
AcDbEntity
  8
0
 62
     7
100
AcDbLine
 10
163.279956
 20
98.661334
 30
0.0
 11
163.178326
 21
98.661334
 31
0.0
  0
LINE
  5
50D
330
A
100
AcDbEntity
  8
0
 62
     7
100
AcDbLine
 10
163.178326
 20
105.825926
 30
0.0
 11
163.178326
 21
105.680199
 31
0.0
  0
LINE
  5
50E
330
A
100
AcDbEntity
  8
0
 62
     7
100
AcDbLine
 10
165.851375
 20
105.825926
 30
0.0
 11
165.851375
 21
105.680199
 31
0.0
  0
LINE
  5
50F
330
A
100
AcDbEntity
  8
0
 62
     7
100
AcDbLine
 10
163.178326
 20
105.680199
 30
0.0
 11
163.178326
 21
105.259036
 31
0.0
  0
LINE
  5
510
330
A
100
AcDbEntity
  8
0
 62
     7
100
AcDbLine
 10
165.851375
 20
105.680199
 30
0.0
 11
165.851375
 21
105.259036
 31
0.0
  0
LINE
  5
511
330
A
100
AcDbEntity
  8
0
 62
     7
100
AcDbLine
 10
163.178326
 20
105.259036
 30
0.0
 11
163.178326
 21
104.632201
 31
0.0
  0
LINE
  5
512
330
A
100
AcDbEntity
  8
0
 62
     7
100
AcDbLine
 10
165.851375
 20
105.259036
 30
0.0
 11
165.851375
 21
104.632201
 31
0.0
  0
LINE
  5
513
330
A
100
AcDbEntity
  8
0
 62
     7
100
AcDbLine
 10
163.178326
 20
104.632201
 30
0.0
 11
163.178326
 21
104.007088
 31
0.0
  0
LINE
  5
514
330
A
100
AcDbEntity
  8
0
 62
     7
100
AcDbLine
 10
165.851375
 20
104.632201
 30
0.0
 11
165.851375
 21
104.007088
 31
0.0
  0
LINE
  5
515
330
A
100
AcDbEntity
  8
0
 62
     7
100
AcDbLine
 10
163.178326
 20
104.007088
 30
0.0
 11
163.178326
 21
98.661334
 31
0.0
  0
LINE
  5
516
330
A
100
AcDbEntity
  8
0
 62
     7
100
AcDbLine
 10
165.851375
 20
104.007088
 30
0.0
 11
165.851375
 21
98.661334
 31
0.0
  0
LINE
  5
517
330
A
100
AcDbEntity
  8
0
 62
     7
100
AcDbLine
 10
152.023451
 20
105.832644
 30
0.0
 11
151.832248
 21
104.872668
 31
0.0
  0
LINE
  5
518
330
A
100
AcDbEntity
  8
0
 62
     7
100
AcDbLine
 10
151.832248
 20
104.872668
 30
0.0
 11
151.288612
 21
104.058765
 31
0.0
  0
LINE
  5
519
330
A
100
AcDbEntity
  8
0
 62
     7
100
AcDbLine
 10
151.288612
 20
104.058765
 30
0.0
 11
150.85143
 21
103.766621
 31
0.0
  0
LINE
  5
51A
330
A
100
AcDbEntity
  8
0
 62
     7
100
AcDbLine
 10
148.178208
 20
103.766621
 30
0.0
 11
147.741197
 21
104.058765
 31
0.0
  0
LINE
  5
51B
330
A
100
AcDbEntity
  8
0
 62
     7
100
AcDbLine
 10
147.741197
 20
104.058765
 30
0.0
 11
147.197389
 21
104.872668
 31
0.0
  0
LINE
  5
51C
330
A
100
AcDbEntity
  8
0
 62
     7
100
AcDbLine
 10
147.197389
 20
104.872668
 30
0.0
 11
147.006359
 21
105.832644
 31
0.0
  0
LINE
  5
51D
330
A
100
AcDbEntity
  8
0
 62
     7
100
AcDbLine
 10
147.006359
 20
105.832644
 30
0.0
 11
147.197389
 21
106.79262
 31
0.0
  0
LINE
  5
51E
330
A
100
AcDbEntity
  8
0
 62
     7
100
AcDbLine
 10
147.197389
 20
106.79262
 30
0.0
 11
147.741197
 21
107.606352
 31
0.0
  0
LINE
  5
51F
330
A
100
AcDbEntity
  8
0
 62
     7
100
AcDbLine
 10
147.741197
 20
107.606352
 30
0.0
 11
148.554929
 21
108.15016
 31
0.0
  0
LINE
  5
520
330
A
100
AcDbEntity
  8
0
 62
     7
100
AcDbLine
 10
148.554929
 20
108.15016
 30
0.0
 11
149.514733
 21
108.341018
 31
0.0
  0
LINE
  5
521
330
A
100
AcDbEntity
  8
0
 62
     7
100
AcDbLine
 10
149.514733
 20
108.341018
 30
0.0
 11
150.474881
 21
108.15016
 31
0.0
  0
LINE
  5
522
330
A
100
AcDbEntity
  8
0
 62
     7
100
AcDbLine
 10
150.474881
 20
108.15016
 30
0.0
 11
151.288612
 21
107.606352
 31
0.0
  0
LINE
  5
523
330
A
100
AcDbEntity
  8
0
 62
     7
100
AcDbLine
 10
151.288612
 20
107.606352
 30
0.0
 11
151.832248
 21
106.79262
 31
0.0
  0
LINE
  5
524
330
A
100
AcDbEntity
  8
0
 62
     7
100
AcDbLine
 10
151.832248
 20
106.79262
 30
0.0
 11
152.023451
 21
105.832644
 31
0.0
  0
LINE
  5
525
330
A
100
AcDbEntity
  8
0
 62
     7
100
AcDbLine
 10
151.790563
 20
104.890066
 30
0.0
 11
151.977976
 21
105.832644
 31
0.0
  0
LINE
  5
526
330
A
100
AcDbEntity
  8
0
 62
     7
100
AcDbLine
 10
151.256573
 20
104.090804
 30
0.0
 11
151.790563
 21
104.890066
 31
0.0
  0
LINE
  5
527
330
A
100
AcDbEntity
  8
0
 62
     7
100
AcDbLine
 10
150.85143
 20
103.820364
 30
0.0
 11
151.256573
 21
104.090804
 31
0.0
  0
LINE
  5
528
330
A
100
AcDbEntity
  8
0
 62
     7
100
AcDbLine
 10
147.773237
 20
104.090804
 30
0.0
 11
148.178208
 21
103.820364
 31
0.0
  0
LINE
  5
529
330
A
100
AcDbEntity
  8
0
 62
     7
100
AcDbLine
 10
147.239247
 20
104.890066
 30
0.0
 11
147.773237
 21
104.090804
 31
0.0
  0
LINE
  5
52A
330
A
100
AcDbEntity
  8
0
 62
     7
100
AcDbLine
 10
147.051834
 20
105.832644
 30
0.0
 11
147.239247
 21
104.890066
 31
0.0
  0
LINE
  5
52B
330
A
100
AcDbEntity
  8
0
 62
     7
100
AcDbLine
 10
147.239247
 20
106.775222
 30
0.0
 11
147.051834
 21
105.832644
 31
0.0
  0
LINE
  5
52C
330
A
100
AcDbEntity
  8
0
 62
     7
100
AcDbLine
 10
147.773237
 20
107.574312
 30
0.0
 11
147.239247
 21
106.775222
 31
0.0
  0
LINE
  5
52D
330
A
100
AcDbEntity
  8
0
 62
     7
100
AcDbLine
 10
148.572327
 20
108.10813
 30
0.0
 11
147.773237
 21
107.574312
 31
0.0
  0
LINE
  5
52E
330
A
100
AcDbEntity
  8
0
 62
     7
100
AcDbLine
 10
149.514733
 20
108.295715
 30
0.0
 11
148.572327
 21
108.10813
 31
0.0
  0
LINE
  5
52F
330
A
100
AcDbEntity
  8
0
 62
     7
100
AcDbLine
 10
150.457311
 20
108.10813
 30
0.0
 11
149.514733
 21
108.295715
 31
0.0
  0
LINE
  5
530
330
A
100
AcDbEntity
  8
0
 62
     7
100
AcDbLine
 10
151.256573
 20
107.574312
 30
0.0
 11
150.457311
 21
108.10813
 31
0.0
  0
LINE
  5
531
330
A
100
AcDbEntity
  8
0
 62
     7
100
AcDbLine
 10
151.790563
 20
106.775222
 30
0.0
 11
151.256573
 21
107.574312
 31
0.0
  0
LINE
  5
532
330
A
100
AcDbEntity
  8
0
 62
     7
100
AcDbLine
 10
151.977976
 20
105.832644
 30
0.0
 11
151.790563
 21
106.775222
 31
0.0
  0
LINE
  5
533
330
A
100
AcDbEntity
  8
0
 62
     7
100
AcDbLine
 10
148.178208
 20
104.947599
 30
0.0
 11
148.004919
 21
105.207187
 31
0.0
  0
LINE
  5
534
330
A
100
AcDbEntity
  8
0
 62
     7
100
AcDbLine
 10
148.004919
 20
105.207187
 30
0.0
 11
147.880379
 21
105.832644
 31
0.0
  0
LINE
  5
535
330
A
100
AcDbEntity
  8
0
 62
     7
100
AcDbLine
 10
147.880379
 20
105.832644
 30
0.0
 11
148.004919
 21
106.458101
 31
0.0
  0
LINE
  5
536
330
A
100
AcDbEntity
  8
0
 62
     7
100
AcDbLine
 10
148.004919
 20
106.458101
 30
0.0
 11
148.359075
 21
106.988302
 31
0.0
  0
LINE
  5
537
330
A
100
AcDbEntity
  8
0
 62
     7
100
AcDbLine
 10
148.359075
 20
106.988302
 30
0.0
 11
148.889448
 21
107.34263
 31
0.0
  0
LINE
  5
538
330
A
100
AcDbEntity
  8
0
 62
     7
100
AcDbLine
 10
148.889448
 20
107.34263
 30
0.0
 11
149.514733
 21
107.466998
 31
0.0
  0
LINE
  5
539
330
A
100
AcDbEntity
  8
0
 62
     7
100
AcDbLine
 10
149.514733
 20
107.466998
 30
0.0
 11
150.140362
 21
107.34263
 31
0.0
  0
LINE
  5
53A
330
A
100
AcDbEntity
  8
0
 62
     7
100
AcDbLine
 10
150.140362
 20
107.34263
 30
0.0
 11
150.670562
 21
106.988302
 31
0.0
  0
LINE
  5
53B
330
A
100
AcDbEntity
  8
0
 62
     7
100
AcDbLine
 10
150.670562
 20
106.988302
 30
0.0
 11
151.025062
 21
106.458101
 31
0.0
  0
LINE
  5
53C
330
A
100
AcDbEntity
  8
0
 62
     7
100
AcDbLine
 10
151.025062
 20
106.458101
 30
0.0
 11
151.14943
 21
105.832644
 31
0.0
  0
LINE
  5
53D
330
A
100
AcDbEntity
  8
0
 62
     7
100
AcDbLine
 10
151.14943
 20
105.832644
 30
0.0
 11
151.025062
 21
105.207187
 31
0.0
  0
LINE
  5
53E
330
A
100
AcDbEntity
  8
0
 62
     7
100
AcDbLine
 10
151.025062
 20
105.207187
 30
0.0
 11
150.85143
 21
104.947599
 31
0.0
  0
LINE
  5
53F
330
A
100
AcDbEntity
  8
0
 62
     7
100
AcDbLine
 10
150.85143
 20
98.661334
 30
0.0
 11
150.749799
 21
98.661334
 31
0.0
  0
LINE
  5
540
330
A
100
AcDbEntity
  8
0
 62
     7
100
AcDbLine
 10
150.749799
 20
98.661334
 30
0.0
 11
150.460067
 21
98.661334
 31
0.0
  0
LINE
  5
541
330
A
100
AcDbEntity
  8
0
 62
     7
100
AcDbLine
 10
150.460067
 20
98.661334
 30
0.0
 11
150.026329
 21
98.661334
 31
0.0
  0
LINE
  5
542
330
A
100
AcDbEntity
  8
0
 62
     7
100
AcDbLine
 10
150.026329
 20
98.661334
 30
0.0
 11
149.514733
 21
98.661334
 31
0.0
  0
LINE
  5
543
330
A
100
AcDbEntity
  8
0
 62
     7
100
AcDbLine
 10
149.514733
 20
98.661334
 30
0.0
 11
149.00348
 21
98.661334
 31
0.0
  0
LINE
  5
544
330
A
100
AcDbEntity
  8
0
 62
     7
100
AcDbLine
 10
149.00348
 20
98.661334
 30
0.0
 11
148.569743
 21
98.661334
 31
0.0
  0
LINE
  5
545
330
A
100
AcDbEntity
  8
0
 62
     7
100
AcDbLine
 10
148.569743
 20
98.661334
 30
0.0
 11
148.28001
 21
98.661334
 31
0.0
  0
LINE
  5
546
330
A
100
AcDbEntity
  8
0
 62
     7
100
AcDbLine
 10
148.28001
 20
98.661334
 30
0.0
 11
148.178208
 21
98.661334
 31
0.0
  0
LINE
  5
547
330
A
100
AcDbEntity
  8
0
 62
     7
100
AcDbLine
 10
148.178208
 20
105.825926
 30
0.0
 11
148.178208
 21
105.680199
 31
0.0
  0
LINE
  5
548
330
A
100
AcDbEntity
  8
0
 62
     7
100
AcDbLine
 10
150.85143
 20
105.825926
 30
0.0
 11
150.85143
 21
105.680199
 31
0.0
  0
LINE
  5
549
330
A
100
AcDbEntity
  8
0
 62
     7
100
AcDbLine
 10
148.178208
 20
105.680199
 30
0.0
 11
148.178208
 21
105.259036
 31
0.0
  0
LINE
  5
54A
330
A
100
AcDbEntity
  8
0
 62
     7
100
AcDbLine
 10
150.85143
 20
105.680199
 30
0.0
 11
150.85143
 21
105.259036
 31
0.0
  0
LINE
  5
54B
330
A
100
AcDbEntity
  8
0
 62
     7
100
AcDbLine
 10
148.178208
 20
105.259036
 30
0.0
 11
148.178208
 21
104.632201
 31
0.0
  0
LINE
  5
54C
330
A
100
AcDbEntity
  8
0
 62
     7
100
AcDbLine
 10
150.85143
 20
105.259036
 30
0.0
 11
150.85143
 21
104.632201
 31
0.0
  0
LINE
  5
54D
330
A
100
AcDbEntity
  8
0
 62
     7
100
AcDbLine
 10
148.178208
 20
104.632201
 30
0.0
 11
148.178208
 21
104.007088
 31
0.0
  0
LINE
  5
54E
330
A
100
AcDbEntity
  8
0
 62
     7
100
AcDbLine
 10
150.85143
 20
104.632201
 30
0.0
 11
150.85143
 21
104.007088
 31
0.0
  0
LINE
  5
54F
330
A
100
AcDbEntity
  8
0
 62
     7
100
AcDbLine
 10
148.178208
 20
104.007088
 30
0.0
 11
148.178208
 21
98.661334
 31
0.0
  0
LINE
  5
550
330
A
100
AcDbEntity
  8
0
 62
     7
100
AcDbLine
 10
150.85143
 20
104.007088
 30
0.0
 11
150.85143
 21
98.661334
 31
0.0
  0
LINE
  5
551
330
A
100
AcDbEntity
  8
0
 62
     7
100
AcDbLine
 10
158.077517
 20
91.348429
 30
0.0
 11
158.077517
 21
92.80742700000001
 31
0.0
  0
LINE
  5
552
330
A
100
AcDbEntity
  8
0
 62
     7
100
AcDbLine
 10
158.077517
 20
90.516439
 30
0.0
 11
158.077517
 21
91.348429
 31
0.0
  0
LINE
  5
553
330
A
100
AcDbEntity
  8
0
 62
     7
100
AcDbLine
 10
155.977387
 20
92.80742700000001
 30
0.0
 11
155.977387
 21
91.348429
 31
0.0
  0
LINE
  5
554
330
A
100
AcDbEntity
  8
0
 62
     7
100
AcDbLine
 10
155.977387
 20
91.348429
 30
0.0
 11
155.977387
 21
90.516439
 31
0.0
  0
LINE
  5
555
330
A
100
AcDbEntity
  8
0
 62
     7
100
AcDbLine
 10
158.077517
 20
88.09556999999999
 30
0.0
 11
158.077517
 21
84.55194499999999
 31
0.0
  0
LINE
  5
556
330
A
100
AcDbEntity
  8
0
 62
     7
100
AcDbLine
 10
158.077517
 20
84.55194499999999
 30
0.0
 11
158.056847
 21
84.31767800000001
 31
0.0
  0
LINE
  5
557
330
A
100
AcDbEntity
  8
0
 62
     7
100
AcDbLine
 10
155.977387
 20
88.09556999999999
 30
0.0
 11
155.977387
 21
84.55194499999999
 31
0.0
  0
LINE
  5
558
330
A
100
AcDbEntity
  8
0
 62
     7
100
AcDbLine
 10
155.998058
 20
84.31767800000001
 30
0.0
 11
155.977387
 21
84.55194499999999
 31
0.0
  0
LINE
  5
559
330
A
100
AcDbEntity
  8
0
 62
     7
100
AcDbLine
 10
158.077517
 20
88.884842
 30
0.0
 11
158.077517
 21
88.09556999999999
 31
0.0
  0
LINE
  5
55A
330
A
100
AcDbEntity
  8
0
 62
     7
100
AcDbLine
 10
155.977387
 20
88.884842
 30
0.0
 11
155.977387
 21
88.09556999999999
 31
0.0
  0
LINE
  5
55B
330
A
100
AcDbEntity
  8
0
 62
     7
100
AcDbLine
 10
158.077517
 20
89.69340499999999
 30
0.0
 11
158.077517
 21
88.884842
 31
0.0
  0
LINE
  5
55C
330
A
100
AcDbEntity
  8
0
 62
     7
100
AcDbLine
 10
155.977387
 20
89.69340499999999
 30
0.0
 11
155.977387
 21
88.884842
 31
0.0
  0
LINE
  5
55D
330
A
100
AcDbEntity
  8
0
 62
     7
100
AcDbLine
 10
158.077517
 20
90.516439
 30
0.0
 11
158.077517
 21
89.69340499999999
 31
0.0
  0
LINE
  5
55E
330
A
100
AcDbEntity
  8
0
 62
     7
100
AcDbLine
 10
155.977387
 20
90.516439
 30
0.0
 11
155.977387
 21
89.69340499999999
 31
0.0
  0
LINE
  5
55F
330
A
100
AcDbEntity
  8
0
 62
     7
100
AcDbLine
 10
158.911919
 20
93.64182900000001
 30
0.0
 11
167.162923
 21
93.64182900000001
 31
0.0
  0
LINE
  5
560
330
A
100
AcDbEntity
  8
0
 62
     7
100
AcDbLine
 10
146.832037
 20
93.64182900000001
 30
0.0
 11
155.142985
 21
93.64182900000001
 31
0.0
  0
LINE
  5
561
330
A
100
AcDbEntity
  8
0
 62
     7
100
AcDbLine
 10
146.772264
 20
93.667323
 30
0.0
 11
146.832037
 21
93.64182900000001
 31
0.0
  0
LINE
  5
562
330
A
100
AcDbEntity
  8
0
 62
     7
100
AcDbLine
 10
146.832037
 20
98.224151
 30
0.0
 11
146.772264
 21
98.19900200000001
 31
0.0
  0
LINE
  5
563
330
A
100
AcDbEntity
  8
0
 62
     7
100
AcDbLine
 10
146.774676
 20
98.073945
 30
0.0
 11
146.772264
 21
98.19900200000001
 31
0.0
  0
LINE
  5
564
330
A
100
AcDbEntity
  8
0
 62
     7
100
AcDbLine
 10
146.773642
 20
97.748728
 30
0.0
 11
146.774676
 21
98.073945
 31
0.0
  0
LINE
  5
565
330
A
100
AcDbEntity
  8
0
 62
     7
100
AcDbLine
 10
146.772609
 20
97.26572500000001
 30
0.0
 11
146.773642
 21
97.748728
 31
0.0
  0
LINE
  5
566
330
A
100
AcDbEntity
  8
0
 62
     7
100
AcDbLine
 10
146.772264
 20
96.67075699999999
 30
0.0
 11
146.772609
 21
97.26572500000001
 31
0.0
  0
LINE
  5
567
330
A
100
AcDbEntity
  8
0
 62
     7
100
AcDbLine
 10
146.772264
 20
95.195223
 30
0.0
 11
146.772264
 21
96.67075699999999
 31
0.0
  0
LINE
  5
568
330
A
100
AcDbEntity
  8
0
 62
     7
100
AcDbLine
 10
146.772264
 20
94.59887700000001
 30
0.0
 11
146.772264
 21
95.195223
 31
0.0
  0
LINE
  5
569
330
A
100
AcDbEntity
  8
0
 62
     7
100
AcDbLine
 10
146.772264
 20
94.114152
 30
0.0
 11
146.772264
 21
94.59887700000001
 31
0.0
  0
LINE
  5
56A
330
A
100
AcDbEntity
  8
0
 62
     7
100
AcDbLine
 10
146.772264
 20
93.78721199999999
 30
0.0
 11
146.772264
 21
94.114152
 31
0.0
  0
LINE
  5
56B
330
A
100
AcDbEntity
  8
0
 62
     7
100
AcDbLine
 10
146.772264
 20
93.78721199999999
 30
0.0
 11
146.772264
 21
93.667323
 31
0.0
  0
LINE
  5
56C
330
A
100
AcDbEntity
  8
0
 62
     7
100
AcDbLine
 10
146.772264
 20
93.667323
 30
0.0
 11
146.74746
 21
93.72830099999999
 31
0.0
  0
LINE
  5
56D
330
A
100
AcDbEntity
  8
0
 62
     7
100
AcDbLine
 10
167.222868
 20
96.67075699999999
 30
0.0
 11
167.222868
 21
95.195223
 31
0.0
  0
LINE
  5
56E
330
A
100
AcDbEntity
  8
0
 62
     7
100
AcDbLine
 10
167.222868
 20
95.195223
 30
0.0
 11
167.222868
 21
94.59887700000001
 31
0.0
  0
LINE
  5
56F
330
A
100
AcDbEntity
  8
0
 62
     7
100
AcDbLine
 10
167.222868
 20
94.59887700000001
 30
0.0
 11
167.222868
 21
94.114152
 31
0.0
  0
LINE
  5
570
330
A
100
AcDbEntity
  8
0
 62
     7
100
AcDbLine
 10
167.222868
 20
94.114152
 30
0.0
 11
167.222868
 21
93.78721199999999
 31
0.0
  0
LINE
  5
571
330
A
100
AcDbEntity
  8
0
 62
     7
100
AcDbLine
 10
167.222868
 20
93.78721199999999
 30
0.0
 11
167.222868
 21
93.667323
 31
0.0
  0
LINE
  5
572
330
A
100
AcDbEntity
  8
0
 62
     7
100
AcDbLine
 10
167.222868
 20
93.667323
 30
0.0
 11
167.162923
 21
93.64182900000001
 31
0.0
  0
LINE
  5
573
330
A
100
AcDbEntity
  8
0
 62
     7
100
AcDbLine
 10
167.222868
 20
98.19900200000001
 30
0.0
 11
167.162923
 21
98.224151
 31
0.0
  0
LINE
  5
574
330
A
100
AcDbEntity
  8
0
 62
     7
100
AcDbLine
 10
167.222868
 20
98.19900200000001
 30
0.0
 11
167.220112
 21
98.073945
 31
0.0
  0
LINE
  5
575
330
A
100
AcDbEntity
  8
0
 62
     7
100
AcDbLine
 10
167.220112
 20
98.073945
 30
0.0
 11
167.22149
 21
97.748728
 31
0.0
  0
LINE
  5
576
330
A
100
AcDbEntity
  8
0
 62
     7
100
AcDbLine
 10
167.22149
 20
97.748728
 30
0.0
 11
167.222523
 21
97.26572500000001
 31
0.0
  0
LINE
  5
577
330
A
100
AcDbEntity
  8
0
 62
     7
100
AcDbLine
 10
167.222868
 20
96.67075699999999
 30
0.0
 11
167.222523
 21
97.26572500000001
 31
0.0
  0
LINE
  5
578
330
A
100
AcDbEntity
  8
0
 62
     7
100
AcDbLine
 10
166.889727
 20
98.25067800000001
 30
0.0
 11
167.020985
 21
98.224151
 31
0.0
  0
LINE
  5
579
330
A
100
AcDbEntity
  8
0
 62
     7
100
AcDbLine
 10
148.861715
 20
98.64720900000001
 30
0.0
 11
165.133073
 21
98.64720900000001
 31
0.0
  0
LINE
  5
57A
330
A
100
AcDbEntity
  8
0
 62
     7
100
AcDbLine
 10
166.229647
 20
98.64720900000001
 30
0.0
 11
166.561754
 21
98.64720900000001
 31
0.0
  0
LINE
  5
57B
330
A
100
AcDbEntity
  8
0
 62
     7
100
AcDbLine
 10
166.561754
 20
98.64720900000001
 30
0.0
 11
166.68371
 21
98.64720900000001
 31
0.0
  0
LINE
  5
57C
330
A
100
AcDbEntity
  8
0
 62
     7
100
AcDbLine
 10
166.68371
 20
98.64720900000001
 30
0.0
 11
166.561754
 21
98.64720900000001
 31
0.0
  0
LINE
  5
57D
330
A
100
AcDbEntity
  8
0
 62
     7
100
AcDbLine
 10
166.561754
 20
98.64720900000001
 30
0.0
 11
166.229647
 21
98.64720900000001
 31
0.0
  0
LINE
  5
57E
330
A
100
AcDbEntity
  8
0
 62
     7
100
AcDbLine
 10
166.229647
 20
98.64720900000001
 30
0.0
 11
165.736654
 21
98.64720900000001
 31
0.0
  0
LINE
  5
57F
330
A
100
AcDbEntity
  8
0
 62
     7
100
AcDbLine
 10
165.736654
 20
98.64720900000001
 30
0.0
 11
165.133073
 21
98.64720900000001
 31
0.0
  0
LINE
  5
580
330
A
100
AcDbEntity
  8
0
 62
     7
100
AcDbLine
 10
165.133073
 20
98.64720900000001
 30
0.0
 11
148.861715
 21
98.64720900000001
 31
0.0
  0
LINE
  5
581
330
A
100
AcDbEntity
  8
0
 62
     7
100
AcDbLine
 10
148.861715
 20
98.64720900000001
 30
0.0
 11
148.258306
 21
98.64720900000001
 31
0.0
  0
LINE
  5
582
330
A
100
AcDbEntity
  8
0
 62
     7
100
AcDbLine
 10
148.258306
 20
98.64720900000001
 30
0.0
 11
147.765485
 21
98.64720900000001
 31
0.0
  0
LINE
  5
583
330
A
100
AcDbEntity
  8
0
 62
     7
100
AcDbLine
 10
147.765485
 20
98.64720900000001
 30
0.0
 11
147.433206
 21
98.64720900000001
 31
0.0
  0
LINE
  5
584
330
A
100
AcDbEntity
  8
0
 62
     7
100
AcDbLine
 10
147.433206
 20
98.64720900000001
 30
0.0
 11
147.311249
 21
98.64720900000001
 31
0.0
  0
LINE
  5
585
330
A
100
AcDbEntity
  8
0
 62
     7
100
AcDbLine
 10
147.311249
 20
98.64720900000001
 30
0.0
 11
147.433206
 21
98.64720900000001
 31
0.0
  0
LINE
  5
586
330
A
100
AcDbEntity
  8
0
 62
     7
100
AcDbLine
 10
147.433206
 20
98.64720900000001
 30
0.0
 11
147.765485
 21
98.64720900000001
 31
0.0
  0
LINE
  5
587
330
A
100
AcDbEntity
  8
0
 62
     7
100
AcDbLine
 10
147.765485
 20
98.64720900000001
 30
0.0
 11
148.258306
 21
98.64720900000001
 31
0.0
  0
LINE
  5
588
330
A
100
AcDbEntity
  8
0
 62
     7
100
AcDbLine
 10
148.258306
 20
98.64720900000001
 30
0.0
 11
148.861715
 21
98.64720900000001
 31
0.0
  0
LINE
  5
589
330
A
100
AcDbEntity
  8
0
 62
     7
100
AcDbLine
 10
147.284722
 20
98.43051199999999
 30
0.0
 11
147.311249
 21
98.56177
 31
0.0
  0
LINE
  5
58A
330
A
100
AcDbEntity
  8
0
 62
     7
100
AcDbLine
 10
147.284722
 20
98.43051199999999
 30
0.0
 11
147.212375
 21
98.323025
 31
0.0
  0
LINE
  5
58B
330
A
100
AcDbEntity
  8
0
 62
     7
100
AcDbLine
 10
147.212375
 20
98.323025
 30
0.0
 11
147.105233
 21
98.25067800000001
 31
0.0
  0
LINE
  5
58C
330
A
100
AcDbEntity
  8
0
 62
     7
100
AcDbLine
 10
147.105233
 20
98.25067800000001
 30
0.0
 11
146.973802
 21
98.224151
 31
0.0
  0
LINE
  5
58D
330
A
100
AcDbEntity
  8
0
 62
     7
100
AcDbLine
 10
166.710238
 20
98.43051199999999
 30
0.0
 11
166.782585
 21
98.323025
 31
0.0
  0
LINE
  5
58E
330
A
100
AcDbEntity
  8
0
 62
     7
100
AcDbLine
 10
166.710238
 20
98.43051199999999
 30
0.0
 11
166.68371
 21
98.56177
 31
0.0
  0
LINE
  5
58F
330
A
100
AcDbEntity
  8
0
 62
     7
100
AcDbLine
 10
166.68371
 20
98.64720900000001
 30
0.0
 11
166.68371
 21
98.56177
 31
0.0
  0
LINE
  5
590
330
A
100
AcDbEntity
  8
0
 62
     7
100
AcDbLine
 10
147.311249
 20
98.64720900000001
 30
0.0
 11
147.311249
 21
98.56177
 31
0.0
  0
LINE
  5
591
330
A
100
AcDbEntity
  8
0
 62
     7
100
AcDbLine
 10
166.889727
 20
98.25067800000001
 30
0.0
 11
166.782585
 21
98.323025
 31
0.0
  0
LINE
  5
592
330
A
100
AcDbEntity
  8
0
 62
     7
100
AcDbLine
 10
167.020985
 20
98.224151
 30
0.0
 11
167.162923
 21
98.224151
 31
0.0
  0
LINE
  5
593
330
A
100
AcDbEntity
  8
0
 62
     7
100
AcDbLine
 10
167.222868
 20
93.667323
 30
0.0
 11
167.247328
 21
93.72830099999999
 31
0.0
  0
LINE
  5
594
330
A
100
AcDbEntity
  8
0
 62
     7
100
AcDbLine
 10
146.832037
 20
98.224151
 30
0.0
 11
146.973802
 21
98.224151
 31
0.0
  0
LINE
  5
595
330
A
100
AcDbEntity
  8
0
 62
     7
100
AcDbLine
 10
158.136084
 20
93.11438499999999
 30
0.0
 11
158.077517
 21
92.80742700000001
 31
0.0
  0
LINE
  5
596
330
A
100
AcDbEntity
  8
0
 62
     7
100
AcDbLine
 10
158.322119
 20
93.39757199999999
 30
0.0
 11
158.136084
 21
93.11438499999999
 31
0.0
  0
LINE
  5
597
330
A
100
AcDbEntity
  8
0
 62
     7
100
AcDbLine
 10
158.604961
 20
93.58326299999999
 30
0.0
 11
158.322119
 21
93.39757199999999
 31
0.0
  0
LINE
  5
598
330
A
100
AcDbEntity
  8
0
 62
     7
100
AcDbLine
 10
158.911919
 20
93.64182900000001
 30
0.0
 11
158.604961
 21
93.58326299999999
 31
0.0
  0
LINE
  5
599
330
A
100
AcDbEntity
  8
0
 62
     7
100
AcDbLine
 10
155.977387
 20
92.80742700000001
 30
0.0
 11
155.918821
 21
93.11438499999999
 31
0.0
  0
LINE
  5
59A
330
A
100
AcDbEntity
  8
0
 62
     7
100
AcDbLine
 10
155.918821
 20
93.11438499999999
 30
0.0
 11
155.73313
 21
93.39757199999999
 31
0.0
  0
LINE
  5
59B
330
A
100
AcDbEntity
  8
0
 62
     7
100
AcDbLine
 10
155.73313
 20
93.39757199999999
 30
0.0
 11
155.450288
 21
93.58326299999999
 31
0.0
  0
LINE
  5
59C
330
A
100
AcDbEntity
  8
0
 62
     7
100
AcDbLine
 10
155.450288
 20
93.58326299999999
 30
0.0
 11
155.142985
 21
93.64182900000001
 31
0.0
  0
LINE
  5
59D
330
A
100
AcDbEntity
  8
0
 62
     7
100
AcDbLine
 10
158.056847
 20
84.31767800000001
 30
0.0
 11
158.036521
 21
84.27358100000001
 31
0.0
  0
LINE
  5
59E
330
A
100
AcDbEntity
  8
0
 62
     7
100
AcDbLine
 10
158.036521
 20
84.27358100000001
 30
0.0
 11
157.851519
 21
84.085479
 31
0.0
  0
LINE
  5
59F
330
A
100
AcDbEntity
  8
0
 62
     7
100
AcDbLine
 10
155.998058
 20
84.31767800000001
 30
0.0
 11
156.018384
 21
84.27358100000001
 31
0.0
  0
LINE
  5
5A0
330
A
100
AcDbEntity
  8
0
 62
     7
100
AcDbLine
 10
156.203385
 20
84.085479
 30
0.0
 11
156.018384
 21
84.27358100000001
 31
0.0
  0
LINE
  5
5A1
330
A
100
AcDbEntity
  8
0
 62
     7
100
AcDbLine
 10
156.570288
 20
83.95904399999999
 30
0.0
 11
156.203385
 21
84.085479
 31
0.0
  0
LINE
  5
5A2
330
A
100
AcDbEntity
  8
0
 62
     7
100
AcDbLine
 10
157.027452
 20
83.91253499999999
 30
0.0
 11
156.570288
 21
83.95904399999999
 31
0.0
  0
LINE
  5
5A3
330
A
100
AcDbEntity
  8
0
 62
     7
100
AcDbLine
 10
157.484616
 20
83.95904399999999
 30
0.0
 11
157.027452
 21
83.91253499999999
 31
0.0
  0
LINE
  5
5A4
330
A
100
AcDbEntity
  8
0
 62
     7
100
AcDbLine
 10
157.851519
 20
84.085479
 30
0.0
 11
157.484616
 21
83.95904399999999
 31
0.0
  0
LINE
  5
5A5
330
A
100
AcDbEntity
  8
0
 62
     7
100
AcDbLine
 10
172.258564
 20
98.036393
 30
0.0
 11
172.258564
 21
97.927873
 31
0.0
  0
LINE
  5
5A6
330
A
100
AcDbEntity
  8
0
 62
     7
100
AcDbLine
 10
172.258564
 20
97.927873
 30
0.0
 11
172.258564
 21
97.632284
 31
0.0
  0
LINE
  5
5A7
330
A
100
AcDbEntity
  8
0
 62
     7
100
AcDbLine
 10
172.258564
 20
97.632284
 30
0.0
 11
172.258564
 21
97.19372299999999
 31
0.0
  0
LINE
  5
5A8
330
A
100
AcDbEntity
  8
0
 62
     7
100
AcDbLine
 10
172.258564
 20
97.19372299999999
 30
0.0
 11
172.258564
 21
96.63871800000002
 31
0.0
  0
LINE
  5
5A9
330
A
100
AcDbEntity
  8
0
 62
     7
100
AcDbLine
 10
172.258564
 20
96.63871800000002
 30
0.0
 11
172.258564
 21
95.18971099999999
 31
0.0
  0
LINE
  5
5AA
330
A
100
AcDbEntity
  8
0
 62
     7
100
AcDbLine
 10
172.258564
 20
95.18971099999999
 30
0.0
 11
172.258564
 21
94.634706
 31
0.0
  0
LINE
  5
5AB
330
A
100
AcDbEntity
  8
0
 62
     7
100
AcDbLine
 10
172.258564
 20
94.634706
 30
0.0
 11
172.258564
 21
94.19648999999999
 31
0.0
  0
LINE
  5
5AC
330
A
100
AcDbEntity
  8
0
 62
     7
100
AcDbLine
 10
172.258564
 20
94.19648999999999
 30
0.0
 11
172.258564
 21
93.900901
 31
0.0
  0
LINE
  5
5AD
330
A
100
AcDbEntity
  8
0
 62
     7
100
AcDbLine
 10
172.258564
 20
93.900901
 30
0.0
 11
172.258564
 21
93.792036
 31
0.0
  0
LINE
  5
5AE
330
A
100
AcDbEntity
  8
0
 62
     7
100
AcDbLine
 10
167.258697
 20
93.94051899999999
 30
0.0
 11
167.258697
 21
94.22680699999999
 31
0.0
  0
LINE
  5
5AF
330
A
100
AcDbEntity
  8
0
 62
     7
100
AcDbLine
 10
167.258697
 20
94.22680699999999
 30
0.0
 11
167.258697
 21
94.65158700000001
 31
0.0
  0
LINE
  5
5B0
330
A
100
AcDbEntity
  8
0
 62
     7
100
AcDbLine
 10
167.258697
 20
94.65158700000001
 30
0.0
 11
167.258697
 21
95.19384499999999
 31
0.0
  0
LINE
  5
5B1
330
A
100
AcDbEntity
  8
0
 62
     7
100
AcDbLine
 10
167.258697
 20
95.19384499999999
 30
0.0
 11
167.258697
 21
96.63458400000001
 31
0.0
  0
LINE
  5
5B2
330
A
100
AcDbEntity
  8
0
 62
     7
100
AcDbLine
 10
167.258697
 20
96.63458400000001
 30
0.0
 11
167.258697
 21
97.17718599999999
 31
0.0
  0
LINE
  5
5B3
330
A
100
AcDbEntity
  8
0
 62
     7
100
AcDbLine
 10
167.258697
 20
97.17718599999999
 30
0.0
 11
167.258697
 21
97.60162199999999
 31
0.0
  0
LINE
  5
5B4
330
A
100
AcDbEntity
  8
0
 62
     7
100
AcDbLine
 10
167.258697
 20
97.60162199999999
 30
0.0
 11
167.258697
 21
97.88790999999999
 31
0.0
  0
LINE
  5
5B5
330
A
100
AcDbEntity
  8
0
 62
     7
100
AcDbLine
 10
167.258697
 20
97.88790999999999
 30
0.0
 11
167.258697
 21
97.992985
 31
0.0
  0
LINE
  5
5B6
330
A
100
AcDbEntity
  8
0
 62
     7
100
AcDbLine
 10
167.258697
 20
93.83544399999999
 30
0.0
 11
167.258697
 21
93.94051899999999
 31
0.0
  0
LINE
  5
5B7
330
A
100
AcDbEntity
  8
0
 62
     7
100
AcDbLine
 10
172.08941
 20
98.20933700000001
 30
0.0
 11
167.470226
 21
98.20933700000001
 31
0.0
  0
LINE
  5
5B8
330
A
100
AcDbEntity
  8
0
 62
     7
100
AcDbLine
 10
167.470226
 20
93.61909200000001
 30
0.0
 11
172.08941
 21
93.61909200000001
 31
0.0
  0
LINE
  5
5B9
330
A
100
AcDbEntity
  8
0
 62
     7
100
AcDbLine
 10
172.258564
 20
98.036393
 30
0.0
 11
172.208955
 21
98.158694
 31
0.0
  0
LINE
  5
5BA
330
A
100
AcDbEntity
  8
0
 62
     7
100
AcDbLine
 10
172.208955
 20
98.158694
 30
0.0
 11
172.208955
 21
98.04052699999999
 31
0.0
  0
LINE
  5
5BB
330
A
100
AcDbEntity
  8
0
 62
     7
100
AcDbLine
 10
172.208955
 20
98.158694
 30
0.0
 11
172.08941
 21
98.20933700000001
 31
0.0
  0
LINE
  5
5BC
330
A
100
AcDbEntity
  8
0
 62
     7
100
AcDbLine
 10
172.208955
 20
98.04052699999999
 30
0.0
 11
172.208955
 21
97.71841100000001
 31
0.0
  0
LINE
  5
5BD
330
A
100
AcDbEntity
  8
0
 62
     7
100
AcDbLine
 10
172.208955
 20
97.71841100000001
 30
0.0
 11
172.208955
 21
97.240921
 31
0.0
  0
LINE
  5
5BE
330
A
100
AcDbEntity
  8
0
 62
     7
100
AcDbLine
 10
172.208955
 20
97.240921
 30
0.0
 11
172.208955
 21
96.65077600000001
 31
0.0
  0
LINE
  5
5BF
330
A
100
AcDbEntity
  8
0
 62
     7
100
AcDbLine
 10
172.208955
 20
96.65077600000001
 30
0.0
 11
172.208955
 21
95.177653
 31
0.0
  0
LINE
  5
5C0
330
A
100
AcDbEntity
  8
0
 62
     7
100
AcDbLine
 10
172.208955
 20
95.177653
 30
0.0
 11
172.208955
 21
94.587508
 31
0.0
  0
LINE
  5
5C1
330
A
100
AcDbEntity
  8
0
 62
     7
100
AcDbLine
 10
172.208955
 20
94.587508
 30
0.0
 11
172.208955
 21
94.11001800000001
 31
0.0
  0
LINE
  5
5C2
330
A
100
AcDbEntity
  8
0
 62
     7
100
AcDbLine
 10
172.208955
 20
94.11001800000001
 30
0.0
 11
172.208955
 21
93.78790100000001
 31
0.0
  0
LINE
  5
5C3
330
A
100
AcDbEntity
  8
0
 62
     7
100
AcDbLine
 10
172.208955
 20
93.78790100000001
 30
0.0
 11
172.208955
 21
93.669735
 31
0.0
  0
LINE
  5
5C4
330
A
100
AcDbEntity
  8
0
 62
     7
100
AcDbLine
 10
172.208955
 20
93.669735
 30
0.0
 11
172.258564
 21
93.792036
 31
0.0
  0
LINE
  5
5C5
330
A
100
AcDbEntity
  8
0
 62
     7
100
AcDbLine
 10
172.08941
 20
93.61909200000001
 30
0.0
 11
172.208955
 21
93.669735
 31
0.0
  0
LINE
  5
5C6
330
A
100
AcDbEntity
  8
0
 62
     7
100
AcDbLine
 10
167.470226
 20
98.20933700000001
 30
0.0
 11
167.320709
 21
98.145947
 31
0.0
  0
LINE
  5
5C7
330
A
100
AcDbEntity
  8
0
 62
     7
100
AcDbLine
 10
167.320709
 20
98.145947
 30
0.0
 11
167.320709
 21
98.028814
 31
0.0
  0
LINE
  5
5C8
330
A
100
AcDbEntity
  8
0
 62
     7
100
AcDbLine
 10
167.320709
 20
98.145947
 30
0.0
 11
167.258697
 21
97.992985
 31
0.0
  0
LINE
  5
5C9
330
A
100
AcDbEntity
  8
0
 62
     7
100
AcDbLine
 10
167.320709
 20
98.028814
 30
0.0
 11
167.320709
 21
97.70945400000002
 31
0.0
  0
LINE
  5
5CA
330
A
100
AcDbEntity
  8
0
 62
     7
100
AcDbLine
 10
167.320709
 20
97.70945400000002
 30
0.0
 11
167.320709
 21
97.236098
 31
0.0
  0
LINE
  5
5CB
330
A
100
AcDbEntity
  8
0
 62
     7
100
AcDbLine
 10
167.320709
 20
97.236098
 30
0.0
 11
167.320709
 21
96.649398
 31
0.0
  0
LINE
  5
5CC
330
A
100
AcDbEntity
  8
0
 62
     7
100
AcDbLine
 10
167.320709
 20
96.649398
 30
0.0
 11
167.320709
 21
95.17903100000001
 31
0.0
  0
LINE
  5
5CD
330
A
100
AcDbEntity
  8
0
 62
     7
100
AcDbLine
 10
167.320709
 20
95.17903100000001
 30
0.0
 11
167.320709
 21
94.592331
 31
0.0
  0
LINE
  5
5CE
330
A
100
AcDbEntity
  8
0
 62
     7
100
AcDbLine
 10
167.320709
 20
94.592331
 30
0.0
 11
167.320709
 21
94.118975
 31
0.0
  0
LINE
  5
5CF
330
A
100
AcDbEntity
  8
0
 62
     7
100
AcDbLine
 10
167.320709
 20
94.118975
 30
0.0
 11
167.320709
 21
93.799615
 31
0.0
  0
LINE
  5
5D0
330
A
100
AcDbEntity
  8
0
 62
     7
100
AcDbLine
 10
167.320709
 20
93.799615
 30
0.0
 11
167.320709
 21
93.682482
 31
0.0
  0
LINE
  5
5D1
330
A
100
AcDbEntity
  8
0
 62
     7
100
AcDbLine
 10
167.320709
 20
93.682482
 30
0.0
 11
167.470226
 21
93.61909200000001
 31
0.0
  0
LINE
  5
5D2
330
A
100
AcDbEntity
  8
0
 62
     7
100
AcDbLine
 10
167.258697
 20
93.83544399999999
 30
0.0
 11
167.320709
 21
93.682482
 31
0.0
  0
DIMENSION
  5
5E1
330
A
100
AcDbEntity
  8
Cotation-JacobDelafon
  6
Continuous
370
     0
100
AcDbDimension
  2
*D1
 10
172.258564
 20
111.2479320888328
 30
0.0
 11
156.9985995
 21
113.680674244358
 31
0.0
 70
    32
  1
30.5
 71
     5
 42
30.51992899999997
 73
     0
 74
     0
 75
     0
  3
Cotation-Jacob-Delafon
100
AcDbAlignedDimension
 13
141.738635
 23
98.036393
 33
0.0
 14
172.258564
 24
98.036393
 34
0.0
100
AcDbRotatedDimension
  0
DIMENSION
  5
5EE
330
A
100
AcDbEntity
  8
Cotation-JacobDelafon
  6
Continuous
370
     0
100
AcDbDimension
  2
*D2
 10
135.7132991129402
 20
83.9357895
 30
0.0
 11
133.3071599587792
 21
96.13840375000002
 31
0.0
 70
    32
  1
24.4
 71
     5
 42
24.40522849999999
 73
     0
 74
     0
 75
     0
  3
Cotation-Jacob-Delafon
100
AcDbAlignedDimension
 13
149.514733
 23
108.341018
 33
0.0
 14
157.256034
 24
83.9357895
 34
0.0
 50
90.0
100
AcDbRotatedDimension
  0
ENDSEC
  0
SECTION
  2
OBJECTS
  0
DICTIONARY
  5
19
330
0
100
AcDbDictionary
281
     1
  3
ACAD_BACKGROUND
350
4AE
  3
ACAD_COLOR
350
186
  3
ACAD_GROUP
350
1A
  3
ACAD_IMAGE_DICT
350
487
  3
ACAD_LAYOUT
350
1E
  3
ACAD_MATERIAL
350
15C
  3
ACAD_MLEADERSTYLE
350
19B
  3
ACAD_MLINESTYLE
350
1B
  3
ACAD_PLOTSETTINGS
350
22
  3
ACAD_PLOTSTYLENAME
350
1F
  3
ACAD_SCALELIST
350
189
  3
ACAD_TABLESTYLE
350
187
  3
ACAD_VISUALSTYLE
350
175
  3
ACAD_WIPEOUT_VARS
350
23
  3
ACDB_RECOMPOSE_DATA
350
2DC
  3
AcDbVariableDictionary
350
2DD
  3
AEC_DISP_REP_CONFIGURATIONS
350
324
  3
AEC_DISP_REP_SETS
350
326
  3
AEC_DISP_REPS
350
32E
  3
AEC_DISPLAY_PROPS_DEFAULTS
350
3DA
  3
AEC_LAYERKEY_STYLES
350
481
  3
AEC_PROPERTY_SET_DEFS
350
4A9
  3
AEC_VARS
350
484
  0
DICTIONARY
  5
2D4
330
14
100
AcDbDictionary
280
     1
281
     1
  3
ADSK_XREC_LAYER_RECONCILED
360
2D5
  0
DICTIONARY
  5
5DF
330
A
100
AcDbDictionary
280
     1
281
     1
  3
ACAD_SORTENTS
360
5E0
  0
DICTIONARY
  5
4AE
102
{ACAD_REACTORS
330
19
102
}
330
19
100
AcDbDictionary
281
     1
  0
DICTIONARY
  5
186
102
{ACAD_REACTORS
330
19
102
}
330
19
100
AcDbDictionary
281
     1
  0
DICTIONARY
  5
1A
102
{ACAD_REACTORS
330
19
102
}
330
19
100
AcDbDictionary
281
     1
  0
DICTIONARY
  5
487
102
{ACAD_REACTORS
330
19
102
}
330
19
100
AcDbDictionary
281
     1
  3
E1524
350
488
  3
E1525
350
489
  3
E1540
350
48A
  3
E1563
350
48B
  3
E1564-1
350
48C
  3
E1565
350
48D
  3
PP141221-02a
350
48E
  0
DICTIONARY
  5
1E
102
{ACAD_REACTORS
330
19
102
}
330
19
100
AcDbDictionary
281
     1
  3
Layout1
350
21
  3
Model
350
20
  0
DICTIONARY
  5
15C
102
{ACAD_REACTORS
330
19
102
}
330
19
100
AcDbDictionary
281
     1
  3
ByBlock
350
165
  3
ByLayer
350
15D
  3
Global
350
16D
  0
DICTIONARY
  5
19B
102
{ACAD_REACTORS
330
19
102
}
330
19
100
AcDbDictionary
281
     1
  3
Standard
350
19C
  0
DICTIONARY
  5
1B
102
{ACAD_REACTORS
330
19
102
}
330
19
100
AcDbDictionary
281
     1
  3
Standard
350
1C
  0
DICTIONARY
  5
22
102
{ACAD_REACTORS
330
19
102
}
330
19
100
AcDbDictionary
281
     1
  0
ACDBDICTIONARYWDFLT
  5
1F
102
{ACAD_REACTORS
330
19
102
}
330
19
100
AcDbDictionary
281
     1
  3
Normal
350
1D
100
AcDbDictionaryWithDefault
340
1D
  0
DICTIONARY
  5
189
102
{ACAD_REACTORS
330
19
102
}
330
19
100
AcDbDictionary
281
     1
  3
*A1
350
315
  3
*A2
350
663
  3
*A3
350
664
  3
*A4
350
665
  3
*A5
350
666
  3
*A6
350
667
  3
*A7
350
668
  3
*A8
350
669
  3
A0
350
18A
  3
A1
350
18B
  3
A2
350
18C
  3
A3
350
18D
  3
A4
350
18E
  3
A5
350
18F
  3
A6
350
190
  3
A7
350
191
  3
A8
350
192
  3
A9
350
193
  3
B0
350
194
  3
B1
350
195
  3
B2
350
196
  3
B3
350
197
  3
B4
350
198
  3
B5
350
199
  3
B6
350
19A
  0
DICTIONARY
  5
187
102
{ACAD_REACTORS
330
19
102
}
330
19
100
AcDbDictionary
281
     1
  3
Standard
350
188
  0
DICTIONARY
  5
175
102
{ACAD_REACTORS
330
19
102
}
330
19
100
AcDbDictionary
281
     1
  3
2dWireframe
350
17B
  3
3D Hidden
350
17D
  3
3dWireframe
350
17C
  3
Basic
350
17A
  3
Brighten
350
181
  3
ColorChange
350
185
  3
Conceptual
350
17E
  3
Dim
350
180
  3
Facepattern
350
184
  3
Flat
350
176
  3
FlatWithEdges
350
177
  3
Gouraud
350
178
  3
GouraudWithEdges
350
179
  3
Linepattern
350
183
  3
Realistic
350
17F
  3
Thicken
350
182
  0
WIPEOUTVARIABLES
  5
23
330
19
100
AcDbWipeoutVariables
 70
     1
  0
XRECORD
  5
2DC
102
{ACAD_REACTORS
330
19
102
}
330
19
100
AcDbXrecord
280
     1
 90
        1
330
188
  0
DICTIONARY
  5
2DD
102
{ACAD_REACTORS
330
19
102
}
330
19
100
AcDbDictionary
281
     1
  3
CANNOSCALE
350
2E1
  3
CMLEADERSTYLE
350
2DF
  3
CTABLESTYLE
350
2DE
  3
LAYEREVAL
350
2E3
  3
LAYERNOTIFY
350
2E4
  3
LIGHTINGUNITS
350
2E2
  3
MSLTSCALE
350
2E0
  0
DICTIONARY
  5
324
102
{ACAD_REACTORS
330
19
102
}
330
19
100
AcDbDictionary
281
     1
  3
Standard
350
325
1001
AECBASE
1070
 10000
1005
325
  0
DICTIONARY
  5
326
102
{ACAD_REACTORS
330
19
102
}
330
19
100
AcDbDictionary
281
     1
  3
Live Section
350
327
  3
Model
350
328
  3
Modèle détaillé
350
4A8
  3
Modèle non détaillé
350
4A7
  3
Plan
350
329
  3
Plan 1-100
350
32A
  3
Plan 1-50
350
32B
  3
Reflected
350
32C
  3
Section_Elev
350
32D
  0
DICTIONARY
  5
32E
102
{ACAD_REACTORS
330
19
102
}
330
19
100
AcDbDictionary
281
     1
  3
AecDbDispRep2dSection
350
32F
  3
AecDbDispRepAnchor
350
330
  3
AecDbDispRepAnchorBubToGrid
350
331
  3
AecDbDispRepAnchorBubToGridMdl
350
332
  3
AecDbDispRepAnchorBubToGridRcp
350
333
  3
AecDbDispRepAnchorEntToNode
350
334
  3
AecDbDispRepAnchorExtendedTagToEnt
350
499
  3
AecDbDispRepAnchorTagToEnt
350
335
  3
AecDbDispRepBdgElevLineModel
350
33D
  3
AecDbDispRepBdgElevLinePlan
350
33E
  3
AecDbDispRepBdgElevLinePlan100
350
33F
  3
AecDbDispRepBdgElevLinePlan50
350
340
  3
AecDbDispRepBdgElevLineRcp
350
341
  3
AecDbDispRepBdgSectionLineModel
350
342
  3
AecDbDispRepBdgSectionLinePlan
350
343
  3
AecDbDispRepBdgSectionLinePlan100
350
344
  3
AecDbDispRepBdgSectionLinePlan50
350
345
  3
AecDbDispRepBdgSectionLineRcp
350
346
  3
AecDbDispRepBdgSectionModel
350
347
  3
AecDbDispRepBdgSectionSubDiv
350
348
  3
AecDbDispRepCeilingGrid
350
34A
  3
AecDbDispRepCeilingGridModel
350
34B
  3
AecDbDispRepCeilingGridPlan100
350
34C
  3
AecDbDispRepCeilingGridPlan50
350
34D
  3
AecDbDispRepCeilingGridRcp
350
34E
  3
AecDbDispRepClipVolModel
350
34F
  3
AecDbDispRepClipVolPlan
350
350
  3
AecDbDispRepClipVolResSubDiv
350
351
  3
AecDbDispRepClipVolResult
350
352
  3
AecDbDispRepColumnGrid
350
353
  3
AecDbDispRepColumnGridModel
350
354
  3
AecDbDispRepColumnGridPlan100
350
355
  3
AecDbDispRepColumnGridPlan50
350
356
  3
AecDbDispRepColumnGridRcp
350
357
  3
AecDbDispRepCurtainWallLayoutModel
350
358
  3
AecDbDispRepCurtainWallLayoutPlan
350
359
  3
AecDbDispRepCurtainWallLayoutPlan100
350
35A
  3
AecDbDispRepCurtainWallLayoutPlan50
350
35B
  3
AecDbDispRepCurtainWallLayoutXSection
350
35C
  3
AecDbDispRepCurtainWallUnitModel
350
35D
  3
AecDbDispRepCurtainWallUnitPlan
350
35E
  3
AecDbDispRepCurtainWallUnitPlan100
350
35F
  3
AecDbDispRepCurtainWallUnitPlan50
350
360
  3
AecDbDispRepCurtainWallUnitXSection
350
361
  3
AecDbDispRepDimGroupPlan
350
362
  3
AecDbDispRepDimGroupPlan100
350
363
  3
AecDbDispRepDimGroupPlan50
350
364
  3
AecDbDispRepDisplayTheme
350
493
  3
AecDbDispRepDoorElev
350
365
  3
AecDbDispRepDoorModel
350
366
  3
AecDbDispRepDoorNominal
350
367
  3
AecDbDispRepDoorPlan
350
368
  3
AecDbDispRepDoorPlan50
350
369
  3
AecDbDispRepDoorPlanHekto
350
36A
  3
AecDbDispRepDoorRcp
350
36B
  3
AecDbDispRepDoorThresholdPlan
350
36C
  3
AecDbDispRepDoorThresholdSymbolPlan
350
36D
  3
AecDbDispRepDoorXSection
350
36E
  3
AecDbDispRepEditInPlaceProfile
350
495
  3
AecDbDispRepEntRef
350
36F
  3
AecDbDispRepLayoutCurve
350
370
  3
AecDbDispRepLayoutGrid2d
350
371
  3
AecDbDispRepLayoutGrid3d
350
372
  3
AecDbDispRepMaskBlockRef
350
373
  3
AecDbDispRepMaskBlockRefRcp
350
374
  3
AecDbDispRepMassElemModel
350
375
  3
AecDbDispRepMassElemPlan100
350
376
  3
AecDbDispRepMassElemPlan50
350
377
  3
AecDbDispRepMassElemRcp
350
378
  3
AecDbDispRepMassElemSchem
350
379
  3
AecDbDispRepMassElemXSection
350
37A
  3
AecDbDispRepMassGroupModel
350
37B
  3
AecDbDispRepMassGroupPlan
350
37C
  3
AecDbDispRepMassGroupPlan100
350
37D
  3
AecDbDispRepMassGroupPlan50
350
37E
  3
AecDbDispRepMassGroupRcp
350
37F
  3
AecDbDispRepMassGroupXSection
350
380
  3
AecDbDispRepMaterial
350
497
  3
AecDbDispRepMemberXSection
350
381
  3
AecDbDispRepMvBlockRef
350
382
  3
AecDbDispRepMvBlockRefModel
350
383
  3
AecDbDispRepMvBlockRefPlan100
350
384
  3
AecDbDispRepMvBlockRefPlan50
350
385
  3
AecDbDispRepMvBlockRefRcp
350
386
  3
AecDbDispRepOpening
350
387
  3
AecDbDispRepOpeningModel
350
388
  3
AecDbDispRepOpeningPlan100
350
389
  3
AecDbDispRepOpeningPlan50
350
38A
  3
AecDbDispRepOpeningPlanReflected
350
38B
  3
AecDbDispRepOpeningSillPlan
350
38C
  3
AecDbDispRepPolygonModel
350
38D
  3
AecDbDispRepPolygonTrueColour
350
38E
  3
AecDbDispRepRailingModel
350
38F
  3
AecDbDispRepRailingPlan
350
390
  3
AecDbDispRepRailingPlan100
350
391
  3
AecDbDispRepRailingPlan50
350
392
  3
AecDbDispRepRailingXSection
350
393
  3
AecDbDispRepRoofModel
350
394
  3
AecDbDispRepRoofPlan
350
395
  3
AecDbDispRepRoofPlan100
350
396
  3
AecDbDispRepRoofPlan50
350
397
  3
AecDbDispRepRoofRcp
350
398
  3
AecDbDispRepRoofSlabModel
350
399
  3
AecDbDispRepRoofSlabPlan
350
39A
  3
AecDbDispRepRoofSlabPlan100
350
39B
  3
AecDbDispRepRoofSlabPlan50
350
39C
  3
AecDbDispRepRoofSlabXSection
350
39D
  3
AecDbDispRepRoofXSection
350
39E
  3
AecDbDispRepScheduleTable
350
39F
  3
AecDbDispRepSlabModel
350
3A0
  3
AecDbDispRepSlabPlan
350
3A1
  3
AecDbDispRepSlabPlan100
350
3A2
  3
AecDbDispRepSlabPlan50
350
3A3
  3
AecDbDispRepSlabXSection
350
3A4
  3
AecDbDispRepSlice
350
3A5
  3
AecDbDispRepSpaceDecomposed
350
49B
  3
AecDbDispRepSpaceModel
350
3AD
  3
AecDbDispRepSpacePlan
350
3AE
  3
AecDbDispRepSpacePlan100
350
3AF
  3
AecDbDispRepSpacePlan50
350
3B0
  3
AecDbDispRepSpaceRcp
350
3B1
  3
AecDbDispRepSpaceVolume
350
3B2
  3
AecDbDispRepSpaceXSection
350
3B3
  3
AecDbDispRepStairModel
350
3B4
  3
AecDbDispRepStairPlan
350
3B5
  3
AecDbDispRepStairPlan100
350
3B6
  3
AecDbDispRepStairPlan50
350
3B7
  3
AecDbDispRepStairPlanOverlapping
350
49D
  3
AecDbDispRepStairRcp
350
3B8
  3
AecDbDispRepStairXSection
350
3B9
  3
AecDbDispRepWallGraph
350
3BA
  3
AecDbDispRepWallModel
350
3BB
  3
AecDbDispRepWallPlan
350
3BC
  3
AecDbDispRepWallPlan100
350
3BD
  3
AecDbDispRepWallPlan50
350
3BE
  3
AecDbDispRepWallRcp
350
3BF
  3
AecDbDispRepWallSchem
350
3C0
  3
AecDbDispRepWallXSection
350
3C1
  3
AecDbDispRepWindowAssemblyModel
350
3C2
  3
AecDbDispRepWindowAssemblyPlan
350
3C3
  3
AecDbDispRepWindowAssemblyPlan100
350
3C4
  3
AecDbDispRepWindowAssemblyPlan50
350
3C5
  3
AecDbDispRepWindowAssemblySillPlan
350
49F
  3
AecDbDispRepWindowAssemblyXSection
350
3C6
  3
AecDbDispRepWindowElev
350
3C7
  3
AecDbDispRepWindowModel
350
3C8
  3
AecDbDispRepWindowNominal
350
3C9
  3
AecDbDispRepWindowPlan
350
3CA
  3
AecDbDispRepWindowPlan100
350
3CB
  3
AecDbDispRepWindowPlan50
350
3CC
  3
AecDbDispRepWindowRcp
350
3CD
  3
AecDbDispRepWindowSillPlan
350
3CE
  3
AecDbDispRepWindowXSection
350
3CF
  3
AecDbDispRepZone
350
4A1
  3
AecDbDispRepZonePlan100
350
4A3
  3
AecDbDispRepZonePlan50
350
4A5
  3
AecsDbDispRepMemberElevationDesign
350
3D0
  3
AecsDbDispRepMemberElevationDetail
350
3D1
  3
AecsDbDispRepMemberLogical
350
3D2
  3
AecsDbDispRepMemberModelDesign
350
3D3
  3
AecsDbDispRepMemberModelDetail
350
3D4
  3
AecsDbDispRepMemberPlanDesign
350
3D5
  3
AecsDbDispRepMemberPlanDesign$Plan 1_100 (3.3)
350
3D6
  3
AecsDbDispRepMemberPlanDesign$Plan 1_50 (3.3)
350
3D7
  3
AecsDbDispRepMemberPlanDetail
350
3D8
  3
AecsDbDispRepMemberPlanSketch
350
3D9
  0
DICTIONARY
  5
3DA
102
{ACAD_REACTORS
330
19
102
}
330
19
100
AcDbDictionary
281
     1
  3
*A1
350
3DB
  3
*A10
350
447
  3
*A100
350
40C
  3
*A101
350
40D
  3
*A102
350
40E
  3
*A103
350
40F
  3
*A104
350
410
  3
*A105
350
412
  3
*A106
350
413
  3
*A107
350
3DF
  3
*A108
350
414
  3
*A109
350
415
  3
*A11
350
448
  3
*A110
350
416
  3
*A111
350
417
  3
*A112
350
418
  3
*A113
350
419
  3
*A114
350
41A
  3
*A115
350
41B
  3
*A116
350
41C
  3
*A117
350
41D
  3
*A118
350
3E0
  3
*A119
350
41E
  3
*A12
350
449
  3
*A120
350
41F
  3
*A121
350
420
  3
*A122
350
421
  3
*A123
350
422
  3
*A124
350
423
  3
*A125
350
424
  3
*A126
350
494
  3
*A127
350
496
  3
*A128
350
498
  3
*A129
350
3E1
  3
*A13
350
3E5
  3
*A130
350
426
  3
*A131
350
49A
  3
*A132
350
49C
  3
*A133
350
49E
  3
*A134
350
4A0
  3
*A135
350
4A2
  3
*A136
350
4A4
  3
*A137
350
4A6
  3
*A138
350
428
  3
*A139
350
429
  3
*A14
350
44A
  3
*A140
350
3E2
  3
*A141
350
42A
  3
*A142
350
42B
  3
*A143
350
42D
  3
*A144
350
42E
  3
*A145
350
42F
  3
*A146
350
430
  3
*A147
350
431
  3
*A148
350
432
  3
*A149
350
433
  3
*A15
350
44B
  3
*A150
350
434
  3
*A151
350
3E3
  3
*A152
350
435
  3
*A153
350
437
  3
*A154
350
438
  3
*A155
350
439
  3
*A156
350
43A
  3
*A157
350
43B
  3
*A158
350
43C
  3
*A159
350
43D
  3
*A16
350
44C
  3
*A160
350
43E
  3
*A161
350
43F
  3
*A17
350
44D
  3
*A18
350
44E
  3
*A19
350
44F
  3
*A2
350
3E4
  3
*A20
350
450
  3
*A21
350
451
  3
*A22
350
452
  3
*A23
350
453
  3
*A24
350
3E6
  3
*A25
350
454
  3
*A26
350
455
  3
*A27
350
456
  3
*A28
350
457
  3
*A29
350
458
  3
*A3
350
440
  3
*A30
350
459
  3
*A31
350
45A
  3
*A32
350
45B
  3
*A33
350
45C
  3
*A34
350
45D
  3
*A35
350
3E8
  3
*A36
350
45E
  3
*A37
350
45F
  3
*A38
350
461
  3
*A39
350
462
  3
*A4
350
441
  3
*A40
350
463
  3
*A41
350
464
  3
*A42
350
465
  3
*A43
350
466
  3
*A44
350
467
  3
*A45
350
468
  3
*A46
350
3E9
  3
*A47
350
469
  3
*A48
350
46A
  3
*A49
350
46B
  3
*A5
350
442
  3
*A50
350
46C
  3
*A51
350
46D
  3
*A52
350
46E
  3
*A53
350
46F
  3
*A54
350
471
  3
*A55
350
472
  3
*A56
350
473
  3
*A57
350
3EA
  3
*A58
350
474
  3
*A59
350
475
  3
*A6
350
443
  3
*A60
350
477
  3
*A61
350
478
  3
*A62
350
479
  3
*A63
350
47A
  3
*A64
350
47B
  3
*A65
350
47C
  3
*A66
350
47D
  3
*A67
350
47E
  3
*A68
350
3EB
  3
*A69
350
47F
  3
*A7
350
444
  3
*A70
350
480
  3
*A71
350
3EC
  3
*A72
350
3ED
  3
*A73
350
3EE
  3
*A74
350
3DC
  3
*A75
350
3EF
  3
*A76
350
3F0
  3
*A77
350
3F1
  3
*A78
350
3F2
  3
*A79
350
3F3
  3
*A8
350
445
  3
*A80
350
3F4
  3
*A81
350
3F5
  3
*A82
350
3F6
  3
*A83
350
3F7
  3
*A84
350
3F8
  3
*A85
350
3DD
  3
*A86
350
3F9
  3
*A87
350
3FA
  3
*A88
350
3FB
  3
*A89
350
3FC
  3
*A9
350
446
  3
*A90
350
3FD
  3
*A91
350
3FE
  3
*A92
350
3FF
  3
*A93
350
400
  3
*A94
350
401
  3
*A95
350
402
  3
*A96
350
3DE
  3
*A97
350
403
  3
*A98
350
408
  3
*A99
350
409
  0
DICTIONARY
  5
481
102
{ACAD_REACTORS
330
19
102
}
330
19
100
AcDbDictionary
281
     1
  3
Architectural Desktop
350
482
  3
Standard
350
483
  0
DICTIONARY
  5
4A9
102
{ACAD_REACTORS
330
19
102
}
330
19
100
AcDbDictionary
281
     1
  0
DICTIONARY
  5
484
102
{ACAD_REACTORS
330
19
102
}
330
19
100
AcDbDictionary
281
     1
  3
AEC_VARS_ARCHBASE
350
485
  3
AEC_VARS_DWG_SETUP
350
486
  0
XRECORD
  5
2D5
102
{ACAD_REACTORS
330
2D4
102
}
330
2D4
100
AcDbXrecord
280
     1
290
     1
  0
SORTENTSTABLE
  5
5E0
102
{ACAD_REACTORS
330
5DF
102
}
330
5DF
100
AcDbSortentsTable
330
A
331
4C5
  5
4C4
331
4CD
  5
4CC
331
4D5
  5
4D4
331
5C9
  5
5C8
331
592
  5
591
331
51C
  5
51B
331
4DD
  5
4DC
331
553
  5
552
331
5D1
  5
5D0
331
59A
  5
599
331
55B
  5
55A
331
4E5
  5
4E4
331
524
  5
523
331
5A2
  5
5A1
331
563
  5
562
331
52C
  5
52B
331
4ED
  5
4EC
331
5AA
  5
5A9
331
534
  5
533
331
56B
  5
56A
331
4F5
  5
4F4
331
4B6
  5
4B5
331
4BE
  5
4BD
331
5B2
  5
5B1
331
53C
  5
53B
331
573
  5
572
331
4FD
  5
4FC
331
5BA
  5
5B9
331
544
  5
543
331
505
  5
504
331
57B
  5
57A
331
5C2
  5
5C1
331
54C
  5
54B
331
583
  5
582
331
50D
  5
50C
331
58B
  5
58A
331
515
  5
514
331
4C6
  5
4C5
331
4CE
  5
4CD
331
4D6
  5
4D5
331
5CA
  5
5C9
331
593
  5
592
331
554
  5
553
331
4DE
  5
4DD
331
51D
  5
51C
331
5D2
  5
5D1
331
55C
  5
55B
331
525
  5
524
331
4E6
  5
4E5
331
59B
  5
59A
331
564
  5
563
331
52D
  5
52C
331
4EE
  5
4ED
331
5A3
  5
5A2
331
5AB
  5
5AA
331
535
  5
534
331
4F6
  5
4F5
331
56C
  5
56B
331
4B7
  5
4B6
331
4BF
  5
4BE
331
5B3
  5
5B2
331
53D
  5
53C
331
574
  5
573
331
4FE
  5
4FD
331
5BB
  5
5BA
331
545
  5
544
331
57C
  5
57B
331
506
  5
505
331
5C3
  5
5C2
331
54D
  5
54C
331
584
  5
583
331
50E
  5
50D
331
516
  5
515
331
58C
  5
58B
331
4C7
  5
4C6
331
4CF
  5
4CE
331
4D7
  5
4D6
331
5CB
  5
5CA
331
594
  5
593
331
555
  5
554
331
4DF
  5
4DE
331
51E
  5
51D
331
59C
  5
59B
331
55D
  5
55C
331
4E7
  5
4E6
331
526
  5
525
331
5A4
  5
5A3
331
565
  5
564
331
52E
  5
52D
331
4EF
  5
4EE
331
5AC
  5
5AB
331
536
  5
535
331
56D
  5
56C
331
4F7
  5
4F6
331
4B0
  5
4AC
331
4B8
  5
4B7
331
5B4
  5
5B3
331
53E
  5
53D
331
575
  5
574
331
4FF
  5
4FE
331
5BC
  5
5BB
331
546
  5
545
331
507
  5
506
331
57D
  5
57C
331
5C4
  5
5C3
331
54E
  5
54D
331
585
  5
584
331
50F
  5
50E
331
58D
  5
58C
331
517
  5
516
331
4C0
  5
4BF
331
4C8
  5
4C7
331
4D0
  5
4CF
331
4D8
  5
4D7
331
595
  5
594
331
556
  5
555
331
51F
  5
51E
331
4E0
  5
4DF
331
5CC
  5
5CB
331
55E
  5
55D
331
527
  5
526
331
4E8
  5
4E7
331
59D
  5
59C
331
5A5
  5
5A4
331
566
  5
565
331
4F0
  5
4EF
331
52F
  5
52E
331
5AD
  5
5AC
331
537
  5
536
331
56E
  5
56D
331
4B1
  5
4B0
331
4B9
  5
4B8
331
4F8
  5
4F7
331
5B5
  5
5B4
331
53F
  5
53E
331
576
  5
575
331
500
  5
4FF
331
5BD
  5
5BC
331
547
  5
546
331
57E
  5
57D
331
508
  5
507
331
5C5
  5
5C4
331
54F
  5
54E
331
586
  5
585
331
510
  5
50F
331
58E
  5
58D
331
4C1
  5
4C0
331
4C9
  5
4C8
331
4D1
  5
4D0
331
518
  5
517
331
4D9
  5
4D8
331
5CD
  5
5CC
331
596
  5
595
331
557
  5
556
331
4E1
  5
4E0
331
520
  5
51F
331
59E
  5
59D
331
55F
  5
55E
331
4E9
  5
4E8
331
528
  5
527
331
5A6
  5
5A5
331
530
  5
52F
331
567
  5
566
331
4F1
  5
4F0
331
5AE
  5
5AD
331
56F
  5
56E
331
4B2
  5
4B1
331
4BA
  5
4B9
331
538
  5
537
331
4F9
  5
4F8
331
5B6
  5
5B5
331
540
  5
53F
331
501
  5
500
331
577
  5
576
331
5BE
  5
5BD
331
548
  5
547
331
509
  5
508
331
57F
  5
57E
331
5C6
  5
5C5
331
587
  5
586
331
511
  5
510
331
58F
  5
58E
331
4C2
  5
4C1
331
4CA
  5
4C9
331
4D2
  5
4D1
331
550
  5
54F
331
4DA
  5
4D9
331
519
  5
518
331
597
  5
596
331
558
  5
557
331
521
  5
520
331
4E2
  5
4E1
331
5CE
  5
5CD
331
560
  5
55F
331
529
  5
528
331
4EA
  5
4E9
331
59F
  5
59E
331
5A7
  5
5A6
331
531
  5
530
331
4F2
  5
4F1
331
568
  5
567
331
5AF
  5
5AE
331
4B3
  5
4B2
331
4BB
  5
4BA
331
539
  5
538
331
4FA
  5
4F9
331
570
  5
56F
331
5B7
  5
5B6
331
541
  5
540
331
578
  5
577
331
502
  5
501
331
5BF
  5
5BE
331
549
  5
548
331
580
  5
57F
331
50A
  5
509
331
5C7
  5
5C6
331
512
  5
511
331
588
  5
587
331
4C3
  5
4C2
331
4CB
  5
4CA
331
4D3
  5
4D2
331
590
  5
58F
331
51A
  5
519
331
4DB
  5
4DA
331
551
  5
550
331
5CF
  5
5CE
331
598
  5
597
331
559
  5
558
331
4E3
  5
4E2
331
522
  5
521
331
5A0
  5
59F
331
561
  5
560
331
52A
  5
529
331
4EB
  5
4EA
331
5A8
  5
5A7
331
532
  5
531
331
569
  5
568
331
4F3
  5
4F2
331
4B4
  5
4B3
331
4BC
  5
4BB
331
5B0
  5
5AF
331
53A
  5
539
331
571
  5
570
331
4FB
  5
4FA
331
5B8
  5
5B7
331
542
  5
541
331
503
  5
502
331
579
  5
578
331
5C0
  5
5BF
331
54A
  5
549
331
50B
  5
50A
331
581
  5
580
331
589
  5
588
331
513
  5
512
331
4C4
  5
4C3
331
4CC
  5
4CB
331
4D4
  5
4D3
331
5C8
  5
5C7
331
591
  5
590
331
552
  5
551
331
4DC
  5
4DB
331
51B
  5
51A
331
5D0
  5
5CF
331
55A
  5
559
331
523
  5
522
331
4E4
  5
4E3
331
599
  5
598
331
562
  5
561
331
52B
  5
52A
331
4EC
  5
4EB
331
5A1
  5
5A0
331
5A9
  5
5A8
331
533
  5
532
331
4F4
  5
4F3
331
56A
  5
569
331
4B5
  5
4B4
331
4BD
  5
4BC
331
5B1
  5
5B0
331
53B
  5
53A
331
572
  5
571
331
4FC
  5
4FB
331
5B9
  5
5B8
331
543
  5
542
331
57A
  5
579
331
504
  5
503
331
5C1
  5
5C0
331
54B
  5
54A
331
582
  5
581
331
50C
  5
50B
331
514
  5
513
331
58A
  5
589
  0
IMAGEDEF
  5
488
102
{ACAD_REACTORS
330
487
102
}
330
487
100
AcDbRasterImageDef
 90
        0
  1
I:\Documents and Settings\Tina\My Documents\CAOplus-anushfar\jpg\E1524.jpg
 10
557.0
 20
804.0
 11
0.3527777777777778
 21
0.3527777777777778
280
     1
281
     5
  0
IMAGEDEF
  5
489
102
{ACAD_REACTORS
330
487
102
}
330
487
100
AcDbRasterImageDef
 90
        0
  1
I:\Documents and Settings\Tina\My Documents\CAOplus-anushfar\jpg\E1525.jpg
 10
557.0
 20
804.0
 11
0.3527777777777778
 21
0.3527777777777778
280
     1
281
     5
  0
IMAGEDEF
  5
48A
102
{ACAD_REACTORS
330
487
102
}
330
487
100
AcDbRasterImageDef
 90
        0
  1
I:\Documents and Settings\Tina\My Documents\CAOplus-anushfar\jpg\E1540.jpg
 10
557.0
 20
804.0
 11
0.3527777777777778
 21
0.3527777777777778
280
     1
281
     5
  0
IMAGEDEF
  5
48B
102
{ACAD_REACTORS
330
487
102
}
330
487
100
AcDbRasterImageDef
 90
        0
  1
I:\Documents and Settings\Tina\My Documents\CAOplus-anushfar\jpg\E1563.jpg
 10
557.0
 20
804.0
 11
0.3527777777777778
 21
0.3527777777777778
280
     1
281
     5
  0
IMAGEDEF
  5
48C
102
{ACAD_REACTORS
330
487
102
}
330
487
100
AcDbRasterImageDef
 90
        0
  1
I:\Documents and Settings\Tina\My Documents\CAOplus-anushfar\jpg\E1564-1.jpg
 10
557.0
 20
804.0
 11
0.3527777777777778
 21
0.3527777777777778
280
     1
281
     5
  0
IMAGEDEF
  5
48D
102
{ACAD_REACTORS
330
487
102
}
330
487
100
AcDbRasterImageDef
 90
        0
  1
I:\Documents and Settings\Tina\My Documents\CAOplus-anushfar\jpg\E1565.jpg
 10
557.0
 20
804.0
 11
0.3527777777777778
 21
0.3527777777777778
280
     1
281
     5
  0
IMAGEDEF
  5
48E
102
{ACAD_REACTORS
330
487
102
}
330
487
100
AcDbRasterImageDef
 90
        0
  1
E:\Documents and Settings\Tina\My Documents\CAOplus-anushfar\jpg\PP141221-02a.jpg
 10
557.0
 20
812.0
 11
0.3527777777777778
 21
0.3527777777777778
280
     1
281
     5
  0
LAYOUT
  5
21
102
{ACAD_REACTORS
330
1E
102
}
330
1E
100
AcDbPlotSettings
  1

  2

  4

  6

 40
0.0
 41
0.0
 42
0.0
 43
0.0
 44
0.0
 45
0.0
 46
0.0
 47
0.0
 48
0.0
 49
0.0
140
0.0
141
0.0
142
1.0
143
1.0
 70
     0
 72
     0
 73
     0
 74
     0
  7

 75
     0
147
1.0
 76
     0
 77
     2
 78
   300
148
0.0
149
0.0
100
AcDbLayout
  1
Layout1
 70
     0
 71
     1
 10
0.0
 20
0.0
 11
12.0
 21
9.0
 12
0.0
 22
0.0
 32
0.0
 14
1.000000000000000E+20
 24
1.000000000000000E+20
 34
1.000000000000000E+20
 15
-1.000000000000000E+20
 25
-1.000000000000000E+20
 35
-1.000000000000000E+20
146
0.0
 13
0.0
 23
0.0
 33
0.0
 16
1.0
 26
0.0
 36
0.0
 17
0.0
 27
1.0
 37
0.0
 76
     0
330
B
  0
LAYOUT
  5
20
102
{ACAD_REACTORS
330
1E
102
}
330
1E
100
AcDbPlotSettings
  1

  2

  4

  6

 40
0.0
 41
0.0
 42
0.0
 43
0.0
 44
0.0
 45
0.0
 46
0.0
 47
0.0
 48
0.0
 49
0.0
140
0.0
141
0.0
142
1.0
143
1.0
 70
  1024
 72
     0
 73
     0
 74
     0
  7

 75
     0
147
1.0
 76
     0
 77
     2
 78
   300
148
0.0
149
0.0
100
AcDbLayout
  1
Model
 70
     0
 71
     0
 10
0.0
 20
0.0
 11
0.0
 21
0.0
 12
0.0
 22
0.0
 32
0.0
 14
0.0
 24
0.0
 34
0.0
 15
0.0
 25
0.0
 35
0.0
146
0.0
 13
0.0
 23
0.0
 33
0.0
 16
0.0
 26
0.0
 36
0.0
 17
0.0
 27
0.0
 37
0.0
 76
     0
330
A
331
15
  0
MATERIAL
  5
165
102
{ACAD_XDICTIONARY
360
166
102
}
102
{ACAD_REACTORS
330
15C
102
}
330
15C
100
AcDbMaterial
  1
ByBlock
 72
     0
 43
0.0208333333333333
 43
0.0
 43
0.0
 43
0.0
 43
0.0
 43
0.0208333333333333
 43
0.0
 43
0.0
 43
0.0
 43
0.0
 43
1.0
 43
0.0
 43
0.0
 43
0.0
 43
0.0
 43
1.0
 77
     0
 47
0.0208333333333333
 47
0.0
 47
0.0
 47
0.0
 47
0.0
 47
0.0208333333333333
 47
0.0
 47
0.0
 47
0.0
 47
0.0
 47
1.0
 47
0.0
 47
0.0
 47
0.0
 47
0.0
 47
1.0
171
     0
 49
0.0208333333333333
 49
0.0
 49
0.0
 49
0.0
 49
0.0
 49
0.0208333333333333
 49
0.0
 49
0.0
 49
0.0
 49
0.0
 49
1.0
 49
0.0
 49
0.0
 49
0.0
 49
0.0
 49
1.0
175
     0
142
0.0208333333333333
142
0.0
142
0.0
142
0.0
142
0.0
142
0.0208333333333333
142
0.0
142
0.0
142
0.0
142
0.0
142
1.0
142
0.0
142
0.0
142
0.0
142
0.0
142
1.0
179
     0
144
0.0208333333333333
144
0.0
144
0.0
144
0.0
144
0.0
144
0.0208333333333333
144
0.0
144
0.0
144
0.0
144
0.0
144
1.0
144
0.0
144
0.0
144
0.0
144
0.0
144
1.0
147
0.0208333333333333
147
0.0
147
0.0
147
0.0
147
0.0
147
0.0208333333333333
147
0.0
147
0.0
147
0.0
147
0.0
147
1.0
147
0.0
147
0.0
147
0.0
147
0.0
147
1.0
  0
MATERIAL
  5
15D
102
{ACAD_XDICTIONARY
360
15E
102
}
102
{ACAD_REACTORS
330
15C
102
}
330
15C
100
AcDbMaterial
  1
ByLayer
 72
     0
 43
0.0208333333333333
 43
0.0
 43
0.0
 43
0.0
 43
0.0
 43
0.0208333333333333
 43
0.0
 43
0.0
 43
0.0
 43
0.0
 43
1.0
 43
0.0
 43
0.0
 43
0.0
 43
0.0
 43
1.0
 77
     0
 47
0.0208333333333333
 47
0.0
 47
0.0
 47
0.0
 47
0.0
 47
0.0208333333333333
 47
0.0
 47
0.0
 47
0.0
 47
0.0
 47
1.0
 47
0.0
 47
0.0
 47
0.0
 47
0.0
 47
1.0
171
     0
 49
0.0208333333333333
 49
0.0
 49
0.0
 49
0.0
 49
0.0
 49
0.0208333333333333
 49
0.0
 49
0.0
 49
0.0
 49
0.0
 49
1.0
 49
0.0
 49
0.0
 49
0.0
 49
0.0
 49
1.0
175
     0
142
0.0208333333333333
142
0.0
142
0.0
142
0.0
142
0.0
142
0.0208333333333333
142
0.0
142
0.0
142
0.0
142
0.0
142
1.0
142
0.0
142
0.0
142
0.0
142
0.0
142
1.0
179
     0
144
0.0208333333333333
144
0.0
144
0.0
144
0.0
144
0.0
144
0.0208333333333333
144
0.0
144
0.0
144
0.0
144
0.0
144
1.0
144
0.0
144
0.0
144
0.0
144
0.0
144
1.0
147
0.0208333333333333
147
0.0
147
0.0
147
0.0
147
0.0
147
0.0208333333333333
147
0.0
147
0.0
147
0.0
147
0.0
147
1.0
147
0.0
147
0.0
147
0.0
147
0.0
147
1.0
  0
MATERIAL
  5
16D
102
{ACAD_XDICTIONARY
360
16E
102
}
102
{ACAD_REACTORS
330
15C
102
}
330
15C
100
AcDbMaterial
  1
Global
 72
     0
 43
0.0208333333333333
 43
0.0
 43
0.0
 43
0.0
 43
0.0
 43
0.0208333333333333
 43
0.0
 43
0.0
 43
0.0
 43
0.0
 43
1.0
 43
0.0
 43
0.0
 43
0.0
 43
0.0
 43
1.0
 77
     0
 47
0.0208333333333333
 47
0.0
 47
0.0
 47
0.0
 47
0.0
 47
0.0208333333333333
 47
0.0
 47
0.0
 47
0.0
 47
0.0
 47
1.0
 47
0.0
 47
0.0
 47
0.0
 47
0.0
 47
1.0
171
     0
 49
0.0208333333333333
 49
0.0
 49
0.0
 49
0.0
 49
0.0
 49
0.0208333333333333
 49
0.0
 49
0.0
 49
0.0
 49
0.0
 49
1.0
 49
0.0
 49
0.0
 49
0.0
 49
0.0
 49
1.0
175
     0
142
0.0208333333333333
142
0.0
142
0.0
142
0.0
142
0.0
142
0.0208333333333333
142
0.0
142
0.0
142
0.0
142
0.0
142
1.0
142
0.0
142
0.0
142
0.0
142
0.0
142
1.0
179
     0
144
0.0208333333333333
144
0.0
144
0.0
144
0.0
144
0.0
144
0.0208333333333333
144
0.0
144
0.0
144
0.0
144
0.0
144
1.0
144
0.0
144
0.0
144
0.0
144
0.0
144
1.0
147
0.0208333333333333
147
0.0
147
0.0
147
0.0
147
0.0
147
0.0208333333333333
147
0.0
147
0.0
147
0.0
147
0.0
147
1.0
147
0.0
147
0.0
147
0.0
147
0.0
147
1.0
  0
MLEADERSTYLE
  5
19C
102
{ACAD_REACTORS
330
19B
102
}
330
19B
100
AcDbMLeaderStyle
170
     2
171
     1
172
     0
 90
        2
 40
0.0
 41
0.0
173
     1
 91
-1056964608
340
11
 92
       -2
290
     1
 42
2.0
291
     1
 43
0.36
  3
Standard
 44
4.0
300

342
17
174
     1
178
     6
175
     1
176
     0
 93
-1056964608
 45
4.0
292
     0
297
     0
 46
4.0
 94
-1056964608
 47
1.0
 49
1.0
140
1.0
293
     1
141
0.0
294
     1
177
     0
142
1.0
295
     0
296
     0
143
0.125
1001
ACAD_MLEADERVER
1070
     2
  0
MLINESTYLE
  5
1C
102
{ACAD_REACTORS
330
1B
102
}
330
1B
100
AcDbMlineStyle
  2
STANDARD
 70
     0
  3

 62
     0
 51
90.0
 52
90.0
 71
     2
 49
0.5
 62
   256
  6
BYLAYER
 49
-0.5
 62
   256
  6
BYLAYER
  0
ACDBPLACEHOLDER
  5
1D
102
{ACAD_REACTORS
330
1F
102
}
330
1F
  0
SCALE
  5
315
102
{ACAD_REACTORS
330
189
102
}
330
189
100
AcDbScale
 70
     0
300
1/8" = 1'-0"
140
0.125
141
12.0
290
     0
  0
SCALE
  5
663
102
{ACAD_REACTORS
330
189
102
}
330
189
100
AcDbScale
 70
     0
300
1:10
140
1.0
141
1.0
290
     1
  0
SCALE
  5
664
102
{ACAD_REACTORS
330
189
102
}
330
189
100
AcDbScale
 70
     0
300
1:1
140
1.0
141
0.1
290
     0
  0
SCALE
  5
665
102
{ACAD_REACTORS
330
189
102
}
330
189
100
AcDbScale
 70
     0
300
1:2
140
1.0
141
0.2
290
     0
  0
SCALE
  5
666
102
{ACAD_REACTORS
330
189
102
}
330
189
100
AcDbScale
 70
     0
300
1:5
140
1.0
141
0.5
290
     0
  0
SCALE
  5
667
102
{ACAD_REACTORS
330
189
102
}
330
189
100
AcDbScale
 70
     0
300
1:20
140
1.0
141
2.0
290
     0
  0
SCALE
  5
668
102
{ACAD_REACTORS
330
189
102
}
330
189
100
AcDbScale
 70
     0
300
1:50
140
1.0
141
5.0
290
     0
  0
SCALE
  5
669
102
{ACAD_REACTORS
330
189
102
}
330
189
100
AcDbScale
 70
     0
300
1:100
140
1.0
141
10.0
290
     0
  0
SCALE
  5
18A
102
{ACAD_REACTORS
330
189
102
}
330
189
100
AcDbScale
 70
     0
300
1:1_1
140
1.0
141
1.0
290
     0
  0
SCALE
  5
18B
102
{ACAD_REACTORS
330
189
102
}
330
189
100
AcDbScale
 70
     0
300
1:2_1
140
1.0
141
2.0
290
     0
  0
SCALE
  5
18C
102
{ACAD_REACTORS
330
189
102
}
330
189
100
AcDbScale
 70
     0
300
1:4
140
1.0
141
4.0
290
     0
  0
SCALE
  5
18D
102
{ACAD_REACTORS
330
189
102
}
330
189
100
AcDbScale
 70
     0
300
1:5_1
140
1.0
141
5.0
290
     0
  0
SCALE
  5
18E
102
{ACAD_REACTORS
330
189
102
}
330
189
100
AcDbScale
 70
     0
300
1:8
140
1.0
141
8.0
290
     0
  0
SCALE
  5
18F
102
{ACAD_REACTORS
330
189
102
}
330
189
100
AcDbScale
 70
     0
300
1:10_1
140
1.0
141
10.0
290
     0
  0
SCALE
  5
190
102
{ACAD_REACTORS
330
189
102
}
330
189
100
AcDbScale
 70
     0
300
1:16
140
1.0
141
16.0
290
     0
  0
SCALE
  5
191
102
{ACAD_REACTORS
330
189
102
}
330
189
100
AcDbScale
 70
     0
300
1:20_1
140
1.0
141
20.0
290
     0
  0
SCALE
  5
192
102
{ACAD_REACTORS
330
189
102
}
330
189
100
AcDbScale
 70
     0
300
1:30
140
1.0
141
30.0
290
     0
  0
SCALE
  5
193
102
{ACAD_REACTORS
330
189
102
}
330
189
100
AcDbScale
 70
     0
300
1:40
140
1.0
141
40.0
290
     0
  0
SCALE
  5
194
102
{ACAD_REACTORS
330
189
102
}
330
189
100
AcDbScale
 70
     0
300
1:50_1
140
1.0
141
50.0
290
     0
  0
SCALE
  5
195
102
{ACAD_REACTORS
330
189
102
}
330
189
100
AcDbScale
 70
     0
300
1:100_1
140
1.0
141
100.0
290
     0
  0
SCALE
  5
196
102
{ACAD_REACTORS
330
189
102
}
330
189
100
AcDbScale
 70
     0
300
2:1
140
2.0
141
1.0
290
     0
  0
SCALE
  5
197
102
{ACAD_REACTORS
330
189
102
}
330
189
100
AcDbScale
 70
     0
300
4:1
140
4.0
141
1.0
290
     0
  0
SCALE
  5
198
102
{ACAD_REACTORS
330
189
102
}
330
189
100
AcDbScale
 70
     0
300
8:1
140
8.0
141
1.0
290
     0
  0
SCALE
  5
199
102
{ACAD_REACTORS
330
189
102
}
330
189
100
AcDbScale
 70
     0
300
10:1
140
10.0
141
1.0
290
     0
  0
SCALE
  5
19A
102
{ACAD_REACTORS
330
189
102
}
330
189
100
AcDbScale
 70
     0
300
100:1
140
100.0
141
1.0
290
     0
  0
TABLESTYLE
  5
188
102
{ACAD_XDICTIONARY
360
2DA
102
}
102
{ACAD_REACTORS
330
187
102
}
330
187
100
AcDbTableStyle
  3
Standard
 70
     0
 71
     0
 40
1.5
 41
1.5
280
     0
281
     0
  7
Standard
140
4.5
170
     2
 62
     0
 63
     7
283
     0
 90
      512
 91
        0
  1

274
    -2
284
     1
 64
     0
275
    -2
285
     1
 65
     0
276
    -2
286
     1
 66
     0
277
    -2
287
     1
 67
     0
278
    -2
288
     1
 68
     0
279
    -2
289
     1
 69
     0
  7
Standard
140
6.0
170
     5
 62
     0
 63
     7
283
     0
 90
      512
 91
        0
  1

274
    -2
284
     1
 64
     0
275
    -2
285
     1
 65
     0
276
    -2
286
     1
 66
     0
277
    -2
287
     1
 67
     0
278
    -2
288
     1
 68
     0
279
    -2
289
     1
 69
     0
  7
Standard
140
4.5
170
     5
 62
     0
 63
     7
283
     0
 90
      512
 91
        0
  1

274
    -2
284
     1
 64
     0
275
    -2
285
     1
 65
     0
276
    -2
286
     1
 66
     0
277
    -2
287
     1
 67
     0
278
    -2
288
     1
 68
     0
279
    -2
289
     1
 69
     0
  0
VISUALSTYLE
  5
17B
102
{ACAD_REACTORS
330
175
102
}
330
175
100
AcDbVisualStyle
  2
2dWireframe
 70
     4
 71
     0
 72
     2
 73
     0
 90
        0
 40
-0.6
 41
-30.0
 62
     5
 63
     7
421
 16777215
 74
     1
 91
        4
 64
     7
 65
   257
 75
     1
175
     1
 42
1.0
 92
        0
 66
   257
 43
1.0
 76
     1
 77
     6
 78
     2
 67
     7
 79
     5
170
     0
171
     0
290
     0
174
     0
 93
        1
 44
0.0
173
     0
291
     0
 45
0.0
  0
VISUALSTYLE
  5
17D
102
{ACAD_REACTORS
330
175
102
}
330
175
100
AcDbVisualStyle
  2
3D Hidden
 70
     6
 71
     1
 72
     2
 73
     2
 90
        0
 40
-0.6
 41
-30.0
 62
     5
 63
     7
421
 16777215
 74
     2
 91
        2
 64
     7
 65
   257
 75
     2
175
     1
 42
40.0
 92
        0
 66
   257
 43
1.0
 76
     1
 77
     6
 78
     2
 67
     7
 79
     3
170
     0
171
     0
290
     0
174
     0
 93
        1
 44
0.0
173
     0
291
     0
 45
0.0
  0
VISUALSTYLE
  5
17C
102
{ACAD_REACTORS
330
175
102
}
330
175
100
AcDbVisualStyle
  2
3dWireframe
 70
     5
 71
     0
 72
     2
 73
     0
 90
        0
 40
-0.6
 41
-30.0
 62
     5
 63
     7
421
 16777215
 74
     1
 91
        4
 64
     7
 65
   257
 75
     1
175
     1
 42
1.0
 92
        0
 66
   257
 43
1.0
 76
     1
 77
     6
 78
     2
 67
     7
 79
     5
170
     0
171
     0
290
     0
174
     0
 93
        1
 44
0.0
173
     0
291
     0
 45
0.0
  0
VISUALSTYLE
  5
17A
102
{ACAD_REACTORS
330
175
102
}
330
175
100
AcDbVisualStyle
  2
Basic
 70
     7
 71
     1
 72
     0
 73
     1
 90
        0
 40
-0.6
 41
-30.0
 62
     5
 63
     7
421
 16777215
 74
     0
 91
        4
 64
     7
 65
   257
 75
     1
175
     1
 42
1.0
 92
        8
 66
     7
 43
1.0
 76
     1
 77
     6
 78
     2
 67
     7
 79
     5
170
     0
171
     0
290
     0
174
     0
 93
        1
 44
0.0
173
     0
291
     1
 45
0.0
  0
VISUALSTYLE
  5
181
102
{ACAD_REACTORS
330
175
102
}
330
175
100
AcDbVisualStyle
  2
Brighten
 70
    12
 71
     2
 72
     2
 73
     0
 90
        0
 40
-0.6
 41
-30.0
 62
     5
 63
     7
421
 16777215
 74
     1
 91
        4
 64
     7
 65
   257
 75
     1
175
     1
 42
1.0
 92
        8
 66
     7
 43
1.0
 76
     1
 77
     6
 78
     2
 67
     7
 79
     5
170
     0
171
     0
290
     0
174
     0
 93
        1
 44
50.0
173
     0
291
     1
 45
0.0
  0
VISUALSTYLE
  5
185
102
{ACAD_REACTORS
330
175
102
}
330
175
100
AcDbVisualStyle
  2
ColorChange
 70
    16
 71
     2
 72
     2
 73
     3
 90
        0
 40
-0.6
 41
-30.0
 62
     5
 63
     8
421
  8421504
 74
     1
 91
        4
 64
     7
 65
   257
 75
     1
175
     1
 42
1.0
 92
        8
 66
     8
424
  8421504
 43
1.0
 76
     1
 77
     6
 78
     2
 67
     7
 79
     5
170
     0
171
     0
290
     0
174
     0
 93
        1
 44
0.0
173
     0
291
     1
 45
0.0
  0
VISUALSTYLE
  5
17E
102
{ACAD_REACTORS
330
175
102
}
330
175
100
AcDbVisualStyle
  2
Conceptual
 70
     9
 71
     3
 72
     2
 73
     0
 90
        0
 40
-0.6
 41
-30.0
 62
     5
 63
     7
421
 16777215
 74
     2
 91
        2
 64
     7
 65
   257
 75
     1
175
     1
 42
40.0
 92
        8
 66
     7
 43
1.0
 76
     1
 77
     6
 78
     2
 67
     7
 79
     3
170
     0
171
     0
290
     0
174
     0
 93
        1
 44
0.0
173
     0
291
     0
 45
0.0
  0
VISUALSTYLE
  5
180
102
{ACAD_REACTORS
330
175
102
}
330
175
100
AcDbVisualStyle
  2
Dim
 70
    11
 71
     2
 72
     2
 73
     0
 90
        0
 40
-0.6
 41
-30.0
 62
     5
 63
     7
421
 16777215
 74
     1
 91
        4
 64
     7
 65
   257
 75
     1
175
     1
 42
1.0
 92
        8
 66
     7
 43
1.0
 76
     1
 77
     6
 78
     2
 67
     7
 79
     5
170
     0
171
     0
290
     0
174
     0
 93
        1
 44
-50.0
173
     0
291
     1
 45
0.0
  0
VISUALSTYLE
  5
184
102
{ACAD_REACTORS
330
175
102
}
330
175
100
AcDbVisualStyle
  2
Facepattern
 70
    15
 71
     2
 72
     2
 73
     0
 90
        0
 40
-0.6
 41
-30.0
 62
     5
 63
     7
421
 16777215
 74
     1
 91
        4
 64
     7
 65
   257
 75
     1
175
     1
 42
1.0
 92
        8
 66
     7
 43
1.0
 76
     1
 77
     6
 78
     2
 67
     7
 79
     5
170
     0
171
     0
290
     0
174
     0
 93
        1
 44
0.0
173
     0
291
     1
 45
0.0
  0
VISUALSTYLE
  5
176
102
{ACAD_REACTORS
330
175
102
}
330
175
100
AcDbVisualStyle
  2
Flat
 70
     0
 71
     2
 72
     1
 73
     1
 90
        2
 40
-0.6
 41
30.0
 62
     5
 63
     7
421
 16777215
 74
     0
 91
        4
 64
     7
 65
   257
 75
     1
175
     1
 42
1.0
 92
        8
 66
     7
 43
1.0
 76
     1
 77
     6
 78
     2
 67
     7
 79
     5
170
     0
171
     0
290
     0
174
     0
 93
       13
 44
0.0
173
     0
291
     1
 45
0.0
  0
VISUALSTYLE
  5
177
102
{ACAD_REACTORS
330
175
102
}
330
175
100
AcDbVisualStyle
  2
FlatWithEdges
 70
     1
 71
     2
 72
     1
 73
     1
 90
        2
 40
-0.6
 41
30.0
 62
     5
 63
     7
421
 16777215
 74
     1
 91
        4
 64
     7
 65
   257
 75
     1
175
     1
 42
1.0
 92
        0
 66
   257
 43
1.0
 76
     1
 77
     6
 78
     2
 67
     7
 79
     5
170
     0
171
     0
290
     0
174
     0
 93
       13
 44
0.0
173
     0
291
     1
 45
0.0
  0
VISUALSTYLE
  5
178
102
{ACAD_REACTORS
330
175
102
}
330
175
100
AcDbVisualStyle
  2
Gouraud
 70
     2
 71
     2
 72
     2
 73
     1
 90
        2
 40
-0.6
 41
30.0
 62
     5
 63
     7
421
 16777215
 74
     0
 91
        4
 64
     7
 65
   257
 75
     1
175
     1
 42
1.0
 92
        0
 66
     7
 43
1.0
 76
     1
 77
     6
 78
     2
 67
     7
 79
     5
170
     0
171
     0
290
     0
174
     0
 93
       13
 44
0.0
173
     0
291
     1
 45
0.0
  0
VISUALSTYLE
  5
179
102
{ACAD_REACTORS
330
175
102
}
330
175
100
AcDbVisualStyle
  2
GouraudWithEdges
 70
     3
 71
     2
 72
     2
 73
     1
 90
        2
 40
-0.6
 41
30.0
 62
     5
 63
     7
421
 16777215
 74
     1
 91
        4
 64
     7
 65
   257
 75
     1
175
     1
 42
1.0
 92
        0
 66
   257
 43
1.0
 76
     1
 77
     6
 78
     2
 67
     7
 79
     5
170
     0
171
     0
290
     0
174
     0
 93
       13
 44
0.0
173
     0
291
     1
 45
0.0
  0
VISUALSTYLE
  5
183
102
{ACAD_REACTORS
330
175
102
}
330
175
100
AcDbVisualStyle
  2
Linepattern
 70
    14
 71
     2
 72
     2
 73
     0
 90
        0
 40
-0.6
 41
-30.0
 62
     5
 63
     7
421
 16777215
 74
     1
 91
        4
 64
     7
 65
   257
 75
     7
175
     7
 42
1.0
 92
        8
 66
     7
 43
1.0
 76
     1
 77
     6
 78
     2
 67
     7
 79
     5
170
     0
171
     0
290
     0
174
     0
 93
        1
 44
0.0
173
     0
291
     1
 45
0.0
  0
VISUALSTYLE
  5
17F
102
{ACAD_REACTORS
330
175
102
}
330
175
100
AcDbVisualStyle
  2
Realistic
 70
     8
 71
     2
 72
     2
 73
     0
 90
        0
 40
-0.6
 41
-30.0
 62
     5
 63
     7
421
 16777215
 74
     1
 91
        0
 64
     7
 65
   257
 75
     1
175
     1
 42
1.0
 92
        8
 66
     8
424
  7895160
 43
1.0
 76
     1
 77
     6
 78
     2
 67
     7
 79
     5
170
     0
171
     0
290
     0
174
     0
 93
       13
 44
0.0
173
     0
291
     0
 45
0.0
  0
VISUALSTYLE
  5
182
102
{ACAD_REACTORS
330
175
102
}
330
175
100
AcDbVisualStyle
  2
Thicken
 70
    13
 71
     2
 72
     2
 73
     0
 90
        0
 40
-0.6
 41
-30.0
 62
     5
 63
     7
421
 16777215
 74
     1
 91
        4
 64
     7
 65
   257
 75
     1
175
     1
 42
1.0
 92
       12
 66
     7
 43
1.0
 76
     1
 77
     6
 78
     2
 67
     7
 79
     5
170
     0
171
     0
290
     0
174
     0
 93
        1
 44
0.0
173
     0
291
     1
 45
0.0
  0
DICTIONARYVAR
  5
2E1
102
{ACAD_REACTORS
330
2DD
102
}
330
2DD
100
DictionaryVariables
280
     0
  1
1:1_1
  0
DICTIONARYVAR
  5
2DF
102
{ACAD_REACTORS
330
2DD
102
}
330
2DD
100
DictionaryVariables
280
     0
  1
STANDARD
  0
DICTIONARYVAR
  5
2DE
102
{ACAD_REACTORS
330
2DD
102
}
330
2DD
100
DictionaryVariables
280
     0
  1
STANDARD
  0
DICTIONARYVAR
  5
2E3
102
{ACAD_REACTORS
330
2DD
102
}
330
2DD
100
DictionaryVariables
280
     0
  1
1
  0
DICTIONARYVAR
  5
2E4
102
{ACAD_REACTORS
330
2DD
102
}
330
2DD
100
DictionaryVariables
280
     0
  1
15
  0
DICTIONARYVAR
  5
2E2
102
{ACAD_REACTORS
330
2DD
102
}
330
2DD
100
DictionaryVariables
280
     0
  1
0
  0
DICTIONARYVAR
  5
2E0
102
{ACAD_REACTORS
330
2DD
102
}
330
2DD
100
DictionaryVariables
280
     0
  1
0
  0
DICTIONARY
  5
166
330
165
100
AcDbDictionary
280
     1
281
     1
  3
BUMPTILE
360
168
  3
DIFFUSETILE
360
167
  3
OPACITYTILE
360
16B
  3
REFLECTIONTILE
360
16A
  3
REFRACTIONTILE
360
16C
  3
SPECULARTILE
360
169
  0
DICTIONARY
  5
15E
330
15D
100
AcDbDictionary
280
     1
281
     1
  3
BUMPTILE
360
160
  3
DIFFUSETILE
360
15F
  3
OPACITYTILE
360
163
  3
REFLECTIONTILE
360
162
  3
REFRACTIONTILE
360
164
  3
SPECULARTILE
360
161
  0
DICTIONARY
  5
16E
330
16D
100
AcDbDictionary
280
     1
281
     1
  3
BUMPTILE
360
170
  3
DIFFUSETILE
360
16F
  3
OPACITYTILE
360
173
  3
REFLECTIONTILE
360
172
  3
REFRACTIONTILE
360
174
  3
SPECULARTILE
360
171
  0
DICTIONARY
  5
2DA
330
188
100
AcDbDictionary
280
     1
281
     1
  3
ACAD_ROUNDTRIP_2008_TABLESTYLE_CELLSTYLEMAP
360
6A4
  0
XRECORD
  5
168
102
{ACAD_REACTORS
330
166
102
}
330
166
100
AcDbXrecord
280
     1
270
     1
271
     1
  0
XRECORD
  5
167
102
{ACAD_REACTORS
330
166
102
}
330
166
100
AcDbXrecord
280
     1
270
     1
271
     1
  0
XRECORD
  5
16B
102
{ACAD_REACTORS
330
166
102
}
330
166
100
AcDbXrecord
280
     1
270
     1
271
     1
  0
XRECORD
  5
16A
102
{ACAD_REACTORS
330
166
102
}
330
166
100
AcDbXrecord
280
     1
270
     1
271
     1
  0
XRECORD
  5
16C
102
{ACAD_REACTORS
330
166
102
}
330
166
100
AcDbXrecord
280
     1
270
     1
271
     1
  0
XRECORD
  5
169
102
{ACAD_REACTORS
330
166
102
}
330
166
100
AcDbXrecord
280
     1
270
     1
271
     1
  0
XRECORD
  5
160
102
{ACAD_REACTORS
330
15E
102
}
330
15E
100
AcDbXrecord
280
     1
270
     1
271
     1
  0
XRECORD
  5
15F
102
{ACAD_REACTORS
330
15E
102
}
330
15E
100
AcDbXrecord
280
     1
270
     1
271
     1
  0
XRECORD
  5
163
102
{ACAD_REACTORS
330
15E
102
}
330
15E
100
AcDbXrecord
280
     1
270
     1
271
     1
  0
XRECORD
  5
162
102
{ACAD_REACTORS
330
15E
102
}
330
15E
100
AcDbXrecord
280
     1
270
     1
271
     1
  0
XRECORD
  5
164
102
{ACAD_REACTORS
330
15E
102
}
330
15E
100
AcDbXrecord
280
     1
270
     1
271
     1
  0
XRECORD
  5
161
102
{ACAD_REACTORS
330
15E
102
}
330
15E
100
AcDbXrecord
280
     1
270
     1
271
     1
  0
XRECORD
  5
170
102
{ACAD_REACTORS
330
16E
102
}
330
16E
100
AcDbXrecord
280
     1
270
     1
271
     1
  0
XRECORD
  5
16F
102
{ACAD_REACTORS
330
16E
102
}
330
16E
100
AcDbXrecord
280
     1
270
     1
271
     1
  0
XRECORD
  5
173
102
{ACAD_REACTORS
330
16E
102
}
330
16E
100
AcDbXrecord
280
     1
270
     1
271
     1
  0
XRECORD
  5
172
102
{ACAD_REACTORS
330
16E
102
}
330
16E
100
AcDbXrecord
280
     1
270
     1
271
     1
  0
XRECORD
  5
174
102
{ACAD_REACTORS
330
16E
102
}
330
16E
100
AcDbXrecord
280
     1
270
     1
271
     1
  0
XRECORD
  5
171
102
{ACAD_REACTORS
330
16E
102
}
330
16E
100
AcDbXrecord
280
     1
270
     1
271
     1
  0
CELLSTYLEMAP
  5
6A4
102
{ACAD_REACTORS
330
2DA
102
}
330
2DA
100
AcDbCellStyleMap
 90
        3
300
CELLSTYLE
  1
TABLEFORMAT_BEGIN
 90
        5
170
     1
 91
        0
 92
    32768
 62
   257
 93
        1
300
CONTENTFORMAT
  1
CONTENTFORMAT_BEGIN
 90
        0
 91
        0
 92
      512
 93
        0
300

 40
0.0
140
1.0
 94
        5
 62
     0
340
17
144
6.0
309
CONTENTFORMAT_END
171
     1
301
MARGIN
  1
CELLMARGIN_BEGIN
 40
1.5
 40
1.5
 40
1.5
 40
1.5
 40
4.5
 40
4.5
309
CELLMARGIN_END
 94
        6
 95
        1
302
GRIDFORMAT
  1
GRIDFORMAT_BEGIN
 90
        0
 91
        1
 62
     0
 92
       -2
340
0
 93
        0
 40
1.125
309
GRIDFORMAT_END
 95
        2
302
GRIDFORMAT
  1
GRIDFORMAT_BEGIN
 90
        0
 91
        1
 62
     0
 92
       -2
340
0
 93
        0
 40
1.125
309
GRIDFORMAT_END
 95
        4
302
GRIDFORMAT
  1
GRIDFORMAT_BEGIN
 90
        0
 91
        1
 62
     0
 92
       -2
340
0
 93
        0
 40
1.125
309
GRIDFORMAT_END
 95
        8
302
GRIDFORMAT
  1
GRIDFORMAT_BEGIN
 90
        0
 91
        1
 62
     0
 92
       -2
340
0
 93
        0
 40
1.125
309
GRIDFORMAT_END
 95
       16
302
GRIDFORMAT
  1
GRIDFORMAT_BEGIN
 90
        0
 91
        1
 62
     0
 92
       -2
340
0
 93
        0
 40
1.125
309
GRIDFORMAT_END
 95
       32
302
GRIDFORMAT
  1
GRIDFORMAT_BEGIN
 90
        0
 91
        1
 62
     0
 92
       -2
340
0
 93
        0
 40
1.125
309
GRIDFORMAT_END
309
TABLEFORMAT_END
  1
CELLSTYLE_BEGIN
 90
        1
 91
        1
300
_TITLE
309
CELLSTYLE_END
300
CELLSTYLE
  1
TABLEFORMAT_BEGIN
 90
        5
170
     1
 91
        0
 92
        0
 62
   257
 93
        1
300
CONTENTFORMAT
  1
CONTENTFORMAT_BEGIN
 90
        0
 91
        0
 92
      512
 93
        0
300

 40
0.0
140
1.0
 94
        5
 62
     0
340
17
144
4.5
309
CONTENTFORMAT_END
171
     1
301
MARGIN
  1
CELLMARGIN_BEGIN
 40
1.5
 40
1.5
 40
1.5
 40
1.5
 40
4.5
 40
4.5
309
CELLMARGIN_END
 94
        6
 95
        1
302
GRIDFORMAT
  1
GRIDFORMAT_BEGIN
 90
        0
 91
        1
 62
     0
 92
       -2
340
0
 93
        0
 40
1.125
309
GRIDFORMAT_END
 95
        2
302
GRIDFORMAT
  1
GRIDFORMAT_BEGIN
 90
        0
 91
        1
 62
     0
 92
       -2
340
0
 93
        0
 40
1.125
309
GRIDFORMAT_END
 95
        4
302
GRIDFORMAT
  1
GRIDFORMAT_BEGIN
 90
        0
 91
        1
 62
     0
 92
       -2
340
0
 93
        0
 40
1.125
309
GRIDFORMAT_END
 95
        8
302
GRIDFORMAT
  1
GRIDFORMAT_BEGIN
 90
        0
 91
        1
 62
     0
 92
       -2
340
0
 93
        0
 40
1.125
309
GRIDFORMAT_END
 95
       16
302
GRIDFORMAT
  1
GRIDFORMAT_BEGIN
 90
        0
 91
        1
 62
     0
 92
       -2
340
0
 93
        0
 40
1.125
309
GRIDFORMAT_END
 95
       32
302
GRIDFORMAT
  1
GRIDFORMAT_BEGIN
 90
        0
 91
        1
 62
     0
 92
       -2
340
0
 93
        0
 40
1.125
309
GRIDFORMAT_END
309
TABLEFORMAT_END
  1
CELLSTYLE_BEGIN
 90
        2
 91
        1
300
_HEADER
309
CELLSTYLE_END
300
CELLSTYLE
  1
TABLEFORMAT_BEGIN
 90
        5
170
     1
 91
        0
 92
        0
 62
   257
 93
        1
300
CONTENTFORMAT
  1
CONTENTFORMAT_BEGIN
 90
        0
 91
        0
 92
      512
 93
        0
300

 40
0.0
140
1.0
 94
        2
 62
     0
340
17
144
4.5
309
CONTENTFORMAT_END
171
     1
301
MARGIN
  1
CELLMARGIN_BEGIN
 40
1.5
 40
1.5
 40
1.5
 40
1.5
 40
4.5
 40
4.5
309
CELLMARGIN_END
 94
        6
 95
        1
302
GRIDFORMAT
  1
GRIDFORMAT_BEGIN
 90
        0
 91
        1
 62
     0
 92
       -2
340
0
 93
        0
 40
1.125
309
GRIDFORMAT_END
 95
        2
302
GRIDFORMAT
  1
GRIDFORMAT_BEGIN
 90
        0
 91
        1
 62
     0
 92
       -2
340
0
 93
        0
 40
1.125
309
GRIDFORMAT_END
 95
        4
302
GRIDFORMAT
  1
GRIDFORMAT_BEGIN
 90
        0
 91
        1
 62
     0
 92
       -2
340
0
 93
        0
 40
1.125
309
GRIDFORMAT_END
 95
        8
302
GRIDFORMAT
  1
GRIDFORMAT_BEGIN
 90
        0
 91
        1
 62
     0
 92
       -2
340
0
 93
        0
 40
1.125
309
GRIDFORMAT_END
 95
       16
302
GRIDFORMAT
  1
GRIDFORMAT_BEGIN
 90
        0
 91
        1
 62
     0
 92
       -2
340
0
 93
        0
 40
1.125
309
GRIDFORMAT_END
 95
       32
302
GRIDFORMAT
  1
GRIDFORMAT_BEGIN
 90
        0
 91
        1
 62
     0
 92
       -2
340
0
 93
        0
 40
1.125
309
GRIDFORMAT_END
309
TABLEFORMAT_END
  1
CELLSTYLE_BEGIN
 90
        3
 91
        2
300
_DATA
309
CELLSTYLE_END
  0
ENDSEC
  0
EOF
