  0
SECTION
  2
HEADER
  9
$ACADVER
  1
AC1009
  9
$INSBASE
 10
0.0
 20
0.0
 30
0.0
  9
$EXTMIN
 10
-17.042377280133191
 20
-19.29943734265796
 30
0.0
  9
$EXTMAX
 10
76.099996290487354
 20
72.045112449395688
 30
0.0
  9
$LIMMIN
 10
0.0
 20
0.0
  9
$LIMMAX
 10
12.0
 20
9.0
  9
$ORTHOMODE
 70
     1
  9
$REGENMODE
 70
     1
  9
$FILLMODE
 70
     1
  9
$QTEXTMODE
 70
     0
  9
$MIRRTEXT
 70
     1
  9
$DRAGMODE
 70
     2
  9
$LTSCALE
 40
1.0
  9
$OSMODE
 70
     1
  9
$ATTMODE
 70
     1
  9
$TEXTSIZE
 40
0.2
  9
$TRACEWID
 40
0.05
  9
$TEXTSTYLE
  7
STANDARD
  9
$CLAYER
  8
0
  9
$CELTYPE
  6
CONTINUOUS
  9
$CECOLOR
 62
   256
  9
$DIMSCALE
 40
96.0
  9
$DIMASZ
 40
0.18
  9
$DIMEXO
 40
0.0625
  9
$DIMDLI
 40
0.38
  9
$DIMRND
 40
0.0
  9
$DIMDLE
 40
0.0
  9
$DIMEXE
 40
0.18
  9
$DIMTP
 40
0.0
  9
$DIMTM
 40
0.0
  9
$DIMTXT
 40
0.18
  9
$DIMCEN
 40
0.09
  9
$DIMTSZ
 40
0.0
  9
$DIMTOL
 70
     0
  9
$DIMLIM
 70
     0
  9
$DIMTIH
 70
     1
  9
$DIMTOH
 70
     1
  9
$DIMSE1
 70
     0
  9
$DIMSE2
 70
     0
  9
$DIMTAD
 70
     0
  9
$DIMZIN
 70
     0
  9
$DIMBLK
  1

  9
$DIMASO
 70
     1
  9
$DIMSHO
 70
     1
  9
$DIMPOST
  1

  9
$DIMAPOST
  1

  9
$DIMALT
 70
     0
  9
$DIMALTD
 70
     2
  9
$DIMALTF
 40
25.399999999999999
  9
$DIMLFAC
 40
1.0
  9
$DIMTOFL
 70
     0
  9
$DIMTVP
 40
0.0
  9
$DIMTIX
 70
     0
  9
$DIMSOXD
 70
     0
  9
$DIMSAH
 70
     0
  9
$DIMBLK1
  1

  9
$DIMBLK2
  1

  9
$DIMSTYLE
  2
STANDARD
  9
$DIMCLRD
 70
     0
  9
$DIMCLRE
 70
     0
  9
$DIMCLRT
 70
     0
  9
$DIMTFAC
 40
1.0
  9
$DIMGAP
 40
0.09
  9
$LUNITS
 70
     2
  9
$LUPREC
 70
     4
  9
$SKETCHINC
 40
0.1
  9
$FILLETRAD
 40
0.0
  9
$AUNITS
 70
     0
  9
$AUPREC
 70
     2
  9
$MENU
  1
.
  9
$ELEVATION
 40
0.0
  9
$PELEVATION
 40
0.0
  9
$THICKNESS
 40
0.0
  9
$LIMCHECK
 70
     0
  9
$BLIPMODE
 70
     0
  9
$CHAMFERA
 40
0.0
  9
$CHAMFERB
 40
0.0
  9
$SKPOLY
 70
     0
  9
$TDCREATE
 40
2453033.5981132751
  9
$TDUPDATE
 40
2453076.6144711571
  9
$TDINDWG
 40
0.0474999421
  9
$TDUSRTIMER
 40
0.0474999421
  9
$USRTIMER
 70
     1
  9
$ANGBASE
 50
0.0
  9
$ANGDIR
 70
     0
  9
$PDMODE
 70
     0
  9
$PDSIZE
 40
0.0
  9
$PLINEWID
 40
0.0
  9
$COORDS
 70
     1
  9
$SPLFRAME
 70
     0
  9
$SPLINETYPE
 70
     6
  9
$SPLINESEGS
 70
     8
  9
$ATTDIA
 70
     1
  9
$ATTREQ
 70
     1
  9
$HANDLING
 70
 22529
  9
$HANDSEED
  5
2AB
  9
$SURFTAB1
 70
     6
  9
$SURFTAB2
 70
     6
  9
$SURFTYPE
 70
     6
  9
$SURFU
 70
     6
  9
$SURFV
 70
     6
  9
$UCSNAME
  2

  9
$UCSORG
 10
0.0
 20
0.0
 30
0.0
  9
$UCSXDIR
 10
1.0
 20
0.0
 30
0.0
  9
$UCSYDIR
 10
0.0
 20
1.0
 30
0.0
  9
$PUCSNAME
  2

  9
$PUCSORG
 10
0.0
 20
0.0
 30
0.0
  9
$PUCSXDIR
 10
1.0
 20
0.0
 30
0.0
  9
$PUCSYDIR
 10
0.0
 20
1.0
 30
0.0
  9
$USERI1
 70
     0
  9
$USERI2
 70
     0
  9
$USERI3
 70
     0
  9
$USERI4
 70
     0
  9
$USERI5
 70
     0
  9
$USERR1
 40
0.0
  9
$USERR2
 40
0.0
  9
$USERR3
 40
0.0
  9
$USERR4
 40
0.0
  9
$USERR5
 40
0.0
  9
$WORLDVIEW
 70
     1
  9
$SHADEDGE
 70
     3
  9
$SHADEDIF
 70
    70
  9
$TILEMODE
 70
     1
  9
$MAXACTVP
 70
    64
  9
$PLIMCHECK
 70
     0
  9
$PEXTMIN
 10
-14.11568541011013
 20
-54.007401619271782
 30
-0.0015258207003583
  9
$PEXTMAX
 10
306.96118237775619
 20
100.886896363612
 30
0.0000000349246037
  9
$PLIMMIN
 10
-0.1979161059762549
 20
-0.2679166643638311
  9
$PLIMMAX
 10
11.493750144177531
 20
7.9987497780266699
  9
$UNITMODE
 70
     0
  9
$VISRETAIN
 70
     1
  9
$PLINEGEN
 70
     0
  9
$PSLTSCALE
 70
     1
  0
ENDSEC
  0
SECTION
  2
TABLES
  0
TABLE
  2
VPORT
 70
     2
  0
VPORT
  2
*ACTIVE
 70
     0
 10
0.0
 20
0.0
 11
1.0
 21
1.0
 12
34.165317020803251
 22
26.37310165692972
 13
0.0
 23
0.0
 14
1.0
 24
1.0
 15
0.0
 25
0.0
 16
0.0
 26
0.0
 36
1.0
 17
0.0
 27
0.0
 37
0.0
 40
92.424425441822024
 41
1.928853754940711
 42
50.0
 43
0.0
 44
0.0
 50
0.0
 51
0.0
 71
     0
 72
   100
 73
     1
 74
     1
 75
     0
 76
     0
 77
     0
 78
     0
  0
ENDTAB
  0
TABLE
  2
LTYPE
 70
     1
  0
LTYPE
  2
CONTINUOUS
 70
     0
  3
Solid line
 72
    65
 73
     0
 40
0.0
  0
ENDTAB
  0
TABLE
  2
LAYER
 70
     3
  0
LAYER
  2
0
 70
     0
 62
     7
  6
CONTINUOUS
  0
LAYER
  2
DEFPOINTS
 70
     0
 62
     7
  6
CONTINUOUS
  0
LAYER
  2
COTATION-JACOBDELAFON
 70
     0
 62
     8
  6
CONTINUOUS
  0
ENDTAB
  0
TABLE
  2
STYLE
 70
     3
  0
STYLE
  2
STANDARD
 70
     0
 40
0.0
 41
1.0
 50
0.0
 71
     0
 42
0.2
  3
txt
  4

  0
STYLE
  2
ROMANS
 70
     0
 40
0.0
 41
1.0
 50
0.0
 71
     0
 42
0.25
  3
Romans.shx
  4

  0
STYLE
  2
JACOB-DELAFON
 70
     0
 40
0.0
 41
1.0
 50
0.0
 71
     0
 42
2.5
  3
txt
  4

  0
ENDTAB
  0
TABLE
  2
VIEW
 70
     0
  0
ENDTAB
  0
TABLE
  2
UCS
 70
     0
  0
ENDTAB
  0
TABLE
  2
APPID
 70
     7
  0
APPID
  2
ACAD
 70
     0
  0
APPID
  2
ACAECLAYERSTANDARD
 70
     0
  0
APPID
  2
ADCADD_ZZ
 70
     0
  0
APPID
  2
SDSK_PMN
 70
     0
  0
APPID
  2
AEC_DWGVARSSETUP_DATA
 70
     0
  0
APPID
  2
AEC_DISPREPSET_DATA
 70
     0
  0
APPID
  2
CONTENTBLOCKICON
 70
     0
  0
ENDTAB
  0
TABLE
  2
DIMSTYLE
 70
     7
  0
DIMSTYLE
  2
STANDARD
 70
     0
  3

  4

  5

  6

  7

 40
1.0
 41
0.18
 42
0.0625
 43
0.38
 44
0.18
 45
0.0
 46
0.0
 47
0.0
 48
0.0
140
0.18
141
0.09
142
0.0
143
25.399999999999999
144
1.0
145
0.0
146
1.0
147
0.09
 71
     0
 72
     0
 73
     1
 74
     1
 75
     0
 76
     0
 77
     0
 78
     0
170
     0
171
     2
172
     0
173
     0
174
     0
175
     0
176
     0
177
     0
178
     0
  0
DIMSTYLE
  2
ESCALIER_AEC
 70
     0
  3

  4

  5

  6
ORIGIN
  7

 40
1.0
 41
0.1
 42
0.0
 43
0.5
 44
0.125
 45
0.0
 46
125.0
 47
0.0
 48
0.0
140
0.2
141
0.25
142
0.0
143
25.399999999999999
144
1.0
145
0.0
146
1.0
147
0.05
 71
     0
 72
     0
 73
     0
 74
     0
 75
     0
 76
     0
 77
     1
 78
    12
170
     0
171
     2
172
     0
173
     1
174
     0
175
     0
176
     0
177
     0
178
     0
  0
DIMSTYLE
  2
COTATION_AEC_1-100
 70
     0
  3

  4

  5
ARCHTICK
  6

  7

 40
1.0
 41
0.15
 42
0.0
 43
0.5
 44
0.125
 45
0.0025
 46
0.0625
 47
0.0
 48
0.0
140
0.2
141
0.25
142
0.0
143
25.399999999999999
144
1.0
145
0.0
146
1.0
147
0.1
 71
     0
 72
     0
 73
     0
 74
     0
 75
     0
 76
     0
 77
     1
 78
    12
170
     0
171
     2
172
     1
173
     0
174
     1
175
     0
176
     0
177
     0
178
     0
  0
DIMSTYLE
  2
COTATION_AEC_1-50
 70
     0
  3

  4

  5
ARCHTICK
  6

  7

 40
1.0
 41
0.075
 42
0.0
 43
0.5
 44
0.0625
 45
0.0025
 46
0.03125
 47
0.0
 48
0.0
140
0.1
141
0.125
142
0.0
143
25.399999999999999
144
1.0
145
0.0
146
1.0
147
0.05
 71
     0
 72
     0
 73
     0
 74
     0
 75
     0
 76
     0
 77
     1
 78
    12
170
     0
171
     2
172
     1
173
     0
174
     1
175
     0
176
     0
177
     0
178
     0
  0
DIMSTYLE
  2
COTATION_AEC_1-200
 70
     0
  3

  4

  5
ARCHTICK
  6

  7

 40
1.0
 41
0.3
 42
0.0
 43
0.5
 44
0.25
 45
0.0025
 46
0.125
 47
0.0
 48
0.0
140
0.4
141
0.25
142
0.0
143
25.399999999999999
144
1.0
145
0.0
146
1.0
147
0.2
 71
     0
 72
     0
 73
     0
 74
     0
 75
     0
 76
     0
 77
     1
 78
    12
170
     0
171
     2
172
     1
173
     0
174
     1
175
     0
176
     0
177
     0
178
     0
  0
DIMSTYLE
  2
COTATION_AEC_1-500
 70
     0
  3

  4

  5
ARCHTICK
  6

  7

 40
1.0
 41
0.6
 42
0.0
 43
0.5
 44
0.5
 45
0.0025
 46
0.25
 47
0.0
 48
0.0
140
0.8
141
0.25
142
0.0
143
25.399999999999999
144
1.0
145
0.0
146
1.0
147
0.4
 71
     0
 72
     0
 73
     0
 74
     0
 75
     0
 76
     0
 77
     1
 78
    12
170
     0
171
     2
172
     1
173
     0
174
     1
175
     0
176
     0
177
     0
178
     0
  0
DIMSTYLE
  2
COTATION-JACOB-DELAFON
 70
     0
  3

  4

  5
OBLIQUE
  6

  7

 40
1.0
 41
1.8
 42
0.625
 43
3.7999999999999989
 44
1.8
 45
0.0
 46
0.0
 47
0.0
 48
0.0
140
3.0
141
0.9
142
0.0
143
25.399999999999999
144
1.0
145
0.0
146
1.0
147
0.9
 71
     0
 72
     0
 73
     0
 74
     0
 75
     0
 76
     0
 77
     1
 78
    12
170
     0
171
     2
172
     0
173
     0
174
     0
175
     0
176
     0
177
     0
178
     0
  0
ENDTAB
  0
ENDSEC
  0
SECTION
  2
BLOCKS
  0
BLOCK
  8
0
  2
$MODEL_SPACE
 70
     0
 10
0.0
 20
0.0
 30
0.0
  3
$MODEL_SPACE
  1

  0
ENDBLK
  5
9
  8
0
  0
BLOCK
 67
     1
  8
0
  2
$PAPER_SPACE
 70
     0
 10
0.0
 20
0.0
 30
0.0
  3
$PAPER_SPACE
  1

  0
ENDBLK
  5
E
 67
     1
  8
0
  0
BLOCK
  8
0
  2
_ORIGIN
 70
     0
 10
0.0
 20
0.0
 30
0.0
  3
_ORIGIN
  1

  0
CIRCLE
  5
2D
  8
0
  6
BYBLOCK
 62
     0
 10
0.0
 20
0.0
 30
0.0
 40
0.5
  0
LINE
  5
2E
  8
0
  6
BYBLOCK
 62
     0
 10
0.0
 20
0.0
 30
0.0
 11
-1.0
 21
0.0
 31
0.0
  0
ENDBLK
  5
30
  8
0
  0
BLOCK
  8
0
  2
_ARCHTICK
 70
     0
 10
0.0
 20
0.0
 30
0.0
  3
_ARCHTICK
  1

  0
POLYLINE
  5
32
  8
0
  6
BYBLOCK
 62
     0
 66
     1
 10
0.0
 20
0.0
 30
0.0
 40
0.15
 41
0.15
  0
VERTEX
  5
28A
  8
0
  6
BYBLOCK
 62
     0
 10
-0.5
 20
-0.5
 30
0.0
  0
VERTEX
  5
28B
  8
0
  6
BYBLOCK
 62
     0
 10
0.5
 20
0.5
 30
0.0
  0
SEQEND
  5
28C
  8
0
  6
BYBLOCK
 62
     0
  0
ENDBLK
  5
34
  8
0
  0
BLOCK
  8
0
  2
_OBLIQUE
 70
     0
 10
0.0
 20
0.0
 30
0.0
  3
_OBLIQUE
  1

  0
LINE
  5
36
  8
0
  6
BYBLOCK
 62
     0
 10
-0.5
 20
-0.5
 30
0.0
 11
0.5
 21
0.5
 31
0.0
  0
ENDBLK
  5
38
  8
0
  0
BLOCK
  8
0
  2
*D3
 70
     1
 10
0.0
 20
0.0
 30
0.0
  3
*D3
  1

  0
LINE
  5
209
  8
COTATION-JACOBDELAFON
 62
     0
 10
-1.0147769191555931
 20
51.200105016374373
 30
0.0
 11
-10.23978519282076
 21
51.200105016374373
 31
0.0
  0
LINE
  5
20A
  8
COTATION-JACOBDELAFON
 62
     0
 10
18.91159999635715
 20
0.0000000000000002
 30
0.0
 11
-10.239785192820779
 21
0.0000000000000084
 31
0.0
  0
LINE
  5
20B
  8
COTATION-JACOBDELAFON
 62
     0
 10
-8.4397851928207661
 20
51.200105016374373
 30
0.0
 11
-8.4397851928207785
 21
0.0000000000000079
 31
0.0
  0
INSERT
  5
20C
  8
COTATION-JACOBDELAFON
 62
     0
  2
_OBLIQUE
 10
-8.4397851928207661
 20
51.200105016374373
 30
0.0
 41
1.8
 42
1.8
 43
1.8
 50
90.0
  0
INSERT
  5
20D
  8
COTATION-JACOBDELAFON
 62
     0
  2
_OBLIQUE
 10
-8.4397851928207785
 20
0.0000000000000079
 30
0.0
 41
1.8
 42
1.8
 43
1.8
 50
270.0
  0
TEXT
  5
20E
  8
0
  6
CONTINUOUS
 62
     0
 10
-9.4543827371591131
 20
17.49022986152961
 30
0.0
 40
6.0
  1
51.2
 50
90.0
  7
JACOB-DELAFON
  0
POINT
  5
20F
  8
DEFPOINTS
 62
     0
 10
-0.3897769191555937
 20
51.200105016374373
 30
0.0
  0
POINT
  5
210
  8
DEFPOINTS
 62
     0
 10
19.53659999635715
 20
0.0
 30
0.0
  0
POINT
  5
211
  8
DEFPOINTS
 62
     0
 10
-8.4397851928207785
 20
0.0000000000000079
 30
0.0
  0
ENDBLK
  5
7D
  8
0
  0
BLOCK
  8
0
  2
ADCADD_ZZ
 70
     0
 10
0.0
 20
0.0
 30
0.0
  3
ADCADD_ZZ
  1

  0
ENDBLK
  5
AE
  8
0
  0
BLOCK
  8
0
  2
*D5
 70
     1
 10
0.0
 20
0.0
 30
0.0
  3
*D5
  1

  0
LINE
  5
229
  8
COTATION-JACOBDELAFON
 62
     0
 10
0.0
 20
51.325379662312677
 30
0.0
 11
0.0000000000000009
 21
65.242520362083283
 31
0.0
  0
LINE
  5
22A
  8
COTATION-JACOBDELAFON
 62
     0
 10
75.199996290487348
 20
51.325379662312677
 30
0.0
 11
75.199996290487348
 21
65.242520362083283
 31
0.0
  0
LINE
  5
22B
  8
COTATION-JACOBDELAFON
 62
     0
 10
0.0000000000000008
 20
63.442520362083279
 30
0.0
 11
75.199996290487348
 21
63.442520362083279
 31
0.0
  0
INSERT
  5
22C
  8
COTATION-JACOBDELAFON
 62
     0
  2
_OBLIQUE
 10
0.0000000000000008
 20
63.442520362083279
 30
0.0
 41
1.8
 42
1.8
 43
1.8
 50
180.0
  0
INSERT
  5
22D
  8
COTATION-JACOBDELAFON
 62
     0
  2
_OBLIQUE
 10
75.199996290487348
 20
63.442520362083279
 30
0.0
 41
1.8
 42
1.8
 43
1.8
  0
TEXT
  5
22E
  8
0
  6
CONTINUOUS
 62
     0
 10
29.46561888194217
 20
64.457117906421615
 30
0.0
 40
6.0
  1
75.2
  7
JACOB-DELAFON
  0
POINT
  5
22F
  8
DEFPOINTS
 62
     0
 10
0.0
 20
50.700379662312677
 30
0.0
  0
POINT
  5
230
  8
DEFPOINTS
 62
     0
 10
75.199996290487348
 20
50.700379662312677
 30
0.0
  0
POINT
  5
231
  8
DEFPOINTS
 62
     0
 10
75.199996290487348
 20
63.442520362083279
 30
0.0
  0
ENDBLK
  5
21F
  8
0
  0
ENDSEC
  0
SECTION
  2
ENTITIES
  0
POLYLINE
  5
24
  8
0
  6
CONTINUOUS
 66
     1
 10
0.0
 20
0.0
 30
0.0
  0
VERTEX
  5
268
  8
0
  6
CONTINUOUS
 10
13.014869175495591
 20
46.200562657342033
 30
0.0
  0
VERTEX
  5
269
  8
0
  6
CONTINUOUS
 10
14.271000377910999
 20
41.910554007130081
 30
0.0
  0
VERTEX
  5
26A
  8
0
  6
CONTINUOUS
 10
15.257200973175619
 20
36.257935460194219
 30
0.0
  0
VERTEX
  5
26B
  8
0
  6
CONTINUOUS
 10
16.512301969479459
 20
24.822998656108059
 30
0.0
  0
VERTEX
  5
26C
  8
0
  6
CONTINUOUS
 10
17.24080187673297
 20
16.751861983408052
 30
0.0
  0
VERTEX
  5
26D
  8
0
  6
CONTINUOUS
 10
17.762700159195209
 20
10.449219006456101
 30
0.0
  0
VERTEX
  5
26E
  8
0
  6
CONTINUOUS
 10
18.031701888133249
 20
5.9860230961342387
 30
0.0
  0
VERTEX
  5
26F
  8
0
  6
CONTINUOUS
 10
18.30069765660653
 20
2.7938843459143001
 30
0.0
  0
VERTEX
  5
270
  8
0
  6
CONTINUOUS
 10
18.35320338947778
 20
0.8384704795630142
 30
0.0
  0
VERTEX
  5
271
  8
0
  6
CONTINUOUS
 10
18.810603484245711
 20
0.231170659970509
 30
0.0
  0
VERTEX
  5
272
  8
0
  6
CONTINUOUS
 10
19.53659999635715
 20
0.0
 30
0.0
  0
VERTEX
  5
273
  8
0
  6
CONTINUOUS
 10
61.658905469713289
 20
0.0
 30
0.0
  0
VERTEX
  5
274
  8
0
  6
CONTINUOUS
 10
62.371681671288989
 20
0.2273559626112629
 30
0.0
  0
VERTEX
  5
275
  8
0
  6
CONTINUOUS
 10
62.805102816875291
 20
0.7324218929758857
 30
0.0
  0
VERTEX
  5
276
  8
0
  6
CONTINUOUS
 10
62.894795888534617
 20
2.7938843459143001
 30
0.0
  0
VERTEX
  5
277
  8
0
  6
CONTINUOUS
 10
63.163696289573998
 20
5.9860230961342387
 30
0.0
  0
VERTEX
  5
278
  8
0
  6
CONTINUOUS
 10
63.432703978976541
 20
10.449219006456101
 30
0.0
  0
VERTEX
  5
279
  8
0
  6
CONTINUOUS
 10
63.959203740128402
 20
16.751861983408052
 30
0.0
  0
VERTEX
  5
27A
  8
0
  6
CONTINUOUS
 10
64.687703647381937
 20
24.822998656108059
 30
0.0
  0
VERTEX
  5
27B
  8
0
  6
CONTINUOUS
 10
65.942798683221184
 20
36.257935460194219
 30
0.0
  0
VERTEX
  5
27C
  8
0
  6
CONTINUOUS
 10
66.929005238950452
 20
41.910554007130081
 30
0.0
  0
VERTEX
  5
27D
  8
0
  6
CONTINUOUS
 10
68.18513644136587
 20
46.200562657342033
 30
0.0
  0
SEQEND
  5
27E
  8
0
  6
CONTINUOUS
  0
POLYLINE
  5
25
  8
0
  6
CONTINUOUS
 66
     1
 10
0.0
 20
0.0
 30
0.0
 70
     1
  0
VERTEX
  5
27F
  8
0
  6
CONTINUOUS
 10
0.0
 20
50.700379662312677
 30
0.0
  0
VERTEX
  5
280
  8
0
  6
CONTINUOUS
 10
0.146499279756739
 20
51.05362063777919
 30
0.0
  0
VERTEX
  5
281
  8
0
  6
CONTINUOUS
 10
0.4999995354343981
 20
51.200105016374373
 30
0.0
  0
VERTEX
  5
282
  8
0
  6
CONTINUOUS
 10
74.699996755052922
 20
51.200105016374373
 30
0.0
  0
VERTEX
  5
283
  8
0
  6
CONTINUOUS
 10
75.053607279326073
 20
51.05362063777919
 30
0.0
  0
VERTEX
  5
284
  8
0
  6
CONTINUOUS
 10
75.199996290487348
 20
50.700379662312677
 30
0.0
  0
VERTEX
  5
285
  8
0
  6
CONTINUOUS
 10
75.199996290487348
 20
46.200562657342033
 30
0.0
  0
VERTEX
  5
286
  8
0
  6
CONTINUOUS
 10
0.0
 20
46.200562657342033
 30
0.0
  0
SEQEND
  5
287
  8
0
  6
CONTINUOUS
  0
DIMENSION
  5
70
  8
COTATION-JACOBDELAFON
  2
*D3
 10
-8.4397851928207785
 20
0.0000000000000079
 30
0.0
 11
-12.403223119150921
 21
25.600052508187179
 31
0.0
 70
     0
 13
-0.3897769191555937
 23
51.200105016374373
 33
0.0
 14
19.53659999635715
 24
0.0
 34
0.0
 50
90.0
1001
ACAD
1000
DSTYLE
1002
{
1070
   140
1040
6.0
1002
}
  0
DIMENSION
  5
212
  8
COTATION-JACOBDELAFON
  2
*D5
 10
75.199996290487348
 20
63.442520362083279
 30
0.0
 11
37.599998145243667
 21
67.40595828841343
 31
0.0
 70
     0
 13
0.0
 23
50.700379662312677
 33
0.0
 14
75.199996290487348
 24
50.700379662312677
 34
0.0
1001
ACAD
1000
DSTYLE
1002
{
1070
   140
1040
6.0
1002
}
  0
LINE
  5
241
  8
0
 10
24.597752733035222
 20
-4.59398136128135
 30
0.0
 11
24.597752733035222
 21
-15.79943734265796
 31
0.0
  0
LINE
  5
242
  8
0
 10
26.597752733035229
 20
-4.59398136128135
 30
0.0
 11
26.597752733035222
 21
-15.79943734265796
 31
0.0
  0
POLYLINE
  5
243
  8
0
 66
     1
 10
0.0
 20
0.0
 30
0.0
 70
     1
  0
VERTEX
  5
28D
  8
0
 10
24.097752733035222
 20
-18.79943734265796
 30
0.0
  0
VERTEX
  5
28E
  8
0
 10
27.097752733035222
 20
-18.79943734265796
 30
0.0
  0
VERTEX
  5
28F
  8
0
 10
27.097752733035222
 20
-15.79943734265796
 30
0.0
  0
VERTEX
  5
290
  8
0
 10
24.097752733035222
 20
-15.79943734265796
 30
0.0
  0
SEQEND
  5
291
  8
0
  0
POLYLINE
  5
244
  8
0
 66
     1
 10
0.0
 20
0.0
 30
0.0
 70
     1
  0
VERTEX
  5
292
  8
0
 10
23.097752733035222
 20
-19.29943734265796
 30
0.0
  0
VERTEX
  5
293
  8
0
 10
28.097752733035229
 20
-19.29943734265796
 30
0.0
  0
VERTEX
  5
294
  8
0
 10
28.097752733035229
 20
-18.79943734265796
 30
0.0
  0
VERTEX
  5
295
  8
0
 10
23.097752733035222
 20
-18.79943734265796
 30
0.0
  0
SEQEND
  5
296
  8
0
  0
POLYLINE
  5
245
  8
0
 66
     1
 10
0.0
 20
0.0
 30
0.0
 70
     1
  0
VERTEX
  5
297
  8
0
 10
24.097752733035229
 20
-4.59398136128135
 30
0.0
  0
VERTEX
  5
298
  8
0
 10
27.097752733035229
 20
-4.59398136128135
 30
0.0
  0
VERTEX
  5
299
  8
0
 10
27.097752733035229
 20
0.4060186387186473
 30
0.0
  0
VERTEX
  5
29A
  8
0
 10
24.097752733035229
 20
0.4060186387186473
 30
0.0
  0
SEQEND
  5
29B
  8
0
  0
POLYLINE
  5
24C
  8
0
 66
     1
 10
0.0
 20
0.0
 30
0.0
 70
     1
  0
VERTEX
  5
29C
  8
0
 10
54.097752733035229
 20
-4.59398136128135
 30
0.0
  0
VERTEX
  5
29D
  8
0
 10
57.097752733035243
 20
-4.59398136128135
 30
0.0
  0
VERTEX
  5
29E
  8
0
 10
57.097752733035243
 20
0.4060186387186473
 30
0.0
  0
VERTEX
  5
29F
  8
0
 10
54.097752733035229
 20
0.4060186387186473
 30
0.0
  0
SEQEND
  5
2A0
  8
0
  0
POLYLINE
  5
24D
  8
0
 66
     1
 10
0.0
 20
0.0
 30
0.0
 70
     1
  0
VERTEX
  5
2A1
  8
0
 10
53.097752733035222
 20
-19.29943734265796
 30
0.0
  0
VERTEX
  5
2A2
  8
0
 10
58.097752733035229
 20
-19.29943734265796
 30
0.0
  0
VERTEX
  5
2A3
  8
0
 10
58.097752733035229
 20
-18.79943734265796
 30
0.0
  0
VERTEX
  5
2A4
  8
0
 10
53.097752733035222
 20
-18.79943734265796
 30
0.0
  0
SEQEND
  5
2A5
  8
0
  0
POLYLINE
  5
24E
  8
0
 66
     1
 10
0.0
 20
0.0
 30
0.0
 70
     1
  0
VERTEX
  5
2A6
  8
0
 10
54.097752733035222
 20
-18.79943734265796
 30
0.0
  0
VERTEX
  5
2A7
  8
0
 10
57.097752733035229
 20
-18.79943734265796
 30
0.0
  0
VERTEX
  5
2A8
  8
0
 10
57.097752733035229
 20
-15.79943734265796
 30
0.0
  0
VERTEX
  5
2A9
  8
0
 10
54.097752733035222
 20
-15.79943734265796
 30
0.0
  0
SEQEND
  5
2AA
  8
0
  0
LINE
  5
24F
  8
0
 10
54.597752733035229
 20
-4.59398136128135
 30
0.0
 11
54.597752733035222
 21
-15.79943734265796
 31
0.0
  0
LINE
  5
250
  8
0
 10
56.597752733035229
 20
-4.59398136128135
 30
0.0
 11
56.597752733035222
 21
-15.79943734265796
 31
0.0
  0
INSERT
  5
AF
 67
     1
  8
0
  6
CONTINUOUS
  2
ADCADD_ZZ
 10
0.0
 20
0.0
 30
0.0
1001
ADCADD_ZZ
1070
   205
1070
    14
1070
   209
1070
     1
1070
   231
1070
     0
1070
   235
1070
     0
1070
   236
1070
     4
1070
   237
1070
     2
1070
   238
1070
     4
1070
   239
1070
     2
1070
   240
1070
     0
1070
   241
1070
  4096
1070
   242
1070
     2
1070
   244
1070
     0
1070
   245
1070
     1
1070
   303
1040
0.1
1070
   304
1040
4.0
1070
   305
1040
96.0
1070
   306
1040
0.125
1070
   337
1040
0.0
1070
   338
1040
0.3048
1070
   339
1040
0.0625
1070
   340
1040
96.0
1070
   341
1040
4.0
1070
   342
1040
96.0
1070
   530
1010
0.0
1020
0.0
1030
0.0
1070
   531
1010
0.0
1020
0.0
1030
0.0
1070
   107
1000

1070
   108
1000
Architectural Desktop
1070
   135
1000
L120
1070
   136
1000
'
1070
   137
1000
m
1001
SDSK_PMN
1070
   100
1000
ACADARCH
1070
   300
1040
2453076.6145120719
  0
ENDSEC
  0
EOF
