  0
SECTION
  2
HEADER
  9
$ACADVER
  1
AC1009
  9
$INSBASE
 10
0.0
 20
0.0
 30
0.0
  9
$EXTMIN
 10
-0.9000000000000072
 20
-120.5066052061206
 30
0.0
  9
$EXTMAX
 10
112.1221812395889
 20
95.900050000000107
 30
0.0
  9
$LIMMIN
 10
0.0
 20
0.0
  9
$LIMMAX
 10
12.0
 20
9.0
  9
$ORTHOMODE
 70
     1
  9
$REGENMODE
 70
     1
  9
$FILLMODE
 70
     1
  9
$QTEXTMODE
 70
     0
  9
$MIRRTEXT
 70
     1
  9
$DRAGMODE
 70
     2
  9
$LTSCALE
 40
1.0
  9
$OSMODE
 70
     1
  9
$ATTMODE
 70
     1
  9
$TEXTSIZE
 40
0.2
  9
$TRACEWID
 40
0.05
  9
$TEXTSTYLE
  7
STANDARD
  9
$CLAYER
  8
COTATION-JACOBDELAFON
  9
$CELTYPE
  6
CONTINUOUS
  9
$CECOLOR
 62
   256
  9
$DIMSCALE
 40
96.0
  9
$DIMASZ
 40
0.18
  9
$DIMEXO
 40
0.0625
  9
$DIMDLI
 40
0.38
  9
$DIMRND
 40
0.0
  9
$DIMDLE
 40
0.0
  9
$DIMEXE
 40
0.18
  9
$DIMTP
 40
0.0
  9
$DIMTM
 40
0.0
  9
$DIMTXT
 40
0.18
  9
$DIMCEN
 40
0.09
  9
$DIMTSZ
 40
0.0
  9
$DIMTOL
 70
     0
  9
$DIMLIM
 70
     0
  9
$DIMTIH
 70
     1
  9
$DIMTOH
 70
     1
  9
$DIMSE1
 70
     0
  9
$DIMSE2
 70
     0
  9
$DIMTAD
 70
     0
  9
$DIMZIN
 70
     0
  9
$DIMBLK
  1

  9
$DIMASO
 70
     1
  9
$DIMSHO
 70
     1
  9
$DIMPOST
  1

  9
$DIMAPOST
  1

  9
$DIMALT
 70
     0
  9
$DIMALTD
 70
     2
  9
$DIMALTF
 40
25.399999999999999
  9
$DIMLFAC
 40
1.0
  9
$DIMTOFL
 70
     0
  9
$DIMTVP
 40
0.0
  9
$DIMTIX
 70
     0
  9
$DIMSOXD
 70
     0
  9
$DIMSAH
 70
     0
  9
$DIMBLK1
  1

  9
$DIMBLK2
  1

  9
$DIMSTYLE
  2
STANDARD
  9
$DIMCLRD
 70
     0
  9
$DIMCLRE
 70
     0
  9
$DIMCLRT
 70
     0
  9
$DIMTFAC
 40
1.0
  9
$DIMGAP
 40
0.09
  9
$LUNITS
 70
     2
  9
$LUPREC
 70
     4
  9
$SKETCHINC
 40
0.1
  9
$FILLETRAD
 40
0.0
  9
$AUNITS
 70
     0
  9
$AUPREC
 70
     2
  9
$MENU
  1
.
  9
$ELEVATION
 40
0.0
  9
$PELEVATION
 40
0.0
  9
$THICKNESS
 40
0.0
  9
$LIMCHECK
 70
     0
  9
$BLIPMODE
 70
     0
  9
$CHAMFERA
 40
0.0
  9
$CHAMFERB
 40
0.0
  9
$SKPOLY
 70
     0
  9
$TDCREATE
 40
2453033.5981132751
  9
$TDUPDATE
 40
2453076.6111273491
  9
$TDINDWG
 40
0.052798912
  9
$TDUSRTIMER
 40
0.052798912
  9
$USRTIMER
 70
     1
  9
$ANGBASE
 50
0.0
  9
$ANGDIR
 70
     0
  9
$PDMODE
 70
     0
  9
$PDSIZE
 40
0.0
  9
$PLINEWID
 40
0.0
  9
$COORDS
 70
     1
  9
$SPLFRAME
 70
     0
  9
$SPLINETYPE
 70
     6
  9
$SPLINESEGS
 70
     8
  9
$ATTDIA
 70
     1
  9
$ATTREQ
 70
     1
  9
$HANDLING
 70
 22529
  9
$HANDSEED
  5
3C6
  9
$SURFTAB1
 70
     6
  9
$SURFTAB2
 70
     6
  9
$SURFTYPE
 70
     6
  9
$SURFU
 70
     6
  9
$SURFV
 70
     6
  9
$UCSNAME
  2

  9
$UCSORG
 10
0.0
 20
0.0
 30
0.0
  9
$UCSXDIR
 10
1.0
 20
0.0
 30
0.0
  9
$UCSYDIR
 10
0.0
 20
1.0
 30
0.0
  9
$PUCSNAME
  2

  9
$PUCSORG
 10
0.0
 20
0.0
 30
0.0
  9
$PUCSXDIR
 10
1.0
 20
0.0
 30
0.0
  9
$PUCSYDIR
 10
0.0
 20
1.0
 30
0.0
  9
$USERI1
 70
     0
  9
$USERI2
 70
     0
  9
$USERI3
 70
     0
  9
$USERI4
 70
     0
  9
$USERI5
 70
     0
  9
$USERR1
 40
0.0
  9
$USERR2
 40
0.0
  9
$USERR3
 40
0.0
  9
$USERR4
 40
0.0
  9
$USERR5
 40
0.0
  9
$WORLDVIEW
 70
     1
  9
$SHADEDGE
 70
     3
  9
$SHADEDIF
 70
    70
  9
$TILEMODE
 70
     1
  9
$MAXACTVP
 70
    64
  9
$PLIMCHECK
 70
     0
  9
$PEXTMIN
 10
-14.11568541011013
 20
-46.080802926603248
 30
-0.0015258207003583
  9
$PEXTMAX
 10
306.96118237775619
 20
100.886896363612
 30
0.0000000349246037
  9
$PLIMMIN
 10
-0.1979161059762549
 20
-0.2679166643638311
  9
$PLIMMAX
 10
11.493750144177531
 20
7.9987497780266699
  9
$UNITMODE
 70
     0
  9
$VISRETAIN
 70
     1
  9
$PLINEGEN
 70
     0
  9
$PSLTSCALE
 70
     1
  0
ENDSEC
  0
SECTION
  2
TABLES
  0
TABLE
  2
VPORT
 70
     2
  0
VPORT
  2
*ACTIVE
 70
     0
 10
0.0
 20
0.0
 11
1.0
 21
1.0
 12
66.594990428551995
 22
-12.303277099199249
 13
0.0
 23
0.0
 14
1.0
 24
1.0
 15
0.0
 25
0.0
 16
0.0
 26
0.0
 36
1.0
 17
0.0
 27
0.0
 37
0.0
 40
218.94350742077009
 41
1.928853754940711
 42
50.0
 43
0.0
 44
0.0
 50
0.0
 51
0.0
 71
     0
 72
   100
 73
     1
 74
     1
 75
     0
 76
     0
 77
     0
 78
     0
  0
ENDTAB
  0
TABLE
  2
LTYPE
 70
     1
  0
LTYPE
  2
CONTINUOUS
 70
     0
  3
Solid line
 72
    65
 73
     0
 40
0.0
  0
ENDTAB
  0
TABLE
  2
LAYER
 70
     3
  0
LAYER
  2
0
 70
     0
 62
     7
  6
CONTINUOUS
  0
LAYER
  2
DEFPOINTS
 70
     0
 62
     7
  6
CONTINUOUS
  0
LAYER
  2
COTATION-JACOBDELAFON
 70
     0
 62
     8
  6
CONTINUOUS
  0
ENDTAB
  0
TABLE
  2
STYLE
 70
     3
  0
STYLE
  2
STANDARD
 70
     0
 40
0.0
 41
1.0
 50
0.0
 71
     0
 42
0.2
  3
txt
  4

  0
STYLE
  2
ROMANS
 70
     0
 40
0.0
 41
1.0
 50
0.0
 71
     0
 42
0.25
  3
Romans.shx
  4

  0
STYLE
  2
JACOB-DELAFON
 70
     0
 40
0.0
 41
1.0
 50
0.0
 71
     0
 42
2.5
  3
txt
  4

  0
ENDTAB
  0
TABLE
  2
VIEW
 70
     0
  0
ENDTAB
  0
TABLE
  2
UCS
 70
     0
  0
ENDTAB
  0
TABLE
  2
APPID
 70
     7
  0
APPID
  2
ACAD
 70
     0
  0
APPID
  2
ACAECLAYERSTANDARD
 70
     0
  0
APPID
  2
ADCADD_ZZ
 70
     0
  0
APPID
  2
SDSK_PMN
 70
     0
  0
APPID
  2
AEC_DWGVARSSETUP_DATA
 70
     0
  0
APPID
  2
AEC_DISPREPSET_DATA
 70
     0
  0
APPID
  2
CONTENTBLOCKICON
 70
     0
  0
ENDTAB
  0
TABLE
  2
DIMSTYLE
 70
     7
  0
DIMSTYLE
  2
STANDARD
 70
     0
  3

  4

  5

  6

  7

 40
1.0
 41
0.18
 42
0.0625
 43
0.38
 44
0.18
 45
0.0
 46
0.0
 47
0.0
 48
0.0
140
0.18
141
0.09
142
0.0
143
25.399999999999999
144
1.0
145
0.0
146
1.0
147
0.09
 71
     0
 72
     0
 73
     1
 74
     1
 75
     0
 76
     0
 77
     0
 78
     0
170
     0
171
     2
172
     0
173
     0
174
     0
175
     0
176
     0
177
     0
178
     0
  0
DIMSTYLE
  2
ESCALIER_AEC
 70
     0
  3

  4

  5

  6
ORIGIN
  7

 40
1.0
 41
0.1
 42
0.0
 43
0.5
 44
0.125
 45
0.0
 46
125.0
 47
0.0
 48
0.0
140
0.2
141
0.25
142
0.0
143
25.399999999999999
144
1.0
145
0.0
146
1.0
147
0.05
 71
     0
 72
     0
 73
     0
 74
     0
 75
     0
 76
     0
 77
     1
 78
    12
170
     0
171
     2
172
     0
173
     1
174
     0
175
     0
176
     0
177
     0
178
     0
  0
DIMSTYLE
  2
COTATION_AEC_1-100
 70
     0
  3

  4

  5
ARCHTICK
  6

  7

 40
1.0
 41
0.15
 42
0.0
 43
0.5
 44
0.125
 45
0.0025
 46
0.0625
 47
0.0
 48
0.0
140
0.2
141
0.25
142
0.0
143
25.399999999999999
144
1.0
145
0.0
146
1.0
147
0.1
 71
     0
 72
     0
 73
     0
 74
     0
 75
     0
 76
     0
 77
     1
 78
    12
170
     0
171
     2
172
     1
173
     0
174
     1
175
     0
176
     0
177
     0
178
     0
  0
DIMSTYLE
  2
COTATION_AEC_1-50
 70
     0
  3

  4

  5
ARCHTICK
  6

  7

 40
1.0
 41
0.075
 42
0.0
 43
0.5
 44
0.0625
 45
0.0025
 46
0.03125
 47
0.0
 48
0.0
140
0.1
141
0.125
142
0.0
143
25.399999999999999
144
1.0
145
0.0
146
1.0
147
0.05
 71
     0
 72
     0
 73
     0
 74
     0
 75
     0
 76
     0
 77
     1
 78
    12
170
     0
171
     2
172
     1
173
     0
174
     1
175
     0
176
     0
177
     0
178
     0
  0
DIMSTYLE
  2
COTATION_AEC_1-200
 70
     0
  3

  4

  5
ARCHTICK
  6

  7

 40
1.0
 41
0.3
 42
0.0
 43
0.5
 44
0.25
 45
0.0025
 46
0.125
 47
0.0
 48
0.0
140
0.4
141
0.25
142
0.0
143
25.399999999999999
144
1.0
145
0.0
146
1.0
147
0.2
 71
     0
 72
     0
 73
     0
 74
     0
 75
     0
 76
     0
 77
     1
 78
    12
170
     0
171
     2
172
     1
173
     0
174
     1
175
     0
176
     0
177
     0
178
     0
  0
DIMSTYLE
  2
COTATION_AEC_1-500
 70
     0
  3

  4

  5
ARCHTICK
  6

  7

 40
1.0
 41
0.6
 42
0.0
 43
0.5
 44
0.5
 45
0.0025
 46
0.25
 47
0.0
 48
0.0
140
0.8
141
0.25
142
0.0
143
25.399999999999999
144
1.0
145
0.0
146
1.0
147
0.4
 71
     0
 72
     0
 73
     0
 74
     0
 75
     0
 76
     0
 77
     1
 78
    12
170
     0
171
     2
172
     1
173
     0
174
     1
175
     0
176
     0
177
     0
178
     0
  0
DIMSTYLE
  2
COTATION-JACOB-DELAFON
 70
     0
  3

  4

  5
OBLIQUE
  6

  7

 40
1.0
 41
1.8
 42
0.625
 43
3.7999999999999989
 44
1.8
 45
0.0
 46
0.0
 47
0.0
 48
0.0
140
3.0
141
0.9
142
0.0
143
25.399999999999999
144
1.0
145
0.0
146
1.0
147
0.9
 71
     0
 72
     0
 73
     0
 74
     0
 75
     0
 76
     0
 77
     1
 78
    12
170
     0
171
     2
172
     0
173
     0
174
     0
175
     0
176
     0
177
     0
178
     0
  0
ENDTAB
  0
ENDSEC
  0
SECTION
  2
BLOCKS
  0
BLOCK
  8
0
  2
$MODEL_SPACE
 70
     0
 10
0.0
 20
0.0
 30
0.0
  3
$MODEL_SPACE
  1

  0
ENDBLK
  5
9
  8
0
  0
BLOCK
 67
     1
  8
0
  2
$PAPER_SPACE
 70
     0
 10
0.0
 20
0.0
 30
0.0
  3
$PAPER_SPACE
  1

  0
ENDBLK
  5
E
 67
     1
  8
0
  0
BLOCK
  8
0
  2
_ORIGIN
 70
     0
 10
0.0
 20
0.0
 30
0.0
  3
_ORIGIN
  1

  0
CIRCLE
  5
3B
  8
0
  6
BYBLOCK
 62
     0
 10
0.0
 20
0.0
 30
0.0
 40
0.5
  0
LINE
  5
3C
  8
0
  6
BYBLOCK
 62
     0
 10
0.0
 20
0.0
 30
0.0
 11
-1.0
 21
0.0
 31
0.0
  0
ENDBLK
  5
3E
  8
0
  0
BLOCK
  8
0
  2
_ARCHTICK
 70
     0
 10
0.0
 20
0.0
 30
0.0
  3
_ARCHTICK
  1

  0
POLYLINE
  5
40
  8
0
  6
BYBLOCK
 62
     0
 66
     1
 10
0.0
 20
0.0
 30
0.0
 40
0.15
 41
0.15
  0
VERTEX
  5
3C3
  8
0
  6
BYBLOCK
 62
     0
 10
-0.5
 20
-0.5
 30
0.0
  0
VERTEX
  5
3C4
  8
0
  6
BYBLOCK
 62
     0
 10
0.5
 20
0.5
 30
0.0
  0
SEQEND
  5
3C5
  8
0
  6
BYBLOCK
 62
     0
  0
ENDBLK
  5
42
  8
0
  0
BLOCK
  8
0
  2
_OBLIQUE
 70
     0
 10
0.0
 20
0.0
 30
0.0
  3
_OBLIQUE
  1

  0
LINE
  5
44
  8
0
  6
BYBLOCK
 62
     0
 10
-0.5
 20
-0.5
 30
0.0
 11
0.5
 21
0.5
 31
0.0
  0
ENDBLK
  5
46
  8
0
  0
BLOCK
  8
0
  2
*D3
 70
     1
 10
0.0
 20
0.0
 30
0.0
  3
*D3
  1

  0
LINE
  5
2ED
  8
COTATION-JACOBDELAFON
 62
     0
 10
90.125000000000057
 20
-94.999949999999885
 30
0.0
 11
112.1221812395889
 21
-94.999949999999913
 31
0.0
  0
LINE
  5
2EE
  8
COTATION-JACOBDELAFON
 62
     0
 10
90.125000000000057
 20
95.000050000000101
 30
0.0
 11
112.1221812395889
 21
95.000050000000087
 31
0.0
  0
LINE
  5
2EF
  8
COTATION-JACOBDELAFON
 62
     0
 10
110.3221812395889
 20
-94.999949999999913
 30
0.0
 11
110.3221812395889
 21
95.000050000000087
 31
0.0
  0
INSERT
  5
2F0
  8
COTATION-JACOBDELAFON
 62
     0
  2
_OBLIQUE
 10
110.3221812395889
 20
-94.999949999999913
 30
0.0
 41
1.8
 42
1.8
 43
1.8
 50
270.0
  0
INSERT
  5
2F1
  8
COTATION-JACOBDELAFON
 62
     0
  2
_OBLIQUE
 10
110.3221812395889
 20
95.000050000000087
 30
0.0
 41
1.8
 42
1.8
 43
1.8
 50
90.0
  0
TEXT
  5
2F2
  8
COTATION-JACOBDELAFON
  6
CONTINUOUS
 62
     0
 10
109.3075836952505
 20
-7.248244679399618
 30
0.0
 40
6.0
  1
190
 50
90.0
  7
JACOB-DELAFON
  0
POINT
  5
2F3
  8
DEFPOINTS
 62
     0
 10
89.500000000000057
 20
-94.999949999999885
 30
0.0
  0
POINT
  5
2F4
  8
DEFPOINTS
 62
     0
 10
89.500000000000057
 20
95.000050000000101
 30
0.0
  0
POINT
  5
2F5
  8
DEFPOINTS
 62
     0
 10
110.3221812395889
 20
95.000050000000087
 30
0.0
  0
ENDBLK
  5
89
  8
0
  0
BLOCK
  8
0
  2
*D4
 70
     1
 10
0.0
 20
0.0
 30
0.0
  3
*D4
  1

  0
LINE
  5
2F6
  8
COTATION-JACOBDELAFON
 62
     0
 10
90.000000000000057
 20
-95.124950000000126
 30
0.0
 11
90.000000000000057
 21
-120.5066052061206
 31
0.0
  0
LINE
  5
2F7
  8
COTATION-JACOBDELAFON
 62
     0
 10
-0.0000000000000058
 20
-95.124950000000126
 30
0.0
 11
-0.0000000000000074
 21
-120.5066052061206
 31
0.0
  0
LINE
  5
2F8
  8
COTATION-JACOBDELAFON
 62
     0
 10
90.000000000000057
 20
-118.7066052061206
 30
0.0
 11
-0.0000000000000073
 21
-118.7066052061206
 31
0.0
  0
INSERT
  5
2F9
  8
COTATION-JACOBDELAFON
 62
     0
  2
_OBLIQUE
 10
90.000000000000057
 20
-118.7066052061206
 30
0.0
 41
1.8
 42
1.8
 43
1.8
  0
INSERT
  5
2FA
  8
COTATION-JACOBDELAFON
 62
     0
  2
_OBLIQUE
 10
-0.0000000000000073
 20
-118.7066052061206
 30
0.0
 41
1.8
 42
1.8
 43
1.8
 50
180.0
  0
TEXT
  5
2FB
  8
COTATION-JACOBDELAFON
  6
CONTINUOUS
 62
     0
 10
40.364938608458409
 20
-117.6920076617823
 30
0.0
 40
6.0
  1
90
  7
JACOB-DELAFON
  0
POINT
  5
2FC
  8
DEFPOINTS
 62
     0
 10
90.000000000000057
 20
-94.499950000000126
 30
0.0
  0
POINT
  5
2FD
  8
DEFPOINTS
 62
     0
 10
-0.0000000000000058
 20
-94.499950000000126
 30
0.0
  0
POINT
  5
2FE
  8
DEFPOINTS
 62
     0
 10
-0.0000000000000073
 20
-118.7066052061206
 30
0.0
  0
ENDBLK
  5
A1
  8
0
  0
BLOCK
  8
0
  2
ADCADD_ZZ
 70
     0
 10
0.0
 20
0.0
 30
0.0
  3
ADCADD_ZZ
  1

  0
ENDBLK
  5
DE
  8
0
  0
ENDSEC
  0
SECTION
  2
ENTITIES
  0
POLYLINE
  5
24
  8
0
  6
CONTINUOUS
 66
     1
 10
0.0
 20
0.0
 30
0.0
 70
     1
  0
VERTEX
  5
316
  8
0
  6
CONTINUOUS
 10
0.500000000000108
 20
-94.999949999999885
 30
0.0
  0
VERTEX
  5
317
  8
0
  6
CONTINUOUS
 10
0.1465000000000542
 20
-94.853549999999814
 30
0.0
  0
VERTEX
  5
318
  8
0
  6
CONTINUOUS
 10
-0.0000000000000058
 20
-94.499950000000126
 30
0.0
  0
VERTEX
  5
319
  8
0
  6
CONTINUOUS
 10
0.0000000000000058
 20
94.499950000000126
 30
0.0
  0
VERTEX
  5
31A
  8
0
  6
CONTINUOUS
 10
0.1465000000000658
 20
94.853550000000254
 30
0.0
  0
VERTEX
  5
31B
  8
0
  6
CONTINUOUS
 10
0.5000000000001195
 20
95.000050000000101
 30
0.0
  0
VERTEX
  5
31C
  8
0
  6
CONTINUOUS
 10
89.500000000000057
 20
95.000050000000101
 30
0.0
  0
VERTEX
  5
31D
  8
0
  6
CONTINUOUS
 10
89.853600000000085
 20
94.853550000000254
 30
0.0
  0
VERTEX
  5
31E
  8
0
  6
CONTINUOUS
 10
90.000000000000057
 20
94.499950000000126
 30
0.0
  0
VERTEX
  5
31F
  8
0
  6
CONTINUOUS
 10
90.000000000000057
 20
-94.499950000000126
 30
0.0
  0
VERTEX
  5
320
  8
0
  6
CONTINUOUS
 10
89.853600000000085
 20
-94.853549999999814
 30
0.0
  0
VERTEX
  5
321
  8
0
  6
CONTINUOUS
 10
89.500000000000057
 20
-94.999949999999885
 30
0.0
  0
SEQEND
  5
322
  8
0
  6
CONTINUOUS
  0
POLYLINE
  5
25
  8
0
  6
CONTINUOUS
 66
     1
 10
0.0
 20
0.0
 30
0.0
 70
     1
  0
VERTEX
  5
323
  8
0
  6
CONTINUOUS
 10
10.249999999999989
 20
-86.999949999999899
 30
0.0
  0
VERTEX
  5
324
  8
0
  6
CONTINUOUS
 10
9.3661000000000687
 20
-86.633849999999939
 30
0.0
  0
VERTEX
  5
325
  8
0
  6
CONTINUOUS
 10
8.9999999999999947
 20
-85.749949999999671
 30
0.0
  0
VERTEX
  5
326
  8
0
  6
CONTINUOUS
 10
9.0000000000000053
 20
85.749950000000126
 30
0.0
  0
VERTEX
  5
327
  8
0
  6
CONTINUOUS
 10
9.3661000000000794
 20
86.633850000000379
 30
0.0
  0
VERTEX
  5
328
  8
0
  6
CONTINUOUS
 10
10.25
 20
86.999950000000126
 30
0.0
  0
VERTEX
  5
329
  8
0
  6
CONTINUOUS
 10
85.750000000000057
 20
86.999950000000126
 30
0.0
  0
VERTEX
  5
32A
  8
0
  6
CONTINUOUS
 10
86.633900000000096
 20
86.633850000000379
 30
0.0
  0
VERTEX
  5
32B
  8
0
  6
CONTINUOUS
 10
86.999999999999929
 20
85.749950000000126
 30
0.0
  0
VERTEX
  5
32C
  8
0
  6
CONTINUOUS
 10
86.999999999999929
 20
-85.749949999999671
 30
0.0
  0
VERTEX
  5
32D
  8
0
  6
CONTINUOUS
 10
86.633900000000096
 20
-86.633849999999939
 30
0.0
  0
VERTEX
  5
32E
  8
0
  6
CONTINUOUS
 10
85.750000000000057
 20
-86.999949999999899
 30
0.0
  0
SEQEND
  5
32F
  8
0
  6
CONTINUOUS
  0
POLYLINE
  5
26
  8
0
  6
CONTINUOUS
 66
     1
 10
0.0
 20
0.0
 30
0.0
  0
VERTEX
  5
330
  8
0
  6
CONTINUOUS
 10
77.642300000000034
 20
-48.235249999999731
 30
0.0
  0
VERTEX
  5
331
  8
0
  6
CONTINUOUS
 10
77.605099999999936
 20
-51.781549999999932
 30
0.0
  0
VERTEX
  5
332
  8
0
  6
CONTINUOUS
 10
77.694800000000043
 20
-56.035849999999982
 30
0.0
  0
VERTEX
  5
333
  8
0
  6
CONTINUOUS
 10
77.963700000000074
 20
-59.404549999999979
 30
0.0
  0
VERTEX
  5
334
  8
0
  6
CONTINUOUS
 10
78.232700000000065
 20
-62.324549999999817
 30
0.0
  0
VERTEX
  5
335
  8
0
  6
CONTINUOUS
 10
78.759200000000021
 20
-66.226649999999836
 30
0.0
  0
VERTEX
  5
336
  8
0
  6
CONTINUOUS
 10
79.487700000000075
 20
-70.339349999999953
 30
0.0
  0
VERTEX
  5
337
  8
0
  6
CONTINUOUS
 10
80.742800000000145
 20
-75.479949999999917
 30
0.0
  0
VERTEX
  5
338
  8
0
  6
CONTINUOUS
 10
81.729000000000099
 20
-77.978849999999966
 30
0.0
  0
VERTEX
  5
339
  8
0
  6
CONTINUOUS
 10
83.163400000000095
 20
-80.620450000000105
 30
0.0
  0
VERTEX
  5
33A
  8
0
  6
CONTINUOUS
 10
85.205600000000061
 20
-83.476349999999911
 30
0.0
  0
VERTEX
  5
33B
  8
0
  6
CONTINUOUS
 10
86.999999999999929
 20
-85.749949999999671
 30
0.0
  0
SEQEND
  5
33C
  8
0
  6
CONTINUOUS
  0
POLYLINE
  5
27
  8
0
  6
CONTINUOUS
 66
     1
 10
0.0
 20
0.0
 30
0.0
  0
VERTEX
  5
33D
  8
0
  6
CONTINUOUS
 10
85.750000000000057
 20
-86.999949999999899
 30
0.0
  0
VERTEX
  5
33E
  8
0
  6
CONTINUOUS
 10
83.955599999999933
 20
-84.726349999999911
 30
0.0
  0
VERTEX
  5
33F
  8
0
  6
CONTINUOUS
 10
81.913399999999953
 20
-81.870450000000105
 30
0.0
  0
VERTEX
  5
340
  8
0
  6
CONTINUOUS
 10
80.479000000000099
 20
-79.228849999999738
 30
0.0
  0
VERTEX
  5
341
  8
0
  6
CONTINUOUS
 10
79.492800000000145
 20
-76.729949999999917
 30
0.0
  0
VERTEX
  5
342
  8
0
  6
CONTINUOUS
 10
78.237699999999961
 20
-71.58934999999974
 30
0.0
  0
VERTEX
  5
343
  8
0
  6
CONTINUOUS
 10
77.509200000000135
 20
-67.476649999999836
 30
0.0
  0
VERTEX
  5
344
  8
0
  6
CONTINUOUS
 10
76.982599999999991
 20
-63.735249999999731
 30
0.0
  0
VERTEX
  5
345
  8
0
  6
CONTINUOUS
 10
76.713600000000099
 20
-60.81514999999991
 30
0.0
  0
VERTEX
  5
346
  8
0
  6
CONTINUOUS
 10
76.444600000000094
 20
-57.4464499999997
 30
0.0
  0
VERTEX
  5
347
  8
0
  6
CONTINUOUS
 10
76.355000000000075
 20
-53.192249999999838
 30
0.0
  0
VERTEX
  5
348
  8
0
  6
CONTINUOUS
 10
76.458900000000028
 20
-48.354749999999967
 30
0.0
  0
SEQEND
  5
349
  8
0
  6
CONTINUOUS
  0
POLYLINE
  5
28
  8
0
  6
CONTINUOUS
 66
     1
 10
0.0
 20
0.0
 30
0.0
  0
VERTEX
  5
34A
  8
0
  6
CONTINUOUS
 10
10.249999999999989
 20
-86.999949999999899
 30
0.0
  0
VERTEX
  5
34B
  8
0
  6
CONTINUOUS
 10
12.04449999999996
 20
-84.726349999999911
 30
0.0
  0
VERTEX
  5
34C
  8
0
  6
CONTINUOUS
 10
14.08659999999997
 20
-81.870450000000105
 30
0.0
  0
VERTEX
  5
34D
  8
0
  6
CONTINUOUS
 10
15.520999999999949
 20
-79.228849999999738
 30
0.0
  0
VERTEX
  5
34E
  8
0
  6
CONTINUOUS
 10
16.507200000000001
 20
-76.729949999999917
 30
0.0
  0
VERTEX
  5
34F
  8
0
  6
CONTINUOUS
 10
17.762300000000089
 20
-71.58934999999974
 30
0.0
  0
VERTEX
  5
350
  8
0
  6
CONTINUOUS
 10
18.490800000000029
 20
-67.476649999999836
 30
0.0
  0
VERTEX
  5
351
  8
0
  6
CONTINUOUS
 10
19.012900000000052
 20
-63.735249999999724
 30
0.0
  0
VERTEX
  5
352
  8
0
  6
CONTINUOUS
 10
19.281799999999969
 20
-60.815149999999903
 30
0.0
  0
VERTEX
  5
353
  8
0
  6
CONTINUOUS
 10
19.55079999999997
 20
-57.446449999999693
 30
0.0
  0
VERTEX
  5
354
  8
0
  6
CONTINUOUS
 10
19.640499999999971
 20
-53.192249999999831
 30
0.0
  0
VERTEX
  5
355
  8
0
  6
CONTINUOUS
 10
19.536600000000011
 20
-48.354749999999967
 30
0.0
  0
VERTEX
  5
356
  8
0
  6
CONTINUOUS
 10
19.536600000000021
 20
48.354750000000202
 30
0.0
  0
VERTEX
  5
357
  8
0
  6
CONTINUOUS
 10
19.640499999999971
 20
53.192250000000058
 30
0.0
  0
VERTEX
  5
358
  8
0
  6
CONTINUOUS
 10
19.550799999999981
 20
57.446450000000141
 30
0.0
  0
VERTEX
  5
359
  8
0
  6
CONTINUOUS
 10
19.281799999999969
 20
60.815150000000351
 30
0.0
  0
VERTEX
  5
35A
  8
0
  6
CONTINUOUS
 10
19.012900000000059
 20
63.735250000000178
 30
0.0
  0
VERTEX
  5
35B
  8
0
  6
CONTINUOUS
 10
18.490800000000039
 20
67.476750000000493
 30
0.0
  0
VERTEX
  5
35C
  8
0
  6
CONTINUOUS
 10
17.762300000000089
 20
71.589350000000195
 30
0.0
  0
VERTEX
  5
35D
  8
0
  6
CONTINUOUS
 10
16.507200000000012
 20
76.729950000000372
 30
0.0
  0
VERTEX
  5
35E
  8
0
  6
CONTINUOUS
 10
15.52099999999996
 20
79.228850000000193
 30
0.0
  0
VERTEX
  5
35F
  8
0
  6
CONTINUOUS
 10
14.086599999999979
 20
81.870450000000574
 30
0.0
  0
VERTEX
  5
360
  8
0
  6
CONTINUOUS
 10
12.044499999999969
 20
84.726350000000366
 30
0.0
  0
VERTEX
  5
361
  8
0
  6
CONTINUOUS
 10
10.25
 20
86.999950000000126
 30
0.0
  0
SEQEND
  5
362
  8
0
  6
CONTINUOUS
  0
POLYLINE
  5
29
  8
0
  6
CONTINUOUS
 66
     1
 10
0.0
 20
0.0
 30
0.0
  0
VERTEX
  5
363
  8
0
  6
CONTINUOUS
 10
9.0000000000000053
 20
85.749950000000126
 30
0.0
  0
VERTEX
  5
364
  8
0
  6
CONTINUOUS
 10
10.794499999999969
 20
83.476350000000366
 30
0.0
  0
VERTEX
  5
365
  8
0
  6
CONTINUOUS
 10
12.836600000000089
 20
80.620450000000346
 30
0.0
  0
VERTEX
  5
366
  8
0
  6
CONTINUOUS
 10
14.27099999999996
 20
77.978850000000421
 30
0.0
  0
VERTEX
  5
367
  8
0
  6
CONTINUOUS
 10
15.2571999999999
 20
75.479950000000144
 30
0.0
  0
VERTEX
  5
368
  8
0
  6
CONTINUOUS
 10
16.512299999999978
 20
70.339350000000422
 30
0.0
  0
VERTEX
  5
369
  8
0
  6
CONTINUOUS
 10
17.240800000000149
 20
66.226650000000291
 30
0.0
  0
VERTEX
  5
36A
  8
0
  6
CONTINUOUS
 10
17.762699999999999
 20
62.324550000000272
 30
0.0
  0
VERTEX
  5
36B
  8
0
  6
CONTINUOUS
 10
18.031700000000001
 20
59.40455000000042
 30
0.0
  0
VERTEX
  5
36C
  8
0
  6
CONTINUOUS
 10
18.300699999999999
 20
56.035850000000437
 30
0.0
  0
VERTEX
  5
36D
  8
0
  6
CONTINUOUS
 10
18.390299999999911
 20
51.781550000000152
 30
0.0
  0
VERTEX
  5
36E
  8
0
  6
CONTINUOUS
 10
18.353200000000019
 20
48.235250000000171
 30
0.0
  0
VERTEX
  5
36F
  8
0
  6
CONTINUOUS
 10
18.353200000000012
 20
-48.235249999999724
 30
0.0
  0
VERTEX
  5
370
  8
0
  6
CONTINUOUS
 10
18.3902999999999
 20
-51.781549999999932
 30
0.0
  0
VERTEX
  5
371
  8
0
  6
CONTINUOUS
 10
18.300699999999999
 20
-56.035849999999982
 30
0.0
  0
VERTEX
  5
372
  8
0
  6
CONTINUOUS
 10
18.03169999999999
 20
-59.404549999999972
 30
0.0
  0
VERTEX
  5
373
  8
0
  6
CONTINUOUS
 10
17.762699999999992
 20
-62.324549999999817
 30
0.0
  0
VERTEX
  5
374
  8
0
  6
CONTINUOUS
 10
16.512299999999978
 20
-70.339349999999953
 30
0.0
  0
VERTEX
  5
375
  8
0
  6
CONTINUOUS
 10
15.257199999999891
 20
-75.479949999999917
 30
0.0
  0
VERTEX
  5
376
  8
0
  6
CONTINUOUS
 10
14.270999999999949
 20
-77.978849999999966
 30
0.0
  0
VERTEX
  5
377
  8
0
  6
CONTINUOUS
 10
12.836600000000081
 20
-80.620450000000105
 30
0.0
  0
VERTEX
  5
378
  8
0
  6
CONTINUOUS
 10
10.79449999999996
 20
-83.476349999999911
 30
0.0
  0
VERTEX
  5
379
  8
0
  6
CONTINUOUS
 10
8.9999999999999947
 20
-85.749949999999671
 30
0.0
  0
SEQEND
  5
37A
  8
0
  6
CONTINUOUS
  0
LINE
  5
2A
  8
0
  6
CONTINUOUS
 10
19.536600000000082
 20
48.354750000000159
 30
0.0
 11
76.458900000000114
 21
48.354750000000159
 31
0.0
  0
LINE
  5
2B
  8
0
  6
CONTINUOUS
 10
19.536600000000071
 20
-48.354749999999939
 30
0.0
 11
76.458900000000114
 21
-48.354749999999953
 31
0.0
  0
POLYLINE
  5
2C
  8
0
  6
CONTINUOUS
 66
     1
 10
0.0
 20
0.0
 30
0.0
  0
VERTEX
  5
37B
  8
0
  6
CONTINUOUS
 10
76.458900000000028
 20
-48.354749999999967
 30
0.0
  0
VERTEX
  5
37C
  8
0
  6
CONTINUOUS
 10
76.458900000000028
 20
48.354750000000188
 30
0.0
  0
SEQEND
  5
37D
  8
0
  6
CONTINUOUS
  0
POLYLINE
  5
2D
  8
0
  6
CONTINUOUS
 66
     1
 10
0.0
 20
0.0
 30
0.0
  0
VERTEX
  5
37E
  8
0
  6
CONTINUOUS
 10
86.999999999999929
 20
85.749950000000126
 30
0.0
  0
VERTEX
  5
37F
  8
0
  6
CONTINUOUS
 10
85.205600000000061
 20
83.476350000000366
 30
0.0
  0
VERTEX
  5
380
  8
0
  6
CONTINUOUS
 10
83.163400000000095
 20
80.620450000000346
 30
0.0
  0
VERTEX
  5
381
  8
0
  6
CONTINUOUS
 10
81.729000000000099
 20
77.978850000000421
 30
0.0
  0
VERTEX
  5
382
  8
0
  6
CONTINUOUS
 10
80.742800000000145
 20
75.479950000000144
 30
0.0
  0
VERTEX
  5
383
  8
0
  6
CONTINUOUS
 10
79.487700000000075
 20
70.339350000000422
 30
0.0
  0
VERTEX
  5
384
  8
0
  6
CONTINUOUS
 10
78.759200000000021
 20
66.226650000000291
 30
0.0
  0
VERTEX
  5
385
  8
0
  6
CONTINUOUS
 10
78.232700000000065
 20
62.324550000000258
 30
0.0
  0
VERTEX
  5
386
  8
0
  6
CONTINUOUS
 10
77.963700000000074
 20
59.40455000000042
 30
0.0
  0
VERTEX
  5
387
  8
0
  6
CONTINUOUS
 10
77.694800000000043
 20
56.03585000000043
 30
0.0
  0
VERTEX
  5
388
  8
0
  6
CONTINUOUS
 10
77.605099999999936
 20
51.781550000000138
 30
0.0
  0
VERTEX
  5
389
  8
0
  6
CONTINUOUS
 10
77.642300000000034
 20
48.235250000000171
 30
0.0
  0
VERTEX
  5
38A
  8
0
  6
CONTINUOUS
 10
77.642300000000034
 20
-48.235249999999731
 30
0.0
  0
SEQEND
  5
38B
  8
0
  6
CONTINUOUS
  0
POLYLINE
  5
2E
  8
0
  6
CONTINUOUS
 66
     1
 10
0.0
 20
0.0
 30
0.0
  0
VERTEX
  5
38C
  8
0
  6
CONTINUOUS
 10
76.458900000000028
 20
48.354750000000188
 30
0.0
  0
VERTEX
  5
38D
  8
0
  6
CONTINUOUS
 10
76.355000000000075
 20
53.192250000000051
 30
0.0
  0
VERTEX
  5
38E
  8
0
  6
CONTINUOUS
 10
76.444600000000094
 20
57.446450000000127
 30
0.0
  0
VERTEX
  5
38F
  8
0
  6
CONTINUOUS
 10
76.713600000000099
 20
60.815150000000351
 30
0.0
  0
VERTEX
  5
390
  8
0
  6
CONTINUOUS
 10
76.982599999999991
 20
63.735250000000171
 30
0.0
  0
VERTEX
  5
391
  8
0
  6
CONTINUOUS
 10
77.509200000000135
 20
67.476750000000493
 30
0.0
  0
VERTEX
  5
392
  8
0
  6
CONTINUOUS
 10
78.237699999999961
 20
71.589350000000195
 30
0.0
  0
VERTEX
  5
393
  8
0
  6
CONTINUOUS
 10
79.492800000000145
 20
76.729950000000372
 30
0.0
  0
VERTEX
  5
394
  8
0
  6
CONTINUOUS
 10
80.479000000000099
 20
79.228850000000193
 30
0.0
  0
VERTEX
  5
395
  8
0
  6
CONTINUOUS
 10
81.913399999999953
 20
81.870450000000574
 30
0.0
  0
VERTEX
  5
396
  8
0
  6
CONTINUOUS
 10
83.955599999999933
 20
84.726350000000366
 30
0.0
  0
VERTEX
  5
397
  8
0
  6
CONTINUOUS
 10
85.750000000000057
 20
86.999950000000126
 30
0.0
  0
SEQEND
  5
398
  8
0
  6
CONTINUOUS
  0
CIRCLE
  5
2F
  8
0
  6
CONTINUOUS
 10
44.460294983316167
 20
-0.0345362484083039
 30
0.0
 40
1.9968050167312139
  0
CIRCLE
  5
30
  8
0
  6
CONTINUOUS
 10
44.460318295675989
 20
-0.0345215434239803
 30
0.0
 40
4.0026817044252949
  0
POLYLINE
  5
31
  8
0
  6
CONTINUOUS
 66
     1
 10
0.0
 20
0.0
 30
0.0
 70
     1
  0
VERTEX
  5
399
  8
0
  6
CONTINUOUS
 10
16.20659999999998
 20
-3.5639499999999771
 30
0.0
  0
VERTEX
  5
39A
  8
0
  6
CONTINUOUS
 10
14.83299999999997
 20
-3.5401499999998132
 30
0.0
  0
VERTEX
  5
39B
  8
0
  6
CONTINUOUS
 10
14.5824
 20
-3.27314999999976
 30
0.0
  0
VERTEX
  5
39C
  8
0
  6
CONTINUOUS
 10
14.369999999999999
 20
-2.512849999999617
 30
0.0
  0
VERTEX
  5
39D
  8
0
  6
CONTINUOUS
 10
14.22809999999992
 20
-1.375049999999874
 30
0.0
  0
VERTEX
  5
39E
  8
0
  6
CONTINUOUS
 10
14.178200000000061
 20
-0.0328499999995992
 30
0.0
  0
VERTEX
  5
39F
  8
0
  6
CONTINUOUS
 10
14.22809999999992
 20
1.3093500000002209
 30
0.0
  0
VERTEX
  5
3A0
  8
0
  6
CONTINUOUS
 10
14.369999999999999
 20
2.447250000000166
 30
0.0
  0
VERTEX
  5
3A1
  8
0
  6
CONTINUOUS
 10
14.5824
 20
3.207550000000309
 30
0.0
  0
VERTEX
  5
3A2
  8
0
  6
CONTINUOUS
 10
14.83289999999999
 20
3.4745500000001339
 30
0.0
  0
VERTEX
  5
3A3
  8
0
  6
CONTINUOUS
 10
16.20659999999998
 20
3.4983500000002992
 30
0.0
  0
VERTEX
  5
3A4
  8
0
  6
CONTINUOUS
 10
15.954400000000071
 20
3.2295500000002431
 30
0.0
  0
VERTEX
  5
3A5
  8
0
  6
CONTINUOUS
 10
15.740500000000109
 20
2.464050000000269
 30
0.0
  0
VERTEX
  5
3A6
  8
0
  6
CONTINUOUS
 10
15.59760000000005
 20
1.3185499999999579
 30
0.0
  0
VERTEX
  5
3A7
  8
0
  6
CONTINUOUS
 10
15.54750000000001
 20
-0.0328499999995993
 30
0.0
  0
VERTEX
  5
3A8
  8
0
  6
CONTINUOUS
 10
15.59760000000005
 20
-1.3841499999998641
 30
0.0
  0
VERTEX
  5
3A9
  8
0
  6
CONTINUOUS
 10
15.740500000000109
 20
-2.52964999999972
 30
0.0
  0
VERTEX
  5
3AA
  8
0
  6
CONTINUOUS
 10
15.954400000000071
 20
-3.295149999999694
 30
0.0
  0
SEQEND
  5
3AB
  8
0
  6
CONTINUOUS
  0
POLYLINE
  5
32
  8
0
  6
CONTINUOUS
 66
     1
 10
0.0
 20
0.0
 30
0.0
  0
VERTEX
  5
3AC
  8
0
  6
CONTINUOUS
 10
16.458900000000082
 20
-3.295149999999694
 30
0.0
  0
VERTEX
  5
3AD
  8
0
  6
CONTINUOUS
 10
16.67269999999996
 20
-2.52964999999972
 30
0.0
  0
VERTEX
  5
3AE
  8
0
  6
CONTINUOUS
 10
16.815600000000011
 20
-1.3841499999998641
 30
0.0
  0
VERTEX
  5
3AF
  8
0
  6
CONTINUOUS
 10
16.865800000000029
 20
-0.0327499999998519
 30
0.0
  0
VERTEX
  5
3B0
  8
0
  6
CONTINUOUS
 10
16.815600000000011
 20
1.3185499999999579
 30
0.0
  0
VERTEX
  5
3B1
  8
0
  6
CONTINUOUS
 10
16.67269999999996
 20
2.4641500000002439
 30
0.0
  0
VERTEX
  5
3B2
  8
0
  6
CONTINUOUS
 10
16.458799999999989
 20
3.2295500000002431
 30
0.0
  0
VERTEX
  5
3B3
  8
0
  6
CONTINUOUS
 10
16.20659999999998
 20
3.4983500000002992
 30
0.0
  0
SEQEND
  5
3B4
  8
0
  6
CONTINUOUS
  0
POLYLINE
  5
33
  8
0
  6
CONTINUOUS
 66
     1
 10
0.0
 20
0.0
 30
0.0
  0
VERTEX
  5
3B5
  8
0
  6
CONTINUOUS
 10
16.20659999999998
 20
-3.5639499999999771
 30
0.0
  0
VERTEX
  5
3B6
  8
0
  6
CONTINUOUS
 10
16.458900000000082
 20
-3.295149999999694
 30
0.0
  0
VERTEX
  5
3B7
  8
0
  6
CONTINUOUS
 10
16.259800000000041
 20
-3.04004999999961
 30
0.0
  0
VERTEX
  5
3B8
  8
0
  6
CONTINUOUS
 10
16.06270000000006
 20
-2.3343499999996311
 30
0.0
  0
VERTEX
  5
3B9
  8
0
  6
CONTINUOUS
 10
15.93100000000004
 20
-1.278449999999794
 30
0.0
  0
VERTEX
  5
3BA
  8
0
  6
CONTINUOUS
 10
15.884800000000039
 20
-0.0327499999998518
 30
0.0
  0
VERTEX
  5
3BB
  8
0
  6
CONTINUOUS
 10
15.93100000000004
 20
1.212850000000115
 30
0.0
  0
VERTEX
  5
3BC
  8
0
  6
CONTINUOUS
 10
16.06270000000006
 20
2.268850000000155
 30
0.0
  0
VERTEX
  5
3BD
  8
0
  6
CONTINUOUS
 10
16.259800000000041
 20
2.974450000000159
 30
0.0
  0
VERTEX
  5
3BE
  8
0
  6
CONTINUOUS
 10
16.458799999999989
 20
3.2295500000002431
 30
0.0
  0
VERTEX
  5
3BF
  8
0
  6
CONTINUOUS
 10
16.20659999999998
 20
3.4983500000002992
 30
0.0
  0
SEQEND
  5
3C0
  8
0
  6
CONTINUOUS
  0
DIMENSION
  5
7C
  8
COTATION-JACOBDELAFON
  2
*D3
 10
110.3221812395889
 20
95.000050000000087
 30
0.0
 11
106.3587433132587
 21
0.0000500000001091
 31
0.0
 70
     0
 13
89.500000000000057
 23
-94.999949999999885
 33
0.0
 14
89.500000000000057
 24
95.000050000000101
 34
0.0
 50
90.0
1001
ACAD
1000
DSTYLE
1002
{
1070
   140
1040
6.0
1002
}
  0
DIMENSION
  5
93
  8
COTATION-JACOBDELAFON
  2
*D4
 10
-0.0000000000000073
 20
-118.7066052061206
 30
0.0
 11
45.000000000000021
 21
-114.7431672797905
 31
0.0
 70
     0
 13
90.000000000000057
 23
-94.499950000000126
 33
0.0
 14
-0.0000000000000058
 24
-94.499950000000126
 34
0.0
 50
180.0
1001
ACAD
1000
DSTYLE
1002
{
1070
   140
1040
6.0
1002
}
  0
INSERT
  5
DF
 67
     1
  8
COTATION-JACOBDELAFON
  6
CONTINUOUS
  2
ADCADD_ZZ
 10
0.0
 20
0.0
 30
0.0
1001
ADCADD_ZZ
1070
   205
1070
    14
1070
   209
1070
     1
1070
   231
1070
     0
1070
   235
1070
     0
1070
   236
1070
     4
1070
   237
1070
     2
1070
   238
1070
     4
1070
   239
1070
     2
1070
   240
1070
     0
1070
   241
1070
  4096
1070
   242
1070
     2
1070
   244
1070
     0
1070
   245
1070
     1
1070
   303
1040
0.1
1070
   304
1040
4.0
1070
   305
1040
96.0
1070
   306
1040
0.125
1070
   337
1040
0.0
1070
   338
1040
0.3048
1070
   339
1040
0.0625
1070
   340
1040
96.0
1070
   341
1040
4.0
1070
   342
1040
96.0
1070
   530
1010
0.0
1020
0.0
1030
0.0
1070
   531
1010
0.0
1020
0.0
1030
0.0
1070
   107
1000

1070
   108
1000
Architectural Desktop
1070
   135
1000
L120
1070
   136
1000
'
1070
   137
1000
m
1001
SDSK_PMN
1070
   100
1000
ACADARCH
1070
   300
1040
2453076.6111615389
  0
ENDSEC
  0
EOF
