  0
SECTION
  2
HEADER
  9
$ACADVER
  1
AC1009
  9
$INSBASE
 10
0.0
 20
0.0
 30
0.0
  9
$EXTMIN
 10
-116.1960676638974
 20
-19.799437342657949
 30
0.0
  9
$EXTMAX
 10
95.900046193600886
 20
69.707982378099359
 30
0.0
  9
$LIMMIN
 10
0.0
 20
0.0
  9
$LIMMAX
 10
12.0
 20
9.0
  9
$ORTHOMODE
 70
     1
  9
$REGENMODE
 70
     1
  9
$FILLMODE
 70
     1
  9
$QTEXTMODE
 70
     0
  9
$MIRRTEXT
 70
     1
  9
$DRAGMODE
 70
     2
  9
$LTSCALE
 40
1.0
  9
$OSMODE
 70
     1
  9
$ATTMODE
 70
     1
  9
$TEXTSIZE
 40
0.2
  9
$TRACEWID
 40
0.05
  9
$TEXTSTYLE
  7
STANDARD
  9
$CLAYER
  8
0
  9
$CELTYPE
  6
CONTINUOUS
  9
$CECOLOR
 62
   256
  9
$DIMSCALE
 40
96.0
  9
$DIMASZ
 40
0.18
  9
$DIMEXO
 40
0.0625
  9
$DIMDLI
 40
0.38
  9
$DIMRND
 40
0.0
  9
$DIMDLE
 40
0.0
  9
$DIMEXE
 40
0.18
  9
$DIMTP
 40
0.0
  9
$DIMTM
 40
0.0
  9
$DIMTXT
 40
0.18
  9
$DIMCEN
 40
0.09
  9
$DIMTSZ
 40
0.0
  9
$DIMTOL
 70
     0
  9
$DIMLIM
 70
     0
  9
$DIMTIH
 70
     1
  9
$DIMTOH
 70
     1
  9
$DIMSE1
 70
     0
  9
$DIMSE2
 70
     0
  9
$DIMTAD
 70
     0
  9
$DIMZIN
 70
     0
  9
$DIMBLK
  1

  9
$DIMASO
 70
     1
  9
$DIMSHO
 70
     1
  9
$DIMPOST
  1

  9
$DIMAPOST
  1

  9
$DIMALT
 70
     0
  9
$DIMALTD
 70
     2
  9
$DIMALTF
 40
25.399999999999999
  9
$DIMLFAC
 40
1.0
  9
$DIMTOFL
 70
     0
  9
$DIMTVP
 40
0.0
  9
$DIMTIX
 70
     0
  9
$DIMSOXD
 70
     0
  9
$DIMSAH
 70
     0
  9
$DIMBLK1
  1

  9
$DIMBLK2
  1

  9
$DIMSTYLE
  2
STANDARD
  9
$DIMCLRD
 70
     0
  9
$DIMCLRE
 70
     0
  9
$DIMCLRT
 70
     0
  9
$DIMTFAC
 40
1.0
  9
$DIMGAP
 40
0.09
  9
$LUNITS
 70
     2
  9
$LUPREC
 70
     4
  9
$SKETCHINC
 40
0.1
  9
$FILLETRAD
 40
0.0
  9
$AUNITS
 70
     0
  9
$AUPREC
 70
     2
  9
$MENU
  1
.
  9
$ELEVATION
 40
0.0
  9
$PELEVATION
 40
0.0
  9
$THICKNESS
 40
0.0
  9
$LIMCHECK
 70
     0
  9
$BLIPMODE
 70
     0
  9
$CHAMFERA
 40
0.0
  9
$CHAMFERB
 40
0.0
  9
$SKPOLY
 70
     0
  9
$TDCREATE
 40
2453033.5981132751
  9
$TDUPDATE
 40
2453076.611377581
  9
$TDINDWG
 40
0.0473896759
  9
$TDUSRTIMER
 40
0.0473896759
  9
$USRTIMER
 70
     1
  9
$ANGBASE
 50
0.0
  9
$ANGDIR
 70
     0
  9
$PDMODE
 70
     0
  9
$PDSIZE
 40
0.0
  9
$PLINEWID
 40
0.0
  9
$COORDS
 70
     1
  9
$SPLFRAME
 70
     0
  9
$SPLINETYPE
 70
     6
  9
$SPLINESEGS
 70
     8
  9
$ATTDIA
 70
     1
  9
$ATTREQ
 70
     1
  9
$HANDLING
 70
 22529
  9
$HANDSEED
  5
321
  9
$SURFTAB1
 70
     6
  9
$SURFTAB2
 70
     6
  9
$SURFTYPE
 70
     6
  9
$SURFU
 70
     6
  9
$SURFV
 70
     6
  9
$UCSNAME
  2

  9
$UCSORG
 10
0.0
 20
0.0
 30
0.0
  9
$UCSXDIR
 10
1.0
 20
0.0
 30
0.0
  9
$UCSYDIR
 10
0.0
 20
1.0
 30
0.0
  9
$PUCSNAME
  2

  9
$PUCSORG
 10
0.0
 20
0.0
 30
0.0
  9
$PUCSXDIR
 10
1.0
 20
0.0
 30
0.0
  9
$PUCSYDIR
 10
0.0
 20
1.0
 30
0.0
  9
$USERI1
 70
     0
  9
$USERI2
 70
     0
  9
$USERI3
 70
     0
  9
$USERI4
 70
     0
  9
$USERI5
 70
     0
  9
$USERR1
 40
0.0
  9
$USERR2
 40
0.0
  9
$USERR3
 40
0.0
  9
$USERR4
 40
0.0
  9
$USERR5
 40
0.0
  9
$WORLDVIEW
 70
     1
  9
$SHADEDGE
 70
     3
  9
$SHADEDIF
 70
    70
  9
$TILEMODE
 70
     1
  9
$MAXACTVP
 70
    64
  9
$PLIMCHECK
 70
     0
  9
$PEXTMIN
 10
-14.11568541011013
 20
-54.007401619271782
 30
-0.0015258207003583
  9
$PEXTMAX
 10
306.96118237775619
 20
100.886896363612
 30
0.0000000349246037
  9
$PLIMMIN
 10
-0.1979161059762549
 20
-0.2679166643638311
  9
$PLIMMAX
 10
11.493750144177531
 20
7.9987497780266699
  9
$UNITMODE
 70
     0
  9
$VISRETAIN
 70
     1
  9
$PLINEGEN
 70
     0
  9
$PSLTSCALE
 70
     1
  0
ENDSEC
  0
SECTION
  2
TABLES
  0
TABLE
  2
VPORT
 70
     2
  0
VPORT
  2
*ACTIVE
 70
     0
 10
0.0
 20
0.0
 11
1.0
 21
1.0
 12
-4.2913292743241547
 22
24.955260998852161
 13
0.0
 23
0.0
 14
1.0
 24
1.0
 15
0.0
 25
0.0
 16
0.0
 26
0.0
 36
1.0
 17
0.0
 27
0.0
 37
0.0
 40
116.8301355553899
 41
1.928853754940711
 42
50.0
 43
0.0
 44
0.0
 50
0.0
 51
0.0
 71
     0
 72
   100
 73
     1
 74
     1
 75
     0
 76
     0
 77
     0
 78
     0
  0
ENDTAB
  0
TABLE
  2
LTYPE
 70
     1
  0
LTYPE
  2
CONTINUOUS
 70
     0
  3
Solid line
 72
    65
 73
     0
 40
0.0
  0
ENDTAB
  0
TABLE
  2
LAYER
 70
     3
  0
LAYER
  2
0
 70
     0
 62
     7
  6
CONTINUOUS
  0
LAYER
  2
DEFPOINTS
 70
     0
 62
     7
  6
CONTINUOUS
  0
LAYER
  2
COTATION-JACOBDELAFON
 70
     0
 62
     8
  6
CONTINUOUS
  0
ENDTAB
  0
TABLE
  2
STYLE
 70
     3
  0
STYLE
  2
STANDARD
 70
     0
 40
0.0
 41
1.0
 50
0.0
 71
     0
 42
0.2
  3
txt
  4

  0
STYLE
  2
ROMANS
 70
     0
 40
0.0
 41
1.0
 50
0.0
 71
     0
 42
0.25
  3
Romans.shx
  4

  0
STYLE
  2
JACOB-DELAFON
 70
     0
 40
0.0
 41
1.0
 50
0.0
 71
     0
 42
2.5
  3
txt
  4

  0
ENDTAB
  0
TABLE
  2
VIEW
 70
     0
  0
ENDTAB
  0
TABLE
  2
UCS
 70
     0
  0
ENDTAB
  0
TABLE
  2
APPID
 70
     7
  0
APPID
  2
ACAD
 70
     0
  0
APPID
  2
ACAECLAYERSTANDARD
 70
     0
  0
APPID
  2
ADCADD_ZZ
 70
     0
  0
APPID
  2
SDSK_PMN
 70
     0
  0
APPID
  2
AEC_DWGVARSSETUP_DATA
 70
     0
  0
APPID
  2
AEC_DISPREPSET_DATA
 70
     0
  0
APPID
  2
CONTENTBLOCKICON
 70
     0
  0
ENDTAB
  0
TABLE
  2
DIMSTYLE
 70
     7
  0
DIMSTYLE
  2
STANDARD
 70
     0
  3

  4

  5

  6

  7

 40
1.0
 41
0.18
 42
0.0625
 43
0.38
 44
0.18
 45
0.0
 46
0.0
 47
0.0
 48
0.0
140
0.18
141
0.09
142
0.0
143
25.399999999999999
144
1.0
145
0.0
146
1.0
147
0.09
 71
     0
 72
     0
 73
     1
 74
     1
 75
     0
 76
     0
 77
     0
 78
     0
170
     0
171
     2
172
     0
173
     0
174
     0
175
     0
176
     0
177
     0
178
     0
  0
DIMSTYLE
  2
ESCALIER_AEC
 70
     0
  3

  4

  5

  6
ORIGIN
  7

 40
1.0
 41
0.1
 42
0.0
 43
0.5
 44
0.125
 45
0.0
 46
125.0
 47
0.0
 48
0.0
140
0.2
141
0.25
142
0.0
143
25.399999999999999
144
1.0
145
0.0
146
1.0
147
0.05
 71
     0
 72
     0
 73
     0
 74
     0
 75
     0
 76
     0
 77
     1
 78
    12
170
     0
171
     2
172
     0
173
     1
174
     0
175
     0
176
     0
177
     0
178
     0
  0
DIMSTYLE
  2
COTATION_AEC_1-100
 70
     0
  3

  4

  5
ARCHTICK
  6

  7

 40
1.0
 41
0.15
 42
0.0
 43
0.5
 44
0.125
 45
0.0025
 46
0.0625
 47
0.0
 48
0.0
140
0.2
141
0.25
142
0.0
143
25.399999999999999
144
1.0
145
0.0
146
1.0
147
0.1
 71
     0
 72
     0
 73
     0
 74
     0
 75
     0
 76
     0
 77
     1
 78
    12
170
     0
171
     2
172
     1
173
     0
174
     1
175
     0
176
     0
177
     0
178
     0
  0
DIMSTYLE
  2
COTATION_AEC_1-50
 70
     0
  3

  4

  5
ARCHTICK
  6

  7

 40
1.0
 41
0.075
 42
0.0
 43
0.5
 44
0.0625
 45
0.0025
 46
0.03125
 47
0.0
 48
0.0
140
0.1
141
0.125
142
0.0
143
25.399999999999999
144
1.0
145
0.0
146
1.0
147
0.05
 71
     0
 72
     0
 73
     0
 74
     0
 75
     0
 76
     0
 77
     1
 78
    12
170
     0
171
     2
172
     1
173
     0
174
     1
175
     0
176
     0
177
     0
178
     0
  0
DIMSTYLE
  2
COTATION_AEC_1-200
 70
     0
  3

  4

  5
ARCHTICK
  6

  7

 40
1.0
 41
0.3
 42
0.0
 43
0.5
 44
0.25
 45
0.0025
 46
0.125
 47
0.0
 48
0.0
140
0.4
141
0.25
142
0.0
143
25.399999999999999
144
1.0
145
0.0
146
1.0
147
0.2
 71
     0
 72
     0
 73
     0
 74
     0
 75
     0
 76
     0
 77
     1
 78
    12
170
     0
171
     2
172
     1
173
     0
174
     1
175
     0
176
     0
177
     0
178
     0
  0
DIMSTYLE
  2
COTATION_AEC_1-500
 70
     0
  3

  4

  5
ARCHTICK
  6

  7

 40
1.0
 41
0.6
 42
0.0
 43
0.5
 44
0.5
 45
0.0025
 46
0.25
 47
0.0
 48
0.0
140
0.8
141
0.25
142
0.0
143
25.399999999999999
144
1.0
145
0.0
146
1.0
147
0.4
 71
     0
 72
     0
 73
     0
 74
     0
 75
     0
 76
     0
 77
     1
 78
    12
170
     0
171
     2
172
     1
173
     0
174
     1
175
     0
176
     0
177
     0
178
     0
  0
DIMSTYLE
  2
COTATION-JACOB-DELAFON
 70
     0
  3

  4

  5
OBLIQUE
  6

  7

 40
1.0
 41
1.8
 42
0.625
 43
3.7999999999999989
 44
1.8
 45
0.0
 46
0.0
 47
0.0
 48
0.0
140
3.0
141
0.9
142
0.0
143
25.399999999999999
144
1.0
145
0.0
146
1.0
147
0.9
 71
     0
 72
     0
 73
     0
 74
     0
 75
     0
 76
     0
 77
     1
 78
    12
170
     0
171
     2
172
     0
173
     0
174
     0
175
     0
176
     0
177
     0
178
     0
  0
ENDTAB
  0
ENDSEC
  0
SECTION
  2
BLOCKS
  0
BLOCK
  8
0
  2
$MODEL_SPACE
 70
     0
 10
0.0
 20
0.0
 30
0.0
  3
$MODEL_SPACE
  1

  0
ENDBLK
  5
9
  8
0
  0
BLOCK
 67
     1
  8
0
  2
$PAPER_SPACE
 70
     0
 10
0.0
 20
0.0
 30
0.0
  3
$PAPER_SPACE
  1

  0
ENDBLK
  5
E
 67
     1
  8
0
  0
BLOCK
  8
0
  2
_ORIGIN
 70
     0
 10
0.0
 20
0.0
 30
0.0
  3
_ORIGIN
  1

  0
CIRCLE
  5
2D
  8
0
  6
BYBLOCK
 62
     0
 10
0.0
 20
0.0
 30
0.0
 40
0.5
  0
LINE
  5
2E
  8
0
  6
BYBLOCK
 62
     0
 10
0.0
 20
0.0
 30
0.0
 11
-1.0
 21
0.0
 31
0.0
  0
ENDBLK
  5
30
  8
0
  0
BLOCK
  8
0
  2
_ARCHTICK
 70
     0
 10
0.0
 20
0.0
 30
0.0
  3
_ARCHTICK
  1

  0
POLYLINE
  5
32
  8
0
  6
BYBLOCK
 62
     0
 66
     1
 10
0.0
 20
0.0
 30
0.0
 40
0.15
 41
0.15
  0
VERTEX
  5
300
  8
0
  6
BYBLOCK
 62
     0
 10
-0.5
 20
-0.5
 30
0.0
  0
VERTEX
  5
301
  8
0
  6
BYBLOCK
 62
     0
 10
0.5
 20
0.5
 30
0.0
  0
SEQEND
  5
302
  8
0
  6
BYBLOCK
 62
     0
  0
ENDBLK
  5
34
  8
0
  0
BLOCK
  8
0
  2
_OBLIQUE
 70
     0
 10
0.0
 20
0.0
 30
0.0
  3
_OBLIQUE
  1

  0
LINE
  5
36
  8
0
  6
BYBLOCK
 62
     0
 10
-0.5
 20
-0.5
 30
0.0
 11
0.5
 21
0.5
 31
0.0
  0
ENDBLK
  5
38
  8
0
  0
BLOCK
  8
0
  2
*D3
 70
     1
 10
0.0
 20
0.0
 30
0.0
  3
*D3
  1

  0
LINE
  5
2CC
  8
COTATION-JACOBDELAFON
 62
     0
 10
-95.855171572162277
 20
51.200105016374373
 30
0.0
 11
-109.393475576585
 21
51.200105016374373
 31
0.0
  0
LINE
  5
2CD
  8
COTATION-JACOBDELAFON
 62
     0
 10
-48.184781065179209
 20
0.0000000000000002
 30
0.0
 11
-109.393475576585
 21
0.0000000000000175
 31
0.0
  0
LINE
  5
2CE
  8
COTATION-JACOBDELAFON
 62
     0
 10
-107.59347557658501
 20
51.200105016374373
 30
0.0
 11
-107.59347557658501
 21
0.000000000000017
 31
0.0
  0
INSERT
  5
2CF
  8
COTATION-JACOBDELAFON
 62
     0
  2
_OBLIQUE
 10
-107.59347557658501
 20
51.200105016374373
 30
0.0
 41
1.8
 42
1.8
 43
1.8
 50
90.0
  0
INSERT
  5
2D0
  8
COTATION-JACOBDELAFON
 62
     0
  2
_OBLIQUE
 10
-107.59347557658501
 20
0.000000000000017
 30
0.0
 41
1.8
 42
1.8
 43
1.8
 50
270.0
  0
TEXT
  5
2D1
  8
0
  6
CONTINUOUS
 62
     0
 10
-108.60807312092339
 20
17.490229861529599
 30
0.0
 40
6.0
  1
51.2
 50
90.0
  7
JACOB-DELAFON
  0
POINT
  5
2D2
  8
DEFPOINTS
 62
     0
 10
-95.230171572162277
 20
51.200105016374373
 30
0.0
  0
POINT
  5
2D3
  8
DEFPOINTS
 62
     0
 10
-47.559781065179209
 20
0.0
 30
0.0
  0
POINT
  5
2D4
  8
DEFPOINTS
 62
     0
 10
-107.59347557658501
 20
0.000000000000017
 30
0.0
  0
ENDBLK
  5
7D
  8
0
  0
BLOCK
  8
0
  2
*D4
 70
     1
 10
0.0
 20
0.0
 30
0.0
  3
*D4
  1

  0
LINE
  5
28F
  8
COTATION-JACOBDELAFON
 62
     0
 10
-94.999953806399134
 20
52.767972360502618
 30
0.0
 11
-94.999953806399134
 21
62.905390290786947
 31
0.0
  0
LINE
  5
290
  8
COTATION-JACOBDELAFON
 62
     0
 10
95.000046193600895
 20
52.767972360502618
 30
0.0
 11
95.000046193600895
 21
62.905390290786947
 31
0.0
  0
LINE
  5
291
  8
COTATION-JACOBDELAFON
 62
     0
 10
-94.999953806399134
 20
61.105390290786957
 30
0.0
 11
95.000046193600895
 21
61.105390290786957
 31
0.0
  0
INSERT
  5
292
  8
COTATION-JACOBDELAFON
 62
     0
  2
_OBLIQUE
 10
-94.999953806399134
 20
61.105390290786957
 30
0.0
 41
1.8
 42
1.8
 43
1.8
 50
180.0
  0
INSERT
  5
293
  8
COTATION-JACOBDELAFON
 62
     0
  2
_OBLIQUE
 10
95.000046193600895
 20
61.105390290786957
 30
0.0
 41
1.8
 42
1.8
 43
1.8
  0
TEXT
  5
294
  8
0
  6
CONTINUOUS
 62
     0
 10
-7.2482484857988609
 20
62.119987835125279
 30
0.0
 40
6.0
  1
190
  7
JACOB-DELAFON
  0
POINT
  5
295
  8
DEFPOINTS
 62
     0
 10
-94.999953806399134
 20
52.142972360502618
 30
0.0
  0
POINT
  5
296
  8
DEFPOINTS
 62
     0
 10
95.000046193600895
 20
52.142972360502618
 30
0.0
  0
POINT
  5
297
  8
DEFPOINTS
 62
     0
 10
95.000046193600895
 20
61.105390290786957
 30
0.0
  0
ENDBLK
  5
B7
  8
0
  0
BLOCK
  8
0
  2
ADCADD_ZZ
 70
     0
 10
0.0
 20
0.0
 30
0.0
  3
ADCADD_ZZ
  1

  0
ENDBLK
  5
F8
  8
0
  0
ENDSEC
  0
SECTION
  2
ENTITIES
  0
POLYLINE
  5
24
  8
0
  6
CONTINUOUS
 66
     1
 10
0.0
 20
0.0
 30
0.0
 70
     1
  0
VERTEX
  5
2E0
  8
0
  6
CONTINUOUS
 10
-94.999953806399134
 20
50.700379662312699
 30
0.0
  0
VERTEX
  5
2E1
  8
0
  6
CONTINUOUS
 10
-94.853552874308747
 20
51.05362063777919
 30
0.0
  0
VERTEX
  5
2E2
  8
0
  6
CONTINUOUS
 10
-94.499952780848659
 20
51.200105016374373
 30
0.0
  0
VERTEX
  5
2E3
  8
0
  6
CONTINUOUS
 10
94.499951290732511
 20
51.200105016374373
 30
0.0
  0
VERTEX
  5
2E4
  8
0
  6
CONTINUOUS
 10
94.853549894076465
 20
51.05362063777919
 30
0.0
  0
VERTEX
  5
2E5
  8
0
  6
CONTINUOUS
 10
95.000046193600895
 20
50.700379662312699
 30
0.0
  0
VERTEX
  5
2E6
  8
0
  6
CONTINUOUS
 10
95.000046193600895
 20
46.200562657342033
 30
0.0
  0
VERTEX
  5
2E7
  8
0
  6
CONTINUOUS
 10
-94.999953806399134
 20
46.200562657342033
 30
0.0
  0
SEQEND
  5
2E8
  8
0
  6
CONTINUOUS
  0
POLYLINE
  5
25
  8
0
  6
CONTINUOUS
 66
     1
 10
0.0
 20
0.0
 30
0.0
  0
VERTEX
  5
2E9
  8
0
  6
CONTINUOUS
 10
-81.542156600867173
 20
46.200562657342033
 30
0.0
  0
VERTEX
  5
2EA
  8
0
  6
CONTINUOUS
 10
-79.228853494286454
 20
41.910554007130081
 30
0.0
  0
VERTEX
  5
2EB
  8
0
  6
CONTINUOUS
 10
-76.729952542605403
 20
36.257935460194261
 30
0.0
  0
VERTEX
  5
2EC
  8
0
  6
CONTINUOUS
 10
-71.589352808017836
 20
24.823761595579931
 30
0.0
  0
VERTEX
  5
2ED
  8
0
  6
CONTINUOUS
 10
-67.47665307920326
 20
16.75186198340807
 30
0.0
  0
VERTEX
  5
2EE
  8
0
  6
CONTINUOUS
 10
-63.735251553432931
 20
10.44921900645611
 30
0.0
  0
VERTEX
  5
2EF
  8
0
  6
CONTINUOUS
 10
-60.815154369109138
 20
5.9860230961342458
 30
0.0
  0
VERTEX
  5
2F0
  8
0
  6
CONTINUOUS
 10
-57.446454735802092
 20
2.7938843459143001
 30
0.0
  0
VERTEX
  5
2F1
  8
0
  6
CONTINUOUS
 10
-53.192250596585509
 20
0.7324218929758999
 30
0.0
  0
VERTEX
  5
2F2
  8
0
  6
CONTINUOUS
 10
-48.354749428816618
 20
0.0
 30
0.0
  0
VERTEX
  5
2F3
  8
0
  6
CONTINUOUS
 10
48.354749428816618
 20
0.0
 30
0.0
  0
VERTEX
  5
2F4
  8
0
  6
CONTINUOUS
 10
53.192250596585559
 20
0.7324218929758999
 30
0.0
  0
VERTEX
  5
2F5
  8
0
  6
CONTINUOUS
 10
57.446448775337551
 20
2.7938843459143001
 30
0.0
  0
VERTEX
  5
2F6
  8
0
  6
CONTINUOUS
 10
60.815148408644468
 20
5.9860230961342458
 30
0.0
  0
VERTEX
  5
2F7
  8
0
  6
CONTINUOUS
 10
63.735251553432981
 20
10.44921900645611
 30
0.0
  0
VERTEX
  5
2F8
  8
0
  6
CONTINUOUS
 10
67.476754407101865
 20
16.75186198340807
 30
0.0
  0
VERTEX
  5
2F9
  8
0
  6
CONTINUOUS
 10
71.589355788250188
 20
24.823761595579931
 30
0.0
  0
VERTEX
  5
2FA
  8
0
  6
CONTINUOUS
 10
76.729946582140784
 20
36.257935460194261
 30
0.0
  0
VERTEX
  5
2FB
  8
0
  6
CONTINUOUS
 10
79.228847533821821
 20
41.910554007130081
 30
0.0
  0
VERTEX
  5
2FC
  8
0
  6
CONTINUOUS
 10
81.542155860102454
 20
46.200562657342033
 30
0.0
  0
SEQEND
  5
2FD
  8
0
  6
CONTINUOUS
  0
DIMENSION
  5
70
  8
COTATION-JACOBDELAFON
  2
*D3
 10
-107.59347557658501
 20
0.000000000000017
 30
0.0
 11
-111.55691350291519
 21
25.600052508187169
 31
0.0
 70
     0
 13
-95.230171572162277
 23
51.200105016374373
 33
0.0
 14
-47.559781065179209
 24
0.0
 34
0.0
 50
90.0
1001
ACAD
1000
DSTYLE
1002
{
1070
   140
1040
6.0
1002
}
  0
DIMENSION
  5
AA
  8
COTATION-JACOBDELAFON
  2
*D4
 10
95.000046193600895
 20
61.105390290786957
 30
0.0
 11
0.0000461936008665
 21
65.068828217117101
 31
0.0
 70
     0
 13
-94.999953806399134
 23
52.142972360502618
 33
0.0
 14
95.000046193600895
 24
52.142972360502618
 34
0.0
1001
ACAD
1000
DSTYLE
1002
{
1070
   140
1040
6.0
1002
}
  0
LINE
  5
2B0
  8
0
 10
-37.999999999999979
 20
-4.5656456453620944
 30
0.0
 11
-37.999999999999979
 21
-16.299437342657949
 31
0.0
  0
LINE
  5
2B1
  8
0
 10
-35.999999999999979
 20
-4.5656456453620944
 30
0.0
 11
-35.999999999999979
 21
-16.299437342657949
 31
0.0
  0
POLYLINE
  5
2B2
  8
0
 66
     1
 10
0.0
 20
0.0
 30
0.0
 70
     1
  0
VERTEX
  5
303
  8
0
 10
-38.499999999999979
 20
-19.299437342657949
 30
0.0
  0
VERTEX
  5
304
  8
0
 10
-35.499999999999979
 20
-19.299437342657949
 30
0.0
  0
VERTEX
  5
305
  8
0
 10
-35.499999999999979
 20
-16.299437342657949
 30
0.0
  0
VERTEX
  5
306
  8
0
 10
-38.499999999999979
 20
-16.299437342657949
 30
0.0
  0
SEQEND
  5
307
  8
0
  0
POLYLINE
  5
2B3
  8
0
 66
     1
 10
0.0
 20
0.0
 30
0.0
 70
     1
  0
VERTEX
  5
308
  8
0
 10
-39.499999999999979
 20
-19.799437342657949
 30
0.0
  0
VERTEX
  5
309
  8
0
 10
-34.499999999999979
 20
-19.799437342657949
 30
0.0
  0
VERTEX
  5
30A
  8
0
 10
-34.499999999999979
 20
-19.299437342657949
 30
0.0
  0
VERTEX
  5
30B
  8
0
 10
-39.499999999999979
 20
-19.299437342657949
 30
0.0
  0
SEQEND
  5
30C
  8
0
  0
POLYLINE
  5
2B4
  8
0
 66
     1
 10
0.0
 20
0.0
 30
0.0
 70
     1
  0
VERTEX
  5
30D
  8
0
 10
-38.499999999999979
 20
-4.5656456453620944
 30
0.0
  0
VERTEX
  5
30E
  8
0
 10
-35.499999999999972
 20
-4.5656456453620944
 30
0.0
  0
VERTEX
  5
30F
  8
0
 10
-35.499999999999972
 20
0.4343543546379039
 30
0.0
  0
VERTEX
  5
310
  8
0
 10
-38.499999999999979
 20
0.4343543546379039
 30
0.0
  0
SEQEND
  5
311
  8
0
  0
POLYLINE
  5
2BB
  8
0
 66
     1
 10
0.0
 20
0.0
 30
0.0
 70
     1
  0
VERTEX
  5
312
  8
0
 10
35.500000000000007
 20
-4.5656456453620944
 30
0.0
  0
VERTEX
  5
313
  8
0
 10
38.500000000000028
 20
-4.5656456453620944
 30
0.0
  0
VERTEX
  5
314
  8
0
 10
38.500000000000028
 20
0.4343543546379039
 30
0.0
  0
VERTEX
  5
315
  8
0
 10
35.500000000000007
 20
0.4343543546379039
 30
0.0
  0
SEQEND
  5
316
  8
0
  0
LINE
  5
2BC
  8
0
 10
36.000000000000007
 20
-4.5656456453620962
 30
0.0
 11
36.000000000000007
 21
-16.299437342657949
 31
0.0
  0
LINE
  5
2BD
  8
0
 10
38.000000000000007
 20
-4.5656456453620962
 30
0.0
 11
38.000000000000007
 21
-16.299437342657949
 31
0.0
  0
POLYLINE
  5
2BE
  8
0
 66
     1
 10
0.0
 20
0.0
 30
0.0
 70
     1
  0
VERTEX
  5
317
  8
0
 10
34.500000000000007
 20
-19.799437342657949
 30
0.0
  0
VERTEX
  5
318
  8
0
 10
39.500000000000007
 20
-19.799437342657949
 30
0.0
  0
VERTEX
  5
319
  8
0
 10
39.500000000000007
 20
-19.299437342657949
 30
0.0
  0
VERTEX
  5
31A
  8
0
 10
34.500000000000007
 20
-19.299437342657949
 30
0.0
  0
SEQEND
  5
31B
  8
0
  0
POLYLINE
  5
2BF
  8
0
 66
     1
 10
0.0
 20
0.0
 30
0.0
 70
     1
  0
VERTEX
  5
31C
  8
0
 10
35.500000000000007
 20
-19.299437342657949
 30
0.0
  0
VERTEX
  5
31D
  8
0
 10
38.500000000000007
 20
-19.299437342657949
 30
0.0
  0
VERTEX
  5
31E
  8
0
 10
38.500000000000007
 20
-16.299437342657949
 30
0.0
  0
VERTEX
  5
31F
  8
0
 10
35.500000000000007
 20
-16.299437342657949
 30
0.0
  0
SEQEND
  5
320
  8
0
  0
INSERT
  5
F9
 67
     1
  8
0
  6
CONTINUOUS
  2
ADCADD_ZZ
 10
0.0
 20
0.0
 30
0.0
1001
ADCADD_ZZ
1070
   205
1070
    14
1070
   209
1070
     1
1070
   231
1070
     0
1070
   235
1070
     0
1070
   236
1070
     4
1070
   237
1070
     2
1070
   238
1070
     4
1070
   239
1070
     2
1070
   240
1070
     0
1070
   241
1070
  4096
1070
   242
1070
     2
1070
   244
1070
     0
1070
   245
1070
     1
1070
   303
1040
0.1
1070
   304
1040
4.0
1070
   305
1040
96.0
1070
   306
1040
0.125
1070
   337
1040
0.0
1070
   338
1040
0.3048
1070
   339
1040
0.0625
1070
   340
1040
96.0
1070
   341
1040
4.0
1070
   342
1040
96.0
1070
   530
1010
0.0
1020
0.0
1030
0.0
1070
   531
1010
0.0
1020
0.0
1030
0.0
1070
   107
1000

1070
   108
1000
Architectural Desktop
1070
   135
1000
L120
1070
   136
1000
'
1070
   137
1000
m
1001
SDSK_PMN
1070
   100
1000
ACADARCH
1070
   300
1040
2453076.611403889
  0
ENDSEC
  0
EOF
