  0
SECTION
  2
HEADER
  9
$ACADVER
  1
AC1009
  9
$INSBASE
 10
0.0000000000000071
 20
0.0
 30
0.0
  9
$EXTMIN
 10
-12.043441835775219
 20
-29.373866114103521
 30
0.0
  9
$EXTMAX
 10
61.402617098862073
 20
19.550050019847038
 30
0.0
  9
$LIMMIN
 10
0.0
 20
0.0
  9
$LIMMAX
 10
12.0
 20
9.0
  9
$ORTHOMODE
 70
     1
  9
$REGENMODE
 70
     1
  9
$FILLMODE
 70
     1
  9
$QTEXTMODE
 70
     0
  9
$MIRRTEXT
 70
     1
  9
$DRAGMODE
 70
     2
  9
$LTSCALE
 40
1.0
  9
$OSMODE
 70
     1
  9
$ATTMODE
 70
     1
  9
$TEXTSIZE
 40
0.2
  9
$TRACEWID
 40
0.05
  9
$TEXTSTYLE
  7
STANDARD
  9
$CLAYER
  8
0
  9
$CELTYPE
  6
CONTINUOUS
  9
$CECOLOR
 62
   256
  9
$DIMSCALE
 40
96.0
  9
$DIMASZ
 40
1.8
  9
$DIMEXO
 40
0.625
  9
$DIMDLI
 40
3.7999999999999989
  9
$DIMRND
 40
0.0
  9
$DIMDLE
 40
0.0
  9
$DIMEXE
 40
1.8
  9
$DIMTP
 40
0.0
  9
$DIMTM
 40
0.0
  9
$DIMTXT
 40
3.0
  9
$DIMCEN
 40
0.9
  9
$DIMTSZ
 40
0.0
  9
$DIMTOL
 70
     0
  9
$DIMLIM
 70
     0
  9
$DIMTIH
 70
     0
  9
$DIMTOH
 70
     0
  9
$DIMSE1
 70
     0
  9
$DIMSE2
 70
     0
  9
$DIMTAD
 70
     1
  9
$DIMZIN
 70
    12
  9
$DIMBLK
  1
OBLIQUE
  9
$DIMASO
 70
     1
  9
$DIMSHO
 70
     1
  9
$DIMPOST
  1

  9
$DIMAPOST
  1

  9
$DIMALT
 70
     0
  9
$DIMALTD
 70
     2
  9
$DIMALTF
 40
25.399999999999999
  9
$DIMLFAC
 40
1.0
  9
$DIMTOFL
 70
     0
  9
$DIMTVP
 40
0.0
  9
$DIMTIX
 70
     0
  9
$DIMSOXD
 70
     0
  9
$DIMSAH
 70
     0
  9
$DIMBLK1
  1

  9
$DIMBLK2
  1

  9
$DIMSTYLE
  2
COTATION-JACOB-DELAFON
  9
$DIMCLRD
 70
     0
  9
$DIMCLRE
 70
     0
  9
$DIMCLRT
 70
     0
  9
$DIMTFAC
 40
1.0
  9
$DIMGAP
 40
0.9
  9
$LUNITS
 70
     2
  9
$LUPREC
 70
     4
  9
$SKETCHINC
 40
0.1
  9
$FILLETRAD
 40
0.0
  9
$AUNITS
 70
     0
  9
$AUPREC
 70
     2
  9
$MENU
  1
.
  9
$ELEVATION
 40
0.0
  9
$PELEVATION
 40
0.0
  9
$THICKNESS
 40
0.0
  9
$LIMCHECK
 70
     0
  9
$BLIPMODE
 70
     0
  9
$CHAMFERA
 40
0.0
  9
$CHAMFERB
 40
0.0
  9
$SKPOLY
 70
     0
  9
$TDCREATE
 40
2453041.6451638192
  9
$TDUPDATE
 40
2453077.7359753009
  9
$TDINDWG
 40
0.0486689468
  9
$TDUSRTIMER
 40
0.0486689468
  9
$USRTIMER
 70
     1
  9
$ANGBASE
 50
0.0
  9
$ANGDIR
 70
     0
  9
$PDMODE
 70
     0
  9
$PDSIZE
 40
0.0
  9
$PLINEWID
 40
0.0
  9
$COORDS
 70
     1
  9
$SPLFRAME
 70
     0
  9
$SPLINETYPE
 70
     6
  9
$SPLINESEGS
 70
     8
  9
$ATTDIA
 70
     1
  9
$ATTREQ
 70
     1
  9
$HANDLING
 70
 22529
  9
$HANDSEED
  5
35B
  9
$SURFTAB1
 70
     6
  9
$SURFTAB2
 70
     6
  9
$SURFTYPE
 70
     6
  9
$SURFU
 70
     6
  9
$SURFV
 70
     6
  9
$UCSNAME
  2

  9
$UCSORG
 10
0.0
 20
0.0
 30
0.0
  9
$UCSXDIR
 10
1.0
 20
0.0
 30
0.0
  9
$UCSYDIR
 10
0.0
 20
1.0
 30
0.0
  9
$PUCSNAME
  2

  9
$PUCSORG
 10
0.0
 20
0.0
 30
0.0
  9
$PUCSXDIR
 10
1.0
 20
0.0
 30
0.0
  9
$PUCSYDIR
 10
0.0
 20
1.0
 30
0.0
  9
$USERI1
 70
     0
  9
$USERI2
 70
     0
  9
$USERI3
 70
     0
  9
$USERI4
 70
     0
  9
$USERI5
 70
     0
  9
$USERR1
 40
0.0
  9
$USERR2
 40
0.0
  9
$USERR3
 40
0.0
  9
$USERR4
 40
0.0
  9
$USERR5
 40
0.0
  9
$WORLDVIEW
 70
     1
  9
$SHADEDGE
 70
     3
  9
$SHADEDIF
 70
    70
  9
$TILEMODE
 70
     1
  9
$MAXACTVP
 70
    64
  9
$PLIMCHECK
 70
     0
  9
$PEXTMIN
 10
-15.90236309127085
 20
-62.838180030951229
 30
0.0
  9
$PEXTMAX
 10
759.03044908077595
 20
67.927594216830855
 30
0.0
  9
$PLIMMIN
 10
-0.1979161059762549
 20
-0.2679166643638311
  9
$PLIMMAX
 10
11.493750144177531
 20
7.9987497780266699
  9
$UNITMODE
 70
     0
  9
$VISRETAIN
 70
     1
  9
$PLINEGEN
 70
     0
  9
$PSLTSCALE
 70
     1
  0
ENDSEC
  0
SECTION
  2
TABLES
  0
TABLE
  2
VPORT
 70
     2
  0
VPORT
  2
*ACTIVE
 70
     0
 10
0.0
 20
0.0
 11
1.0
 21
1.0
 12
28.266987087999809
 22
-4.9114009899423996
 13
0.0
 23
0.0
 14
1.0
 24
1.0
 15
0.0
 25
0.0
 16
0.0
 26
0.0
 36
1.0
 17
0.0
 27
0.0
 37
0.0
 40
49.478625832030737
 41
1.928853754940711
 42
50.0
 43
0.0
 44
0.0
 50
0.0
 51
0.0
 71
     0
 72
   100
 73
     1
 74
     1
 75
     0
 76
     0
 77
     0
 78
     0
  0
ENDTAB
  0
TABLE
  2
LTYPE
 70
     1
  0
LTYPE
  2
CONTINUOUS
 70
     0
  3
Solid line
 72
    65
 73
     0
 40
0.0
  0
ENDTAB
  0
TABLE
  2
LAYER
 70
     3
  0
LAYER
  2
0
 70
     0
 62
     7
  6
CONTINUOUS
  0
LAYER
  2
DEFPOINTS
 70
     0
 62
     7
  6
CONTINUOUS
  0
LAYER
  2
COTATION-JACOBDELAFON
 70
     0
 62
     8
  6
CONTINUOUS
  0
ENDTAB
  0
TABLE
  2
STYLE
 70
     2
  0
STYLE
  2
STANDARD
 70
     0
 40
0.0
 41
1.0
 50
0.0
 71
     0
 42
0.2
  3
txt
  4

  0
STYLE
  2
JACOB-DELAFON
 70
     0
 40
0.0
 41
1.0
 50
0.0
 71
     0
 42
2.5
  3
txt
  4

  0
ENDTAB
  0
TABLE
  2
VIEW
 70
     0
  0
ENDTAB
  0
TABLE
  2
UCS
 70
     0
  0
ENDTAB
  0
TABLE
  2
APPID
 70
     9
  0
APPID
  2
ACAD
 70
     0
  0
APPID
  2
DCO15
 70
     0
  0
APPID
  2
ADCADD_ZZ
 70
     0
  0
APPID
  2
SDSK_PMN
 70
     0
  0
APPID
  2
ACAECLAYERSTANDARD
 70
     0
  0
APPID
  2
AECBASE
 70
     0
  0
APPID
  2
AEC_DWGVARSSETUP_DATA
 70
     0
  0
APPID
  2
AEC_DISPREPCONFIG_DATA
 70
     0
  0
APPID
  2
AEC_DISPREPSET_DATA
 70
     0
  0
ENDTAB
  0
TABLE
  2
DIMSTYLE
 70
     2
  0
DIMSTYLE
  2
STANDARD
 70
     0
  3

  4

  5

  6

  7

 40
1.0
 41
0.18
 42
0.0625
 43
0.38
 44
0.18
 45
0.0
 46
0.0
 47
0.0
 48
0.0
140
0.18
141
0.09
142
0.0
143
25.399999999999999
144
1.0
145
0.0
146
1.0
147
0.09
 71
     0
 72
     0
 73
     1
 74
     1
 75
     0
 76
     0
 77
     0
 78
     0
170
     0
171
     2
172
     0
173
     0
174
     0
175
     0
176
     0
177
     0
178
     0
  0
DIMSTYLE
  2
COTATION-JACOB-DELAFON
 70
     0
  3

  4

  5
OBLIQUE
  6

  7

 40
1.0
 41
1.8
 42
0.625
 43
3.7999999999999989
 44
1.8
 45
0.0
 46
0.0
 47
0.0
 48
0.0
140
3.0
141
0.9
142
0.0
143
25.399999999999999
144
1.0
145
0.0
146
1.0
147
0.9
 71
     0
 72
     0
 73
     0
 74
     0
 75
     0
 76
     0
 77
     1
 78
    12
170
     0
171
     2
172
     0
173
     0
174
     0
175
     0
176
     0
177
     0
178
     0
  0
ENDTAB
  0
ENDSEC
  0
SECTION
  2
BLOCKS
  0
BLOCK
  8
0
  2
$MODEL_SPACE
 70
     0
 10
0.0
 20
0.0
 30
0.0
  3
$MODEL_SPACE
  1

  0
ENDBLK
  5
9
  8
0
  0
BLOCK
 67
     1
  8
0
  2
$PAPER_SPACE
 70
     0
 10
0.0
 20
0.0
 30
0.0
  3
$PAPER_SPACE
  1

  0
ENDBLK
  5
E
 67
     1
  8
0
  0
BLOCK
  8
0
  2
_OBLIQUE
 70
     0
 10
0.0
 20
0.0
 30
0.0
  3
_OBLIQUE
  1

  0
LINE
  5
38
  8
0
  6
BYBLOCK
 62
     0
 10
-0.5
 20
-0.5
 30
0.0
 11
0.5
 21
0.5
 31
0.0
  0
ENDBLK
  5
3A
  8
0
  0
BLOCK
  8
0
  2
*D1
 70
     1
 10
0.0
 20
0.0
 30
0.0
  3
*D1
  1

  0
LINE
  5
14E
  8
COTATION-JACOBDELAFON
 62
     0
 10
-0.4252207310139239
 20
-18.649949980152961
 30
0.0
 11
-9.0900994073986894
 21
-18.649949980152961
 31
0.0
  0
LINE
  5
14F
  8
COTATION-JACOBDELAFON
 62
     0
 10
-0.4252207310139215
 20
18.65005001984704
 30
0.0
 11
-9.0900994073986841
 21
18.65005001984704
 31
0.0
  0
LINE
  5
150
  8
COTATION-JACOBDELAFON
 62
     0
 10
-7.2900994073986913
 20
-18.649949980152961
 30
0.0
 11
-7.2900994073986816
 21
18.65005001984704
 31
0.0
  0
INSERT
  5
151
  8
COTATION-JACOBDELAFON
 62
     0
  2
_OBLIQUE
 10
-7.2900994073986913
 20
-18.649949980152961
 30
0.0
 41
1.8
 42
1.8
 43
1.8
 50
270.0
  0
INSERT
  5
152
  8
COTATION-JACOBDELAFON
 62
     0
  2
_OBLIQUE
 10
-7.2900994073986816
 20
18.65005001984704
 30
0.0
 41
1.8
 42
1.8
 43
1.8
 50
90.0
  0
TEXT
  5
153
  8
0
  6
CONTINUOUS
 62
     0
 10
-8.2494445642881811
 20
-4.071232381244366
 30
0.0
 40
3.0
  1
37.3
 50
90.0
  7
JACOB-DELAFON
  0
POINT
  5
154
  8
DEFPOINTS
 62
     0
 10
0.1997792689860762
 20
-18.649949980152961
 30
0.0
  0
POINT
  5
155
  8
DEFPOINTS
 62
     0
 10
0.1997792689860785
 20
18.65005001984704
 30
0.0
  0
POINT
  5
156
  8
DEFPOINTS
 62
     0
 10
-7.2900994073986816
 20
18.65005001984704
 30
0.0
  0
ENDBLK
  5
5E
  8
0
  0
BLOCK
  8
0
  2
*D2
 70
     1
 10
0.0
 20
0.0
 30
0.0
  3
*D2
  1

  0
LINE
  5
157
  8
COTATION-JACOBDELAFON
 62
     0
 10
60.502617098862068
 20
-1.226378747878867
 30
0.0
 11
60.502617098862068
 21
-29.373866114103521
 31
0.0
  0
LINE
  5
158
  8
COTATION-JACOBDELAFON
 62
     0
 10
-0.0000000000000012
 20
-19.074770552390738
 30
0.0
 11
-0.0000000000000018
 21
-29.373866114103521
 31
0.0
  0
LINE
  5
159
  8
COTATION-JACOBDELAFON
 62
     0
 10
60.502617098862068
 20
-27.57386611410352
 30
0.0
 11
-0.0000000000000017
 21
-27.57386611410352
 31
0.0
  0
INSERT
  5
15A
  8
COTATION-JACOBDELAFON
 62
     0
  2
_OBLIQUE
 10
60.502617098862068
 20
-27.57386611410352
 30
0.0
 41
1.8
 42
1.8
 43
1.8
  0
INSERT
  5
15B
  8
COTATION-JACOBDELAFON
 62
     0
  2
_OBLIQUE
 10
-0.0000000000000017
 20
-27.57386611410352
 30
0.0
 41
1.8
 42
1.8
 43
1.8
 50
180.0
  0
TEXT
  5
15C
  8
0
  6
CONTINUOUS
 62
     0
 10
26.177979763619302
 20
-26.616567341934349
 30
0.0
 40
3.0
  1
60.5
  7
JACOB-DELAFON
  0
POINT
  5
15D
  8
DEFPOINTS
 62
     0
 10
60.502617098862068
 20
-0.6013787478788674
 30
0.0
  0
POINT
  5
15E
  8
DEFPOINTS
 62
     0
 10
-0.0000000000000011
 20
-18.449770552390738
 30
0.0
  0
POINT
  5
15F
  8
DEFPOINTS
 62
     0
 10
-0.0000000000000017
 20
-27.57386611410352
 30
0.0
  0
ENDBLK
  5
85
  8
0
  0
BLOCK
  8
0
  2
ADCADD_ZZ
 70
     0
 10
0.0
 20
0.0
 30
0.0
  3
ADCADD_ZZ
  1

  0
ENDBLK
  5
184
  8
0
  0
ENDSEC
  0
SECTION
  2
ENTITIES
  0
POLYLINE
  5
24
  8
0
  6
CONTINUOUS
 66
     1
 10
0.0
 20
0.0
 30
0.0
 70
     1
  0
VERTEX
  5
2E9
  8
0
  6
CONTINUOUS
 10
0.1997792689860762
 20
-18.649949980152961
 30
0.0
  0
VERTEX
  5
2EA
  8
0
  6
CONTINUOUS
 10
0.0585232210099338
 20
-18.59122667975495
 30
0.0
  0
VERTEX
  5
2EB
  8
0
  6
CONTINUOUS
 10
-0.0000000000000011
 20
-18.449770552390738
 30
0.0
  0
VERTEX
  5
2EC
  8
0
  6
CONTINUOUS
 10
0.0000000000000011
 20
18.449770552390749
 30
0.0
  0
VERTEX
  5
2ED
  8
0
  6
CONTINUOUS
 10
0.058523221009936
 20
18.59122667975495
 30
0.0
  0
VERTEX
  5
2EE
  8
0
  6
CONTINUOUS
 10
0.1997792689860785
 20
18.65005001984704
 30
0.0
  0
VERTEX
  5
2EF
  8
0
  6
CONTINUOUS
 10
58.336747020265399
 20
18.70627232789419
 30
0.0
  0
VERTEX
  5
2F0
  8
0
  6
CONTINUOUS
 10
58.876961368049507
 20
18.4536721004581
 30
0.0
  0
VERTEX
  5
2F1
  8
0
  6
CONTINUOUS
 10
59.118957387917973
 20
17.909656244300681
 30
0.0
  0
VERTEX
  5
2F2
  8
0
  6
CONTINUOUS
 10
59.727598886421411
 20
13.49520466565823
 30
0.0
  0
VERTEX
  5
2F3
  8
0
  6
CONTINUOUS
 10
60.162971634857769
 20
9.0620456642314142
 30
0.0
  0
VERTEX
  5
2F4
  8
0
  6
CONTINUOUS
 10
60.424375355368859
 20
4.615181224721904
 30
0.0
  0
VERTEX
  5
2F5
  8
0
  6
CONTINUOUS
 10
60.514311040305522
 20
-0.0011504564813871
 30
0.0
  0
VERTEX
  5
2F6
  8
0
  6
CONTINUOUS
 10
60.424375355368859
 20
-4.6173820979906033
 30
0.0
  0
VERTEX
  5
2F7
  8
0
  6
CONTINUOUS
 10
60.162971634857769
 20
-9.0642465375001287
 30
0.0
  0
VERTEX
  5
2F8
  8
0
  6
CONTINUOUS
 10
59.727598886421411
 20
-13.49740553892695
 30
0.0
  0
VERTEX
  5
2F9
  8
0
  6
CONTINUOUS
 10
59.118957387917973
 20
-17.911857117569411
 30
0.0
  0
VERTEX
  5
2FA
  8
0
  6
CONTINUOUS
 10
58.876961368049507
 20
-18.455872973726809
 30
0.0
  0
VERTEX
  5
2FB
  8
0
  6
CONTINUOUS
 10
58.336747020265399
 20
-18.708573240856939
 30
0.0
  0
SEQEND
  5
2FC
  8
0
  6
CONTINUOUS
  0
POLYLINE
  5
25
  8
0
  6
CONTINUOUS
 66
     1
 10
0.0
 20
0.0
 30
0.0
 70
     1
  0
VERTEX
  5
2FD
  8
0
  6
CONTINUOUS
 10
7.7844887515689853
 20
-18.557913461641601
 30
0.0
  0
VERTEX
  5
2FE
  8
0
  6
CONTINUOUS
 10
7.635729726540303
 20
-18.489186191840169
 30
0.0
  0
VERTEX
  5
2FF
  8
0
  6
CONTINUOUS
 10
7.5846094428888611
 20
-18.32031918831062
 30
0.0
  0
VERTEX
  5
300
  8
0
  6
CONTINUOUS
 10
7.584609442888862
 20
18.318318394429951
 30
0.0
  0
VERTEX
  5
301
  8
0
  6
CONTINUOUS
 10
7.6500354027871831
 20
18.482083373563761
 30
0.0
  0
VERTEX
  5
302
  8
0
  6
CONTINUOUS
 10
7.7844887515689871
 20
18.556212786843041
 30
0.0
  0
VERTEX
  5
303
  8
0
  6
CONTINUOUS
 10
58.35515432396766
 20
18.556212786843041
 30
0.0
  0
VERTEX
  5
304
  8
0
  6
CONTINUOUS
 10
58.796929612822233
 20
18.362836058275111
 30
0.0
  0
VERTEX
  5
305
  8
0
  6
CONTINUOUS
 10
58.98980614291996
 20
17.902853545106371
 30
0.0
  0
VERTEX
  5
306
  8
0
  6
CONTINUOUS
 10
59.59364573610975
 20
13.50810978618863
 30
0.0
  0
VERTEX
  5
307
  8
0
  6
CONTINUOUS
 10
60.029318603628226
 20
9.0708491573064087
 30
0.0
  0
VERTEX
  5
308
  8
0
  6
CONTINUOUS
 10
60.290922403527382
 20
4.6201832094235691
 30
0.0
  0
VERTEX
  5
309
  8
0
  6
CONTINUOUS
 10
60.380958128158071
 20
-0.0008503373993031
 30
0.0
  0
VERTEX
  5
30A
  8
0
  6
CONTINUOUS
 10
60.290922403527382
 20
-4.621783844528113
 30
0.0
  0
VERTEX
  5
30B
  8
0
  6
CONTINUOUS
 10
60.029318603628226
 20
-9.0725498321049436
 30
0.0
  0
VERTEX
  5
30C
  8
0
  6
CONTINUOUS
 10
59.59364573610975
 20
-13.509810460987181
 30
0.0
  0
VERTEX
  5
30D
  8
0
  6
CONTINUOUS
 10
58.98980614291996
 20
-17.90455421990492
 30
0.0
  0
VERTEX
  5
30E
  8
0
  6
CONTINUOUS
 10
58.796929612822233
 20
-18.364536733073681
 30
0.0
  0
VERTEX
  5
30F
  8
0
  6
CONTINUOUS
 10
58.35515432396766
 20
-18.557913461641601
 30
0.0
  0
SEQEND
  5
310
  8
0
  6
CONTINUOUS
  0
POLYLINE
  5
26
  8
0
  6
CONTINUOUS
 66
     1
 10
0.0
 20
0.0
 30
0.0
 70
     1
  0
VERTEX
  5
311
  8
0
  6
CONTINUOUS
 10
9.5833024899960417
 20
-15.684873488676439
 30
0.0
  0
VERTEX
  5
312
  8
0
  6
CONTINUOUS
 10
9.4576526342892002
 20
-15.62685046613665
 30
0.0
  0
VERTEX
  5
313
  8
0
  6
CONTINUOUS
 10
9.4144354864664859
 20
-15.484093822750021
 30
0.0
  0
VERTEX
  5
314
  8
0
  6
CONTINUOUS
 10
9.4144354864664894
 20
15.48209302886937
 30
0.0
  0
VERTEX
  5
315
  8
0
  6
CONTINUOUS
 10
9.4697574372673472
 20
15.62054796541255
 30
0.0
  0
VERTEX
  5
316
  8
0
  6
CONTINUOUS
 10
9.5833024899960453
 20
15.68317281387791
 30
0.0
  0
VERTEX
  5
317
  8
0
  6
CONTINUOUS
 10
54.376375612843681
 20
15.68317281387791
 30
0.0
  0
VERTEX
  5
318
  8
0
  6
CONTINUOUS
 10
54.749723750978909
 20
15.519807993520219
 30
0.0
  0
VERTEX
  5
319
  8
0
  6
CONTINUOUS
 10
54.912688412560449
 20
15.13105374250372
 30
0.0
  0
VERTEX
  5
31A
  8
0
  6
CONTINUOUS
 10
55.423090931522403
 20
11.41667994271184
 30
0.0
  0
VERTEX
  5
31B
  8
0
  6
CONTINUOUS
 10
55.791237005567879
 20
7.6663918927617623
 30
0.0
  0
VERTEX
  5
31C
  8
0
  6
CONTINUOUS
 10
56.012424769077249
 20
3.904799357385766
 30
0.0
  0
VERTEX
  5
31D
  8
0
  6
CONTINUOUS
 10
56.088454936543172
 20
-0.0008503373993028
 30
0.0
  0
VERTEX
  5
31E
  8
0
  6
CONTINUOUS
 10
56.012424769077249
 20
-3.9063999924903099
 30
0.0
  0
VERTEX
  5
31F
  8
0
  6
CONTINUOUS
 10
55.791237005567879
 20
-7.6680925675603113
 30
0.0
  0
VERTEX
  5
320
  8
0
  6
CONTINUOUS
 10
55.423090931522403
 20
-11.41828057781639
 30
0.0
  0
VERTEX
  5
321
  8
0
  6
CONTINUOUS
 10
54.912688412560449
 20
-15.132654377608249
 30
0.0
  0
VERTEX
  5
322
  8
0
  6
CONTINUOUS
 10
54.749723750978909
 20
-15.521408628624741
 30
0.0
  0
VERTEX
  5
323
  8
0
  6
CONTINUOUS
 10
54.376375612843681
 20
-15.68487348867645
 30
0.0
  0
SEQEND
  5
324
  8
0
  6
CONTINUOUS
  0
POLYLINE
  5
27
  8
0
  6
CONTINUOUS
 66
     1
 10
0.0
 20
0.0
 30
0.0
  0
VERTEX
  5
325
  8
0
  6
CONTINUOUS
 10
58.98980614291996
 20
-17.90455421990492
 30
0.0
  0
VERTEX
  5
326
  8
0
  6
CONTINUOUS
 10
58.950990741634719
 20
-17.878143740679931
 30
0.0
  0
VERTEX
  5
327
  8
0
  6
CONTINUOUS
 10
58.926481016596377
 20
-17.86143711177624
 30
0.0
  0
VERTEX
  5
328
  8
0
  6
CONTINUOUS
 10
58.815036797442389
 20
-17.785707063392419
 30
0.0
  0
VERTEX
  5
329
  8
0
  6
CONTINUOUS
 10
57.417182152704022
 20
-16.835329970068528
 30
0.0
  0
VERTEX
  5
32A
  8
0
  6
CONTINUOUS
 10
54.912688412560449
 20
-15.132654377608249
 30
0.0
  0
SEQEND
  5
32B
  8
0
  6
CONTINUOUS
  0
POLYLINE
  5
28
  8
0
  6
CONTINUOUS
 66
     1
 10
0.0
 20
0.0
 30
0.0
  0
VERTEX
  5
32C
  8
0
  6
CONTINUOUS
 10
54.376375612843681
 20
-15.68487348867645
 30
0.0
  0
VERTEX
  5
32D
  8
0
  6
CONTINUOUS
 10
56.820445377790627
 20
-17.449673731131899
 30
0.0
  0
VERTEX
  5
32E
  8
0
  6
CONTINUOUS
 10
58.184586645639541
 20
-18.434764598285621
 30
0.0
  0
VERTEX
  5
32F
  8
0
  6
CONTINUOUS
 10
58.293329793054589
 20
-18.513295758102391
 30
0.0
  0
VERTEX
  5
330
  8
0
  6
CONTINUOUS
 10
58.317239279928749
 20
-18.530502585476249
 30
0.0
  0
VERTEX
  5
331
  8
0
  6
CONTINUOUS
 10
58.35515432396766
 20
-18.557913461641601
 30
0.0
  0
SEQEND
  5
332
  8
0
  6
CONTINUOUS
  0
POLYLINE
  5
29
  8
0
  6
CONTINUOUS
 66
     1
 10
0.0
 20
0.0
 30
0.0
  0
VERTEX
  5
333
  8
0
  6
CONTINUOUS
 10
9.5833024899960417
 20
-15.684873488676439
 30
0.0
  0
VERTEX
  5
334
  8
0
  6
CONTINUOUS
 10
8.5682997543261035
 20
-17.449673731131892
 30
0.0
  0
VERTEX
  5
335
  8
0
  6
CONTINUOUS
 10
7.967061193181193
 20
-18.434764598285621
 30
0.0
  0
VERTEX
  5
336
  8
0
  6
CONTINUOUS
 10
7.8506149893255204
 20
-18.51329575810238
 30
0.0
  0
VERTEX
  5
337
  8
0
  6
CONTINUOUS
 10
7.825004827652803
 20
-18.530502585476249
 30
0.0
  0
VERTEX
  5
338
  8
0
  6
CONTINUOUS
 10
7.7844887515689853
 20
-18.557913461641601
 30
0.0
  0
SEQEND
  5
339
  8
0
  6
CONTINUOUS
  0
POLYLINE
  5
2A
  8
0
  6
CONTINUOUS
 66
     1
 10
0.0
 20
0.0
 30
0.0
  0
VERTEX
  5
33A
  8
0
  6
CONTINUOUS
 10
7.5846094428888611
 20
-18.32031918831062
 30
0.0
  0
VERTEX
  5
33B
  8
0
  6
CONTINUOUS
 10
7.7685824402175703
 20
-18.198770960059189
 30
0.0
  0
VERTEX
  5
33C
  8
0
  6
CONTINUOUS
 10
8.3804252089301041
 20
-17.226385134047799
 30
0.0
  0
VERTEX
  5
33D
  8
0
  6
CONTINUOUS
 10
9.4144354864664859
 20
-15.484093822750021
 30
0.0
  0
SEQEND
  5
33E
  8
0
  6
CONTINUOUS
  0
POLYLINE
  5
2B
  8
0
  6
CONTINUOUS
 66
     1
 10
0.0
 20
0.0
 30
0.0
  0
VERTEX
  5
33F
  8
0
  6
CONTINUOUS
 10
58.98980614291996
 20
17.902853545106371
 30
0.0
  0
VERTEX
  5
340
  8
0
  6
CONTINUOUS
 10
58.950990741634719
 20
17.876443065881372
 30
0.0
  0
VERTEX
  5
341
  8
0
  6
CONTINUOUS
 10
58.926481016596377
 20
17.85983647667171
 30
0.0
  0
VERTEX
  5
342
  8
0
  6
CONTINUOUS
 10
58.815036797442389
 20
17.78410642828791
 30
0.0
  0
VERTEX
  5
343
  8
0
  6
CONTINUOUS
 10
57.417182152704022
 20
16.833729334964001
 30
0.0
  0
VERTEX
  5
344
  8
0
  6
CONTINUOUS
 10
54.912688412560449
 20
15.13105374250372
 30
0.0
  0
SEQEND
  5
345
  8
0
  6
CONTINUOUS
  0
POLYLINE
  5
2C
  8
0
  6
CONTINUOUS
 66
     1
 10
0.0
 20
0.0
 30
0.0
  0
VERTEX
  5
346
  8
0
  6
CONTINUOUS
 10
54.376375612843681
 20
15.68317281387791
 30
0.0
  0
VERTEX
  5
347
  8
0
  6
CONTINUOUS
 10
56.820445377790627
 20
17.448073096027361
 30
0.0
  0
VERTEX
  5
348
  8
0
  6
CONTINUOUS
 10
58.184586645639541
 20
18.433063923487079
 30
0.0
  0
VERTEX
  5
349
  8
0
  6
CONTINUOUS
 10
58.293329793054589
 20
18.511595083303821
 30
0.0
  0
VERTEX
  5
34A
  8
0
  6
CONTINUOUS
 10
58.317239279928749
 20
18.528901950371718
 30
0.0
  0
VERTEX
  5
34B
  8
0
  6
CONTINUOUS
 10
58.35515432396766
 20
18.556212786843041
 30
0.0
  0
SEQEND
  5
34C
  8
0
  6
CONTINUOUS
  0
POLYLINE
  5
2D
  8
0
  6
CONTINUOUS
 66
     1
 10
0.0
 20
0.0
 30
0.0
  0
VERTEX
  5
34D
  8
0
  6
CONTINUOUS
 10
7.7844887515689871
 20
18.556212786843041
 30
0.0
  0
VERTEX
  5
34E
  8
0
  6
CONTINUOUS
 10
7.8250048276528048
 20
18.528901950371729
 30
0.0
  0
VERTEX
  5
34F
  8
0
  6
CONTINUOUS
 10
7.8506149893255222
 20
18.511595083303831
 30
0.0
  0
VERTEX
  5
350
  8
0
  6
CONTINUOUS
 10
7.9670611931811948
 20
18.433063923487079
 30
0.0
  0
VERTEX
  5
351
  8
0
  6
CONTINUOUS
 10
8.568299754326107
 20
17.448073096027372
 30
0.0
  0
VERTEX
  5
352
  8
0
  6
CONTINUOUS
 10
9.5833024899960453
 20
15.68317281387791
 30
0.0
  0
SEQEND
  5
353
  8
0
  6
CONTINUOUS
  0
POLYLINE
  5
2E
  8
0
  6
CONTINUOUS
 66
     1
 10
0.0
 20
0.0
 30
0.0
  0
VERTEX
  5
354
  8
0
  6
CONTINUOUS
 10
9.4144354864664894
 20
15.48209302886937
 30
0.0
  0
VERTEX
  5
355
  8
0
  6
CONTINUOUS
 10
8.3804252089301077
 20
17.22428430047313
 30
0.0
  0
VERTEX
  5
356
  8
0
  6
CONTINUOUS
 10
7.768582440217572
 20
18.196770166178538
 30
0.0
  0
VERTEX
  5
357
  8
0
  6
CONTINUOUS
 10
7.6512358791155748
 20
18.274200889360909
 30
0.0
  0
VERTEX
  5
358
  8
0
  6
CONTINUOUS
 10
7.6255256777488123
 20
18.291307677040741
 30
0.0
  0
VERTEX
  5
359
  8
0
  6
CONTINUOUS
 10
7.584609442888862
 20
18.318318394429951
 30
0.0
  0
SEQEND
  5
35A
  8
0
  6
CONTINUOUS
  0
DIMENSION
  5
52
  8
COTATION-JACOBDELAFON
  2
*D1
 10
-7.2900994073986816
 20
18.65005001984704
 30
0.0
 11
-9.7228415629239251
 21
0.0000500198470384
 31
0.0
 70
     0
 13
0.1997792689860762
 23
-18.649949980152961
 33
0.0
 14
0.1997792689860785
 24
18.65005001984704
 34
0.0
 50
90.0
  0
DIMENSION
  5
79
  8
COTATION-JACOBDELAFON
  2
*D2
 10
-0.0000000000000017
 20
-27.57386611410352
 30
0.0
 11
30.25130854943103
 21
-25.142147150938442
 31
0.0
 70
     0
 13
60.502617098862068
 23
-0.6013787478788674
 33
0.0
 14
-0.0000000000000011
 24
-18.449770552390738
 34
0.0
 50
180.0
  0
INSERT
  5
185
 67
     1
  8
0
  6
CONTINUOUS
  2
ADCADD_ZZ
 10
0.0
 20
0.0
 30
0.0
1001
ADCADD_ZZ
1070
   205
1070
    14
1070
   209
1070
     1
1070
   231
1070
     0
1070
   235
1070
     0
1070
   236
1070
     4
1070
   237
1070
     2
1070
   238
1070
     4
1070
   239
1070
     2
1070
   240
1070
     0
1070
   241
1070
  4096
1070
   242
1070
     2
1070
   244
1070
     0
1070
   245
1070
     1
1070
   303
1040
0.1
1070
   304
1040
4.0
1070
   305
1040
96.0
1070
   306
1040
0.125
1070
   337
1040
0.0
1070
   338
1040
0.3048
1070
   339
1040
0.0625
1070
   340
1040
96.0
1070
   341
1040
4.0
1070
   342
1040
96.0
1070
   530
1010
0.0
1020
0.0
1030
0.0
1070
   531
1010
0.0
1020
0.0
1030
0.0
1070
   107
1000

1070
   108
1000
Architectural Desktop
1070
   135
1000
L120
1070
   136
1000
'
1070
   137
1000
m
1001
SDSK_PMN
1070
   100
1000
ACADARCH
1070
   300
1040
2453077.7359956941
  0
ENDSEC
  0
EOF
