  0
SECTION
  2
HEADER
  9
$ACADVER
  1
AC1009
  9
$INSBASE
 10
0.0
 20
0.0
 30
0.0
  9
$EXTMIN
 10
-33.590637443649122
 20
-0.8799999999999952
 30
0.0
  9
$EXTMAX
 10
19.498174744994969
 20
52.215407942803132
 30
0.0
  9
$LIMMIN
 10
0.0
 20
0.0
  9
$LIMMAX
 10
12.0
 20
9.0
  9
$ORTHOMODE
 70
     1
  9
$REGENMODE
 70
     1
  9
$FILLMODE
 70
     1
  9
$QTEXTMODE
 70
     0
  9
$MIRRTEXT
 70
     1
  9
$DRAGMODE
 70
     2
  9
$LTSCALE
 40
1.0
  9
$OSMODE
 70
     1
  9
$ATTMODE
 70
     1
  9
$TEXTSIZE
 40
0.2
  9
$TRACEWID
 40
0.05
  9
$TEXTSTYLE
  7
STANDARD
  9
$CLAYER
  8
0
  9
$CELTYPE
  6
CONTINUOUS
  9
$CECOLOR
 62
   256
  9
$DIMSCALE
 40
96.0
  9
$DIMASZ
 40
1.8
  9
$DIMEXO
 40
0.625
  9
$DIMDLI
 40
3.7999999999999989
  9
$DIMRND
 40
0.0
  9
$DIMDLE
 40
0.0
  9
$DIMEXE
 40
1.8
  9
$DIMTP
 40
0.0
  9
$DIMTM
 40
0.0
  9
$DIMTXT
 40
3.0
  9
$DIMCEN
 40
0.9
  9
$DIMTSZ
 40
0.0
  9
$DIMTOL
 70
     0
  9
$DIMLIM
 70
     0
  9
$DIMTIH
 70
     0
  9
$DIMTOH
 70
     0
  9
$DIMSE1
 70
     0
  9
$DIMSE2
 70
     0
  9
$DIMTAD
 70
     1
  9
$DIMZIN
 70
    12
  9
$DIMBLK
  1
OBLIQUE
  9
$DIMASO
 70
     1
  9
$DIMSHO
 70
     1
  9
$DIMPOST
  1

  9
$DIMAPOST
  1

  9
$DIMALT
 70
     0
  9
$DIMALTD
 70
     2
  9
$DIMALTF
 40
25.399999999999999
  9
$DIMLFAC
 40
1.0
  9
$DIMTOFL
 70
     0
  9
$DIMTVP
 40
0.0
  9
$DIMTIX
 70
     0
  9
$DIMSOXD
 70
     0
  9
$DIMSAH
 70
     0
  9
$DIMBLK1
  1

  9
$DIMBLK2
  1

  9
$DIMSTYLE
  2
COTATION-JACOB-DELAFON
  9
$DIMCLRD
 70
     0
  9
$DIMCLRE
 70
     0
  9
$DIMCLRT
 70
     0
  9
$DIMTFAC
 40
1.0
  9
$DIMGAP
 40
0.9
  9
$LUNITS
 70
     2
  9
$LUPREC
 70
     4
  9
$SKETCHINC
 40
0.1
  9
$FILLETRAD
 40
0.0
  9
$AUNITS
 70
     0
  9
$AUPREC
 70
     2
  9
$MENU
  1
.
  9
$ELEVATION
 40
0.0
  9
$PELEVATION
 40
0.0
  9
$THICKNESS
 40
0.0
  9
$LIMCHECK
 70
     0
  9
$BLIPMODE
 70
     0
  9
$CHAMFERA
 40
0.0
  9
$CHAMFERB
 40
0.0
  9
$SKPOLY
 70
     0
  9
$TDCREATE
 40
2453041.6451638192
  9
$TDUPDATE
 40
2453077.736152153
  9
$TDINDWG
 40
0.0510320023
  9
$TDUSRTIMER
 40
0.0510320023
  9
$USRTIMER
 70
     1
  9
$ANGBASE
 50
0.0
  9
$ANGDIR
 70
     0
  9
$PDMODE
 70
     0
  9
$PDSIZE
 40
0.0
  9
$PLINEWID
 40
0.0
  9
$COORDS
 70
     1
  9
$SPLFRAME
 70
     0
  9
$SPLINETYPE
 70
     6
  9
$SPLINESEGS
 70
     8
  9
$ATTDIA
 70
     1
  9
$ATTREQ
 70
     1
  9
$HANDLING
 70
 22529
  9
$HANDSEED
  5
313
  9
$SURFTAB1
 70
     6
  9
$SURFTAB2
 70
     6
  9
$SURFTYPE
 70
     6
  9
$SURFU
 70
     6
  9
$SURFV
 70
     6
  9
$UCSNAME
  2

  9
$UCSORG
 10
0.0
 20
0.0
 30
0.0
  9
$UCSXDIR
 10
1.0
 20
0.0
 30
0.0
  9
$UCSYDIR
 10
0.0
 20
1.0
 30
0.0
  9
$PUCSNAME
  2

  9
$PUCSORG
 10
0.0
 20
0.0
 30
0.0
  9
$PUCSXDIR
 10
1.0
 20
0.0
 30
0.0
  9
$PUCSYDIR
 10
0.0
 20
1.0
 30
0.0
  9
$USERI1
 70
     0
  9
$USERI2
 70
     0
  9
$USERI3
 70
     0
  9
$USERI4
 70
     0
  9
$USERI5
 70
     0
  9
$USERR1
 40
0.0
  9
$USERR2
 40
0.0
  9
$USERR3
 40
0.0
  9
$USERR4
 40
0.0
  9
$USERR5
 40
0.0
  9
$WORLDVIEW
 70
     1
  9
$SHADEDGE
 70
     3
  9
$SHADEDIF
 70
    70
  9
$TILEMODE
 70
     1
  9
$MAXACTVP
 70
    64
  9
$PLIMCHECK
 70
     0
  9
$PEXTMIN
 10
-15.90236309127085
 20
-62.838180030951229
 30
0.0
  9
$PEXTMAX
 10
759.03044908077595
 20
67.927594216830855
 30
0.0
  9
$PLIMMIN
 10
-0.1979161059762549
 20
-0.2679166643638311
  9
$PLIMMAX
 10
11.493750144177531
 20
7.9987497780266699
  9
$UNITMODE
 70
     0
  9
$VISRETAIN
 70
     1
  9
$PLINEGEN
 70
     0
  9
$PSLTSCALE
 70
     1
  0
ENDSEC
  0
SECTION
  2
TABLES
  0
TABLE
  2
VPORT
 70
     2
  0
VPORT
  2
*ACTIVE
 70
     0
 10
0.0
 20
0.0
 11
1.0
 21
1.0
 12
-3.150168018269901
 22
25.66743662654725
 13
0.0
 23
0.0
 14
1.0
 24
1.0
 15
0.0
 25
0.0
 16
0.0
 26
0.0
 36
1.0
 17
0.0
 27
0.0
 37
0.0
 40
53.738047172550857
 41
1.928853754940711
 42
50.0
 43
0.0
 44
0.0
 50
0.0
 51
0.0
 71
     0
 72
   100
 73
     1
 74
     1
 75
     0
 76
     0
 77
     0
 78
     0
  0
ENDTAB
  0
TABLE
  2
LTYPE
 70
     1
  0
LTYPE
  2
CONTINUOUS
 70
     0
  3
Solid line
 72
    65
 73
     0
 40
0.0
  0
ENDTAB
  0
TABLE
  2
LAYER
 70
     3
  0
LAYER
  2
0
 70
     0
 62
     7
  6
CONTINUOUS
  0
LAYER
  2
DEFPOINTS
 70
     0
 62
     7
  6
CONTINUOUS
  0
LAYER
  2
COTATION-JACOBDELAFON
 70
     0
 62
     8
  6
CONTINUOUS
  0
ENDTAB
  0
TABLE
  2
STYLE
 70
     2
  0
STYLE
  2
STANDARD
 70
     0
 40
0.0
 41
1.0
 50
0.0
 71
     0
 42
0.2
  3
txt
  4

  0
STYLE
  2
JACOB-DELAFON
 70
     0
 40
0.0
 41
1.0
 50
0.0
 71
     0
 42
2.5
  3
txt
  4

  0
ENDTAB
  0
TABLE
  2
VIEW
 70
     0
  0
ENDTAB
  0
TABLE
  2
UCS
 70
     0
  0
ENDTAB
  0
TABLE
  2
APPID
 70
     9
  0
APPID
  2
ACAD
 70
     0
  0
APPID
  2
DCO15
 70
     0
  0
APPID
  2
ADCADD_ZZ
 70
     0
  0
APPID
  2
SDSK_PMN
 70
     0
  0
APPID
  2
ACAECLAYERSTANDARD
 70
     0
  0
APPID
  2
AECBASE
 70
     0
  0
APPID
  2
AEC_DWGVARSSETUP_DATA
 70
     0
  0
APPID
  2
AEC_DISPREPCONFIG_DATA
 70
     0
  0
APPID
  2
AEC_DISPREPSET_DATA
 70
     0
  0
ENDTAB
  0
TABLE
  2
DIMSTYLE
 70
     2
  0
DIMSTYLE
  2
STANDARD
 70
     0
  3

  4

  5

  6

  7

 40
1.0
 41
0.18
 42
0.0625
 43
0.38
 44
0.18
 45
0.0
 46
0.0
 47
0.0
 48
0.0
140
0.18
141
0.09
142
0.0
143
25.399999999999999
144
1.0
145
0.0
146
1.0
147
0.09
 71
     0
 72
     0
 73
     1
 74
     1
 75
     0
 76
     0
 77
     0
 78
     0
170
     0
171
     2
172
     0
173
     0
174
     0
175
     0
176
     0
177
     0
178
     0
  0
DIMSTYLE
  2
COTATION-JACOB-DELAFON
 70
     0
  3

  4

  5
OBLIQUE
  6

  7

 40
1.0
 41
1.8
 42
0.625
 43
3.7999999999999989
 44
1.8
 45
0.0
 46
0.0
 47
0.0
 48
0.0
140
3.0
141
0.9
142
0.0
143
25.399999999999999
144
1.0
145
0.0
146
1.0
147
0.9
 71
     0
 72
     0
 73
     0
 74
     0
 75
     0
 76
     0
 77
     1
 78
    12
170
     0
171
     2
172
     0
173
     0
174
     0
175
     0
176
     0
177
     0
178
     0
  0
ENDTAB
  0
ENDSEC
  0
SECTION
  2
BLOCKS
  0
BLOCK
  8
0
  2
$MODEL_SPACE
 70
     0
 10
0.0
 20
0.0
 30
0.0
  3
$MODEL_SPACE
  1

  0
ENDBLK
  5
9
  8
0
  0
BLOCK
 67
     1
  8
0
  2
$PAPER_SPACE
 70
     0
 10
0.0
 20
0.0
 30
0.0
  3
$PAPER_SPACE
  1

  0
ENDBLK
  5
E
 67
     1
  8
0
  0
BLOCK
  8
0
  2
_OBLIQUE
 70
     0
 10
0.0
 20
0.0
 30
0.0
  3
_OBLIQUE
  1

  0
LINE
  5
4C
  8
0
  6
BYBLOCK
 62
     0
 10
-0.5
 20
-0.5
 30
0.0
 11
0.5
 21
0.5
 31
0.0
  0
ENDBLK
  5
4E
  8
0
  0
BLOCK
  8
0
  2
*D1
 70
     1
 10
0.0
 20
0.0
 30
0.0
  3
*D1
  1

  0
LINE
  5
14A
  8
COTATION-JACOBDELAFON
 62
     0
 10
-18.706673602435131
 20
34.755668928654572
 30
0.0
 11
-18.706673602435131
 21
49.262065514426602
 31
0.0
  0
LINE
  5
14B
  8
COTATION-JACOBDELAFON
 62
     0
 10
18.598174744994971
 20
34.755668928654572
 30
0.0
 11
18.598174744994971
 21
49.262065514426602
 31
0.0
  0
LINE
  5
14C
  8
COTATION-JACOBDELAFON
 62
     0
 10
-18.706673602435131
 20
47.462065514426598
 30
0.0
 11
18.598174744994971
 21
47.462065514426598
 31
0.0
  0
INSERT
  5
14D
  8
COTATION-JACOBDELAFON
 62
     0
  2
_OBLIQUE
 10
-18.706673602435131
 20
47.462065514426598
 30
0.0
 41
1.8
 42
1.8
 43
1.8
 50
180.0
  0
INSERT
  5
14E
  8
COTATION-JACOBDELAFON
 62
     0
  2
_OBLIQUE
 10
18.598174744994971
 20
47.462065514426598
 30
0.0
 41
1.8
 42
1.8
 43
1.8
  0
TEXT
  5
14F
  8
0
  6
CONTINUOUS
 62
     0
 10
-4.1255318298114814
 20
48.421410671316103
 30
0.0
 40
3.0
  1
37.3
  7
JACOB-DELAFON
  0
POINT
  5
150
  8
DEFPOINTS
 62
     0
 10
-18.706673602435131
 20
34.130668928654572
 30
0.0
  0
POINT
  5
151
  8
DEFPOINTS
 62
     0
 10
18.598174744994971
 20
34.130668928654572
 30
0.0
  0
POINT
  5
152
  8
DEFPOINTS
 62
     0
 10
18.598174744994971
 20
47.462065514426598
 30
0.0
  0
ENDBLK
  5
72
  8
0
  0
BLOCK
  8
0
  2
*D2
 70
     1
 10
0.0
 20
0.0
 30
0.0
  3
*D2
  1

  0
LINE
  5
153
  8
COTATION-JACOBDELAFON
 62
     0
 10
-10.323698722034599
 20
0.0199999999999998
 30
0.0
 11
-30.637295015272581
 21
0.0200000000000055
 31
0.0
  0
LINE
  5
154
  8
COTATION-JACOBDELAFON
 62
     0
 10
-16.307972977296259
 20
38.91543487332418
 30
0.0
 11
-30.637295015272571
 21
38.91543487332418
 31
0.0
  0
LINE
  5
155
  8
COTATION-JACOBDELAFON
 62
     0
 10
-28.837295015272581
 20
0.020000000000005
 30
0.0
 11
-28.83729501527257
 21
38.91543487332418
 31
0.0
  0
INSERT
  5
156
  8
COTATION-JACOBDELAFON
 62
     0
  2
_OBLIQUE
 10
-28.837295015272581
 20
0.020000000000005
 30
0.0
 41
1.8
 42
1.8
 43
1.8
 50
270.0
  0
INSERT
  5
157
  8
COTATION-JACOBDELAFON
 62
     0
  2
_OBLIQUE
 10
-28.83729501527257
 20
38.91543487332418
 30
0.0
 41
1.8
 42
1.8
 43
1.8
 50
90.0
  0
TEXT
  5
158
  8
0
  6
CONTINUOUS
 62
     0
 10
-29.796640172162078
 20
15.393365458490189
 30
0.0
 40
3.0
  1
38.9
 50
90.0
  7
JACOB-DELAFON
  0
POINT
  5
159
  8
DEFPOINTS
 62
     0
 10
-9.6986987220346066
 20
0.0199999999999996
 30
0.0
  0
POINT
  5
15A
  8
DEFPOINTS
 62
     0
 10
-15.682972977296259
 20
38.915434873324173
 30
0.0
  0
POINT
  5
15B
  8
DEFPOINTS
 62
     0
 10
-28.83729501527257
 20
38.91543487332418
 30
0.0
  0
ENDBLK
  5
99
  8
0
  0
BLOCK
  8
0
  2
ADCADD_ZZ
 70
     0
 10
0.0
 20
0.0
 30
0.0
  3
ADCADD_ZZ
  1

  0
ENDBLK
  5
180
  8
0
  0
ENDSEC
  0
SECTION
  2
ENTITIES
  0
POLYLINE
  5
24
  8
0
  6
CONTINUOUS
 66
     1
 10
0.0
 20
0.0
 30
0.0
 70
     1
  0
VERTEX
  5
2E4
  8
0
  6
CONTINUOUS
 10
-18.706673602435131
 20
34.130668928654572
 30
0.0
  0
VERTEX
  5
2E5
  8
0
  6
CONTINUOUS
 10
-18.630942674605389
 20
34.921387945830787
 30
0.0
  0
VERTEX
  5
2E6
  8
0
  6
CONTINUOUS
 10
-18.468278151282409
 20
35.041980228373099
 30
0.0
  0
VERTEX
  5
2E7
  8
0
  6
CONTINUOUS
 10
18.36217784238125
 20
35.041980228373099
 30
0.0
  0
VERTEX
  5
2E8
  8
0
  6
CONTINUOUS
 10
18.524742488294621
 20
34.921387945830787
 30
0.0
  0
VERTEX
  5
2E9
  8
0
  6
CONTINUOUS
 10
18.598174744994971
 20
34.130668928654572
 30
0.0
  0
VERTEX
  5
2EA
  8
0
  6
CONTINUOUS
 10
18.321064126591668
 20
31.852390679358219
 30
0.0
  0
VERTEX
  5
2EB
  8
0
  6
CONTINUOUS
 10
17.968720476699168
 20
29.50923683502328
 30
0.0
  0
VERTEX
  5
2EC
  8
0
  6
CONTINUOUS
 10
17.58997341367883
 20
27.199665651649511
 30
0.0
  0
VERTEX
  5
2ED
  8
0
  6
CONTINUOUS
 10
17.185109153391139
 20
24.925966856120588
 30
0.0
  0
VERTEX
  5
2EE
  8
0
  6
CONTINUOUS
 10
16.25594513937612
 20
20.33811742345047
 30
0.0
  0
VERTEX
  5
2EF
  8
0
  6
CONTINUOUS
 10
15.72743562736785
 20
18.037705147611561
 30
0.0
  0
VERTEX
  5
2F0
  8
0
  6
CONTINUOUS
 10
15.178813488331491
 20
15.77316525961751
 30
0.0
  0
VERTEX
  5
2F1
  8
0
  6
CONTINUOUS
 10
14.619893541148841
 20
13.52770642898774
 30
0.0
  0
VERTEX
  5
2F2
  8
0
  6
CONTINUOUS
 10
13.487343344121779
 20
9.4603882412154672
 30
0.0
  0
VERTEX
  5
2F3
  8
0
  6
CONTINUOUS
 10
12.30117537590105
 20
5.4983974900940922
 30
0.0
  0
VERTEX
  5
2F4
  8
0
  6
CONTINUOUS
 10
11.1496156754748
 20
1.4938208708178311
 30
0.0
  0
VERTEX
  5
2F5
  8
0
  6
CONTINUOUS
 10
10.41332537443024
 20
0.5061853416421265
 30
0.0
  0
VERTEX
  5
2F6
  8
0
  6
CONTINUOUS
 10
9.6986987220346066
 20
0.0199999999999996
 30
0.0
  0
VERTEX
  5
2F7
  8
0
  6
CONTINUOUS
 10
-9.6986987220346066
 20
0.0199999999999996
 30
0.0
  0
VERTEX
  5
2F8
  8
0
  6
CONTINUOUS
 10
-10.52002494778921
 20
0.5061853416421265
 30
0.0
  0
VERTEX
  5
2F9
  8
0
  6
CONTINUOUS
 10
-11.257418372462659
 20
1.4938208708178311
 30
0.0
  0
VERTEX
  5
2FA
  8
0
  6
CONTINUOUS
 10
-12.409574355931561
 20
5.4983974900940922
 30
0.0
  0
VERTEX
  5
2FB
  8
0
  6
CONTINUOUS
 10
-13.595745305567471
 20
9.4603882412154672
 30
0.0
  0
VERTEX
  5
2FC
  8
0
  6
CONTINUOUS
 10
-14.728295502594561
 20
13.52770642898774
 30
0.0
  0
VERTEX
  5
2FD
  8
0
  6
CONTINUOUS
 10
-15.28721694048479
 20
15.77316525961751
 30
0.0
  0
VERTEX
  5
2FE
  8
0
  6
CONTINUOUS
 10
-15.83583460739831
 20
18.037705147611561
 30
0.0
  0
VERTEX
  5
2FF
  8
0
  6
CONTINUOUS
 10
-16.364344119406638
 20
20.33811742345047
 30
0.0
  0
VERTEX
  5
300
  8
0
  6
CONTINUOUS
 10
-16.862641460352268
 20
22.689666933025691
 30
0.0
  0
VERTEX
  5
301
  8
0
  6
CONTINUOUS
 10
-17.293512605544461
 20
24.925966856120588
 30
0.0
  0
VERTEX
  5
302
  8
0
  6
CONTINUOUS
 10
-17.698473761826591
 20
27.199665651649511
 30
0.0
  0
VERTEX
  5
303
  8
0
  6
CONTINUOUS
 10
-18.077123928852469
 20
29.50923683502328
 30
0.0
  0
VERTEX
  5
304
  8
0
  6
CONTINUOUS
 10
-18.42946310662213
 20
31.852390679358219
 30
0.0
  0
SEQEND
  5
305
  8
0
  6
CONTINUOUS
  0
POLYLINE
  5
25
  8
0
  6
CONTINUOUS
 66
     1
 10
0.0
 20
0.0
 30
0.0
 70
     1
  0
VERTEX
  5
306
  8
0
  6
CONTINUOUS
 10
-18.511395378095269
 20
35.40986301435661
 30
0.0
  0
VERTEX
  5
307
  8
0
  6
CONTINUOUS
 10
-18.556013747467968
 20
35.564801200154662
 30
0.0
  0
VERTEX
  5
308
  8
0
  6
CONTINUOUS
 10
-18.528602615998089
 20
37.087469577825068
 30
0.0
  0
VERTEX
  5
309
  8
0
  6
CONTINUOUS
 10
-18.432864901380348
 20
37.358420592398019
 30
0.0
  0
VERTEX
  5
30A
  8
0
  6
CONTINUOUS
 10
-17.447774010089091
 20
38.238438958039112
 30
0.0
  0
VERTEX
  5
30B
  8
0
  6
CONTINUOUS
 10
-15.682972977296259
 20
38.915434873324173
 30
0.0
  0
VERTEX
  5
30C
  8
0
  6
CONTINUOUS
 10
15.57507338431396
 20
38.915434873324173
 30
0.0
  0
VERTEX
  5
30D
  8
0
  6
CONTINUOUS
 10
17.339975785224041
 20
38.238438958039112
 30
0.0
  0
VERTEX
  5
30E
  8
0
  6
CONTINUOUS
 10
18.324963817690481
 20
37.358420592398019
 30
0.0
  0
VERTEX
  5
30F
  8
0
  6
CONTINUOUS
 10
18.420804391133071
 20
37.087469577825068
 30
0.0
  0
VERTEX
  5
310
  8
0
  6
CONTINUOUS
 10
18.448114154485651
 20
35.564801200154662
 30
0.0
  0
VERTEX
  5
311
  8
0
  6
CONTINUOUS
 10
18.403494294405402
 20
35.40986301435661
 30
0.0
  0
SEQEND
  5
312
  8
0
  6
CONTINUOUS
  0
DIMENSION
  5
66
  8
COTATION-JACOBDELAFON
  2
*D1
 10
18.598174744994971
 20
47.462065514426598
 30
0.0
 11
-0.0542494287200766
 21
49.894807669951838
 31
0.0
 70
     0
 13
-18.706673602435131
 23
34.130668928654572
 33
0.0
 14
18.598174744994971
 24
34.130668928654572
 34
0.0
  0
DIMENSION
  5
8D
  8
COTATION-JACOBDELAFON
  2
*D2
 10
-28.83729501527257
 20
38.91543487332418
 30
0.0
 11
-31.270037170797821
 21
19.467717436662081
 31
0.0
 70
     0
 13
-9.6986987220346066
 23
0.0199999999999996
 33
0.0
 14
-15.682972977296259
 24
38.915434873324173
 34
0.0
 50
90.0
  0
INSERT
  5
181
 67
     1
  8
0
  6
CONTINUOUS
  2
ADCADD_ZZ
 10
0.0
 20
0.0
 30
0.0
1001
ADCADD_ZZ
1070
   205
1070
    14
1070
   209
1070
     1
1070
   231
1070
     0
1070
   235
1070
     0
1070
   236
1070
     4
1070
   237
1070
     2
1070
   238
1070
     4
1070
   239
1070
     2
1070
   240
1070
     0
1070
   241
1070
  4096
1070
   242
1070
     2
1070
   244
1070
     0
1070
   245
1070
     1
1070
   303
1040
0.1
1070
   304
1040
4.0
1070
   305
1040
96.0
1070
   306
1040
0.125
1070
   337
1040
0.0
1070
   338
1040
0.3048
1070
   339
1040
0.0625
1070
   340
1040
96.0
1070
   341
1040
4.0
1070
   342
1040
96.0
1070
   530
1010
0.0
1020
0.0
1030
0.0
1070
   531
1010
0.0
1020
0.0
1030
0.0
1070
   107
1000

1070
   108
1000
Architectural Desktop
1070
   135
1000
L120
1070
   136
1000
'
1070
   137
1000
m
1001
SDSK_PMN
1070
   100
1000
ACADARCH
1070
   300
1040
2453077.7361774179
  0
ENDSEC
  0
EOF
