  0
SECTION
  2
HEADER
  9
$ACADVER
  1
AC1014
  9
$ACADMAINTVER
 70
     9
  9
$DWGCODEPAGE
  3
ANSI_1252
  9
$INSBASE
 10
0.0
 20
0.0
 30
0.0
  9
$EXTMIN
 10
-29.87486215409059
 20
-0.9000000000000017
 30
0.0
  9
$EXTMAX
 10
21.4
 20
27.92081314745672
 30
0.0000000000518584
  9
$LIMMIN
 10
0.0
 20
0.0
  9
$LIMMAX
 10
420.0
 20
297.0
  9
$ORTHOMODE
 70
     1
  9
$REGENMODE
 70
     1
  9
$FILLMODE
 70
     1
  9
$QTEXTMODE
 70
     0
  9
$MIRRTEXT
 70
     1
  9
$DRAGMODE
 70
     2
  9
$LTSCALE
 40
1.0
  9
$OSMODE
 70
    35
  9
$ATTMODE
 70
     1
  9
$TEXTSIZE
 40
2.5
  9
$TRACEWID
 40
1.0
  9
$TEXTSTYLE
  7
STANDARD
  9
$CLAYER
  8
0
  9
$CELTYPE
  6
BYLAYER
  9
$CECOLOR
 62
   256
  9
$CELTSCALE
 40
1.0
  9
$DELOBJ
 70
     1
  9
$DISPSILH
 70
     0
  9
$DIMSCALE
 40
1.0
  9
$DIMASZ
 40
2.5
  9
$DIMEXO
 40
0.625
  9
$DIMDLI
 40
3.75
  9
$DIMRND
 40
0.0
  9
$DIMDLE
 40
0.0
  9
$DIMEXE
 40
1.25
  9
$DIMTP
 40
0.0
  9
$DIMTM
 40
0.0
  9
$DIMTXT
 40
2.5
  9
$DIMCEN
 40
2.5
  9
$DIMTSZ
 40
0.0
  9
$DIMTOL
 70
     0
  9
$DIMLIM
 70
     0
  9
$DIMTIH
 70
     0
  9
$DIMTOH
 70
     0
  9
$DIMSE1
 70
     0
  9
$DIMSE2
 70
     0
  9
$DIMTAD
 70
     1
  9
$DIMZIN
 70
     8
  9
$DIMBLK
  1

  9
$DIMASO
 70
     1
  9
$DIMSHO
 70
     1
  9
$DIMPOST
  1

  9
$DIMAPOST
  1

  9
$DIMALT
 70
     0
  9
$DIMALTD
 70
     3
  9
$DIMALTF
 40
0.03937007874016
  9
$DIMLFAC
 40
1.0
  9
$DIMTOFL
 70
     1
  9
$DIMTVP
 40
0.0
  9
$DIMTIX
 70
     0
  9
$DIMSOXD
 70
     0
  9
$DIMSAH
 70
     0
  9
$DIMBLK1
  1

  9
$DIMBLK2
  1

  9
$DIMSTYLE
  2
ISO-25
  9
$DIMCLRD
 70
     0
  9
$DIMCLRE
 70
     0
  9
$DIMCLRT
 70
     0
  9
$DIMTFAC
 40
1.0
  9
$DIMGAP
 40
0.625
  9
$DIMJUST
 70
     0
  9
$DIMSD1
 70
     0
  9
$DIMSD2
 70
     0
  9
$DIMTOLJ
 70
     0
  9
$DIMTZIN
 70
     8
  9
$DIMALTZ
 70
     0
  9
$DIMALTTZ
 70
     0
  9
$DIMFIT
 70
     3
  9
$DIMUPT
 70
     0
  9
$DIMUNIT
 70
     2
  9
$DIMDEC
 70
     2
  9
$DIMTDEC
 70
     2
  9
$DIMALTU
 70
     2
  9
$DIMALTTD
 70
     3
  9
$DIMTXSTY
  7
STANDARD
  9
$DIMAUNIT
 70
     0
  9
$LUNITS
 70
     2
  9
$LUPREC
 70
     4
  9
$SKETCHINC
 40
1.0
  9
$FILLETRAD
 40
10.0
  9
$AUNITS
 70
     0
  9
$AUPREC
 70
     0
  9
$MENU
  1
.
  9
$ELEVATION
 40
0.0
  9
$PELEVATION
 40
0.0
  9
$THICKNESS
 40
0.0
  9
$LIMCHECK
 70
     0
  9
$BLIPMODE
 70
     0
  9
$CHAMFERA
 40
10.0
  9
$CHAMFERB
 40
10.0
  9
$CHAMFERC
 40
20.0
  9
$CHAMFERD
 40
0.0
  9
$SKPOLY
 70
     0
  9
$TDCREATE
 40
2452710.572362245
  9
$TDUPDATE
 40
2452733.643524155
  9
$TDINDWG
 40
0.2658981597
  9
$TDUSRTIMER
 40
0.2658980440
  9
$USRTIMER
 70
     1
  9
$ANGBASE
 50
0.0
  9
$ANGDIR
 70
     0
  9
$PDMODE
 70
     0
  9
$PDSIZE
 40
0.0
  9
$PLINEWID
 40
0.0
  9
$COORDS
 70
     0
  9
$SPLFRAME
 70
     0
  9
$SPLINETYPE
 70
     6
  9
$SPLINESEGS
 70
     8
  9
$ATTDIA
 70
     1
  9
$ATTREQ
 70
     1
  9
$HANDLING
 70
 22529
  9
$HANDSEED
  5
1011
  9
$SURFTAB1
 70
     6
  9
$SURFTAB2
 70
     6
  9
$SURFTYPE
 70
     6
  9
$SURFU
 70
     6
  9
$SURFV
 70
     6
  9
$UCSNAME
  2

  9
$UCSORG
 10
0.0
 20
0.0
 30
0.0
  9
$UCSXDIR
 10
1.0
 20
0.0
 30
0.0
  9
$UCSYDIR
 10
0.0
 20
1.0
 30
0.0
  9
$PUCSNAME
  2

  9
$PUCSORG
 10
0.0
 20
0.0
 30
0.0
  9
$PUCSXDIR
 10
1.0
 20
0.0
 30
0.0
  9
$PUCSYDIR
 10
0.0
 20
1.0
 30
0.0
  9
$USERI1
 70
     0
  9
$USERI2
 70
     0
  9
$USERI3
 70
     0
  9
$USERI4
 70
     0
  9
$USERI5
 70
     0
  9
$USERR1
 40
0.0
  9
$USERR2
 40
0.0
  9
$USERR3
 40
0.0
  9
$USERR4
 40
0.0
  9
$USERR5
 40
0.0
  9
$WORLDVIEW
 70
     1
  9
$SHADEDGE
 70
     3
  9
$SHADEDIF
 70
    70
  9
$TILEMODE
 70
     1
  9
$MAXACTVP
 70
    48
  9
$PINSBASE
 10
0.0
 20
0.0
 30
0.0
  9
$PLIMCHECK
 70
     0
  9
$PEXTMIN
 10
1.000000000000000E+20
 20
1.000000000000000E+20
 30
1.000000000000000E+20
  9
$PEXTMAX
 10
-1.000000000000000E+20
 20
-1.000000000000000E+20
 30
-1.000000000000000E+20
  9
$PLIMMIN
 10
0.0
 20
0.0
  9
$PLIMMAX
 10
420.0
 20
297.0
  9
$UNITMODE
 70
     0
  9
$VISRETAIN
 70
     1
  9
$PLINEGEN
 70
     0
  9
$PSLTSCALE
 70
     1
  9
$TREEDEPTH
 70
  3020
  9
$PICKSTYLE
 70
     1
  9
$CMLSTYLE
  2
STANDARD
  9
$CMLJUST
 70
     0
  9
$CMLSCALE
 40
20.0
  9
$PROXYGRAPHICS
 70
     1
  9
$MEASUREMENT
 70
     1
  0
ENDSEC
  0
SECTION
  2
CLASSES
  0
CLASS
  1
ACDBDICTIONARYWDFLT
  2
AcDbDictionaryWithDefault
  3
AutoCAD 2000
 90
        0
280
     0
281
     0
  0
CLASS
  1
ACDBPLACEHOLDER
  2
AcDbPlaceHolder
  3
AutoCAD 2000
 90
        0
280
     0
281
     0
  0
CLASS
  1
LAYOUT
  2
AcDbLayout
  3
AutoCAD 2000
 90
        0
280
     0
281
     0
  0
CLASS
  1
DICTIONARYVAR
  2
AcDbDictionaryVar
  3
AutoCAD 2000
 90
        0
280
     0
281
     0
  0
CLASS
  1
LONG_TRANSACTION
  2
AcDbLongTransaction
  3
AutoCAD 2000
 90
        0
280
     0
281
     0
  0
CLASS
  1
LWPOLYLINE
  2
AcDbPolyline
  3
AutoCAD 2000
 90
        0
280
     0
281
     1
  0
CLASS
  1
HATCH
  2
AcDbHatch
  3
AutoCAD 2000
 90
        0
280
     0
281
     1
  0
CLASS
  1
XRECORD
  2
AcDbXrecord
  3
AutoCAD 2000
 90
        0
280
     0
281
     0
  0
CLASS
  1
LONG_TRANSACTION
  2
AcDbLongTransaction
  3
AutoCAD 2000
 90
        0
280
     0
281
     0
  0
CLASS
  1
LWPOLYLINE
  2
AcDbPolyline
  3
AutoCAD 2000
 90
        0
280
     0
281
     1
  0
CLASS
  1
HATCH
  2
AcDbHatch
  3
AutoCAD 2000
 90
        0
280
     0
281
     1
  0
CLASS
  1
XRECORD
  2
AcDbXrecord
  3
AutoCAD 2000
 90
        0
280
     0
281
     0
  0
CLASS
  1
LONG_TRANSACTION
  2
AcDbLongTransaction
  3
AutoCAD 2000
 90
        0
280
     0
281
     0
  0
CLASS
  1
LWPOLYLINE
  2
AcDbPolyline
  3
AutoCAD 2000
 90
        0
280
     0
281
     1
  0
CLASS
  1
HATCH
  2
AcDbHatch
  3
AutoCAD 2000
 90
        0
280
     0
281
     1
  0
CLASS
  1
XRECORD
  2
AcDbXrecord
  3
AutoCAD 2000
 90
        0
280
     0
281
     0
  0
CLASS
  1
LONG_TRANSACTION
  2
AcDbLongTransaction
  3
AutoCAD 2000
 90
        0
280
     0
281
     0
  0
CLASS
  1
LWPOLYLINE
  2
AcDbPolyline
  3
AutoCAD 2000
 90
        0
280
     0
281
     1
  0
CLASS
  1
HATCH
  2
AcDbHatch
  3
AutoCAD 2000
 90
        0
280
     0
281
     1
  0
CLASS
  1
XRECORD
  2
AcDbXrecord
  3
AutoCAD 2000
 90
        0
280
     0
281
     0
  0
ENDSEC
  0
SECTION
  2
TABLES
  0
TABLE
  2
VPORT
  5
8
330
0
100
AcDbSymbolTable
 70
     2
  0
VPORT
  5
FEC
330
8
100
AcDbSymbolTableRecord
100
AcDbViewportTableRecord
  2
*ACTIVE
 70
     0
 10
0.0
 20
0.0
 11
1.0
 21
1.0
 12
4.306737096196503
 22
17.65852138945569
 13
0.0
 23
0.0
 14
10.0
 24
10.0
 15
10.0
 25
10.0
 16
0.0
 26
0.0
 36
1.0
 17
0.0
 27
0.0
 37
0.0
 40
38.29412577742642
 41
1.797270955165692
 42
50.0
 43
0.0
 44
0.0
 50
0.0
 51
0.0
 71
     0
 72
   100
 73
     1
 74
     3
 75
     0
 76
     0
 77
     0
 78
     0
  0
ENDTAB
  0
TABLE
  2
LTYPE
  5
5
330
0
100
AcDbSymbolTable
 70
     1
  0
LTYPE
  5
14
330
5
100
AcDbSymbolTableRecord
100
AcDbLinetypeTableRecord
  2
BYBLOCK
 70
     0
  3

 72
    65
 73
     0
 40
0.0
  0
LTYPE
  5
15
330
5
100
AcDbSymbolTableRecord
100
AcDbLinetypeTableRecord
  2
BYLAYER
 70
     0
  3

 72
    65
 73
     0
 40
0.0
  0
LTYPE
  5
16
330
5
100
AcDbSymbolTableRecord
100
AcDbLinetypeTableRecord
  2
CONTINUOUS
 70
     0
  3
Solid line
 72
    65
 73
     0
 40
0.0
  0
ENDTAB
  0
TABLE
  2
LAYER
  5
2
330
0
100
AcDbSymbolTable
 70
     3
  0
LAYER
  5
10
330
2
100
AcDbSymbolTableRecord
100
AcDbLayerTableRecord
  2
0
 70
     0
 62
     7
  6
CONTINUOUS
  0
LAYER
  5
D1E
330
2
100
AcDbSymbolTableRecord
100
AcDbLayerTableRecord
  2
DEFPOINTS
 70
     0
 62
     7
  6
CONTINUOUS
1001
ACAECLAYERSTANDARD
1000

  0
LAYER
  5
D1F
330
2
100
AcDbSymbolTableRecord
100
AcDbLayerTableRecord
  2
COTATION-JACOBDELAFON
 70
     0
 62
     8
  6
CONTINUOUS
  0
ENDTAB
  0
TABLE
  2
STYLE
  5
3
330
0
100
AcDbSymbolTable
 70
     2
  0
STYLE
  5
11
330
3
100
AcDbSymbolTableRecord
100
AcDbTextStyleTableRecord
  2
STANDARD
 70
     0
 40
0.0
 41
1.0
 50
0.0
 71
     0
 42
2.5
  3
txt
  4

  0
STYLE
  5
D20
330
3
100
AcDbSymbolTableRecord
100
AcDbTextStyleTableRecord
  2
JACOB-DELAFON
 70
     0
 40
0.0
 41
1.0
 50
0.0
 71
     0
 42
2.5
  3
ARIAL.TTF
  4

1001
ACAD
1000
Arial
1071
       34
  0
ENDTAB
  0
TABLE
  2
VIEW
  5
6
330
0
100
AcDbSymbolTable
 70
     0
  0
ENDTAB
  0
TABLE
  2
UCS
  5
7
330
0
100
AcDbSymbolTable
 70
     0
  0
ENDTAB
  0
TABLE
  2
APPID
  5
9
330
0
100
AcDbSymbolTable
 70
     3
  0
APPID
  5
12
330
9
100
AcDbSymbolTableRecord
100
AcDbRegAppTableRecord
  2
ACAD
 70
     0
  0
APPID
  5
3E
330
9
100
AcDbSymbolTableRecord
100
AcDbRegAppTableRecord
  2
ACAECLAYERSTANDARD
 70
     0
  0
APPID
  5
3F
330
9
100
AcDbSymbolTableRecord
100
AcDbRegAppTableRecord
  2
AVE_ENTITY_MATERIAL
 70
     0
  0
ENDTAB
  0
TABLE
  2
DIMSTYLE
  5
A
330
0
100
AcDbSymbolTable
 70
     2
  0
DIMSTYLE
105
27
330
A
100
AcDbSymbolTableRecord
100
AcDbDimStyleTableRecord
  2
ISO-25
 70
     0
  3

  4

  5

  6

  7

 40
1.0
 41
2.5
 42
0.625
 43
3.75
 44
1.25
 45
0.0
 46
0.0
 47
0.0
 48
0.0
140
2.5
141
2.5
142
0.0
143
0.03937007874016
144
1.0
145
0.0
146
1.0
147
0.625
 71
     0
 72
     0
 73
     0
 74
     0
 75
     0
 76
     0
 77
     1
 78
     8
170
     0
171
     3
172
     1
173
     0
174
     0
175
     0
176
     0
177
     0
178
     0
270
     2
271
     2
272
     2
273
     2
274
     3
340
11
275
     0
280
     0
281
     0
282
     0
283
     0
284
     8
285
     0
286
     0
287
     3
288
     0
  0
DIMSTYLE
105
D21
102
{ACAD_REACTORS
330
D29
330
D2A
102
}
330
A
100
AcDbSymbolTableRecord
100
AcDbDimStyleTableRecord
  2
COTATION-JACOB-DELAFON
 70
     0
  3

  4

  5
OBLIQUE
  6

  7

 40
1.0
 41
1.8
 42
0.625
 43
3.799999999999999
 44
1.8
 45
0.0
 46
0.0
 47
0.0
 48
0.0
140
3.0
141
0.9
142
0.0
143
25.4
144
1.0
145
0.0
146
1.0
147
0.9
 71
     0
 72
     0
 73
     0
 74
     0
 75
     0
 76
     0
 77
     1
 78
    12
170
     0
171
     2
172
     0
173
     0
174
     0
175
     0
176
     0
177
     0
178
     0
270
     2
271
     2
272
     2
273
     2
274
     2
340
D20
275
     0
280
     0
281
     0
282
     0
283
     1
284
     0
285
     0
286
     0
287
     5
288
     0
  0
ENDTAB
  0
TABLE
  2
BLOCK_RECORD
  5
1
330
0
100
AcDbSymbolTable
 70
     4
  0
BLOCK_RECORD
  5
1F
102
{ACAD_XDICTIONARY
360
F0C
102
}
330
1
100
AcDbSymbolTableRecord
100
AcDbBlockTableRecord
  2
*MODEL_SPACE
  0
BLOCK_RECORD
  5
1B
102
{ACAD_XDICTIONARY
360
F0E
102
}
330
1
100
AcDbSymbolTableRecord
100
AcDbBlockTableRecord
  2
*PAPER_SPACE
  0
BLOCK_RECORD
  5
D02
330
1
100
AcDbSymbolTableRecord
100
AcDbBlockTableRecord
  2
_OBLIQUE
  0
BLOCK_RECORD
  5
D2B
330
1
100
AcDbSymbolTableRecord
100
AcDbBlockTableRecord
  2
*D2
  0
BLOCK_RECORD
  5
D37
330
1
100
AcDbSymbolTableRecord
100
AcDbBlockTableRecord
  2
*D3
  0
ENDTAB
  0
ENDSEC
  0
SECTION
  2
BLOCKS
  0
BLOCK
  5
20
330
1F
100
AcDbEntity
  8
0
100
AcDbBlockBegin
  2
*MODEL_SPACE
 70
     0
 10
0.0
 20
0.0
 30
0.0
  3
*MODEL_SPACE
  1

  0
ENDBLK
  5
21
330
1F
100
AcDbEntity
  8
0
100
AcDbBlockEnd
  0
BLOCK
  5
1C
330
1B
100
AcDbEntity
 67
     1
  8
0
100
AcDbBlockBegin
  2
*PAPER_SPACE
 70
     0
 10
0.0
 20
0.0
 30
0.0
  3
*PAPER_SPACE
  1

  0
ENDBLK
  5
1D
330
1B
100
AcDbEntity
 67
     1
  8
0
100
AcDbBlockEnd
  0
BLOCK
  5
D04
330
D02
100
AcDbEntity
  8
0
100
AcDbBlockBegin
  2
_OBLIQUE
 70
     0
 10
0.0
 20
0.0
 30
0.0
  3
_OBLIQUE
  1

  0
LINE
  5
D03
330
D02
100
AcDbEntity
  8
0
  6
BYBLOCK
 62
     0
100
AcDbLine
 10
-0.5
 20
-0.5
 30
0.0
 11
0.5
 21
0.5
 31
0.0
  0
ENDBLK
  5
D05
330
D02
100
AcDbEntity
  8
0
100
AcDbBlockEnd
  0
BLOCK
  5
D35
330
D2B
100
AcDbEntity
  8
0
100
AcDbBlockBegin
  2
*D2
 70
     1
 10
0.0
 20
0.0
 30
0.0
  3
*D2
  1

  0
LINE
  5
EE9
330
D2B
100
AcDbEntity
  8
COTATION-JACOBDELAFON
 62
     0
100
AcDbLine
 10
-20.5
 20
13.99252641601067
 30
0.0
 11
-20.5
 21
24.34268954439294
 31
0.0
  0
LINE
  5
EEA
330
D2B
100
AcDbEntity
  8
COTATION-JACOBDELAFON
 62
     0
100
AcDbLine
 10
20.5
 20
12.63038316834527
 30
0.0
 11
20.5
 21
24.34268954439294
 31
0.0
  0
LINE
  5
EEB
330
D2B
100
AcDbEntity
  8
COTATION-JACOBDELAFON
 62
     0
100
AcDbLine
 10
-20.5
 20
22.54268954439294
 30
0.0
 11
20.5
 21
22.54268954439294
 31
0.0
  0
MTEXT
  5
EEC
330
D2B
100
AcDbEntity
  8
COTATION-JACOBDELAFON
 62
     0
100
AcDbMText
 10
-0.3421230490062292
 20
25.62681587596967
 30
0.0
 40
3.0
 41
0.0
 71
     5
 72
     1
  1
\A1;41
  7
JACOB-DELAFON
1001
ACAD
1000
MTEXTBEGIN
1070
    73
1070
     1
1070
    44
1040
1.0
1070
    74
1070
     0
1000
MTEXTEND
  0
INSERT
  5
EED
330
D2B
100
AcDbEntity
  8
COTATION-JACOBDELAFON
 62
     0
100
AcDbBlockReference
  2
_OBLIQUE
 10
-20.5
 20
22.54268954439294
 30
0.0
 41
1.8
 42
1.8
 43
1.8
 50
180.0
  0
INSERT
  5
EEE
330
D2B
100
AcDbEntity
  8
COTATION-JACOBDELAFON
 62
     0
100
AcDbBlockReference
  2
_OBLIQUE
 10
20.5
 20
22.54268954439294
 30
0.0
 41
1.8
 42
1.8
 43
1.8
  0
POINT
  5
EEF
330
D2B
100
AcDbEntity
  8
DEFPOINTS
 62
     0
100
AcDbPoint
 10
-20.5
 20
13.36752641601067
 30
-0.000000000000003
  0
POINT
  5
EF0
330
D2B
100
AcDbEntity
  8
DEFPOINTS
 62
     0
100
AcDbPoint
 10
20.5
 20
12.00538316834527
 30
-0.0000000000000027
  0
POINT
  5
EF1
330
D2B
100
AcDbEntity
  8
DEFPOINTS
 62
     0
100
AcDbPoint
 10
20.5
 20
22.54268954439294
 30
0.0
  0
ENDBLK
  5
D36
330
D2B
100
AcDbEntity
  8
0
100
AcDbBlockEnd
  0
BLOCK
  5
D41
330
D37
100
AcDbEntity
  8
0
100
AcDbBlockBegin
  2
*D3
 70
     1
 10
0.0
 20
0.0
 30
0.0
  3
*D3
  1

  0
LINE
  5
EFD
330
D37
100
AcDbEntity
  8
COTATION-JACOBDELAFON
 62
     0
100
AcDbLine
 10
-7.872685313224764
 20
-0.0000000000000064
 30
0.0
 11
-26.97472572844257
 21
-0.000000000000001
 31
0.0
  0
LINE
  5
EFE
330
D37
100
AcDbEntity
  8
COTATION-JACOBDELAFON
 62
     0
100
AcDbLine
 10
-19.89786732708529
 20
11.99999999962295
 30
0.0
 11
-26.97472572844256
 21
11.99999999962295
 31
0.0
  0
LINE
  5
EFF
330
D37
100
AcDbEntity
  8
COTATION-JACOBDELAFON
 62
     0
100
AcDbLine
 10
-25.17472572844257
 20
-0.0000000000000015
 30
0.0
 11
-25.17472572844257
 21
11.99999999962295
 31
0.0
  0
INSERT
  5
F00
330
D37
100
AcDbEntity
  8
COTATION-JACOBDELAFON
 62
     0
100
AcDbBlockReference
  2
_OBLIQUE
 10
-25.17472572844257
 20
-0.0000000000000015
 30
0.0
 41
1.8
 42
1.8
 43
1.8
 50
270.0
  0
INSERT
  5
F01
330
D37
100
AcDbEntity
  8
COTATION-JACOBDELAFON
 62
     0
100
AcDbBlockReference
  2
_OBLIQUE
 10
-25.17472572844257
 20
11.99999999962295
 30
0.0
 41
1.8
 42
1.8
 43
1.8
 50
90.0
  0
MTEXT
  5
F02
330
D37
100
AcDbEntity
  8
COTATION-JACOBDELAFON
 62
     0
100
AcDbMText
 10
-27.58086488260355
 20
5.999999999811475
 30
0.0
 40
3.0
 41
0.0
 71
     5
 72
     1
  1
\A1;12
  7
JACOB-DELAFON
 11
0.0000000000000001
 21
1.0
 31
0.0
1001
ACAD
1000
MTEXTBEGIN
1070
    73
1070
     1
1070
    44
1040
1.0
1070
    74
1070
     0
1000
MTEXTEND
  0
POINT
  5
F03
330
D37
100
AcDbEntity
  8
DEFPOINTS
 62
     0
100
AcDbPoint
 10
-7.247685313224764
 20
-0.0000000000000066
 30
0.0
  0
POINT
  5
F04
330
D37
100
AcDbEntity
  8
DEFPOINTS
 62
     0
100
AcDbPoint
 10
-19.27286732708529
 20
11.99999999962295
 30
-0.0000000000000027
  0
POINT
  5
F05
330
D37
100
AcDbEntity
  8
DEFPOINTS
 62
     0
100
AcDbPoint
 10
-25.17472572844257
 20
11.99999999962295
 30
0.0
  0
ENDBLK
  5
D42
330
D37
100
AcDbEntity
  8
0
100
AcDbBlockEnd
  0
ENDSEC
  0
SECTION
  2
ENTITIES
  0
DIMENSION
  5
D29
330
1F
100
AcDbEntity
  8
COTATION-JACOBDELAFON
100
AcDbDimension
  2
*D2
 10
20.5
 20
22.54268954439294
 30
0.0000000000518584
 11
-0.3421230490062292
 21
25.62681587596967
 31
0.0000000000518584
 70
   160
  3
COTATION-JACOB-DELAFON
100
AcDbAlignedDimension
 13
-20.5
 23
13.36752641601067
 33
0.0000000000518555
 14
20.5
 24
12.00538316834527
 34
0.0000000000518558
 50
180.0
100
AcDbRotatedDimension
  0
DIMENSION
  5
D2A
330
1F
100
AcDbEntity
  8
COTATION-JACOBDELAFON
100
AcDbDimension
  2
*D3
 10
-25.17472572844257
 20
11.99999999962295
 30
0.0000000000518584
 11
-27.58086488260355
 21
5.999999999811475
 31
0.0000000000518584
 70
    32
  3
COTATION-JACOB-DELAFON
100
AcDbAlignedDimension
 13
-7.247685313224764
 23
-0.0000000000000066
 33
0.0000000000518584
 14
-19.27286732708529
 24
11.99999999962295
 34
0.0000000000518558
 50
90.0
100
AcDbRotatedDimension
  0
LWPOLYLINE
  5
E0E
330
1F
100
AcDbEntity
  8
0
100
AcDbPolyline
 90
       87
 70
     0
 43
0.0
 10
-19.69983923946935
 20
11.89047908745254
 10
-19.27286732708529
 20
11.99999999962295
 10
-17.74059385572986
 20
11.84128162227119
 10
-15.59105355059222
 20
11.59656015000786
 10
-14.5162833980234
 20
11.47419941387619
 10
-14.02637064456936
 20
11.34733954053146
 10
-12.77565193176266
 20
11.22047966699821
 10
-11.52493321895596
 20
11.09361979346496
 10
-10.27421641349792
 20
10.96675980072242
 10
-8.989648878574342
 20
10.9065996108554
 10
-7.705083250999422
 20
10.8464393017791
 10
-6.420518577098832
 20
10.78627935033065
 10
-5.13595199584958
 20
10.72611868362648
 10
-2.56797075271605
 20
10.68656861763221
 10
0.0000104904174805
 20
10.64701855163795
 10
3.670747518539457
 20
10.70802396517021
 10
5.135971069335937
 20
10.7261195180915
 10
8.989667415618917
 20
10.90660008769256
 10
10.27422904968258
 20
10.96676039676887
 10
11.52494955062866
 20
11.09362015109283
 10
12.77567005157473
 20
11.22047990541679
 10
13.26556634902951
 20
11.34733977895004
 10
14.51628303527825
 20
11.47419965248329
 10
16.66582775115966
 20
11.71892118435127
 10
18.81536865234375
 20
11.96364283542854
 10
19.27286529541009
 20
12.00000047664863
 10
19.45108032226562
 20
11.96373319607002
 10
19.69984054565429
 20
11.89047956447822
 10
20.11525344848632
 20
11.23590064029915
 10
20.29242706298828
 20
10.46638196687919
 10
20.5
 20
9.689382981320449
 10
20.49332427978515
 20
9.336811065485306
 10
20.30038070678711
 20
9.041641294767686
 10
17.85058212280273
 20
6.928072839786836
 10
15.40078353864829
 20
4.956423282537746
 10
13.47040271759036
 20
3.499126195907586
 10
10.77920150756838
 20
2.041829109191887
 10
10.48004722595217
 20
1.619318008422844
 10
10.50840377807949
 20
-0.0000000001885207
 10
-3.986979484558077
 20
-0.0000000000000066
 10
-10.50839114189145
 20
-0.0000000000000066
 10
-10.480034828186
 20
1.619319915771477
 10
-10.77918958663937
 20
2.04183101654052
 10
-12.12479496002194
 20
2.770479679107659
 10
-14.05519974743441
 20
4.227777004053415
 10
-15.40080512081699
 20
4.956425666620554
 10
-17.8505917838724
 20
6.928074568133014
 10
-20.30037844692782
 20
9.04164236746277
 10
-20.49331915926188
 20
9.336812753170342
 10
-20.5
 20
9.689385453661174
 10
-20.37441507914019
 20
10.15982851471829
 10
-20.34949776846866
 20
10.25321541999721
 10
-20.33214905268238
 20
10.31800861709979
 10
-20.31720772412535
 20
10.37386891131876
 10
-20.30216111281391
 20
10.42983444239786
 10
-20.29772776777594
 20
10.44664162223671
 10
-20.29026680833232
 20
10.47929206916012
 10
-20.27859395053826
 20
10.52945990251646
 10
-20.27131188427524
 20
10.56109758428777
 10
-20.27131188427524
 20
10.56109758428777
 10
-20.27131188427524
 20
10.56109758428777
 10
-20.27131188427524
 20
10.56109758428777
 10
-20.27131188427524
 20
10.56109758428777
 10
-20.23904704237037
 20
10.70059124929582
 10
-20.22705421911024
 20
10.75246847056985
 10
-20.19970922928189
 20
10.87055020056828
 10
-20.18900185551831
 20
10.91707882953085
 10
-20.18457262768305
 20
10.93626208701766
 10
-20.180667166847
 20
10.95303826464629
 10
-20.17613383260095
 20
10.9727465687381
 10
-20.17069000838882
 20
10.99611796883522
 10
-20.16720214953978
 20
11.0112180361479
 10
-20.16120485565199
 20
11.03723799203356
 10
-20.14803980596918
 20
11.09400502979354
 10
-20.12433765826256
 20
11.19659987591222
 10
-20.11524975811556
 20
11.23590052090133
 10
-20.01139855896549
 20
11.39954507313217
 10
-19.90754545246678
 20
11.56318974457229
 10
-19.80369139229374
 20
11.72683441601242
 10
-19.69983733212069
 20
11.89047908745254
 10
-19.45107710873202
 20
11.96373295746292
 10
-19.27286732708529
 20
11.99999999962295
 10
-18.81536591564734
 20
11.96364235840286
 10
-17.74059385572986
 20
11.84128162227119
 10
-16.66582370316104
 20
11.71892088613952
 10
-15.59105355059222
 20
11.59656015000786
 10
-15.05366847430781
 20
11.53537978194202
  0
LWPOLYLINE
  5
E11
330
1F
100
AcDbEntity
  8
0
100
AcDbPolyline
 90
       21
 70
     0
 43
0.0
 10
-20.30037844692782
 20
9.04164236746277
 10
-20.04174674069003
 20
9.590220912913935
 10
-18.1962701133402
 20
9.755648679654257
 10
-16.48891497170047
 20
9.67293485588874
 10
-14.78156173740939
 20
9.590220912913935
 10
-13.02987086772918
 20
9.431835658659764
 10
-10.51737022399899
 20
9.273450642635651
 10
-7.883858203887911
 20
9.184627398660012
 10
-5.250349044799804
 20
9.095802545358964
 10
-2.625167846679673
 20
9.066793978025742
 10
0.0000019073486044
 20
9.037781059553452
 10
2.625187397003173
 20
9.066794723083802
 10
5.250364303588867
 20
9.095805644800492
 10
7.883876800537123
 20
9.184628277828522
 10
10.51738929748537
 20
9.273450910856553
 10
13.02988338470456
 20
9.431836150398083
 10
14.78156471252441
 20
9.590221151521035
 10
16.48891925811767
 20
9.67293509077055
 10
18.19627380371093
 20
9.755649030020066
 10
20.041748046875
 20
9.590221270730324
 10
20.30038070678711
 20
9.041641294767686
  0
LWPOLYLINE
  5
E13
330
1F
100
AcDbEntity
  8
0
100
AcDbPolyline
 90
       20
 70
     0
 43
0.0
 10
10.76833438873288
 20
2.243696689605706
 10
10.46946167945858
 20
1.815915107727044
 10
9.143419265747041
 20
1.878614902496331
 10
7.817373752593965
 20
1.941314697265618
 10
5.206916809082002
 20
1.877680778503411
 10
2.596467018127412
 20
1.814046859741204
 10
0.0
 20
1.61732101440429
 10
-2.596473693847656
 20
1.814046859741204
 10
-5.206932067871093
 20
1.877681255340569
 10
-7.817388534545898
 20
1.941315174102776
 10
-9.143434524536161
 20
1.878614902496331
 10
-10.46947860717776
 20
1.815913200378411
 10
-10.76835060119631
 20
2.243695735931389
 10
-8.040498733520536
 20
2.372679710388176
 10
-5.33699607849121
 20
2.443910598754876
 10
0.0
 20
2.039545059204094
 10
5.336981773376436
 20
2.443911075592034
 10
8.040480136871309
 20
2.372679233551018
 10
9.404409408569307
 20
2.308187961578362
 10
10.76833438873288
 20
2.243696689605706
  0
ENDSEC
  0
SECTION
  2
OBJECTS
  0
DICTIONARY
  5
C
330
0
100
AcDbDictionary
  3
ACAD_GROUP
350
D
  3
ACAD_LAYOUT
350
1A
  3
ACAD_MLINESTYLE
350
17
  3
ACAD_PLOTSETTINGS
350
19
  3
ACAD_PLOTSTYLENAME
350
E
  3
ACDBHEADERROUNDTRIPXREC
350
FED
  3
ACDBVARIABLEDICTIONARY
350
CCD
  3
AEC_PROPERTY_SET_DEFS
350
686
  0
DICTIONARY
  5
F0C
330
1F
100
AcDbDictionary
280
     1
  3
ACAD_LAYOUTSELFREF
360
100F
  0
DICTIONARY
  5
F0E
330
1B
100
AcDbDictionary
280
     1
  3
ACAD_LAYOUTSELFREF
360
100E
  0
DICTIONARY
  5
D
102
{ACAD_REACTORS
330
C
102
}
330
C
100
AcDbDictionary
  0
DICTIONARY
  5
1A
102
{ACAD_REACTORS
330
C
102
}
330
C
100
AcDbDictionary
  0
DICTIONARY
  5
17
102
{ACAD_REACTORS
330
C
102
}
330
C
100
AcDbDictionary
  3
STANDARD
350
18
  0
DICTIONARY
  5
19
102
{ACAD_REACTORS
330
C
102
}
330
C
100
AcDbDictionary
  0
ACDBDICTIONARYWDFLT
  5
E
102
{ACAD_REACTORS
330
C
102
}
330
C
100
AcDbDictionary
281
     1
  3
Normal
350
F
100
AcDbDictionaryWithDefault
340
F
  0
DICTIONARY
  5
FED
102
{ACAD_REACTORS
330
C
102
}
330
C
100
AcDbDictionary
  3
CEPSNTYPE
350
FF7
  3
DIMSTYLEDATA
350
FFB
  3
FINGERPRINTGUID
350
FF8
  3
HYPERLINKBASE
350
FF0
  3
INSUNITS
350
FF6
  3
LAYOUTDICT
350
FF2
  3
LWETCUNION
350
FF5
  3
PLOTSETDICT
350
FF3
  3
PLOTSTYLNAMDICT
350
FF4
  3
PSVPSCALE
350
FFA
  3
PUCSBASE
350
FFE
  3
PUCSORGBACK
350
1004
  3
PUCSORGBOTTOM
350
1000
  3
PUCSORGFRONT
350
1003
  3
PUCSORGLEFT
350
1001
  3
PUCSORGRIGHT
350
1002
  3
PUCSORGTOP
350
FFF
  3
PUCSORTHOREF
350
FFC
  3
PUCSORTHOVIEW
350
FFD
  3
STYLESHEET
350
FF1
  3
TSTACKALIGN
350
FEE
  3
TSTACKSIZE
350
FEF
  3
UCSBASE
350
1007
  3
UCSORGBACK
350
100D
  3
UCSORGBOTTOM
350
1009
  3
UCSORGFRONT
350
100C
  3
UCSORGLEFT
350
100A
  3
UCSORGRIGHT
350
100B
  3
UCSORGTOP
350
1008
  3
UCSORTHOREF
350
1005
  3
UCSORTHOVIEW
350
1006
  3
VERSIONGUID
350
FF9
  0
DICTIONARY
  5
CCD
102
{ACAD_REACTORS
330
C
102
}
330
C
100
AcDbDictionary
  3
DIMASSOC
350
CCF
  3
HIDETEXT
350
CCE
  0
DICTIONARY
  5
686
102
{ACAD_REACTORS
330
C
102
}
330
C
100
AcDbDictionary
  0
XRECORD
  5
100F
102
{ACAD_REACTORS
330
F0C
102
}
330
F0C
100
AcDbXrecord
340
1F
  0
XRECORD
  5
100E
102
{ACAD_REACTORS
330
F0E
102
}
330
F0E
100
AcDbXrecord
340
1B
  0
MLINESTYLE
  5
18
102
{ACAD_REACTORS
330
17
102
}
330
17
100
AcDbMlineStyle
  2
STANDARD
 70
     0
  3

 62
   256
 51
90.0
 52
90.0
 71
     2
 49
0.5
 62
   256
  6
BYLAYER
 49
-0.5
 62
   256
  6
BYLAYER
  0
ACDBPLACEHOLDER
  5
F
102
{ACAD_REACTORS
330
E
102
}
330
E
100
AcDbPlaceHolder
280
     0
  0
XRECORD
  5
FF7
102
{ACAD_REACTORS
330
FED
102
}
330
FED
100
AcDbXrecord
 90
        0
  0
XRECORD
  5
FFB
102
{ACAD_REACTORS
330
FED
102
}
330
FED
100
AcDbXrecord
1000
DSTYLE
1002
{
1070
   278
 70
    44
1002
}
  0
XRECORD
  5
FF8
102
{ACAD_REACTORS
330
FED
102
}
330
FED
100
AcDbXrecord
  1
{F4247653-ECD5-4AFC-A68B-E586AF13A6A7}
  0
XRECORD
  5
FF0
102
{ACAD_REACTORS
330
FED
102
}
330
FED
100
AcDbXrecord
  1

  0
XRECORD
  5
FF6
102
{ACAD_REACTORS
330
FED
102
}
330
FED
100
AcDbXrecord
 90
        4
  0
XRECORD
  5
FF2
102
{ACAD_REACTORS
330
FED
102
}
330
FED
100
AcDbXrecord
340
1A
  0
XRECORD
  5
FF5
102
{ACAD_REACTORS
330
FED
102
}
330
FED
100
AcDbXrecord
 90
    10781
  0
XRECORD
  5
FF3
102
{ACAD_REACTORS
330
FED
102
}
330
FED
100
AcDbXrecord
340
19
  0
XRECORD
  5
FF4
102
{ACAD_REACTORS
330
FED
102
}
330
FED
100
AcDbXrecord
340
E
  0
XRECORD
  5
FFA
102
{ACAD_REACTORS
330
FED
102
}
330
FED
100
AcDbXrecord
 40
0.0
  0
XRECORD
  5
FFE
102
{ACAD_REACTORS
330
FED
102
}
330
FED
100
AcDbXrecord
340
0
  0
XRECORD
  5
1004
102
{ACAD_REACTORS
330
FED
102
}
330
FED
100
AcDbXrecord
 10
0.0
 20
0.0
 30
0.0
  0
XRECORD
  5
1000
102
{ACAD_REACTORS
330
FED
102
}
330
FED
100
AcDbXrecord
 10
0.0
 20
0.0
 30
0.0
  0
XRECORD
  5
1003
102
{ACAD_REACTORS
330
FED
102
}
330
FED
100
AcDbXrecord
 10
0.0
 20
0.0
 30
0.0
  0
XRECORD
  5
1001
102
{ACAD_REACTORS
330
FED
102
}
330
FED
100
AcDbXrecord
 10
0.0
 20
0.0
 30
0.0
  0
XRECORD
  5
1002
102
{ACAD_REACTORS
330
FED
102
}
330
FED
100
AcDbXrecord
 10
0.0
 20
0.0
 30
0.0
  0
XRECORD
  5
FFF
102
{ACAD_REACTORS
330
FED
102
}
330
FED
100
AcDbXrecord
 10
0.0
 20
0.0
 30
0.0
  0
XRECORD
  5
FFC
102
{ACAD_REACTORS
330
FED
102
}
330
FED
100
AcDbXrecord
340
0
  0
XRECORD
  5
FFD
102
{ACAD_REACTORS
330
FED
102
}
330
FED
100
AcDbXrecord
 70
     0
  0
XRECORD
  5
FF1
102
{ACAD_REACTORS
330
FED
102
}
330
FED
100
AcDbXrecord
  1

  0
XRECORD
  5
FEE
102
{ACAD_REACTORS
330
FED
102
}
330
FED
100
AcDbXrecord
 90
        1
  0
XRECORD
  5
FEF
102
{ACAD_REACTORS
330
FED
102
}
330
FED
100
AcDbXrecord
 90
       70
  0
XRECORD
  5
1007
102
{ACAD_REACTORS
330
FED
102
}
330
FED
100
AcDbXrecord
340
0
  0
XRECORD
  5
100D
102
{ACAD_REACTORS
330
FED
102
}
330
FED
100
AcDbXrecord
 10
0.0
 20
0.0
 30
0.0
  0
XRECORD
  5
1009
102
{ACAD_REACTORS
330
FED
102
}
330
FED
100
AcDbXrecord
 10
0.0
 20
0.0
 30
0.0
  0
XRECORD
  5
100C
102
{ACAD_REACTORS
330
FED
102
}
330
FED
100
AcDbXrecord
 10
0.0
 20
0.0
 30
0.0
  0
XRECORD
  5
100A
102
{ACAD_REACTORS
330
FED
102
}
330
FED
100
AcDbXrecord
 10
0.0
 20
0.0
 30
0.0
  0
XRECORD
  5
100B
102
{ACAD_REACTORS
330
FED
102
}
330
FED
100
AcDbXrecord
 10
0.0
 20
0.0
 30
0.0
  0
XRECORD
  5
1008
102
{ACAD_REACTORS
330
FED
102
}
330
FED
100
AcDbXrecord
 10
0.0
 20
0.0
 30
0.0
  0
XRECORD
  5
1005
102
{ACAD_REACTORS
330
FED
102
}
330
FED
100
AcDbXrecord
340
0
  0
XRECORD
  5
1006
102
{ACAD_REACTORS
330
FED
102
}
330
FED
100
AcDbXrecord
 70
     1
  0
XRECORD
  5
FF9
102
{ACAD_REACTORS
330
FED
102
}
330
FED
100
AcDbXrecord
  1
{7B790EDE-C6A5-44B0-B421-FC2BC11A5807}
  0
DICTIONARYVAR
  5
CCF
102
{ACAD_REACTORS
330
CCD
102
}
330
CCD
100
DictionaryVariables
280
     0
  1
2
  0
DICTIONARYVAR
  5
CCE
102
{ACAD_REACTORS
330
CCD
102
}
330
CCD
100
DictionaryVariables
280
     0
  1
1
  0
ENDSEC
  0
EOF
