  0
SECTION
  2
HEADER
  9
$ACADVER
  1
AC1014
  9
$ACADMAINTVER
 70
     9
  9
$DWGCODEPAGE
  3
ANSI_1252
  9
$INSBASE
 10
0.0
 20
0.0
 30
0.0
  9
$EXTMIN
 10
-12.88234803734168
 20
-0.8999999999999978
 30
0.0000000001885067
  9
$EXTMAX
 10
41.91245865533576
 20
27.55461157658608
 30
0.0000000001885098
  9
$LIMMIN
 10
0.0
 20
0.0
  9
$LIMMAX
 10
420.0
 20
297.0
  9
$ORTHOMODE
 70
     1
  9
$REGENMODE
 70
     1
  9
$FILLMODE
 70
     1
  9
$QTEXTMODE
 70
     0
  9
$MIRRTEXT
 70
     1
  9
$DRAGMODE
 70
     2
  9
$LTSCALE
 40
1.0
  9
$OSMODE
 70
    35
  9
$ATTMODE
 70
     1
  9
$TEXTSIZE
 40
2.5
  9
$TRACEWID
 40
1.0
  9
$TEXTSTYLE
  7
STANDARD
  9
$CLAYER
  8
0
  9
$CELTYPE
  6
BYLAYER
  9
$CECOLOR
 62
   256
  9
$CELTSCALE
 40
1.0
  9
$DELOBJ
 70
     1
  9
$DISPSILH
 70
     0
  9
$DIMSCALE
 40
1.0
  9
$DIMASZ
 40
2.5
  9
$DIMEXO
 40
0.625
  9
$DIMDLI
 40
3.75
  9
$DIMRND
 40
0.0
  9
$DIMDLE
 40
0.0
  9
$DIMEXE
 40
1.25
  9
$DIMTP
 40
0.0
  9
$DIMTM
 40
0.0
  9
$DIMTXT
 40
2.5
  9
$DIMCEN
 40
2.5
  9
$DIMTSZ
 40
0.0
  9
$DIMTOL
 70
     0
  9
$DIMLIM
 70
     0
  9
$DIMTIH
 70
     0
  9
$DIMTOH
 70
     0
  9
$DIMSE1
 70
     0
  9
$DIMSE2
 70
     0
  9
$DIMTAD
 70
     1
  9
$DIMZIN
 70
     8
  9
$DIMBLK
  1

  9
$DIMASO
 70
     1
  9
$DIMSHO
 70
     1
  9
$DIMPOST
  1

  9
$DIMAPOST
  1

  9
$DIMALT
 70
     0
  9
$DIMALTD
 70
     3
  9
$DIMALTF
 40
0.03937007874016
  9
$DIMLFAC
 40
1.0
  9
$DIMTOFL
 70
     1
  9
$DIMTVP
 40
0.0
  9
$DIMTIX
 70
     0
  9
$DIMSOXD
 70
     0
  9
$DIMSAH
 70
     0
  9
$DIMBLK1
  1

  9
$DIMBLK2
  1

  9
$DIMSTYLE
  2
ISO-25
  9
$DIMCLRD
 70
     0
  9
$DIMCLRE
 70
     0
  9
$DIMCLRT
 70
     0
  9
$DIMTFAC
 40
1.0
  9
$DIMGAP
 40
0.625
  9
$DIMJUST
 70
     0
  9
$DIMSD1
 70
     0
  9
$DIMSD2
 70
     0
  9
$DIMTOLJ
 70
     0
  9
$DIMTZIN
 70
     8
  9
$DIMALTZ
 70
     0
  9
$DIMALTTZ
 70
     0
  9
$DIMFIT
 70
     3
  9
$DIMUPT
 70
     0
  9
$DIMUNIT
 70
     2
  9
$DIMDEC
 70
     2
  9
$DIMTDEC
 70
     2
  9
$DIMALTU
 70
     2
  9
$DIMALTTD
 70
     3
  9
$DIMTXSTY
  7
STANDARD
  9
$DIMAUNIT
 70
     0
  9
$LUNITS
 70
     2
  9
$LUPREC
 70
     4
  9
$SKETCHINC
 40
1.0
  9
$FILLETRAD
 40
10.0
  9
$AUNITS
 70
     0
  9
$AUPREC
 70
     0
  9
$MENU
  1
.
  9
$ELEVATION
 40
0.0
  9
$PELEVATION
 40
0.0
  9
$THICKNESS
 40
0.0
  9
$LIMCHECK
 70
     0
  9
$BLIPMODE
 70
     0
  9
$CHAMFERA
 40
10.0
  9
$CHAMFERB
 40
10.0
  9
$CHAMFERC
 40
20.0
  9
$CHAMFERD
 40
0.0
  9
$SKPOLY
 70
     0
  9
$TDCREATE
 40
2452710.572362245
  9
$TDUPDATE
 40
2452733.643594155
  9
$TDINDWG
 40
0.1155790278
  9
$TDUSRTIMER
 40
0.1155789120
  9
$USRTIMER
 70
     1
  9
$ANGBASE
 50
0.0
  9
$ANGDIR
 70
     0
  9
$PDMODE
 70
     0
  9
$PDSIZE
 40
0.0
  9
$PLINEWID
 40
0.0
  9
$COORDS
 70
     0
  9
$SPLFRAME
 70
     0
  9
$SPLINETYPE
 70
     6
  9
$SPLINESEGS
 70
     8
  9
$ATTDIA
 70
     1
  9
$ATTREQ
 70
     1
  9
$HANDLING
 70
 22529
  9
$HANDSEED
  5
FD1
  9
$SURFTAB1
 70
     6
  9
$SURFTAB2
 70
     6
  9
$SURFTYPE
 70
     6
  9
$SURFU
 70
     6
  9
$SURFV
 70
     6
  9
$UCSNAME
  2

  9
$UCSORG
 10
0.0
 20
0.0
 30
0.0
  9
$UCSXDIR
 10
1.0
 20
0.0
 30
0.0
  9
$UCSYDIR
 10
0.0
 20
1.0
 30
0.0
  9
$PUCSNAME
  2

  9
$PUCSORG
 10
0.0
 20
0.0
 30
0.0
  9
$PUCSXDIR
 10
1.0
 20
0.0
 30
0.0
  9
$PUCSYDIR
 10
0.0
 20
1.0
 30
0.0
  9
$USERI1
 70
     0
  9
$USERI2
 70
     0
  9
$USERI3
 70
     0
  9
$USERI4
 70
     0
  9
$USERI5
 70
     0
  9
$USERR1
 40
0.0
  9
$USERR2
 40
0.0
  9
$USERR3
 40
0.0
  9
$USERR4
 40
0.0
  9
$USERR5
 40
0.0
  9
$WORLDVIEW
 70
     1
  9
$SHADEDGE
 70
     3
  9
$SHADEDIF
 70
    70
  9
$TILEMODE
 70
     1
  9
$MAXACTVP
 70
    48
  9
$PINSBASE
 10
0.0
 20
0.0
 30
0.0
  9
$PLIMCHECK
 70
     0
  9
$PEXTMIN
 10
1.000000000000000E+20
 20
1.000000000000000E+20
 30
1.000000000000000E+20
  9
$PEXTMAX
 10
-1.000000000000000E+20
 20
-1.000000000000000E+20
 30
-1.000000000000000E+20
  9
$PLIMMIN
 10
0.0
 20
0.0
  9
$PLIMMAX
 10
420.0
 20
297.0
  9
$UNITMODE
 70
     0
  9
$VISRETAIN
 70
     1
  9
$PLINEGEN
 70
     0
  9
$PSLTSCALE
 70
     1
  9
$TREEDEPTH
 70
  3020
  9
$PICKSTYLE
 70
     1
  9
$CMLSTYLE
  2
STANDARD
  9
$CMLJUST
 70
     0
  9
$CMLSCALE
 40
20.0
  9
$PROXYGRAPHICS
 70
     1
  9
$MEASUREMENT
 70
     1
  0
ENDSEC
  0
SECTION
  2
CLASSES
  0
CLASS
  1
ACDBDICTIONARYWDFLT
  2
AcDbDictionaryWithDefault
  3
AutoCAD 2000
 90
        0
280
     0
281
     0
  0
CLASS
  1
ACDBPLACEHOLDER
  2
AcDbPlaceHolder
  3
AutoCAD 2000
 90
        0
280
     0
281
     0
  0
CLASS
  1
LAYOUT
  2
AcDbLayout
  3
AutoCAD 2000
 90
        0
280
     0
281
     0
  0
CLASS
  1
DICTIONARYVAR
  2
AcDbDictionaryVar
  3
AutoCAD 2000
 90
        0
280
     0
281
     0
  0
CLASS
  1
LONG_TRANSACTION
  2
AcDbLongTransaction
  3
AutoCAD 2000
 90
        0
280
     0
281
     0
  0
CLASS
  1
LWPOLYLINE
  2
AcDbPolyline
  3
AutoCAD 2000
 90
        0
280
     0
281
     1
  0
CLASS
  1
HATCH
  2
AcDbHatch
  3
AutoCAD 2000
 90
        0
280
     0
281
     1
  0
CLASS
  1
XRECORD
  2
AcDbXrecord
  3
AutoCAD 2000
 90
        0
280
     0
281
     0
  0
CLASS
  1
LONG_TRANSACTION
  2
AcDbLongTransaction
  3
AutoCAD 2000
 90
        0
280
     0
281
     0
  0
CLASS
  1
LWPOLYLINE
  2
AcDbPolyline
  3
AutoCAD 2000
 90
        0
280
     0
281
     1
  0
CLASS
  1
HATCH
  2
AcDbHatch
  3
AutoCAD 2000
 90
        0
280
     0
281
     1
  0
CLASS
  1
XRECORD
  2
AcDbXrecord
  3
AutoCAD 2000
 90
        0
280
     0
281
     0
  0
CLASS
  1
LONG_TRANSACTION
  2
AcDbLongTransaction
  3
AutoCAD 2000
 90
        0
280
     0
281
     0
  0
CLASS
  1
LWPOLYLINE
  2
AcDbPolyline
  3
AutoCAD 2000
 90
        0
280
     0
281
     1
  0
CLASS
  1
HATCH
  2
AcDbHatch
  3
AutoCAD 2000
 90
        0
280
     0
281
     1
  0
CLASS
  1
XRECORD
  2
AcDbXrecord
  3
AutoCAD 2000
 90
        0
280
     0
281
     0
  0
CLASS
  1
LONG_TRANSACTION
  2
AcDbLongTransaction
  3
AutoCAD 2000
 90
        0
280
     0
281
     0
  0
CLASS
  1
LWPOLYLINE
  2
AcDbPolyline
  3
AutoCAD 2000
 90
        0
280
     0
281
     1
  0
CLASS
  1
HATCH
  2
AcDbHatch
  3
AutoCAD 2000
 90
        0
280
     0
281
     1
  0
CLASS
  1
XRECORD
  2
AcDbXrecord
  3
AutoCAD 2000
 90
        0
280
     0
281
     0
  0
ENDSEC
  0
SECTION
  2
TABLES
  0
TABLE
  2
VPORT
  5
8
330
0
100
AcDbSymbolTable
 70
     2
  0
VPORT
  5
FAC
330
8
100
AcDbSymbolTableRecord
100
AcDbViewportTableRecord
  2
*ACTIVE
 70
     0
 10
0.0
 20
0.0
 11
1.0
 21
1.0
 12
18.12624394228749
 22
51.53959713285241
 13
0.0
 23
0.0
 14
10.0
 24
10.0
 15
10.0
 25
10.0
 16
0.0
 26
0.0
 36
1.0
 17
0.0
 27
-36.85078756922059
 37
-6.450001500054647
 40
34.74349107797968
 41
1.797270955165692
 42
50.0
 43
0.0
 44
0.0
 50
0.0
 51
0.0
 71
     0
 72
   100
 73
     1
 74
     3
 75
     0
 76
     0
 77
     0
 78
     0
  0
ENDTAB
  0
TABLE
  2
LTYPE
  5
5
330
0
100
AcDbSymbolTable
 70
     1
  0
LTYPE
  5
14
330
5
100
AcDbSymbolTableRecord
100
AcDbLinetypeTableRecord
  2
BYBLOCK
 70
     0
  3

 72
    65
 73
     0
 40
0.0
  0
LTYPE
  5
15
330
5
100
AcDbSymbolTableRecord
100
AcDbLinetypeTableRecord
  2
BYLAYER
 70
     0
  3

 72
    65
 73
     0
 40
0.0
  0
LTYPE
  5
16
330
5
100
AcDbSymbolTableRecord
100
AcDbLinetypeTableRecord
  2
CONTINUOUS
 70
     0
  3
Solid line
 72
    65
 73
     0
 40
0.0
  0
ENDTAB
  0
TABLE
  2
LAYER
  5
2
330
0
100
AcDbSymbolTable
 70
     3
  0
LAYER
  5
10
330
2
100
AcDbSymbolTableRecord
100
AcDbLayerTableRecord
  2
0
 70
     0
 62
     7
  6
CONTINUOUS
  0
LAYER
  5
D1C
330
2
100
AcDbSymbolTableRecord
100
AcDbLayerTableRecord
  2
DEFPOINTS
 70
     0
 62
     7
  6
CONTINUOUS
1001
ACAECLAYERSTANDARD
1000

  0
LAYER
  5
D1D
330
2
100
AcDbSymbolTableRecord
100
AcDbLayerTableRecord
  2
COTATION-JACOBDELAFON
 70
     0
 62
     8
  6
CONTINUOUS
  0
ENDTAB
  0
TABLE
  2
STYLE
  5
3
330
0
100
AcDbSymbolTable
 70
     2
  0
STYLE
  5
11
330
3
100
AcDbSymbolTableRecord
100
AcDbTextStyleTableRecord
  2
STANDARD
 70
     0
 40
0.0
 41
1.0
 50
0.0
 71
     0
 42
2.5
  3
txt
  4

  0
STYLE
  5
D1E
330
3
100
AcDbSymbolTableRecord
100
AcDbTextStyleTableRecord
  2
JACOB-DELAFON
 70
     0
 40
0.0
 41
1.0
 50
0.0
 71
     0
 42
2.5
  3
ARIAL.TTF
  4

1001
ACAD
1000
Arial
1071
       34
  0
ENDTAB
  0
TABLE
  2
VIEW
  5
6
330
0
100
AcDbSymbolTable
 70
     0
  0
ENDTAB
  0
TABLE
  2
UCS
  5
7
330
0
100
AcDbSymbolTable
 70
     0
  0
ENDTAB
  0
TABLE
  2
APPID
  5
9
330
0
100
AcDbSymbolTable
 70
     3
  0
APPID
  5
12
330
9
100
AcDbSymbolTableRecord
100
AcDbRegAppTableRecord
  2
ACAD
 70
     0
  0
APPID
  5
3E
330
9
100
AcDbSymbolTableRecord
100
AcDbRegAppTableRecord
  2
ACAECLAYERSTANDARD
 70
     0
  0
APPID
  5
3F
330
9
100
AcDbSymbolTableRecord
100
AcDbRegAppTableRecord
  2
AVE_ENTITY_MATERIAL
 70
     0
  0
ENDTAB
  0
TABLE
  2
DIMSTYLE
  5
A
330
0
100
AcDbSymbolTable
 70
     2
  0
DIMSTYLE
105
27
330
A
100
AcDbSymbolTableRecord
100
AcDbDimStyleTableRecord
  2
ISO-25
 70
     0
  3

  4

  5

  6

  7

 40
1.0
 41
2.5
 42
0.625
 43
3.75
 44
1.25
 45
0.0
 46
0.0
 47
0.0
 48
0.0
140
2.5
141
2.5
142
0.0
143
0.03937007874016
144
1.0
145
0.0
146
1.0
147
0.625
 71
     0
 72
     0
 73
     0
 74
     0
 75
     0
 76
     0
 77
     1
 78
     8
170
     0
171
     3
172
     1
173
     0
174
     0
175
     0
176
     0
177
     0
178
     0
270
     2
271
     2
272
     2
273
     2
274
     3
340
11
275
     0
280
     0
281
     0
282
     0
283
     0
284
     8
285
     0
286
     0
287
     3
288
     0
  0
DIMSTYLE
105
D1F
102
{ACAD_REACTORS
330
E04
330
E06
102
}
330
A
100
AcDbSymbolTableRecord
100
AcDbDimStyleTableRecord
  2
COTATION-JACOB-DELAFON
 70
     0
  3

  4

  5
OBLIQUE
  6

  7

 40
1.0
 41
1.8
 42
0.625
 43
3.799999999999999
 44
1.8
 45
0.0
 46
0.0
 47
0.0
 48
0.0
140
3.0
141
0.9
142
0.0
143
25.4
144
1.0
145
0.0
146
1.0
147
0.9
 71
     0
 72
     0
 73
     0
 74
     0
 75
     0
 76
     0
 77
     1
 78
    12
170
     0
171
     2
172
     0
173
     0
174
     0
175
     0
176
     0
177
     0
178
     0
270
     2
271
     2
272
     2
273
     2
274
     2
340
D1E
275
     0
280
     0
281
     0
282
     0
283
     1
284
     0
285
     0
286
     0
287
     5
288
     0
  0
ENDTAB
  0
TABLE
  2
BLOCK_RECORD
  5
1
330
0
100
AcDbSymbolTable
 70
     4
  0
BLOCK_RECORD
  5
1F
102
{ACAD_XDICTIONARY
360
ECC
102
}
330
1
100
AcDbSymbolTableRecord
100
AcDbBlockTableRecord
  2
*MODEL_SPACE
  0
BLOCK_RECORD
  5
1B
102
{ACAD_XDICTIONARY
360
ECE
102
}
330
1
100
AcDbSymbolTableRecord
100
AcDbBlockTableRecord
  2
*PAPER_SPACE
  0
BLOCK_RECORD
  5
D00
330
1
100
AcDbSymbolTableRecord
100
AcDbBlockTableRecord
  2
_OBLIQUE
  0
BLOCK_RECORD
  5
E09
330
1
100
AcDbSymbolTableRecord
100
AcDbBlockTableRecord
  2
*D2
  0
BLOCK_RECORD
  5
E15
330
1
100
AcDbSymbolTableRecord
100
AcDbBlockTableRecord
  2
*D3
  0
ENDTAB
  0
ENDSEC
  0
SECTION
  2
BLOCKS
  0
BLOCK
  5
20
330
1F
100
AcDbEntity
  8
0
100
AcDbBlockBegin
  2
*MODEL_SPACE
 70
     0
 10
0.0
 20
0.0
 30
0.0
  3
*MODEL_SPACE
  1

  0
ENDBLK
  5
21
330
1F
100
AcDbEntity
  8
0
100
AcDbBlockEnd
  0
BLOCK
  5
1C
330
1B
100
AcDbEntity
 67
     1
  8
0
100
AcDbBlockBegin
  2
*PAPER_SPACE
 70
     0
 10
0.0
 20
0.0
 30
0.0
  3
*PAPER_SPACE
  1

  0
ENDBLK
  5
1D
330
1B
100
AcDbEntity
 67
     1
  8
0
100
AcDbBlockEnd
  0
BLOCK
  5
D02
330
D00
100
AcDbEntity
  8
0
100
AcDbBlockBegin
  2
_OBLIQUE
 70
     0
 10
0.0
 20
0.0
 30
0.0
  3
_OBLIQUE
  1

  0
LINE
  5
D01
330
D00
100
AcDbEntity
  8
0
  6
BYBLOCK
 62
     0
100
AcDbLine
 10
-0.5
 20
-0.5
 30
0.0
 11
0.5
 21
0.5
 31
0.0
  0
ENDBLK
  5
D03
330
D00
100
AcDbEntity
  8
0
100
AcDbBlockEnd
  0
BLOCK
  5
E13
330
E09
100
AcDbEntity
  8
0
100
AcDbBlockBegin
  2
*D2
 70
     1
 10
0.0
 20
0.0
 30
0.0
  3
*D2
  1

  0
LINE
  5
EB1
330
E09
100
AcDbEntity
  8
COTATION-JACOBDELAFON
 62
     0
100
AcDbLine
 10
0.0124586553357609
 20
9.961812753170352
 30
0.0
 11
0.0124586553357617
 21
24.09988553521339
 31
0.0
  0
LINE
  5
EB2
330
E09
100
AcDbEntity
  8
COTATION-JACOBDELAFON
 62
     0
100
AcDbLine
 10
41.01245865533576
 20
11.25034369824709
 30
0.0
 11
41.01245865533576
 21
24.09988553521339
 31
0.0
  0
LINE
  5
EB3
330
E09
100
AcDbEntity
  8
COTATION-JACOBDELAFON
 62
     0
100
AcDbLine
 10
0.0124586553357616
 20
22.29988553521339
 30
0.0
 11
41.01245865533576
 21
22.29988553521339
 31
0.0
  0
MTEXT
  5
EB4
330
E09
100
AcDbEntity
  8
COTATION-JACOBDELAFON
 62
     0
100
AcDbMText
 10
20.17033560632953
 20
25.26061430509904
 30
0.0
 40
3.0
 41
0.0
 71
     5
 72
     1
  1
\A1;41
  7
JACOB-DELAFON
1001
ACAD
1000
MTEXTBEGIN
1070
    73
1070
     1
1070
    44
1040
1.0
1070
    74
1070
     0
1000
MTEXTEND
  0
INSERT
  5
EB5
330
E09
100
AcDbEntity
  8
COTATION-JACOBDELAFON
 62
     0
100
AcDbBlockReference
  2
_OBLIQUE
 10
0.0124586553357616
 20
22.29988553521339
 30
0.0
 41
1.8
 42
1.8
 43
1.8
 50
180.0
  0
INSERT
  5
EB6
330
E09
100
AcDbEntity
  8
COTATION-JACOBDELAFON
 62
     0
100
AcDbBlockReference
  2
_OBLIQUE
 10
41.01245865533576
 20
22.29988553521339
 30
0.0
 41
1.8
 42
1.8
 43
1.8
  0
POINT
  5
EB7
330
E09
100
AcDbEntity
  8
DEFPOINTS
 62
     0
100
AcDbPoint
 10
0.0124586553357608
 20
9.336812753170352
 30
-0.0000000000000032
  0
POINT
  5
EB8
330
E09
100
AcDbEntity
  8
DEFPOINTS
 62
     0
100
AcDbPoint
 10
41.01245865533576
 20
10.62534369824709
 30
-0.0000000000000024
  0
POINT
  5
EB9
330
E09
100
AcDbEntity
  8
DEFPOINTS
 62
     0
100
AcDbPoint
 10
41.01245865533576
 20
22.29988553521339
 30
0.0
  0
ENDBLK
  5
E14
330
E09
100
AcDbEntity
  8
0
100
AcDbBlockEnd
  0
BLOCK
  5
E1F
330
E15
100
AcDbEntity
  8
0
100
AcDbBlockBegin
  2
*D3
 70
     1
 10
0.0
 20
0.0
 30
0.0
  3
*D3
  1

  0
LINE
  5
EBA
330
E15
100
AcDbEntity
  8
COTATION-JACOBDELAFON
 62
     0
100
AcDbLine
 10
-0.6250000000000028
 20
0.0000000000000002
 30
0.0
 11
-9.982211611693662
 21
0.0000000000000028
 31
0.0
  0
LINE
  5
EBB
330
E15
100
AcDbEntity
  8
COTATION-JACOBDELAFON
 62
     0
100
AcDbLine
 10
0.6145913282504636
 20
11.99999999962296
 30
0.0
 11
-9.98221161169366
 21
11.99999999962297
 31
0.0
  0
LINE
  5
EBC
330
E15
100
AcDbEntity
  8
COTATION-JACOBDELAFON
 62
     0
100
AcDbLine
 10
-8.182211611693661
 20
0.0000000000000023
 30
0.0
 11
-8.182211611693659
 21
11.99999999962297
 31
0.0
  0
INSERT
  5
EBD
330
E15
100
AcDbEntity
  8
COTATION-JACOBDELAFON
 62
     0
100
AcDbBlockReference
  2
_OBLIQUE
 10
-8.182211611693661
 20
0.0000000000000023
 30
0.0
 41
1.8
 42
1.8
 43
1.8
 50
270.0
  0
INSERT
  5
EBE
330
E15
100
AcDbEntity
  8
COTATION-JACOBDELAFON
 62
     0
100
AcDbBlockReference
  2
_OBLIQUE
 10
-8.182211611693659
 20
11.99999999962297
 30
0.0
 41
1.8
 42
1.8
 43
1.8
 50
90.0
  0
MTEXT
  5
EBF
330
E15
100
AcDbEntity
  8
COTATION-JACOBDELAFON
 62
     0
100
AcDbMText
 10
-10.58835076585464
 20
5.999999999811485
 30
0.0
 40
3.0
 41
0.0
 71
     5
 72
     1
  1
\A1;12
  7
JACOB-DELAFON
 11
0.0000000000000001
 21
1.0
 31
0.0
1001
ACAD
1000
MTEXTBEGIN
1070
    73
1070
     1
1070
    44
1040
1.0
1070
    74
1070
     0
1000
MTEXTEND
  0
POINT
  5
EC0
330
E15
100
AcDbEntity
  8
DEFPOINTS
 62
     0
100
AcDbPoint
 10
-0.0000000000000028
 20
0.0
 30
0.0
  0
POINT
  5
EC1
330
E15
100
AcDbEntity
  8
DEFPOINTS
 62
     0
100
AcDbPoint
 10
1.239591328250463
 20
11.99999999962296
 30
-0.0000000000000027
  0
POINT
  5
EC2
330
E15
100
AcDbEntity
  8
DEFPOINTS
 62
     0
100
AcDbPoint
 10
-8.182211611693659
 20
11.99999999962297
 30
0.0
  0
ENDBLK
  5
E20
330
E15
100
AcDbEntity
  8
0
100
AcDbBlockEnd
  0
ENDSEC
  0
SECTION
  2
ENTITIES
  0
DIMENSION
  5
E04
330
1F
100
AcDbEntity
  8
COTATION-JACOBDELAFON
100
AcDbDimension
  2
*D2
 10
41.01245865533576
 20
22.29988553521339
 30
0.0000000001885098
 11
20.17033560632953
 21
25.26061430509904
 31
0.0000000001885098
 70
   160
  3
COTATION-JACOB-DELAFON
100
AcDbAlignedDimension
 13
0.0124586553357608
 23
9.336812753170352
 33
0.0000000001885067
 14
41.01245865533576
 24
10.62534369824709
 34
0.0000000001885075
 50
180.0
100
AcDbRotatedDimension
  0
LWPOLYLINE
  5
E05
330
1F
100
AcDbEntity
  8
0
100
AcDbPolyline
 90
       87
 70
     0
 43
0.0
 38
0.0000000001885073
 10
0.8126194158664022
 20
11.89047908745255
 10
1.239591328250463
 20
11.99999999962296
 10
2.771864799605902
 20
11.8412816222712
 10
4.921405104743538
 20
11.59656015000787
 10
5.996175257312357
 20
11.4741994138762
 10
6.486088010766394
 20
11.34733954053147
 10
7.736806723573094
 20
11.22047966699822
 10
8.987525436379794
 20
11.09361979346497
 10
10.23824224183783
 20
10.96675980072243
 10
11.52280977676141
 20
10.90659961085542
 10
12.80737540433633
 20
10.84643930177911
 10
14.09194007823692
 20
10.78627935033066
 10
15.37650665948618
 20
10.72611868362649
 10
17.94448790261971
 20
10.68656861763222
 10
20.51246914575324
 20
10.64701855163796
 10
24.18320617387522
 20
10.70802396517022
 10
25.64842972467169
 20
10.72611951809151
 10
29.50212607095467
 20
10.90660008769257
 10
30.78668770501835
 20
10.96676039676888
 10
32.03740820596442
 20
11.09362015109284
 10
33.2881287069105
 20
11.2204799054168
 10
33.77802500436527
 20
11.34733977895005
 10
35.02874169061402
 20
11.4741996524833
 10
37.17828640649543
 20
11.71892118435128
 10
39.32782730767951
 20
11.96364283542855
 10
39.78532395074586
 20
12.00000047664864
 10
39.96353897760139
 20
11.96373319607003
 10
40.21229920099005
 20
11.89047956447823
 10
40.62771210382209
 20
11.23590064029915
 10
40.80488571832404
 20
10.4663819668792
 10
41.01245865533576
 20
9.689382981320457
 10
41.00578293512092
 20
9.336811065485315
 10
40.81283936212287
 20
9.041641294767694
 10
38.36304077813849
 20
6.928072839786843
 10
35.91324219398406
 20
4.956423282537754
 10
33.98286137292612
 20
3.499126195907594
 10
31.29166016290414
 20
2.041829109191896
 10
30.99250588128793
 20
1.619318008422853
 10
31.02086243341525
 20
-0.0000000001885089
 10
16.52547917077768
 20
-0.000000000000001
 10
10.0040675134443
 20
-0.0000000000000006
 10
10.03242382714975
 20
1.619319915771487
 10
9.733269068696383
 20
2.04183101654053
 10
8.387663695313815
 20
2.770479679107669
 10
6.457258907901342
 20
4.227777004053425
 10
5.11165353451877
 20
4.956425666620564
 10
2.661866871463354
 20
6.928074568133023
 10
0.2120802084079342
 20
9.041642367462781
 10
0.019139496073874
 20
9.336812753170352
 10
0.0124586553357608
 20
9.689385453661184
 10
0.1380435761955652
 20
10.1598285147183
 10
0.1629608868670913
 20
10.25321541999723
 10
0.1803096026533751
 20
10.3180086170998
 10
0.1952509312104041
 20
10.37386891131877
 10
0.2102975425218517
 20
10.42983444239787
 10
0.2147308875598184
 20
10.44664162223672
 10
0.2221918470034381
 20
10.47929206916013
 10
0.2338647047974916
 20
10.52945990251647
 10
0.2411467710605222
 20
10.56109758428779
 10
0.2411467710605222
 20
10.56109758428779
 10
0.2411467710605222
 20
10.56109758428779
 10
0.2411467710605222
 20
10.56109758428779
 10
0.2411467710605222
 20
10.56109758428779
 10
0.2734116129653841
 20
10.70059124929583
 10
0.2854044362255137
 20
10.75246847056986
 10
0.3127494260538639
 20
10.8705502005683
 10
0.3234567998174441
 20
10.91707882953086
 10
0.3278860276527041
 20
10.93626208701767
 10
0.3317914884887557
 20
10.9530382646463
 10
0.3363248227348037
 20
10.97274656873811
 10
0.3417686469469401
 20
10.99611796883523
 10
0.3452565057959816
 20
11.01121803614792
 10
0.3512537996837693
 20
11.03723799203357
 10
0.3644188493665808
 20
11.09400502979356
 10
0.3881209970731958
 20
11.19659987591223
 10
0.3972088972201902
 20
11.23590052090134
 10
0.5010600963702686
 20
11.39954507313218
 10
0.6049132028689798
 20
11.5631897445723
 10
0.7087672630420216
 20
11.72683441601243
 10
0.8126213232150634
 20
11.89047908745255
 10
1.061381546603735
 20
11.96373295746293
 10
1.239591328250463
 20
11.99999999962296
 10
1.697092739688419
 20
11.96364235840287
 10
2.771864799605902
 20
11.8412816222712
 10
3.846634952174719
 20
11.71892088613953
 10
4.921405104743538
 20
11.59656015000787
 10
5.458790181027948
 20
11.53537978194203
  0
DIMENSION
  5
E06
330
1F
100
AcDbEntity
  8
COTATION-JACOBDELAFON
100
AcDbDimension
  2
*D3
 10
-8.182211611693659
 20
11.99999999962297
 30
0.0000000001885098
 11
-10.58835076585464
 21
5.999999999811485
 31
0.0000000001885098
 70
    32
  3
COTATION-JACOB-DELAFON
100
AcDbAlignedDimension
 13
-0.0000000000000028
 23
0.0
 33
0.0000000001885098
 14
1.239591328250463
 24
11.99999999962296
 34
0.0000000001885072
 50
90.0
100
AcDbRotatedDimension
  0
LWPOLYLINE
  5
E07
330
1F
100
AcDbEntity
  8
0
100
AcDbPolyline
 90
       20
 70
     0
 43
0.0
 38
0.0000000001885093
 10
31.28079304406864
 20
2.243696689605714
 10
30.98192033479435
 20
1.815915107727052
 10
29.6558779210828
 20
1.878614902496339
 10
28.32983240792972
 20
1.941314697265626
 10
25.71937546441776
 20
1.877680778503419
 10
23.10892567346317
 20
1.814046859741213
 10
20.51245865533576
 20
1.617321014404299
 10
17.9159849614881
 20
1.814046859741213
 10
15.30552658746466
 20
1.877681255340578
 10
12.69507012078986
 20
1.941315174102785
 10
11.36902413079959
 20
1.87861490249634
 10
10.04298004815799
 20
1.81591320037842
 10
9.744108054139442
 20
2.243695735931399
 10
12.47195992181522
 20
2.372679710388186
 10
15.17546257684454
 20
2.443910598754885
 10
20.51245865533576
 20
2.039545059204103
 10
25.84944042871219
 20
2.443911075592042
 10
28.55293879220706
 20
2.372679233551027
 10
29.91686806390506
 20
2.30818796157837
 10
31.28079304406864
 20
2.243696689605714
  0
LWPOLYLINE
  5
E08
330
1F
100
AcDbEntity
  8
0
100
AcDbPolyline
 90
       21
 70
     0
 43
0.0
 38
0.0000000001885078
 10
0.2120802084079342
 20
9.041642367462781
 10
0.4707119146457273
 20
9.590220912913945
 10
2.316188541995552
 20
9.755648679654267
 10
4.02354368363529
 20
9.672934855888751
 10
5.730896917926367
 20
9.590220912913945
 10
7.482587787606574
 20
9.431835658659775
 10
9.995088431336764
 20
9.273450642635662
 10
12.62860045144784
 20
9.184627398660023
 10
15.26210961053595
 20
9.095802545358973
 10
17.88729080865608
 20
9.066793978025751
 10
20.51246056268436
 20
9.037781059553461
 10
23.13764605233893
 20
9.066794723083811
 10
25.76282295892462
 20
9.095805644800501
 10
28.39633545587288
 20
9.184628277828531
 10
31.02984795282114
 20
9.273450910856562
 10
33.54234204004032
 20
9.431836150398092
 10
35.29402336786017
 20
9.590221151521044
 10
37.00137791345344
 20
9.672935090770559
 10
38.7087324590467
 20
9.755649030020075
 10
40.55420670221076
 20
9.590221270730333
 10
40.81283936212287
 20
9.041641294767694
  0
ENDSEC
  0
SECTION
  2
OBJECTS
  0
DICTIONARY
  5
C
330
0
100
AcDbDictionary
  3
ACAD_GROUP
350
D
  3
ACAD_LAYOUT
350
1A
  3
ACAD_MLINESTYLE
350
17
  3
ACAD_PLOTSETTINGS
350
19
  3
ACAD_PLOTSTYLENAME
350
E
  3
ACDBHEADERROUNDTRIPXREC
350
FAD
  3
ACDBVARIABLEDICTIONARY
350
CCD
  3
AEC_PROPERTY_SET_DEFS
350
686
  0
DICTIONARY
  5
ECC
330
1F
100
AcDbDictionary
280
     1
  3
ACAD_LAYOUTSELFREF
360
FCF
  0
DICTIONARY
  5
ECE
330
1B
100
AcDbDictionary
280
     1
  3
ACAD_LAYOUTSELFREF
360
FCE
  0
DICTIONARY
  5
D
102
{ACAD_REACTORS
330
C
102
}
330
C
100
AcDbDictionary
  0
DICTIONARY
  5
1A
102
{ACAD_REACTORS
330
C
102
}
330
C
100
AcDbDictionary
  0
DICTIONARY
  5
17
102
{ACAD_REACTORS
330
C
102
}
330
C
100
AcDbDictionary
  3
STANDARD
350
18
  0
DICTIONARY
  5
19
102
{ACAD_REACTORS
330
C
102
}
330
C
100
AcDbDictionary
  0
ACDBDICTIONARYWDFLT
  5
E
102
{ACAD_REACTORS
330
C
102
}
330
C
100
AcDbDictionary
281
     1
  3
Normal
350
F
100
AcDbDictionaryWithDefault
340
F
  0
DICTIONARY
  5
FAD
102
{ACAD_REACTORS
330
C
102
}
330
C
100
AcDbDictionary
  3
CEPSNTYPE
350
FB7
  3
DIMSTYLEDATA
350
FBB
  3
FINGERPRINTGUID
350
FB8
  3
HYPERLINKBASE
350
FB0
  3
INSUNITS
350
FB6
  3
LAYOUTDICT
350
FB2
  3
LWETCUNION
350
FB5
  3
PLOTSETDICT
350
FB3
  3
PLOTSTYLNAMDICT
350
FB4
  3
PSVPSCALE
350
FBA
  3
PUCSBASE
350
FBE
  3
PUCSORGBACK
350
FC4
  3
PUCSORGBOTTOM
350
FC0
  3
PUCSORGFRONT
350
FC3
  3
PUCSORGLEFT
350
FC1
  3
PUCSORGRIGHT
350
FC2
  3
PUCSORGTOP
350
FBF
  3
PUCSORTHOREF
350
FBC
  3
PUCSORTHOVIEW
350
FBD
  3
STYLESHEET
350
FB1
  3
TSTACKALIGN
350
FAE
  3
TSTACKSIZE
350
FAF
  3
UCSBASE
350
FC7
  3
UCSORGBACK
350
FCD
  3
UCSORGBOTTOM
350
FC9
  3
UCSORGFRONT
350
FCC
  3
UCSORGLEFT
350
FCA
  3
UCSORGRIGHT
350
FCB
  3
UCSORGTOP
350
FC8
  3
UCSORTHOREF
350
FC5
  3
UCSORTHOVIEW
350
FC6
  3
VERSIONGUID
350
FB9
  0
DICTIONARY
  5
CCD
102
{ACAD_REACTORS
330
C
102
}
330
C
100
AcDbDictionary
  3
DIMASSOC
350
CCF
  3
HIDETEXT
350
CCE
  0
DICTIONARY
  5
686
102
{ACAD_REACTORS
330
C
102
}
330
C
100
AcDbDictionary
  0
XRECORD
  5
FCF
102
{ACAD_REACTORS
330
ECC
102
}
330
ECC
100
AcDbXrecord
340
1F
  0
XRECORD
  5
FCE
102
{ACAD_REACTORS
330
ECE
102
}
330
ECE
100
AcDbXrecord
340
1B
  0
MLINESTYLE
  5
18
102
{ACAD_REACTORS
330
17
102
}
330
17
100
AcDbMlineStyle
  2
STANDARD
 70
     0
  3

 62
   256
 51
90.0
 52
90.0
 71
     2
 49
0.5
 62
   256
  6
BYLAYER
 49
-0.5
 62
   256
  6
BYLAYER
  0
ACDBPLACEHOLDER
  5
F
102
{ACAD_REACTORS
330
E
102
}
330
E
100
AcDbPlaceHolder
280
     0
  0
XRECORD
  5
FB7
102
{ACAD_REACTORS
330
FAD
102
}
330
FAD
100
AcDbXrecord
 90
        0
  0
XRECORD
  5
FBB
102
{ACAD_REACTORS
330
FAD
102
}
330
FAD
100
AcDbXrecord
1000
DSTYLE
1002
{
1070
   278
 70
    44
1002
}
  0
XRECORD
  5
FB8
102
{ACAD_REACTORS
330
FAD
102
}
330
FAD
100
AcDbXrecord
  1
{F4247653-ECD5-4AFC-A68B-E586AF13A6A7}
  0
XRECORD
  5
FB0
102
{ACAD_REACTORS
330
FAD
102
}
330
FAD
100
AcDbXrecord
  1

  0
XRECORD
  5
FB6
102
{ACAD_REACTORS
330
FAD
102
}
330
FAD
100
AcDbXrecord
 90
        4
  0
XRECORD
  5
FB2
102
{ACAD_REACTORS
330
FAD
102
}
330
FAD
100
AcDbXrecord
340
1A
  0
XRECORD
  5
FB5
102
{ACAD_REACTORS
330
FAD
102
}
330
FAD
100
AcDbXrecord
 90
    10781
  0
XRECORD
  5
FB3
102
{ACAD_REACTORS
330
FAD
102
}
330
FAD
100
AcDbXrecord
340
19
  0
XRECORD
  5
FB4
102
{ACAD_REACTORS
330
FAD
102
}
330
FAD
100
AcDbXrecord
340
E
  0
XRECORD
  5
FBA
102
{ACAD_REACTORS
330
FAD
102
}
330
FAD
100
AcDbXrecord
 40
0.0
  0
XRECORD
  5
FBE
102
{ACAD_REACTORS
330
FAD
102
}
330
FAD
100
AcDbXrecord
340
0
  0
XRECORD
  5
FC4
102
{ACAD_REACTORS
330
FAD
102
}
330
FAD
100
AcDbXrecord
 10
0.0
 20
0.0
 30
0.0
  0
XRECORD
  5
FC0
102
{ACAD_REACTORS
330
FAD
102
}
330
FAD
100
AcDbXrecord
 10
0.0
 20
0.0
 30
0.0
  0
XRECORD
  5
FC3
102
{ACAD_REACTORS
330
FAD
102
}
330
FAD
100
AcDbXrecord
 10
0.0
 20
0.0
 30
0.0
  0
XRECORD
  5
FC1
102
{ACAD_REACTORS
330
FAD
102
}
330
FAD
100
AcDbXrecord
 10
0.0
 20
0.0
 30
0.0
  0
XRECORD
  5
FC2
102
{ACAD_REACTORS
330
FAD
102
}
330
FAD
100
AcDbXrecord
 10
0.0
 20
0.0
 30
0.0
  0
XRECORD
  5
FBF
102
{ACAD_REACTORS
330
FAD
102
}
330
FAD
100
AcDbXrecord
 10
0.0
 20
0.0
 30
0.0
  0
XRECORD
  5
FBC
102
{ACAD_REACTORS
330
FAD
102
}
330
FAD
100
AcDbXrecord
340
0
  0
XRECORD
  5
FBD
102
{ACAD_REACTORS
330
FAD
102
}
330
FAD
100
AcDbXrecord
 70
     0
  0
XRECORD
  5
FB1
102
{ACAD_REACTORS
330
FAD
102
}
330
FAD
100
AcDbXrecord
  1

  0
XRECORD
  5
FAE
102
{ACAD_REACTORS
330
FAD
102
}
330
FAD
100
AcDbXrecord
 90
        1
  0
XRECORD
  5
FAF
102
{ACAD_REACTORS
330
FAD
102
}
330
FAD
100
AcDbXrecord
 90
       70
  0
XRECORD
  5
FC7
102
{ACAD_REACTORS
330
FAD
102
}
330
FAD
100
AcDbXrecord
340
0
  0
XRECORD
  5
FCD
102
{ACAD_REACTORS
330
FAD
102
}
330
FAD
100
AcDbXrecord
 10
0.0
 20
0.0
 30
0.0
  0
XRECORD
  5
FC9
102
{ACAD_REACTORS
330
FAD
102
}
330
FAD
100
AcDbXrecord
 10
0.0
 20
0.0
 30
0.0
  0
XRECORD
  5
FCC
102
{ACAD_REACTORS
330
FAD
102
}
330
FAD
100
AcDbXrecord
 10
0.0
 20
0.0
 30
0.0
  0
XRECORD
  5
FCA
102
{ACAD_REACTORS
330
FAD
102
}
330
FAD
100
AcDbXrecord
 10
0.0
 20
0.0
 30
0.0
  0
XRECORD
  5
FCB
102
{ACAD_REACTORS
330
FAD
102
}
330
FAD
100
AcDbXrecord
 10
0.0
 20
0.0
 30
0.0
  0
XRECORD
  5
FC8
102
{ACAD_REACTORS
330
FAD
102
}
330
FAD
100
AcDbXrecord
 10
0.0
 20
0.0
 30
0.0
  0
XRECORD
  5
FC5
102
{ACAD_REACTORS
330
FAD
102
}
330
FAD
100
AcDbXrecord
340
0
  0
XRECORD
  5
FC6
102
{ACAD_REACTORS
330
FAD
102
}
330
FAD
100
AcDbXrecord
 70
     1
  0
XRECORD
  5
FB9
102
{ACAD_REACTORS
330
FAD
102
}
330
FAD
100
AcDbXrecord
  1
{9C8F24D2-E0D8-4106-9E48-BB548D7C5650}
  0
DICTIONARYVAR
  5
CCF
102
{ACAD_REACTORS
330
CCD
102
}
330
CCD
100
DictionaryVariables
280
     0
  1
2
  0
DICTIONARYVAR
  5
CCE
102
{ACAD_REACTORS
330
CCD
102
}
330
CCD
100
DictionaryVariables
280
     0
  1
1
  0
ENDSEC
  0
EOF
