  0
SECTION
  2
HEADER
  9
$ACADVER
  1
AC1018
  9
$ACADMAINTVER
 70
     0
  9
$DWGCODEPAGE
  3
ANSI_936
  9
$INSBASE
 10
0.0
 20
0.0
 30
0.0
  9
$EXTMIN
 10
19500.53707924385
 20
23972.19578797083
 30
0.0
  9
$EXTMAX
 10
20082.83106120834
 20
24651.4740092378
 30
0.0
  9
$LIMMIN
 10
0.0
 20
0.0
  9
$LIMMAX
 10
12.0
 20
9.0
  9
$ORTHOMODE
 70
     0
  9
$REGENMODE
 70
     1
  9
$FILLMODE
 70
     1
  9
$QTEXTMODE
 70
     0
  9
$MIRRTEXT
 70
     1
  9
$LTSCALE
 40
1.0
  9
$ATTMODE
 70
     1
  9
$TEXTSIZE
 40
0.2
  9
$TRACEWID
 40
0.05
  9
$TEXTSTYLE
  7
Standard
  9
$CLAYER
  8
EDA102
  9
$CELTYPE
  6
ByLayer
  9
$CECOLOR
 62
   256
  9
$CELTSCALE
 40
1.0
  9
$DISPSILH
 70
     0
  9
$DIMSCALE
 40
1.0
  9
$DIMASZ
 40
0.18
  9
$DIMEXO
 40
0.0625
  9
$DIMDLI
 40
0.38
  9
$DIMRND
 40
0.0
  9
$DIMDLE
 40
0.0
  9
$DIMEXE
 40
0.18
  9
$DIMTP
 40
0.0
  9
$DIMTM
 40
0.0
  9
$DIMTXT
 40
0.18
  9
$DIMCEN
 40
0.09
  9
$DIMTSZ
 40
0.0
  9
$DIMTOL
 70
     0
  9
$DIMLIM
 70
     0
  9
$DIMTIH
 70
     1
  9
$DIMTOH
 70
     1
  9
$DIMSE1
 70
     0
  9
$DIMSE2
 70
     0
  9
$DIMTAD
 70
     0
  9
$DIMZIN
 70
     0
  9
$DIMBLK
  1

  9
$DIMASO
 70
     1
  9
$DIMSHO
 70
     1
  9
$DIMPOST
  1

  9
$DIMAPOST
  1

  9
$DIMALT
 70
     0
  9
$DIMALTD
 70
     2
  9
$DIMALTF
 40
25.4
  9
$DIMLFAC
 40
1.0
  9
$DIMTOFL
 70
     0
  9
$DIMTVP
 40
0.0
  9
$DIMTIX
 70
     0
  9
$DIMSOXD
 70
     0
  9
$DIMSAH
 70
     0
  9
$DIMBLK1
  1

  9
$DIMBLK2
  1

  9
$DIMSTYLE
  2
Standard
  9
$DIMCLRD
 70
     0
  9
$DIMCLRE
 70
     0
  9
$DIMCLRT
 70
     0
  9
$DIMTFAC
 40
1.0
  9
$DIMGAP
 40
0.09
  9
$DIMJUST
 70
     0
  9
$DIMSD1
 70
     0
  9
$DIMSD2
 70
     0
  9
$DIMTOLJ
 70
     1
  9
$DIMTZIN
 70
     0
  9
$DIMALTZ
 70
     0
  9
$DIMALTTZ
 70
     0
  9
$DIMUPT
 70
     0
  9
$DIMDEC
 70
     4
  9
$DIMTDEC
 70
     4
  9
$DIMALTU
 70
     2
  9
$DIMALTTD
 70
     2
  9
$DIMTXSTY
  7
Standard
  9
$DIMAUNIT
 70
     0
  9
$DIMADEC
 70
     0
  9
$DIMALTRND
 40
0.0
  9
$DIMAZIN
 70
     0
  9
$DIMDSEP
 70
    46
  9
$DIMATFIT
 70
     3
  9
$DIMFRAC
 70
     0
  9
$DIMLDRBLK
  1

  9
$DIMLUNIT
 70
     2
  9
$DIMLWD
 70
    -2
  9
$DIMLWE
 70
    -2
  9
$DIMTMOVE
 70
     2
  9
$LUNITS
 70
     2
  9
$LUPREC
 70
     2
  9
$SKETCHINC
 40
0.1
  9
$FILLETRAD
 40
0.5
  9
$AUNITS
 70
     0
  9
$AUPREC
 70
     0
  9
$MENU
  1
.
  9
$ELEVATION
 40
0.0
  9
$PELEVATION
 40
0.0
  9
$THICKNESS
 40
0.0
  9
$LIMCHECK
 70
     0
  9
$CHAMFERA
 40
0.5
  9
$CHAMFERB
 40
0.5
  9
$CHAMFERC
 40
1.0
  9
$CHAMFERD
 40
0.0
  9
$SKPOLY
 70
     0
  9
$TDCREATE
 40
2456450.354116562
  9
$TDUCREATE
 40
2456450.270783229
  9
$TDUPDATE
 40
2456450.354116574
  9
$TDUUPDATE
 40
2456450.270783241
  9
$TDINDWG
 40
0.0000000116
  9
$TDUSRTIMER
 40
0.0000000116
  9
$USRTIMER
 70
     1
  9
$ANGBASE
 50
0.0
  9
$ANGDIR
 70
     0
  9
$PDMODE
 70
     0
  9
$PDSIZE
 40
0.0
  9
$PLINEWID
 40
0.0
  9
$SPLFRAME
 70
     0
  9
$SPLINETYPE
 70
     6
  9
$SPLINESEGS
 70
     8
  9
$HANDSEED
  5
B5
  9
$SURFTAB1
 70
     6
  9
$SURFTAB2
 70
     6
  9
$SURFTYPE
 70
     6
  9
$SURFU
 70
     6
  9
$SURFV
 70
     6
  9
$UCSBASE
  2

  9
$UCSNAME
  2

  9
$UCSORG
 10
0.0
 20
0.0
 30
0.0
  9
$UCSXDIR
 10
1.0
 20
0.0
 30
0.0
  9
$UCSYDIR
 10
0.0
 20
1.0
 30
0.0
  9
$UCSORTHOREF
  2

  9
$UCSORTHOVIEW
 70
     0
  9
$UCSORGTOP
 10
0.0
 20
0.0
 30
0.0
  9
$UCSORGBOTTOM
 10
0.0
 20
0.0
 30
0.0
  9
$UCSORGLEFT
 10
0.0
 20
0.0
 30
0.0
  9
$UCSORGRIGHT
 10
0.0
 20
0.0
 30
0.0
  9
$UCSORGFRONT
 10
0.0
 20
0.0
 30
0.0
  9
$UCSORGBACK
 10
0.0
 20
0.0
 30
0.0
  9
$PUCSBASE
  2

  9
$PUCSNAME
  2

  9
$PUCSORG
 10
0.0
 20
0.0
 30
0.0
  9
$PUCSXDIR
 10
1.0
 20
0.0
 30
0.0
  9
$PUCSYDIR
 10
0.0
 20
1.0
 30
0.0
  9
$PUCSORTHOREF
  2

  9
$PUCSORTHOVIEW
 70
     0
  9
$PUCSORGTOP
 10
0.0
 20
0.0
 30
0.0
  9
$PUCSORGBOTTOM
 10
0.0
 20
0.0
 30
0.0
  9
$PUCSORGLEFT
 10
0.0
 20
0.0
 30
0.0
  9
$PUCSORGRIGHT
 10
0.0
 20
0.0
 30
0.0
  9
$PUCSORGFRONT
 10
0.0
 20
0.0
 30
0.0
  9
$PUCSORGBACK
 10
0.0
 20
0.0
 30
0.0
  9
$USERI1
 70
     0
  9
$USERI2
 70
     0
  9
$USERI3
 70
     0
  9
$USERI4
 70
     0
  9
$USERI5
 70
     0
  9
$USERR1
 40
0.0
  9
$USERR2
 40
0.0
  9
$USERR3
 40
0.0
  9
$USERR4
 40
0.0
  9
$USERR5
 40
0.0
  9
$WORLDVIEW
 70
     1
  9
$SHADEDGE
 70
     3
  9
$SHADEDIF
 70
    70
  9
$TILEMODE
 70
     1
  9
$MAXACTVP
 70
    64
  9
$PINSBASE
 10
0.0
 20
0.0
 30
0.0
  9
$PLIMCHECK
 70
     0
  9
$PEXTMIN
 10
1.000000000000000E+20
 20
1.000000000000000E+20
 30
1.000000000000000E+20
  9
$PEXTMAX
 10
-1.000000000000000E+20
 20
-1.000000000000000E+20
 30
-1.000000000000000E+20
  9
$PLIMMIN
 10
0.0
 20
0.0
  9
$PLIMMAX
 10
12.0
 20
9.0
  9
$UNITMODE
 70
     0
  9
$VISRETAIN
 70
     1
  9
$PLINEGEN
 70
     0
  9
$PSLTSCALE
 70
     1
  9
$TREEDEPTH
 70
  3020
  9
$CMLSTYLE
  2
Standard
  9
$CMLJUST
 70
     0
  9
$CMLSCALE
 40
1.0
  9
$PROXYGRAPHICS
 70
     1
  9
$MEASUREMENT
 70
     0
  9
$CELWEIGHT
370
    -1
  9
$ENDCAPS
280
     0
  9
$JOINSTYLE
280
     0
  9
$LWDISPLAY
290
     0
  9
$INSUNITS
 70
     4
  9
$HYPERLINKBASE
  1

  9
$STYLESHEET
  1

  9
$XEDIT
290
     1
  9
$CEPSNTYPE
380
     0
  9
$PSTYLEMODE
290
     1
  9
$FINGERPRINTGUID
  2
{DFDE8562-6585-418A-8A85-C7757A813B6E}
  9
$VERSIONGUID
  2
{FAEB1C32-E019-11D5-929B-00C0DF256EC4}
  9
$EXTNAMES
290
     1
  9
$PSVPSCALE
 40
0.0
  9
$OLESTARTUP
290
     0
  9
$SORTENTS
280
   127
  9
$INDEXCTL
280
     0
  9
$HIDETEXT
280
     1
  9
$XCLIPFRAME
290
     0
  9
$HALOGAP
280
     0
  9
$OBSCOLOR
 70
   257
  9
$OBSLTYPE
280
     0
  9
$INTERSECTIONDISPLAY
280
     0
  9
$INTERSECTIONCOLOR
 70
   257
  9
$DIMASSOC
280
     2
  9
$PROJECTNAME
  1

  0
ENDSEC
  0
SECTION
  2
CLASSES
  0
CLASS
  1
ACDBDICTIONARYWDFLT
  2
AcDbDictionaryWithDefault
  3
ObjectDBX Classes
 90
        0
 91
        4
280
     0
281
     0
  0
CLASS
  1
VISUALSTYLE
  2
AcDbVisualStyle
  3
ObjectDBX Classes
 90
     4095
 91
        4
280
     0
281
     0
  0
CLASS
  1
SCALE
  2
AcDbScale
  3
ObjectDBX Classes
 90
     1153
 91
        4
280
     0
281
     0
  0
CLASS
  1
DICTIONARYVAR
  2
AcDbDictionaryVar
  3
ObjectDBX Classes
 90
        0
 91
        4
280
     0
281
     0
  0
ENDSEC
  0
SECTION
  2
TABLES
  0
TABLE
  2
VPORT
  5
8
330
0
100
AcDbSymbolTable
 70
     1
  0
VPORT
  5
29
330
8
100
AcDbSymbolTableRecord
100
AcDbViewportTableRecord
  2
*Active
 70
     0
 10
0.0
 20
0.0
 11
1.0
 21
1.0
 12
19791.6840702261
 22
24311.83489860431
 13
0.0
 23
0.0
 14
0.5
 24
0.5
 15
0.5
 25
0.5
 16
0.0
 26
0.0
 36
1.0
 17
0.0
 27
0.0
 37
0.0
 40
692.8637856923093
 41
0.857224571219755
 42
50.0
 43
0.0
 44
0.0
 50
0.0
 51
0.0
 71
     0
 72
   100
 73
     1
 74
     3
 75
     0
 76
     0
 77
     0
 78
     0
281
     0
 65
     1
110
0.0
120
0.0
130
0.0
111
1.0
121
0.0
131
0.0
112
0.0
122
1.0
132
0.0
 79
     0
146
0.0
  0
ENDTAB
  0
TABLE
  2
LTYPE
  5
5
330
0
100
AcDbSymbolTable
 70
     1
  0
LTYPE
  5
14
330
5
100
AcDbSymbolTableRecord
100
AcDbLinetypeTableRecord
  2
ByBlock
 70
     0
  3

 72
    65
 73
     0
 40
0.0
  0
LTYPE
  5
15
330
5
100
AcDbSymbolTableRecord
100
AcDbLinetypeTableRecord
  2
ByLayer
 70
     0
  3

 72
    65
 73
     0
 40
0.0
  0
LTYPE
  5
16
330
5
100
AcDbSymbolTableRecord
100
AcDbLinetypeTableRecord
  2
Continuous
 70
     0
  3
Solid line
 72
    65
 73
     0
 40
0.0
  0
ENDTAB
  0
TABLE
  2
LAYER
  5
2
330
0
100
AcDbSymbolTable
 70
     4
  0
LAYER
  5
10
330
2
100
AcDbSymbolTableRecord
100
AcDbLayerTableRecord
  2
0
 70
     0
 62
     7
  6
Continuous
370
    -3
390
F
  0
LAYER
  5
3B
330
2
100
AcDbSymbolTableRecord
100
AcDbLayerTableRecord
  2
EDA102
 70
     0
 62
     7
  6
Continuous
370
    -3
390
F
  0
LAYER
  5
61
330
2
100
AcDbSymbolTableRecord
100
AcDbLayerTableRecord
  2
Defpoints
 70
     0
 62
     7
  6
Continuous
290
     0
370
    -3
390
F
  0
LAYER
  5
7B
330
2
100
AcDbSymbolTableRecord
100
AcDbLayerTableRecord
  2
MAKE2D VISIBLE LINES
 70
     0
 62
     7
  6
Continuous
370
    -3
390
F
  0
ENDTAB
  0
TABLE
  2
STYLE
  5
3
330
0
100
AcDbSymbolTable
 70
     2
  0
STYLE
  5
11
330
3
100
AcDbSymbolTableRecord
100
AcDbTextStyleTableRecord
  2
Standard
 70
     0
 40
0.0
 41
1.0
 50
0.0
 71
     0
 42
0.2
  3
txt
  4

  0
STYLE
  5
5F
330
3
100
AcDbSymbolTableRecord
100
AcDbTextStyleTableRecord
  2
ARIAL
 70
     0
 40
0.0
 41
1.0
 50
0.0
 71
     0
 42
0.0
  3

  4

1001
ACAD
1000
Arial
1071
      256
  0
ENDTAB
  0
TABLE
  2
VIEW
  5
6
330
0
100
AcDbSymbolTable
 70
     0
  0
ENDTAB
  0
TABLE
  2
UCS
  5
7
330
0
100
AcDbSymbolTable
 70
     0
  0
ENDTAB
  0
TABLE
  2
APPID
  5
9
330
0
100
AcDbSymbolTable
 70
     1
  0
APPID
  5
12
330
9
100
AcDbSymbolTableRecord
100
AcDbRegAppTableRecord
  2
ACAD
 70
     0
  0
ENDTAB
  0
TABLE
  2
DIMSTYLE
  5
A
330
0
100
AcDbSymbolTable
 70
     2
100
AcDbDimStyleTable
  0
DIMSTYLE
105
27
330
A
100
AcDbSymbolTableRecord
100
AcDbDimStyleTableRecord
  2
Standard
 70
     0
340
11
  0
DIMSTYLE
105
60
102
{ACAD_REACTORS
330
3C
330
6E
102
}
330
A
100
AcDbSymbolTableRecord
100
AcDbDimStyleTableRecord
  2
DEFAULT
 70
     0
 41
1.0
 42
0.5
 44
0.5
 73
     0
 77
     1
 78
     1
140
20.0
141
0.5
172
     1
174
     1
179
     2
271
     2
284
     1
340
5F
  0
ENDTAB
  0
TABLE
  2
BLOCK_RECORD
  5
1
330
0
100
AcDbSymbolTable
 70
     3
  0
BLOCK_RECORD
  5
1F
330
1
100
AcDbSymbolTableRecord
100
AcDbBlockTableRecord
  2
*Model_Space
340
22
  0
BLOCK_RECORD
  5
1B
330
1
100
AcDbSymbolTableRecord
100
AcDbBlockTableRecord
  2
*Paper_Space
340
1E
  0
BLOCK_RECORD
  5
23
330
1
100
AcDbSymbolTableRecord
100
AcDbBlockTableRecord
  2
*Paper_Space0
340
26
  0
BLOCK_RECORD
  5
62
330
1
100
AcDbSymbolTableRecord
100
AcDbBlockTableRecord
  2
*D1
340
0
  0
BLOCK_RECORD
  5
6F
330
1
100
AcDbSymbolTableRecord
100
AcDbBlockTableRecord
  2
*D2
340
0
  0
ENDTAB
  0
ENDSEC
  0
SECTION
  2
BLOCKS
  0
BLOCK
  5
20
330
1F
100
AcDbEntity
  8
0
100
AcDbBlockBegin
  2
*Model_Space
 70
     0
 10
0.0
 20
0.0
 30
0.0
  3
*Model_Space
  1

  0
ENDBLK
  5
21
330
1F
100
AcDbEntity
  8
0
100
AcDbBlockEnd
  0
BLOCK
  5
1C
330
1B
100
AcDbEntity
 67
     1
  8
0
100
AcDbBlockBegin
  2
*Paper_Space
 70
     0
 10
0.0
 20
0.0
 30
0.0
  3
*Paper_Space
  1

  0
ENDBLK
  5
1D
330
1B
100
AcDbEntity
 67
     1
  8
0
100
AcDbBlockEnd
  0
BLOCK
  5
24
330
23
100
AcDbEntity
  8
0
100
AcDbBlockBegin
  2
*Paper_Space0
 70
     0
 10
0.0
 20
0.0
 30
0.0
  3
*Paper_Space0
  1

  0
ENDBLK
  5
25
330
23
100
AcDbEntity
  8
0
100
AcDbBlockEnd
  0
BLOCK
  5
6C
330
62
100
AcDbEntity
  8
0
100
AcDbBlockBegin
  2
*D1
 70
     1
 10
0.0
 20
0.0
 30
0.0
  3
*D1
  1

  0
LINE
  5
63
330
62
100
AcDbEntity
  8
EDA102
 62
     0
370
    -2
100
AcDbLine
 10
19690.83106120834
 20
24516.75598216338
 30
0.0
 11
20082.83106120834
 21
24516.75598216338
 31
0.0
  0
LINE
  5
64
330
62
100
AcDbEntity
  8
EDA102
 62
     0
370
    -2
100
AcDbLine
 10
19690.8310859101
 20
23972.19579619909
 30
0.0
 11
20082.83106120834
 21
23972.19579619909
 31
0.0
  0
LINE
  5
65
330
62
100
AcDbEntity
  8
EDA102
 62
     0
370
    -2
100
AcDbLine
 10
20082.33106120834
 20
24515.75598216338
 30
0.0
 11
20082.33106120834
 21
23973.19579619909
 31
0.0
  0
SOLID
  5
66
330
62
100
AcDbEntity
  8
EDA102
 62
     0
100
AcDbTrace
 10
20082.49772787501
 20
24515.75598216338
 30
0.0
 11
20082.16439454168
 21
24515.75598216338
 31
0.0
 12
20082.33106120834
 22
24516.75598216338
 32
0.0
 13
20082.33106120834
 23
24516.75598216338
 33
0.0
  0
SOLID
  5
67
330
62
100
AcDbEntity
  8
EDA102
 62
     0
100
AcDbTrace
 10
20082.16439454168
 20
23973.19579619909
 30
0.0
 11
20082.49772787501
 21
23973.19579619909
 31
0.0
 12
20082.33106120834
 22
23972.19579619909
 32
0.0
 13
20082.33106120834
 23
23972.19579619909
 33
0.0
  0
MTEXT
  5
68
330
62
100
AcDbEntity
  8
EDA102
 62
     0
100
AcDbMText
 10
20072.03106120834
 20
24244.47588918123
 30
0.0
 40
20.0
 41
0.0
 71
     5
 72
     1
  1
\A1;550^M^J
  7
ARIAL
 11
0.0
 21
1.0
 31
0.0
 73
     1
 44
1.0
  0
POINT
  5
69
330
62
100
AcDbEntity
  8
Defpoints
 62
     0
100
AcDbPoint
 10
19690.33106120834
 20
24516.75598216338
 30
0.0
  0
POINT
  5
6A
330
62
100
AcDbEntity
  8
Defpoints
 62
     0
100
AcDbPoint
 10
19690.3310859101
 20
23972.19579619909
 30
0.0
  0
POINT
  5
6B
330
62
100
AcDbEntity
  8
Defpoints
 62
     0
100
AcDbPoint
 10
20082.33106120834
 20
23972.19579619909
 30
0.0
  0
ENDBLK
  5
6D
330
62
100
AcDbEntity
  8
0
100
AcDbBlockEnd
  0
BLOCK
  5
79
330
6F
100
AcDbEntity
  8
0
100
AcDbBlockBegin
  2
*D2
 70
     1
 10
0.0
 20
0.0
 30
0.0
  3
*D2
  1

  0
LINE
  5
70
330
6F
100
AcDbEntity
  8
EDA102
 62
     0
370
    -2
100
AcDbLine
 10
19500.53707924385
 20
24184.4240092378
 30
0.0
 11
19500.53707924385
 21
24631.4240092378
 31
0.0
  0
LINE
  5
71
330
6F
100
AcDbEntity
  8
EDA102
 62
     0
370
    -2
100
AcDbLine
 10
19880.12420899633
 20
24183.85882594374
 30
0.0
 11
19880.12420899633
 21
24631.4240092378
 31
0.0
  0
LINE
  5
72
330
6F
100
AcDbEntity
  8
EDA102
 62
     0
370
    -2
100
AcDbLine
 10
19501.53707924385
 20
24630.9240092378
 30
0.0
 11
19879.12420899633
 21
24630.9240092378
 31
0.0
  0
SOLID
  5
73
330
6F
100
AcDbEntity
  8
EDA102
 62
     0
100
AcDbTrace
 10
19501.53707924385
 20
24631.09067590447
 30
0.0
 11
19501.53707924385
 21
24630.75734257113
 31
0.0
 12
19500.53707924385
 22
24630.9240092378
 32
0.0
 13
19500.53707924385
 23
24630.9240092378
 33
0.0
  0
SOLID
  5
74
330
6F
100
AcDbEntity
  8
EDA102
 62
     0
100
AcDbTrace
 10
19879.12420899633
 20
24630.75734257113
 30
0.0
 11
19879.12420899633
 21
24631.09067590447
 31
0.0
 12
19880.12420899633
 22
24630.9240092378
 32
0.0
 13
19880.12420899633
 23
24630.9240092378
 33
0.0
  0
MTEXT
  5
75
330
6F
100
AcDbEntity
  8
EDA102
 62
     0
100
AcDbMText
 10
19690.33064412009
 20
24641.2240092378
 30
0.0
 40
20.0
 41
0.0
 71
     5
 72
     1
  1
\A1;380
  7
ARIAL
 73
     1
 44
1.0
  0
POINT
  5
76
330
6F
100
AcDbEntity
  8
Defpoints
 62
     0
100
AcDbPoint
 10
19500.53707924385
 20
24183.9240092378
 30
0.0
  0
POINT
  5
77
330
6F
100
AcDbEntity
  8
Defpoints
 62
     0
100
AcDbPoint
 10
19880.12420899633
 20
24183.35882594374
 30
0.0
  0
POINT
  5
78
330
6F
100
AcDbEntity
  8
Defpoints
 62
     0
100
AcDbPoint
 10
19880.12420899633
 20
24630.9240092378
 30
0.0
  0
ENDBLK
  5
7A
330
6F
100
AcDbEntity
  8
0
100
AcDbBlockEnd
  0
ENDSEC
  0
SECTION
  2
ENTITIES
  0
DIMENSION
  5
3C
330
1F
100
AcDbEntity
  8
EDA102
100
AcDbDimension
  2
*D1
 10
20082.33106120834
 20
23972.19579619909
 30
0.0
 11
20072.03106120834
 21
24244.47588918123
 31
0.0
 70
    32
  1
550^M^J
 71
     5
 42
544.5601859642884
  3
DEFAULT
100
AcDbAlignedDimension
 13
19690.33106120834
 23
24516.75598216338
 33
0.0
 14
19690.3310859101
 24
23972.19579619909
 34
0.0
 50
90.0
100
AcDbRotatedDimension
1001
ACAD
1000
DSTYLE
1002
{
1070
   279
1070
     1
1002
}
  0
DIMENSION
  5
6E
330
1F
100
AcDbEntity
  8
EDA102
100
AcDbDimension
  2
*D2
 10
19880.12420899633
 20
24630.9240092378
 30
0.0
 11
19690.33064412009
 21
24641.2240092378
 31
0.0
 70
    32
  1
380
 71
     5
 42
379.5871297524864
  3
DEFAULT
100
AcDbAlignedDimension
 13
19500.53707924385
 23
24183.9240092378
 33
0.0
 14
19880.12420899633
 24
24183.35882594374
 34
0.0
100
AcDbRotatedDimension
1001
ACAD
1000
DSTYLE
1002
{
1070
   279
1070
     1
1002
}
  0
SPLINE
  5
7C
330
1F
100
AcDbEntity
  8
MAKE2D VISIBLE LINES
100
AcDbSpline
210
0.0
220
0.0
230
1.0
 70
     8
 71
     3
 72
    20
 73
    16
 74
     0
 42
0.0000000001
 43
0.0000000001
 40
0.0
 40
0.0
 40
0.0
 40
0.0
 40
6.163254815286042
 40
6.814232893907887
 40
6.911729710740332
 40
8.245935246820352
 40
10.53377734919416
 40
11.78138803764449
 40
12.90892156179915
 40
15.90648460107754
 40
16.69059175600383
 40
17.07846579218391
 40
17.41416961026761
 40
18.94462289940587
 40
27.93655938381248
 40
27.93655938381248
 40
27.93655938381248
 40
27.93655938381248
 10
19839.06145232791
 20
24447.36323580794
 30
0.0
 10
19839.06052147179
 20
24445.30884059302
 30
0.0
 10
19839.06307609475
 20
24443.03737001595
 30
0.0
 10
19839.06088118051
 20
24440.73350841104
 30
0.0
 10
19839.06503748173
 20
24440.0392413852
 30
0.0
 10
19839.20705981067
 20
24438.80184106665
 30
0.0
 10
19839.79783669544
 20
24437.267148813
 30
0.0
 10
19840.70856160135
 20
24435.99958797405
 30
0.0
 10
19841.9847285482
 20
24434.73462018879
 30
0.0
 10
19843.46793551018
 20
24433.95678600788
 30
0.0
 10
19844.82991519091
 20
24433.66798930099
 30
0.0
 10
19845.3286397798
 20
24433.60448180315
 30
0.0
 10
19846.07846539677
 20
24433.55520361855
 30
0.0
 10
19849.69043511786
 20
24433.32569275858
 30
0.0
 10
19853.19078293238
 20
24433.10061336667
 30
0.0
 10
19856.18207579821
 20
24432.91136278642
 30
0.0
  0
SPLINE
  5
7D
330
1F
100
AcDbEntity
  8
MAKE2D VISIBLE LINES
100
AcDbSpline
210
0.0
220
0.0
230
1.0
 70
    12
 71
     2
 72
     6
 73
     3
 74
     0
 42
0.0000000001
 43
0.0000000001
 40
0.0
 40
0.0
 40
0.0
 40
4.452590495073403
 40
4.452590495073403
 40
4.452590495073403
 10
19715.34661096373
 20
24438.95322017188
 30
0.0
 41
1.0
 10
19717.57232992358
 20
24438.90252204537
 30
0.0
 41
0.9999992949903024
 10
19719.79792220472
 20
24438.84653824047
 30
0.0
 41
1.0
  0
SPLINE
  5
7E
330
1F
100
AcDbEntity
  8
MAKE2D VISIBLE LINES
100
AcDbSpline
210
0.0
220
0.0
230
1.0
 70
    12
 71
     2
 72
     6
 73
     3
 74
     0
 42
0.0000000001
 43
0.0000000001
 40
0.0
 40
0.0
 40
0.0
 40
4.469664573832691
 40
4.469664573832691
 40
4.469664573832691
 10
19665.35413111092
 20
24438.95409764916
 30
0.0
 41
1.0
 10
19667.58838672836
 20
24439.00492491294
 30
0.0
 41
0.999999065342543
 10
19669.8227729776
 20
24439.04964251606
 30
0.0
 41
1.0
  0
SPLINE
  5
7F
330
1F
100
AcDbEntity
  8
MAKE2D VISIBLE LINES
100
AcDbSpline
210
0.0
220
0.0
230
1.0
 70
    12
 71
     2
 72
     6
 73
     3
 74
     0
 42
0.0000000001
 43
0.0000000001
 40
0.0
 40
0.0
 40
0.0
 40
9.850483218278267
 40
9.850483218278267
 40
9.850483218278267
 10
19610.90783612769
 20
24437.1390114911
 30
0.0
 41
1.0
 10
19605.98673280365
 20
24436.93711112678
 30
0.0
 41
0.999999481369302
 10
19601.06605094329
 20
24436.72518729101
 30
0.0
 41
1.0
  0
SPLINE
  5
80
330
1F
100
AcDbEntity
  8
MAKE2D VISIBLE LINES
100
AcDbSpline
210
0.0
220
0.0
230
1.0
 70
    12
 71
     2
 72
     6
 73
     3
 74
     0
 42
0.0000000001
 43
0.0000000001
 40
0.0
 40
0.0
 40
0.0
 40
9.84997360995838
 40
9.84997360995838
 40
9.84997360995838
 10
19769.75430747111
 20
24437.1390114903
 30
0.0
 41
1.0
 10
19774.67515620526
 20
24436.93712157957
 30
0.0
 41
0.9999994814203427
 10
19779.59558351878
 20
24436.72520920912
 30
0.0
 41
1.0
  0
SPLINE
  5
81
330
1F
100
AcDbEntity
  8
MAKE2D VISIBLE LINES
100
AcDbSpline
210
0.0
220
0.0
230
1.0
 70
    28
 71
     2
 72
     6
 73
     3
 74
     0
 42
0.0000000001
 43
0.0000000001
 40
0.0
 40
0.0
 40
0.0
 40
10.7892993841183
 40
10.7892993841183
 40
10.7892993841183
 10
19541.6015625
 20
24445.08807889465
 30
0.0
 41
1.0
 10
19541.60156652353
 20
24450.48272858671
 30
0.0
 41
1.0
 10
19541.60157054706
 20
24455.87737827877
 30
0.0
 41
1.0
  0
SPLINE
  5
82
330
1F
100
AcDbEntity
  8
MAKE2D VISIBLE LINES
100
AcDbSpline
210
0.0
220
0.0
230
1.0
 70
    28
 71
     2
 72
     6
 73
     3
 74
     0
 42
0.0000000001
 43
0.0000000001
 40
0.0
 40
0.0
 40
0.0
 40
34.41374205074413
 40
34.41374205074413
 40
34.41374205074413
 10
19541.60067749023
 20
24482.32832309222
 30
0.0
 41
1.0
 10
19541.60067758237
 20
24499.5351941176
 30
0.0
 41
1.0
 10
19541.60067767451
 20
24516.74206514297
 30
0.0
 41
1.0
  0
SPLINE
  5
83
330
1F
100
AcDbEntity
  8
MAKE2D VISIBLE LINES
100
AcDbSpline
210
0.0
220
0.0
230
1.0
 70
     8
 71
     3
 72
    15
 73
    11
 74
     0
 42
0.0000000001
 43
0.0000000001
 40
0.0
 40
0.0
 40
0.0
 40
0.0
 40
9.252581334708205
 40
10.2242833734701
 40
10.97281793981546
 40
14.28899810804224
 40
18.95133106901546
 40
20.67109826102205
 40
20.97117006159256
 40
25.19622974283687
 40
25.19622974283687
 40
25.19622974283687
 40
25.19622974283687
 10
19524.62192587081
 20
24432.91946525526
 30
0.0
 10
19527.70087183953
 20
24433.11079175534
 30
0.0
 10
19531.09956929098
 20
24433.34036688224
 30
0.0
 10
19534.75193104756
 20
24433.56251697399
 30
0.0
 10
19536.42533629444
 20
24433.68413318132
 30
0.0
 10
19539.22117132034
 20
24434.78700577574
 30
0.0
 10
19541.20779235101
 20
24437.54772258068
 30
0.0
 10
19541.58789134298
 20
24439.76758206228
 30
0.0
 10
19541.61793189958
 20
24441.84655360514
 30
0.0
 10
19541.58684551661
 20
24443.35797703565
 30
0.0
 10
19541.60068076634
 20
24444.76492046606
 30
0.0
  0
SPLINE
  5
84
330
1F
100
AcDbEntity
  8
MAKE2D VISIBLE LINES
100
AcDbSpline
210
0.0
220
0.0
230
1.0
 70
    12
 71
     2
 72
     6
 73
     3
 74
     0
 42
0.0000000001
 43
0.0000000001
 40
0.0
 40
0.0
 40
0.0
 40
4.435864407005636
 40
4.435864407005636
 40
4.435864407005636
 10
19719.8519037327
 20
24438.8451819349
 30
0.0
 41
1.0
 10
19722.06913546935
 20
24438.78941274042
 30
0.0
 41
0.9999994636727716
 10
19724.28624349515
 20
24438.7289240351
 30
0.0
 41
1.0
  0
SPLINE
  5
85
330
1F
100
AcDbEntity
  8
MAKE2D VISIBLE LINES
100
AcDbSpline
210
0.0
220
0.0
230
1.0
 70
    12
 71
     2
 72
     6
 73
     3
 74
     0
 42
0.0000000001
 43
0.0000000001
 40
0.0
 40
0.0
 40
0.0
 40
0.0693835660617008
 40
0.0693835660617008
 40
0.0693835660617008
 10
19724.28624349515
 20
24438.7289240351
 30
0.0
 41
1.0
 10
19724.32091895546
 20
24438.72785223633
 30
0.0
 41
0.9999999998886859
 10
19724.35560131723
 20
24438.72703442172
 30
0.0
 41
1.0
  0
SPLINE
  5
86
330
1F
100
AcDbEntity
  8
MAKE2D VISIBLE LINES
100
AcDbSpline
210
0.0
220
0.0
230
1.0
 70
    12
 71
     2
 72
     6
 73
     3
 74
     0
 42
0.0000000001
 43
0.0000000001
 40
0.0
 40
0.0
 40
0.0
 40
6.081807284078986
 40
6.081807284078986
 40
6.081807284078986
 10
19724.35560131723
 20
24438.72703442172
 30
0.0
 41
0.9999999999999909
 10
19727.39538014966
 20
24438.64427209783
 30
0.0
 41
0.9999991784904458
 10
19730.43492966182
 20
24438.55347720999
 30
0.0
 41
0.9999999999999956
  0
SPLINE
  5
87
330
1F
100
AcDbEntity
  8
MAKE2D VISIBLE LINES
100
AcDbSpline
210
0.0
220
0.0
230
1.0
 70
    12
 71
     2
 72
     6
 73
     3
 74
     0
 42
0.0000000001
 43
0.0000000001
 40
0.0
 40
0.0
 40
0.0
 40
0.0723379502784889
 40
0.0723379502784889
 40
0.0723379502784889
 10
19730.43492966182
 20
24438.55347720999
 30
0.0
 41
1.0
 10
19730.47107926849
 20
24438.55228876625
 30
0.0
 41
0.9999999998999216
 10
19730.50723552098
 20
24438.55132202372
 30
0.0
 41
1.0
  0
SPLINE
  5
88
330
1F
100
AcDbEntity
  8
MAKE2D VISIBLE LINES
100
AcDbSpline
210
0.0
220
0.0
230
1.0
 70
    12
 71
     2
 72
     6
 73
     3
 74
     0
 42
0.0000000001
 43
0.0000000001
 40
0.0
 40
0.0
 40
0.0
 40
12.22549914640895
 40
12.22549914640895
 40
12.22549914640895
 10
19730.50723552098
 20
24438.55132202372
 30
0.0
 41
1.0
 10
19736.61726052709
 20
24438.36852830433
 30
0.0
 41
0.999997763297619
 10
19742.72645382556
 20
24438.15977959979
 30
0.0
 41
1.0
  0
SPLINE
  5
89
330
1F
100
AcDbEntity
  8
MAKE2D VISIBLE LINES
100
AcDbSpline
210
0.0
220
0.0
230
1.0
 70
    12
 71
     2
 72
     6
 73
     3
 74
     0
 42
0.0000000001
 43
0.0000000001
 40
0.0
 40
0.0
 40
0.0
 40
7.054100094962342
 40
7.054100094962342
 40
7.054100094962342
 10
19617.39644059503
 20
24437.40048489677
 30
0.0
 41
1.0
 10
19620.92073628863
 20
24437.53986791721
 30
0.0
 41
0.9999996548537416
 10
19624.44525937118
 20
24437.67338000105
 30
0.0
 41
1.0
  0
SPLINE
  5
8A
330
1F
100
AcDbEntity
  8
MAKE2D VISIBLE LINES
100
AcDbSpline
210
0.0
220
0.0
230
1.0
 70
    12
 71
     2
 72
     6
 73
     3
 74
     0
 42
0.0000000001
 43
0.0000000001
 40
-0.1484714579014429
 40
-0.1484714579014429
 40
-0.1484714579014429
 40
0.0
 40
0.0
 40
0.0
 10
19624.44525937118
 20
24437.67338000105
 30
0.0
 41
1.0
 10
19624.51944257863
 20
24437.67617368693
 30
0.0
 41
0.9999999998252261
 10
19624.59362464765
 20
24437.67899492502
 30
0.0
 41
0.9999999999999998
  0
SPLINE
  5
8B
330
1F
100
AcDbEntity
  8
MAKE2D VISIBLE LINES
100
AcDbSpline
210
0.0
220
0.0
230
1.0
 70
    12
 71
     2
 72
     6
 73
     3
 74
     0
 42
0.0000000001
 43
0.0000000001
 40
0.0
 40
0.0
 40
0.0
 40
7.203553343744792
 40
7.203553343744792
 40
7.203553343744792
 10
19624.59362464765
 20
24437.67899492502
 30
0.0
 41
0.9999999999999916
 10
19628.19282375804
 20
24437.81526162897
 30
0.0
 41
0.9999995426949394
 10
19631.79228012642
 20
24437.94455473855
 30
0.0
 41
0.9999999999999996
  0
SPLINE
  5
8C
330
1F
100
AcDbEntity
  8
MAKE2D VISIBLE LINES
100
AcDbSpline
210
0.0
220
0.0
230
1.0
 70
    12
 71
     2
 72
     6
 73
     3
 74
     0
 42
0.0000000001
 43
0.0000000001
 40
-6.147179166095625
 40
-6.147179166095625
 40
-6.147179166095625
 40
0.0
 40
0.0
 40
0.0
 10
19631.79228012642
 20
24437.94455473855
 30
0.0
 41
0.9999999999999993
 10
19634.86388997925
 20
24438.05487680077
 30
0.0
 41
0.9999995928913268
 10
19637.93569059821
 20
24438.15975417018
 30
0.0
 41
1.0
  0
SPLINE
  5
8D
330
1F
100
AcDbEntity
  8
MAKE2D VISIBLE LINES
100
AcDbSpline
210
0.0
220
0.0
230
1.0
 70
    12
 71
     2
 72
     6
 73
     3
 74
     0
 42
0.0000000001
 43
0.0000000001
 40
0.0
 40
0.0
 40
0.0
 40
10.37855080911841
 40
10.37855080911841
 40
10.37855080911841
 10
19637.93569059821
 20
24438.15975417018
 30
0.0
 41
1.0
 10
19643.12194836918
 20
24438.33685746403
 30
0.0
 41
0.9999984523151886
 10
19648.30880041869
 20
24438.49560670307
 30
0.0
 41
1.0
  0
SPLINE
  5
8E
330
1F
100
AcDbEntity
  8
MAKE2D VISIBLE LINES
100
AcDbSpline
210
0.0
220
0.0
230
1.0
 70
    12
 71
     2
 72
     6
 73
     3
 74
     0
 42
0.0000000001
 43
0.0000000001
 40
-1.919286095491904
 40
-1.919286095491904
 40
-1.919286095491904
 40
0.0
 40
0.0
 40
0.0
 10
19648.30880041869
 20
24438.49560670307
 30
0.0
 41
1.0
 10
19649.26799938788
 20
24438.52480139882
 30
0.0
 41
0.9999999316427193
 10
19650.22721393698
 20
24438.55347721039
 30
0.0
 41
0.9999999999999984
  0
SPLINE
  5
8F
330
1F
100
AcDbEntity
  8
MAKE2D VISIBLE LINES
100
AcDbSpline
210
0.0
220
0.0
230
1.0
 70
    12
 71
     2
 72
     6
 73
     3
 74
     0
 42
0.0000000001
 43
0.0000000001
 40
0.0
 40
0.0
 40
0.0
 40
2.012485107917593
 40
2.012485107917593
 40
2.012485107917593
 10
19650.22721393698
 20
24438.55347721039
 30
0.0
 41
0.9999999999999984
 10
19651.23300637311
 20
24438.58357299373
 30
0.0
 41
0.9999999172420018
 10
19652.23883021352
 20
24438.61260038312
 30
0.0
 41
0.9999999999999998
  0
SPLINE
  5
90
330
1F
100
AcDbEntity
  8
MAKE2D VISIBLE LINES
100
AcDbSpline
210
0.0
220
0.0
230
1.0
 70
    12
 71
     2
 72
     6
 73
     3
 74
     0
 42
0.0000000001
 43
0.0000000001
 40
-4.138705187597525
 40
-4.138705187597525
 40
-4.138705187597525
 40
0.0
 40
0.0
 40
0.0
 10
19652.23883021352
 20
24438.61260038312
 30
0.0
 41
1.0
 10
19654.30731865535
 20
24438.67241570037
 30
0.0
 41
0.9999996272718645
 10
19656.37590010366
 20
24438.72892403544
 30
0.0
 41
1.0
  0
SPLINE
  5
91
330
1F
100
AcDbEntity
  8
MAKE2D VISIBLE LINES
100
AcDbSpline
210
0.0
220
0.0
230
1.0
 70
    12
 71
     2
 72
     6
 73
     3
 74
     0
 42
0.0000000001
 43
0.0000000001
 40
0.0
 40
0.0
 40
0.0
 40
0.9840834051630293
 40
0.9840834051630293
 40
0.9840834051630293
 10
19656.37590010366
 20
24438.72892403544
 30
0.0
 41
1.0
 10
19656.86775629087
 20
24438.74243543993
 30
0.0
 41
0.9999999752511655
 10
19657.35962464988
 20
24438.75549535934
 30
0.0
 41
0.9999999999999987
  0
SPLINE
  5
92
330
1F
100
AcDbEntity
  8
MAKE2D VISIBLE LINES
100
AcDbSpline
210
0.0
220
0.0
230
1.0
 70
    12
 71
     2
 72
     6
 73
     3
 74
     0
 42
0.0000000001
 43
0.0000000001
 40
-3.505779341885487
 40
-3.505779341885487
 40
-3.505779341885487
 40
0.0
 40
0.0
 40
0.0
 10
19657.35962464988
 20
24438.75549535934
 30
0.0
 41
0.9999999999999938
 10
19659.11188688427
 20
24438.80240629204
 30
0.0
 41
0.9999996535291101
 10
19660.86422176191
 20
24438.84652192653
 30
0.0
 41
1.0
  0
SPLINE
  5
93
330
1F
100
AcDbEntity
  8
MAKE2D VISIBLE LINES
100
AcDbSpline
210
0.0
220
0.0
230
1.0
 70
    12
 71
     2
 72
     6
 73
     3
 74
     0
 42
0.0000000001
 43
0.0000000001
 40
0.0
 40
0.0
 40
0.0
 40
1.61546208715284
 40
1.61546208715284
 40
1.61546208715284
 10
19660.86422176191
 20
24438.84652192653
 30
0.0
 41
1.0
 10
19661.67169787538
 20
24438.86681729503
 30
0.0
 41
0.9999999205390242
 10
19662.47919026852
 20
24438.88645254166
 30
0.0
 41
1.0
  0
SPLINE
  5
94
330
1F
100
AcDbEntity
  8
MAKE2D VISIBLE LINES
100
AcDbSpline
210
0.0
220
0.0
230
1.0
 70
    12
 71
     2
 72
     6
 73
     3
 74
     0
 42
0.0000000001
 43
0.0000000001
 40
0.0
 40
0.0
 40
0.0
 40
13.27248699917393
 40
13.27248699917393
 40
13.27248699917393
 10
19742.80465413906
 20
24438.15711256243
 30
0.0
 41
1.0
 10
19749.43703066022
 20
24437.93037431579
 30
0.0
 41
0.9999982765741465
 10
19756.06851895115
 20
24437.67899492436
 30
0.0
 41
0.9999999999999831
  0
SPLINE
  5
95
330
1F
100
AcDbEntity
  8
MAKE2D VISIBLE LINES
100
AcDbSpline
210
0.0
220
0.0
230
1.0
 70
    12
 71
     2
 72
     6
 73
     3
 74
     0
 42
0.0000000001
 43
0.0000000001
 40
0.0
 40
0.0
 40
0.0
 40
0.1484714579012573
 40
0.1484714579012573
 40
0.1484714579012573
 10
19756.06851895115
 20
24437.67899492436
 30
0.0
 41
0.9999999999999998
 10
19756.14270102017
 20
24437.67617368626
 30
0.0
 41
0.9999999998252262
 10
19756.21688422762
 20
24437.67338000039
 30
0.0
 41
1.0
  0
SPLINE
  5
96
330
1F
100
AcDbEntity
  8
MAKE2D VISIBLE LINES
100
AcDbSpline
210
0.0
220
0.0
230
1.0
 70
    12
 71
     2
 72
     6
 73
     3
 74
     0
 42
0.0000000001
 43
0.0000000001
 40
0.0
 40
0.0
 40
0.0
 40
7.054100089179723
 40
7.054100089179723
 40
7.054100089179723
 10
19756.21688422762
 20
24437.67338000039
 30
0.0
 41
1.0
 10
19759.74140720984
 20
24437.53986542131
 30
0.0
 41
0.9999996560891459
 10
19763.26570321383
 20
24437.40049039601
 30
0.0
 41
1.0
  0
SPLINE
  5
97
330
1F
100
AcDbEntity
  8
MAKE2D VISIBLE LINES
100
AcDbSpline
210
0.0
220
0.0
230
1.0
 70
    12
 71
     2
 72
     6
 73
     3
 74
     0
 42
0.0000000001
 43
0.0000000001
 40
0.0
 40
0.0
 40
0.0
 40
0.726200753491509
 40
0.726200753491509
 40
0.726200753491509
 10
19690.33107179941
 20
24439.28448337023
 30
0.0
 41
1.0
 10
19689.96797142006
 20
24439.2843797327
 30
0.0
 41
0.9999999281375521
 10
19689.60487010548
 20
24439.28400078355
 30
0.0
 41
1.0
  0
SPLINE
  5
98
330
1F
100
AcDbEntity
  8
MAKE2D VISIBLE LINES
100
AcDbSpline
210
0.0
220
0.0
230
1.0
 70
    12
 71
     2
 72
     6
 73
     3
 74
     0
 42
0.0000000001
 43
0.0000000001
 40
-5.881593623162233
 40
-5.881593623162233
 40
-5.881593623162233
 40
0.0
 40
0.0
 40
0.0
 10
19689.60487010548
 20
24439.28400078355
 30
0.0
 41
1.0
 10
19686.66406104394
 20
24439.28033527713
 30
0.0
 41
0.9999931569130811
 10
19683.72336071784
 20
24439.25491112091
 30
0.0
 41
1.0
  0
SPLINE
  5
99
330
1F
100
AcDbEntity
  8
MAKE2D VISIBLE LINES
100
AcDbSpline
210
0.0
220
0.0
230
1.0
 70
    12
 71
     2
 72
     6
 73
     3
 74
     0
 42
0.0000000001
 43
0.0000000001
 40
0.0
 40
0.0
 40
0.0
 40
1.611349273172478
 40
1.611349273172478
 40
1.611349273172478
 10
19706.3298304491
 20
24439.13293679249
 30
0.0
 41
1.0
 10
19707.1353900362
 20
24439.11931653943
 30
0.0
 41
0.9999998386560385
 10
19707.94093362929
 20
24439.10478108888
 30
0.0
 41
1.0
  0
SPLINE
  5
9A
330
1F
100
AcDbEntity
  8
MAKE2D VISIBLE LINES
100
AcDbSpline
210
0.0
220
0.0
230
1.0
 70
    12
 71
     2
 72
     6
 73
     3
 74
     0
 42
0.0000000001
 43
0.0000000001
 40
0.0
 40
0.0
 40
0.0
 40
2.898961850813649
 40
2.898961850813649
 40
2.898961850813649
 10
19707.94093362929
 20
24439.10478108888
 30
0.0
 41
1.0
 10
19709.390178982
 20
24439.07862409375
 30
0.0
 41
0.9999995260677036
 10
19710.83937063828
 20
24439.04964387175
 30
0.0
 41
1.0
  0
SPLINE
  5
9B
330
1F
100
AcDbEntity
  8
MAKE2D VISIBLE LINES
100
AcDbSpline
210
0.0
220
0.0
230
1.0
 70
    12
 71
     2
 72
     6
 73
     3
 74
     0
 42
0.0000000001
 43
0.0000000001
 40
0.0
 40
0.0
 40
0.0
 40
4.46966457383166
 40
4.46966457383166
 40
4.46966457383166
 10
19710.83937063828
 20
24439.04964387175
 30
0.0
 41
1.0
 10
19713.07375687045
 20
24439.00492491272
 30
0.0
 41
0.9999990653425428
 10
19715.30801248789
 20
24438.95409764892
 30
0.0
 41
1.0
  0
SPLINE
  5
9C
330
1F
100
AcDbEntity
  8
MAKE2D VISIBLE LINES
100
AcDbSpline
210
0.0
220
0.0
230
1.0
 70
    12
 71
     2
 72
     6
 73
     3
 74
     0
 42
0.0000000001
 43
0.0000000001
 40
0.0
 40
0.0
 40
0.0
 40
4.487098503274396
 40
4.487098503274396
 40
4.487098503274396
 10
19669.84598098532
 20
24439.05010618615
 30
0.0
 41
1.0
 10
19672.08908356345
 20
24439.09496104357
 30
0.0
 41
0.9999988244240633
 10
19674.33231323089
 20
24439.13293227219
 30
0.0
 41
1.0
  0
SPLINE
  5
9D
330
1F
100
AcDbEntity
  8
MAKE2D VISIBLE LINES
100
AcDbSpline
210
0.0
220
0.0
230
1.0
 70
    12
 71
     2
 72
     6
 73
     3
 74
     0
 42
0.0000000001
 43
0.0000000001
 40
-3.510259188724317
 40
-3.510259188724317
 40
-3.510259188724317
 40
0.0
 40
0.0
 40
0.0
 10
19674.33231323089
 20
24439.13293227219
 30
0.0
 41
1.0
 10
19676.08719239651
 20
24439.16264649223
 30
0.0
 41
0.9999990476541029
 10
19677.84214682587
 20
24439.18752128792
 30
0.0
 41
1.0
  0
SPLINE
  5
9E
330
1F
100
AcDbEntity
  8
MAKE2D VISIBLE LINES
100
AcDbSpline
210
0.0
220
0.0
230
1.0
 70
    12
 71
     2
 72
     6
 73
     3
 74
     0
 42
0.0000000001
 43
0.0000000001
 40
0.0
 40
0.0
 40
0.0
 40
1.50326003157071
 40
1.50326003157071
 40
1.50326003157071
 10
19677.84214682587
 20
24439.18752128792
 30
0.0
 41
1.0
 10
19678.59370176323
 20
24439.19815193704
 30
0.0
 41
0.9999997956363341
 10
19679.34526967895
 20
24439.20782161275
 30
0.0
 41
1.0
  0
SPLINE
  5
9F
330
1F
100
AcDbEntity
  8
MAKE2D VISIBLE LINES
100
AcDbSpline
210
0.0
220
0.0
230
1.0
 70
    12
 71
     2
 72
     6
 73
     3
 74
     0
 42
0.0000000001
 43
0.0000000001
 40
0.0
 40
0.0
 40
0.0
 40
61.18092907369871
 40
61.18092907369871
 40
61.18092907369871
 10
19839.06145340612
 20
24516.7420584828
 30
0.0
 41
1.0
 10
19839.06007074597
 20
24486.1515939564
 30
0.0
 41
0.9999999989798519
 10
19839.06145160617
 20
24455.56112942991
 30
0.0
 41
1.0
  0
SPLINE
  5
A0
330
1F
100
AcDbEntity
  8
MAKE2D VISIBLE LINES
100
AcDbSpline
210
0.0
220
0.0
230
1.0
 70
    12
 71
     2
 72
     6
 73
     3
 74
     0
 42
0.0000000001
 43
0.0000000001
 40
0.0
 40
0.0
 40
0.0
 40
2.559988728360637
 40
2.559988728360637
 40
2.559988728360637
 10
19839.06145160617
 20
24455.56112942991
 30
0.0
 41
1.0
 10
19839.06147163522
 20
24454.2811350658
 30
0.0
 41
0.9999999999088198
 10
19839.06145709396
 20
24453.00114070163
 30
0.0
 41
1.0
  0
SPLINE
  5
A1
330
1F
100
AcDbEntity
  8
EDA102
100
AcDbSpline
210
0.0
220
0.0
230
1.0
 70
     8
 71
     3
 72
    12
 73
     8
 74
     0
 42
0.0000000001
 43
0.0000000001
 40
0.0
 40
0.0
 40
0.0
 40
0.0
 40
1.17595691509679
 40
2.399813866472801
 40
4.859856919815777
 40
7.271719711761316
 40
9.67875195398483
 40
9.67875195398483
 40
9.67875195398483
 40
9.67875195398483
 10
19878.10169971819
 20
23978.44268266093
 30
0.0
 10
19878.05981478106
 20
23978.05320501006
 30
0.0
 10
19877.91078618109
 20
23977.26407330762
 30
0.0
 10
19877.33851650638
 20
23975.74244920954
 30
0.0
 10
19876.13648816367
 20
23974.0641730487
 30
0.0
 10
19874.1029406406
 20
23972.67663628484
 30
0.0
 10
19872.526703188
 20
23972.2598776999
 30
0.0
 10
19871.72677048235
 20
23972.19580442737
 30
0.0
  0
POLYLINE
  5
A2
330
1F
100
AcDbEntity
  8
EDA102
100
AcDb2dPolyline
 66
     1
 10
0.0
 20
0.0
 30
0.0
  0
VERTEX
  5
A3
330
A2
100
AcDbEntity
  8
EDA102
100
AcDbVertex
100
AcDb2dVertex
 10
19871.72677048235
 20
23972.19580442737
 30
0.0
  0
VERTEX
  5
A4
330
A2
100
AcDbEntity
  8
EDA102
100
AcDbVertex
100
AcDb2dVertex
 10
19508.93590371691
 20
23972.19578797083
 30
0.0
  0
SEQEND
  5
A5
330
A2
100
AcDbEntity
  8
EDA102
  0
SPLINE
  5
A6
330
1F
100
AcDbEntity
  8
EDA102
100
AcDbSpline
210
0.0
220
0.0
230
1.0
 70
    12
 71
     2
 72
     6
 73
     3
 74
     0
 42
0.0000000001
 43
0.0000000001
 40
0.0
 40
0.0
 40
0.0
 40
9.678864822076337
 40
9.678864822076337
 40
9.678864822076337
 10
19508.93590371691
 20
23972.19578797083
 30
0.0
 41
1.0
 10
19503.16207055098
 20
23972.67963371179
 30
0.0
 41
0.7702302666929626
 10
19502.56055260207
 20
23978.44239626859
 30
0.0
 41
1.0
  0
SPLINE
  5
A7
330
1F
100
AcDbEntity
  8
MAKE2D VISIBLE LINES
100
AcDbSpline
210
0.0
220
0.0
230
1.0
 70
     8
 71
     3
 72
    15
 73
    11
 74
     0
 42
0.0000000001
 43
0.0000000001
 40
0.0
 40
0.0
 40
0.0
 40
0.0
 40
2.720002829906976
 40
4.887247328019848
 40
5.859660449943847
 40
6.311743236126759
 40
6.401380465277868
 40
6.781469177508154
 40
6.954133525815458
 40
6.989476280329313
 40
6.989476280329313
 40
6.989476280329313
 40
6.989476280329313
 10
19546.4774682996
 20
24511.75598212188
 30
0.0
 10
19545.83948576726
 20
24512.40020990485
 30
0.0
 10
19544.68693803162
 20
24513.55150732823
 30
0.0
 10
19543.31504281813
 20
24514.94189267158
 30
0.0
 10
19542.48210151413
 20
24515.80187112065
 30
0.0
 10
19542.13333651215
 20
24516.16666952271
 30
0.0
 10
19541.91321626904
 20
24516.38133669635
 30
0.0
 10
19541.78621638933
 20
24516.55567771835
 30
0.0
 10
19541.64711586609
 20
24516.69305315152
 30
0.0
 10
19541.59660852344
 20
24516.74170223096
 30
0.0
 10
19541.60251462494
 20
24516.75598212009
 30
0.0
  0
SPLINE
  5
A8
330
1F
100
AcDbEntity
  8
MAKE2D VISIBLE LINES
100
AcDbSpline
210
0.0
220
0.0
230
1.0
 70
    24
 71
     2
 72
     6
 73
     3
 74
     0
 42
0.0000000001
 43
0.0000000001
 40
0.0
 40
0.0
 40
0.0
 40
148.7282957436607
 40
148.7282957436607
 40
148.7282957436607
 10
19541.60251462494
 20
24516.75598212009
 30
0.0
 10
19615.96678791664
 20
24516.75598214173
 30
0.0
 10
19690.33106120834
 20
24516.75598216338
 30
0.0
  0
SPLINE
  5
A9
330
1F
100
AcDbEntity
  8
MAKE2D VISIBLE LINES
100
AcDbSpline
210
0.0
220
0.0
230
1.0
 70
    24
 71
     2
 72
     6
 73
     3
 74
     0
 42
0.0000000001
 43
0.0000000001
 40
0.0
 40
0.0
 40
0.0
 40
148.7287974231567
 40
148.7287974231567
 40
148.7287974231567
 10
19690.33106120834
 20
24516.75598216338
 30
0.0
 10
19764.6954652157
 20
24516.75598214173
 30
0.0
 10
19839.05986922305
 20
24516.75598212009
 30
0.0
  0
SPLINE
  5
AA
330
1F
100
AcDbEntity
  8
MAKE2D VISIBLE LINES
100
AcDbSpline
210
0.0
220
0.0
230
1.0
 70
     8
 71
     3
 72
    14
 73
    10
 74
     0
 42
0.0000000001
 43
0.0000000001
 40
0.0
 40
0.0
 40
0.0
 40
0.0
 40
0.0353502918150756
 40
0.2080664059597566
 40
0.588268080485695
 40
0.6779322037320344
 40
1.129348131390338
 40
2.101162841394771
 40
6.988815523827233
 40
6.988815523827233
 40
6.988815523827233
 40
6.988815523827233
 10
19839.05986922305
 20
24516.75598212009
 30
0.0
 10
19839.06557148785
 20
24516.74169397481
 30
0.0
 10
19839.01504852062
 20
24516.69303148447
 30
0.0
 10
19838.8760207526
 20
24516.55550091789
 30
0.0
 10
19838.74892023173
 20
24516.38118588561
 30
0.0
 10
19838.52906164161
 20
24516.16649093643
 30
0.0
 10
19838.18037617785
 20
24515.80222369692
 30
0.0
 10
19836.71791027504
 20
24514.29006125055
 30
0.0
 10
19835.33270536449
 20
24512.91292319394
 30
0.0
 10
19834.18565514002
 20
24511.75598212189
 30
0.0
  0
SPLINE
  5
AB
330
1F
100
AcDbEntity
  8
MAKE2D VISIBLE LINES
100
AcDbSpline
210
0.0
220
0.0
230
1.0
 70
    12
 71
     2
 72
     6
 73
     3
 74
     0
 42
0.0000000001
 43
0.0000000001
 40
0.0
 40
0.0
 40
0.0
 40
3.760429115739828
 40
3.760429115739828
 40
3.760429115739828
 10
19506.29074238418
 20
23978.96840557598
 30
0.0
 41
1.0
 10
19504.41150558815
 20
23978.90765906261
 30
0.0
 41
0.999996968192953
 10
19502.53259075025
 20
23978.83765830273
 30
0.0
 41
1.0
  0
SPLINE
  5
AC
330
1F
100
AcDbEntity
  8
MAKE2D VISIBLE LINES
100
AcDbSpline
210
0.0
220
0.0
230
1.0
 70
     8
 71
     3
 72
    28
 73
    24
 74
     0
 42
0.0000000001
 43
0.0000000001
 40
0.0
 40
0.0
 40
0.0
 40
0.0
 40
0.0002719773350307
 40
22.82759236061683
 40
49.45131580011201
 40
98.6030904782134
 40
147.7549723879395
 40
205.0989692561708
 40
319.7880260374253
 40
403.7558710027719
 40
426.2808032345193
 40
438.5709547039943
 40
446.3342647001854
 40
446.4535544798819
 40
446.820604766973
 40
447.2067234506883
 40
447.8218960537939
 40
449.5833729364493
 40
450.7188860952095
 40
451.95910479011
 40
453.0070053014785
 40
454.3427081075814
 40
456.7408246424902
 40
456.7408246424902
 40
456.7408246424902
 40
456.7408246424902
 10
19502.53259075025
 20
23978.83765830273
 30
0.0
 10
19502.53209710023
 20
23978.83719833449
 30
0.0
 10
19502.38919210731
 20
23986.44502950376
 30
0.0
 10
19502.11217998306
 20
24002.92651595514
 30
0.0
 10
19501.61554825498
 20
24035.79035576807
 30
0.0
 10
19501.11682291243
 20
24077.42994246304
 30
0.0
 10
19500.69817571559
 20
24129.3108814193
 30
0.0
 10
19500.42129327143
 20
24203.03888881212
 30
0.0
 10
19500.69012736122
 20
24288.37299245159
 30
0.0
 10
19501.51192223607
 20
24362.09612053274
 30
0.0
 10
19502.12076200114
 20
24401.68575931
 30
0.0
 10
19502.35968303253
 20
24415.87654969355
 30
0.0
 10
19502.48112406049
 20
24422.5996924763
 30
0.0
 10
19502.53146636502
 20
24425.34912551932
 30
0.0
 10
19502.54791623721
 20
24425.63964067555
 30
0.0
 10
19502.60241037213
 20
24426.09265146418
 30
0.0
 10
19502.77498174651
 20
24426.99817853757
 30
0.0
 10
19503.1895715413
 20
24428.10300781599
 30
0.0
 10
19503.93102671408
 20
24429.27110959421
 30
0.0
 10
19504.69980978536
 20
24430.12067638035
 30
0.0
 10
19505.64764146745
 20
24430.87489736997
 30
0.0
 10
19507.05140690616
 20
24431.64513510824
 30
0.0
 10
19508.27946571592
 20
24431.93990295861
 30
0.0
 10
19509.07744017991
 20
24431.9901723146
 30
0.0
  0
SPLINE
  5
AD
330
1F
100
AcDbEntity
  8
MAKE2D VISIBLE LINES
100
AcDbSpline
210
0.0
220
0.0
230
1.0
 70
    12
 71
     3
 72
    13
 73
     9
 74
     0
 42
0.0000000001
 43
0.0000000001
 40
0.0003162594772664
 40
0.0003162594772664
 40
0.0003162594772664
 40
0.0003162594772664
 40
10.24000001240155
 40
10.24000001240155
 40
30.7200000146943
 40
30.7200000146943
 40
71.68000002204982
 40
108.2874147329153
 40
108.2874147329153
 40
108.2874147329153
 40
108.2874147329153
 10
19509.07744017991
 20
24431.9901723146
 30
0.0
 41
1.0
 10
19512.48234243579
 20
24432.20640614142
 30
0.0
 41
1.0
 10
19515.8754294693
 20
24432.41083120952
 30
0.0
 41
1.0
 10
19526.09342712021
 20
24433.00990339767
 30
0.0
 41
1.0
 10
19532.89774269223
 20
24433.38777036835
 30
0.0
 41
1.0
 10
19553.34152977089
 20
24434.48556816013
 30
0.0
 41
1.0
 10
19579.14981469108
 20
24435.77807984643
 30
0.0
 41
1.0
 10
19604.98793249265
 20
24436.90923072873
 30
0.0
 41
1.0
 10
19617.18088696756
 20
24437.39195633611
 30
0.0
 41
1.0
  0
SPLINE
  5
AE
330
1F
100
AcDbEntity
  8
MAKE2D VISIBLE LINES
100
AcDbSpline
210
0.0
220
0.0
230
1.0
 70
    12
 71
     3
 72
    13
 73
     9
 74
     0
 42
0.0000000001
 43
0.0000000001
 40
66.5579436423047
 40
66.5579436423047
 40
66.5579436423047
 40
66.5579436423047
 40
103.165326311605
 40
144.1253263189606
 40
144.1253263189606
 40
164.6053263212533
 40
164.6053263212533
 40
174.8450100741776
 40
174.8450100741776
 40
174.8450100741776
 40
174.8450100741776
 10
19763.48125685194
 20
24437.39196239983
 30
0.0
 41
1.0
 10
19775.67402917516
 20
24436.90927666843
 30
0.0
 41
1.0
 10
19801.51042664076
 20
24435.77852042597
 30
0.0
 41
1.0
 10
19827.32061382788
 20
24434.48556815875
 30
0.0
 41
1.0
 10
19847.76440090652
 20
24433.38777036678
 30
0.0
 41
1.0
 10
19854.56871647855
 20
24433.00990339603
 30
0.0
 41
1.0
 10
19864.78671412946
 20
24432.41083120777
 30
0.0
 41
1.0
 10
19868.17980116296
 20
24432.20640613963
 30
0.0
 41
1.0
 10
19871.58470341884
 20
24431.99017231278
 30
0.0
 41
1.0
  0
SPLINE
  5
AF
330
1F
100
AcDbEntity
  8
MAKE2D VISIBLE LINES
100
AcDbSpline
210
0.0
220
0.0
230
1.0
 70
     8
 71
     3
 72
    21
 73
    17
 74
     0
 42
0.0000000001
 43
0.0000000001
 40
0.0
 40
0.0
 40
0.0
 40
0.0
 40
2.382139555118886
 40
4.765685913620305
 40
6.317530219437669
 40
7.137607340458723
 40
8.862376787748305
 40
9.534436522321666
 40
9.934891044868428
 40
10.28730538764092
 40
10.40659516734034
 40
18.16990516350237
 40
28.41223620122462
 40
52.98498886472288
 40
456.6310070021188
 40
456.7403471254264
 40
456.7403471254264
 40
456.7403471254264
 40
456.7403471254264
 10
19871.58470341884
 20
24431.99017231278
 30
0.0
 10
19872.37723898545
 20
24431.94007581901
 30
0.0
 10
19873.94527900276
 20
24431.56640428544
 30
0.0
 10
19875.73897991551
 20
24430.40592886364
 30
0.0
 10
19876.78450165314
 20
24429.20111993283
 30
0.0
 10
19877.49513231893
 20
24428.03252661489
 30
0.0
 10
19877.87987808101
 20
24427.02265953341
 30
0.0
 10
19878.05848276276
 20
24426.10653628301
 30
0.0
 10
19878.11459160248
 20
24425.63466253566
 30
0.0
 10
19878.13066181077
 20
24425.34423743475
 30
0.0
 10
19878.18081394441
 20
24422.5997240281
 30
0.0
 10
19878.29055262081
 20
24416.55903913398
 30
0.0
 10
19878.53082953348
 20
24402.36826472692
 30
0.0
 10
19880.78896478242
 20
24256.23210437259
 30
0.0
 10
19880.55719936374
 20
24113.43731331986
 30
0.0
 10
19878.13175804041
 20
23978.87401974282
 30
0.0
 10
19878.12955285638
 20
23978.83765821704
 30
0.0
  0
SPLINE
  5
B0
330
1F
100
AcDbEntity
  8
MAKE2D VISIBLE LINES
100
AcDbSpline
210
0.0
220
0.0
230
1.0
 70
    12
 71
     2
 72
     6
 73
     3
 74
     0
 42
0.0000000001
 43
0.0000000001
 40
0.0
 40
0.0
 40
0.0
 40
2.824725534209832
 40
2.824725534209832
 40
2.824725534209832
 10
19878.12955285638
 20
23978.83765821704
 30
0.0
 41
1.0
 10
19876.71819946875
 20
23978.89113850437
 30
0.0
 41
0.99999626274843
 10
19875.30657475552
 20
23978.93690087849
 30
0.0
 41
1.0
  0
ENDSEC
  0
SECTION
  2
OBJECTS
  0
DICTIONARY
  5
C
330
0
100
AcDbDictionary
281
     1
  3
ACAD_GROUP
350
D
  3
ACAD_LAYOUT
350
1A
  3
ACAD_MLEADERSTYLE
350
B4
  3
ACAD_MLINESTYLE
350
17
  3
ACAD_PLOTSETTINGS
350
19
  3
ACAD_PLOTSTYLENAME
350
E
  3
ACAD_SCALELIST
350
3D
  3
ACAD_TABLESTYLE
350
B3
  3
ACAD_VISUALSTYLE
350
2A
  3
AcDbVariableDictionary
350
B1
  0
DICTIONARY
  5
D
102
{ACAD_REACTORS
330
C
102
}
330
C
100
AcDbDictionary
281
     1
  0
DICTIONARY
  5
1A
102
{ACAD_REACTORS
330
C
102
}
330
C
100
AcDbDictionary
281
     1
  3
Layout1
350
1E
  3
Layout2
350
26
  3
Model
350
22
  0
DICTIONARY
  5
B4
102
{ACAD_REACTORS
330
C
102
}
330
C
100
AcDbDictionary
281
     1
  0
DICTIONARY
  5
17
102
{ACAD_REACTORS
330
C
102
}
330
C
100
AcDbDictionary
281
     1
  3
Standard
350
18
  0
DICTIONARY
  5
19
102
{ACAD_REACTORS
330
C
102
}
330
C
100
AcDbDictionary
281
     1
  0
ACDBDICTIONARYWDFLT
  5
E
102
{ACAD_REACTORS
330
C
102
}
330
C
100
AcDbDictionary
281
     1
  3
Normal
350
F
100
AcDbDictionaryWithDefault
340
F
  0
DICTIONARY
  5
3D
102
{ACAD_REACTORS
330
C
102
}
330
C
100
AcDbDictionary
281
     1
  3
A0
350
3E
  3
A1
350
3F
  3
A2
350
40
  3
A3
350
41
  3
A4
350
42
  3
A5
350
43
  3
A6
350
44
  3
A7
350
45
  3
A8
350
46
  3
A9
350
47
  3
B0
350
48
  3
B1
350
49
  3
B2
350
4A
  3
B3
350
4B
  3
B4
350
4C
  3
B5
350
4D
  3
B6
350
4E
  3
B7
350
4F
  3
B8
350
50
  3
B9
350
51
  3
C0
350
52
  3
C1
350
53
  3
C2
350
54
  3
C3
350
55
  3
C4
350
56
  3
C5
350
57
  3
C6
350
58
  3
C7
350
59
  3
C8
350
5A
  3
C9
350
5B
  3
D0
350
5C
  3
D1
350
5D
  3
D2
350
5E
  0
DICTIONARY
  5
B3
102
{ACAD_REACTORS
330
C
102
}
330
C
100
AcDbDictionary
281
     1
  0
DICTIONARY
  5
2A
102
{ACAD_REACTORS
330
C
102
}
330
C
100
AcDbDictionary
281
     1
  3
2dWireframe
350
2F
  3
3D Hidden
350
31
  3
3dWireframe
350
30
  3
Basic
350
32
  3
Brighten
350
36
  3
ColorChange
350
3A
  3
Conceptual
350
34
  3
Dim
350
35
  3
Facepattern
350
39
  3
Flat
350
2B
  3
FlatWithEdges
350
2C
  3
Gouraud
350
2D
  3
GouraudWithEdges
350
2E
  3
Linepattern
350
38
  3
Realistic
350
33
  3
Thicken
350
37
  0
DICTIONARY
  5
B1
102
{ACAD_REACTORS
330
C
102
}
330
C
100
AcDbDictionary
281
     1
  3
CANNOSCALE
350
B2
  0
LAYOUT
  5
1E
102
{ACAD_REACTORS
330
1A
102
}
330
1A
100
AcDbPlotSettings
  1

  2
none_device
  4

  6

 40
0.0
 41
0.0
 42
0.0
 43
0.0
 44
0.0
 45
0.0
 46
0.0
 47
0.0
 48
0.0
 49
0.0
140
0.0
141
0.0
142
1.0
143
1.0
 70
   688
 72
     0
 73
     0
 74
     5
  7

 75
    16
 76
     0
 77
     2
 78
   300
147
1.0
148
0.0
149
0.0
100
AcDbLayout
  1
Layout1
 70
     1
 71
     1
 10
0.0
 20
0.0
 11
12.0
 21
9.0
 12
0.0
 22
0.0
 32
0.0
 14
1.000000000000000E+20
 24
1.000000000000000E+20
 34
1.000000000000000E+20
 15
-1.000000000000000E+20
 25
-1.000000000000000E+20
 35
-1.000000000000000E+20
146
0.0
 13
0.0
 23
0.0
 33
0.0
 16
1.0
 26
0.0
 36
0.0
 17
0.0
 27
1.0
 37
0.0
 76
     0
330
1B
  0
LAYOUT
  5
26
102
{ACAD_REACTORS
330
1A
102
}
330
1A
100
AcDbPlotSettings
  1

  2
none_device
  4

  6

 40
0.0
 41
0.0
 42
0.0
 43
0.0
 44
0.0
 45
0.0
 46
0.0
 47
0.0
 48
0.0
 49
0.0
140
0.0
141
0.0
142
1.0
143
1.0
 70
   688
 72
     0
 73
     0
 74
     5
  7

 75
    16
 76
     0
 77
     2
 78
   300
147
1.0
148
0.0
149
0.0
100
AcDbLayout
  1
Layout2
 70
     1
 71
     2
 10
0.0
 20
0.0
 11
0.0
 21
0.0
 12
0.0
 22
0.0
 32
0.0
 14
0.0
 24
0.0
 34
0.0
 15
0.0
 25
0.0
 35
0.0
146
0.0
 13
0.0
 23
0.0
 33
0.0
 16
1.0
 26
0.0
 36
0.0
 17
0.0
 27
1.0
 37
0.0
 76
     0
330
23
  0
LAYOUT
  5
22
102
{ACAD_REACTORS
330
1A
102
}
330
1A
100
AcDbPlotSettings
  1

  2
none_device
  4

  6

 40
0.0
 41
0.0
 42
0.0
 43
0.0
 44
0.0
 45
0.0
 46
0.0
 47
0.0
 48
0.0
 49
0.0
140
0.0
141
0.0
142
1.0
143
1.0
 70
  1712
 72
     0
 73
     0
 74
     0
  7

 75
     0
 76
     0
 77
     2
 78
   300
147
1.0
148
0.0
149
0.0
100
AcDbLayout
  1
Model
 70
     1
 71
     0
 10
0.0
 20
0.0
 11
12.0
 21
9.0
 12
0.0
 22
0.0
 32
0.0
 14
19500.53707924385
 24
23972.19578797083
 34
0.0
 15
20082.83106120834
 25
24651.4740092378
 35
0.0
146
0.0
 13
0.0
 23
0.0
 33
0.0
 16
1.0
 26
0.0
 36
0.0
 17
0.0
 27
1.0
 37
0.0
 76
     0
330
1F
331
29
  0
MLINESTYLE
  5
18
102
{ACAD_REACTORS
330
17
102
}
330
17
100
AcDbMlineStyle
  2
Standard
 70
     0
  3

 62
   256
 51
90.0
 52
90.0
 71
     2
 49
0.5
 62
   256
  6
BYLAYER
 49
-0.5
 62
   256
  6
BYLAYER
  0
ACDBPLACEHOLDER
  5
F
102
{ACAD_REACTORS
330
E
102
}
330
E
  0
SCALE
  5
3E
102
{ACAD_REACTORS
330
3D
102
}
330
3D
100
AcDbScale
 70
     0
300
1:1
140
1.0
141
1.0
290
     1
  0
SCALE
  5
3F
102
{ACAD_REACTORS
330
3D
102
}
330
3D
100
AcDbScale
 70
     0
300
1:2
140
1.0
141
2.0
290
     0
  0
SCALE
  5
40
102
{ACAD_REACTORS
330
3D
102
}
330
3D
100
AcDbScale
 70
     0
300
1:4
140
1.0
141
4.0
290
     0
  0
SCALE
  5
41
102
{ACAD_REACTORS
330
3D
102
}
330
3D
100
AcDbScale
 70
     0
300
1:5
140
1.0
141
5.0
290
     0
  0
SCALE
  5
42
102
{ACAD_REACTORS
330
3D
102
}
330
3D
100
AcDbScale
 70
     0
300
1:8
140
1.0
141
8.0
290
     0
  0
SCALE
  5
43
102
{ACAD_REACTORS
330
3D
102
}
330
3D
100
AcDbScale
 70
     0
300
1:10
140
1.0
141
10.0
290
     0
  0
SCALE
  5
44
102
{ACAD_REACTORS
330
3D
102
}
330
3D
100
AcDbScale
 70
     0
300
1:16
140
1.0
141
16.0
290
     0
  0
SCALE
  5
45
102
{ACAD_REACTORS
330
3D
102
}
330
3D
100
AcDbScale
 70
     0
300
1:20
140
1.0
141
20.0
290
     0
  0
SCALE
  5
46
102
{ACAD_REACTORS
330
3D
102
}
330
3D
100
AcDbScale
 70
     0
300
1:30
140
1.0
141
30.0
290
     0
  0
SCALE
  5
47
102
{ACAD_REACTORS
330
3D
102
}
330
3D
100
AcDbScale
 70
     0
300
1:40
140
1.0
141
40.0
290
     0
  0
SCALE
  5
48
102
{ACAD_REACTORS
330
3D
102
}
330
3D
100
AcDbScale
 70
     0
300
1:50
140
1.0
141
50.0
290
     0
  0
SCALE
  5
49
102
{ACAD_REACTORS
330
3D
102
}
330
3D
100
AcDbScale
 70
     0
300
1:100
140
1.0
141
100.0
290
     0
  0
SCALE
  5
4A
102
{ACAD_REACTORS
330
3D
102
}
330
3D
100
AcDbScale
 70
     0
300
2:1
140
2.0
141
1.0
290
     0
  0
SCALE
  5
4B
102
{ACAD_REACTORS
330
3D
102
}
330
3D
100
AcDbScale
 70
     0
300
4:1
140
4.0
141
1.0
290
     0
  0
SCALE
  5
4C
102
{ACAD_REACTORS
330
3D
102
}
330
3D
100
AcDbScale
 70
     0
300
8:1
140
8.0
141
1.0
290
     0
  0
SCALE
  5
4D
102
{ACAD_REACTORS
330
3D
102
}
330
3D
100
AcDbScale
 70
     0
300
10:1
140
10.0
141
1.0
290
     0
  0
SCALE
  5
4E
102
{ACAD_REACTORS
330
3D
102
}
330
3D
100
AcDbScale
 70
     0
300
100:1
140
100.0
141
1.0
290
     0
  0
SCALE
  5
4F
102
{ACAD_REACTORS
330
3D
102
}
330
3D
100
AcDbScale
 70
     0
300
1/128" = 1'-0"
140
0.0078125
141
12.0
290
     0
  0
SCALE
  5
50
102
{ACAD_REACTORS
330
3D
102
}
330
3D
100
AcDbScale
 70
     0
300
1/64" = 1'-0"
140
0.015625
141
12.0
290
     0
  0
SCALE
  5
51
102
{ACAD_REACTORS
330
3D
102
}
330
3D
100
AcDbScale
 70
     0
300
1/32" = 1'-0"
140
0.03125
141
12.0
290
     0
  0
SCALE
  5
52
102
{ACAD_REACTORS
330
3D
102
}
330
3D
100
AcDbScale
 70
     0
300
1/16" = 1'-0"
140
0.0625
141
12.0
290
     0
  0
SCALE
  5
53
102
{ACAD_REACTORS
330
3D
102
}
330
3D
100
AcDbScale
 70
     0
300
3/32" = 1'-0"
140
0.09375
141
12.0
290
     0
  0
SCALE
  5
54
102
{ACAD_REACTORS
330
3D
102
}
330
3D
100
AcDbScale
 70
     0
300
1/8" = 1'-0"
140
0.125
141
12.0
290
     0
  0
SCALE
  5
55
102
{ACAD_REACTORS
330
3D
102
}
330
3D
100
AcDbScale
 70
     0
300
3/16" = 1'-0"
140
0.1875
141
12.0
290
     0
  0
SCALE
  5
56
102
{ACAD_REACTORS
330
3D
102
}
330
3D
100
AcDbScale
 70
     0
300
1/4" = 1'-0"
140
0.25
141
12.0
290
     0
  0
SCALE
  5
57
102
{ACAD_REACTORS
330
3D
102
}
330
3D
100
AcDbScale
 70
     0
300
3/8" = 1'-0"
140
0.375
141
12.0
290
     0
  0
SCALE
  5
58
102
{ACAD_REACTORS
330
3D
102
}
330
3D
100
AcDbScale
 70
     0
300
1/2" = 1'-0"
140
0.5
141
12.0
290
     0
  0
SCALE
  5
59
102
{ACAD_REACTORS
330
3D
102
}
330
3D
100
AcDbScale
 70
     0
300
3/4" = 1'-0"
140
0.75
141
12.0
290
     0
  0
SCALE
  5
5A
102
{ACAD_REACTORS
330
3D
102
}
330
3D
100
AcDbScale
 70
     0
300
1" = 1'-0"
140
1.0
141
12.0
290
     0
  0
SCALE
  5
5B
102
{ACAD_REACTORS
330
3D
102
}
330
3D
100
AcDbScale
 70
     0
300
1-1/2" = 1'-0"
140
1.5
141
12.0
290
     0
  0
SCALE
  5
5C
102
{ACAD_REACTORS
330
3D
102
}
330
3D
100
AcDbScale
 70
     0
300
3" = 1'-0"
140
3.0
141
12.0
290
     0
  0
SCALE
  5
5D
102
{ACAD_REACTORS
330
3D
102
}
330
3D
100
AcDbScale
 70
     0
300
6" = 1'-0"
140
6.0
141
12.0
290
     0
  0
SCALE
  5
5E
102
{ACAD_REACTORS
330
3D
102
}
330
3D
100
AcDbScale
 70
     0
300
1'-0" = 1'-0"
140
12.0
141
12.0
290
     0
  0
VISUALSTYLE
  5
2F
102
{ACAD_REACTORS
330
2A
102
}
330
2A
100
AcDbVisualStyle
  2
2dWireframe
 70
     4
 71
     0
 72
     2
 73
     0
 90
        0
 40
-0.6
 41
-30.0
 62
     5
 63
     7
421
 16777215
 74
     1
 91
        4
 64
     7
 65
   257
 75
     1
175
     1
 42
1.0
 92
        0
 66
   257
 43
1.0
 76
     1
 77
     6
 78
     2
 67
     7
 79
     5
170
     0
171
     0
290
     0
174
     0
 93
        1
 44
0.0
173
     0
291
     0
 45
0.0
1001
ACAD
1000
AcDbSavedByObjectVersion
1070
     0
  0
VISUALSTYLE
  5
31
102
{ACAD_REACTORS
330
2A
102
}
330
2A
100
AcDbVisualStyle
  2
3D Hidden
 70
     6
 71
     1
 72
     2
 73
     2
 90
        0
 40
-0.6
 41
-30.0
 62
     5
 63
     7
421
 16777215
 74
     2
 91
        2
 64
     7
 65
   257
 75
     2
175
     1
 42
40.0
 92
        0
 66
   257
 43
1.0
 76
     1
 77
     6
 78
     2
 67
     7
 79
     3
170
     0
171
     0
290
     0
174
     0
 93
        1
 44
0.0
173
     0
291
     0
 45
0.0
1001
ACAD
1000
AcDbSavedByObjectVersion
1070
     0
  0
VISUALSTYLE
  5
30
102
{ACAD_REACTORS
330
2A
102
}
330
2A
100
AcDbVisualStyle
  2
3dWireframe
 70
     5
 71
     0
 72
     2
 73
     0
 90
        0
 40
-0.6
 41
-30.0
 62
     5
 63
     7
421
 16777215
 74
     1
 91
        4
 64
     7
 65
   257
 75
     1
175
     1
 42
1.0
 92
        0
 66
   257
 43
1.0
 76
     1
 77
     6
 78
     2
 67
     7
 79
     5
170
     0
171
     0
290
     0
174
     0
 93
        1
 44
0.0
173
     0
291
     0
 45
0.0
1001
ACAD
1000
AcDbSavedByObjectVersion
1070
     0
  0
VISUALSTYLE
  5
32
102
{ACAD_REACTORS
330
2A
102
}
330
2A
100
AcDbVisualStyle
  2
Basic
 70
     7
 71
     1
 72
     0
 73
     1
 90
        0
 40
-0.6
 41
-30.0
 62
     5
 63
     7
421
 16777215
 74
     0
 91
        4
 64
     7
 65
   257
 75
     1
175
     1
 42
1.0
 92
        8
 66
     7
 43
1.0
 76
     1
 77
     6
 78
     2
 67
     7
 79
     5
170
     0
171
     0
290
     0
174
     0
 93
        1
 44
0.0
173
     0
291
     1
 45
0.0
1001
ACAD
1000
AcDbSavedByObjectVersion
1070
     0
  0
VISUALSTYLE
  5
36
102
{ACAD_REACTORS
330
2A
102
}
330
2A
100
AcDbVisualStyle
  2
Brighten
 70
    12
 71
     2
 72
     2
 73
     0
 90
        0
 40
-0.6
 41
-30.0
 62
     5
 63
     7
421
 16777215
 74
     1
 91
        4
 64
     7
 65
   257
 75
     1
175
     1
 42
1.0
 92
        8
 66
     7
 43
1.0
 76
     1
 77
     6
 78
     2
 67
     7
 79
     5
170
     0
171
     0
290
     0
174
     0
 93
        1
 44
50.0
173
     0
291
     1
 45
0.0
1001
ACAD
1000
AcDbSavedByObjectVersion
1070
     0
  0
VISUALSTYLE
  5
3A
102
{ACAD_REACTORS
330
2A
102
}
330
2A
100
AcDbVisualStyle
  2
ColorChange
 70
    16
 71
     2
 72
     2
 73
     3
 90
        0
 40
-0.6
 41
-30.0
 62
     5
 63
     8
421
  8421504
 74
     1
 91
        4
 64
     7
 65
   257
 75
     1
175
     1
 42
1.0
 92
        8
 66
     8
424
  8421504
 43
1.0
 76
     1
 77
     6
 78
     2
 67
     7
 79
     5
170
     0
171
     0
290
     0
174
     0
 93
        1
 44
0.0
173
     0
291
     1
 45
0.0
1001
ACAD
1000
AcDbSavedByObjectVersion
1070
     0
  0
VISUALSTYLE
  5
34
102
{ACAD_REACTORS
330
2A
102
}
330
2A
100
AcDbVisualStyle
  2
Conceptual
 70
     9
 71
     3
 72
     2
 73
     0
 90
        0
 40
-0.6
 41
-30.0
 62
     5
 63
     7
421
 16777215
 74
     2
 91
        2
 64
     7
 65
   257
 75
     1
175
     1
 42
40.0
 92
        8
 66
     7
 43
1.0
 76
     1
 77
     6
 78
     2
 67
     7
 79
     3
170
     0
171
     0
290
     0
174
     0
 93
        1
 44
0.0
173
     0
291
     0
 45
0.0
1001
ACAD
1000
AcDbSavedByObjectVersion
1070
     0
  0
VISUALSTYLE
  5
35
102
{ACAD_REACTORS
330
2A
102
}
330
2A
100
AcDbVisualStyle
  2
Dim
 70
    11
 71
     2
 72
     2
 73
     0
 90
        0
 40
-0.6
 41
-30.0
 62
     5
 63
     7
421
 16777215
 74
     1
 91
        4
 64
     7
 65
   257
 75
     1
175
     1
 42
1.0
 92
        8
 66
     7
 43
1.0
 76
     1
 77
     6
 78
     2
 67
     7
 79
     5
170
     0
171
     0
290
     0
174
     0
 93
        1
 44
-50.0
173
     0
291
     1
 45
0.0
1001
ACAD
1000
AcDbSavedByObjectVersion
1070
     0
  0
VISUALSTYLE
  5
39
102
{ACAD_REACTORS
330
2A
102
}
330
2A
100
AcDbVisualStyle
  2
Facepattern
 70
    15
 71
     2
 72
     2
 73
     0
 90
        0
 40
-0.6
 41
-30.0
 62
     5
 63
     7
421
 16777215
 74
     1
 91
        4
 64
     7
 65
   257
 75
     1
175
     1
 42
1.0
 92
        8
 66
     7
 43
1.0
 76
     1
 77
     6
 78
     2
 67
     7
 79
     5
170
     0
171
     0
290
     0
174
     0
 93
        1
 44
0.0
173
     0
291
     1
 45
0.0
1001
ACAD
1000
AcDbSavedByObjectVersion
1070
     0
  0
VISUALSTYLE
  5
2B
102
{ACAD_REACTORS
330
2A
102
}
330
2A
100
AcDbVisualStyle
  2
Flat
 70
     0
 71
     2
 72
     1
 73
     1
 90
        2
 40
-0.6
 41
30.0
 62
     5
 63
     7
421
 16777215
 74
     0
 91
        4
 64
     7
 65
   257
 75
     1
175
     1
 42
1.0
 92
        8
 66
     7
 43
1.0
 76
     1
 77
     6
 78
     2
 67
     7
 79
     5
170
     0
171
     0
290
     0
174
     0
 93
       13
 44
0.0
173
     0
291
     1
 45
0.0
1001
ACAD
1000
AcDbSavedByObjectVersion
1070
     0
  0
VISUALSTYLE
  5
2C
102
{ACAD_REACTORS
330
2A
102
}
330
2A
100
AcDbVisualStyle
  2
FlatWithEdges
 70
     1
 71
     2
 72
     1
 73
     1
 90
        2
 40
-0.6
 41
30.0
 62
     5
 63
     7
421
 16777215
 74
     1
 91
        4
 64
     7
 65
   257
 75
     1
175
     1
 42
1.0
 92
        0
 66
   257
 43
1.0
 76
     1
 77
     6
 78
     2
 67
     7
 79
     5
170
     0
171
     0
290
     0
174
     0
 93
       13
 44
0.0
173
     0
291
     1
 45
0.0
1001
ACAD
1000
AcDbSavedByObjectVersion
1070
     0
  0
VISUALSTYLE
  5
2D
102
{ACAD_REACTORS
330
2A
102
}
330
2A
100
AcDbVisualStyle
  2
Gouraud
 70
     2
 71
     2
 72
     2
 73
     1
 90
        2
 40
-0.6
 41
30.0
 62
     5
 63
     7
421
 16777215
 74
     0
 91
        4
 64
     7
 65
   257
 75
     1
175
     1
 42
1.0
 92
        0
 66
     7
 43
1.0
 76
     1
 77
     6
 78
     2
 67
     7
 79
     5
170
     0
171
     0
290
     0
174
     0
 93
       13
 44
0.0
173
     0
291
     1
 45
0.0
1001
ACAD
1000
AcDbSavedByObjectVersion
1070
     0
  0
VISUALSTYLE
  5
2E
102
{ACAD_REACTORS
330
2A
102
}
330
2A
100
AcDbVisualStyle
  2
GouraudWithEdges
 70
     3
 71
     2
 72
     2
 73
     1
 90
        2
 40
-0.6
 41
30.0
 62
     5
 63
     7
421
 16777215
 74
     1
 91
        4
 64
     7
 65
   257
 75
     1
175
     1
 42
1.0
 92
        0
 66
   257
 43
1.0
 76
     1
 77
     6
 78
     2
 67
     7
 79
     5
170
     0
171
     0
290
     0
174
     0
 93
       13
 44
0.0
173
     0
291
     1
 45
0.0
1001
ACAD
1000
AcDbSavedByObjectVersion
1070
     0
  0
VISUALSTYLE
  5
38
102
{ACAD_REACTORS
330
2A
102
}
330
2A
100
AcDbVisualStyle
  2
Linepattern
 70
    14
 71
     2
 72
     2
 73
     0
 90
        0
 40
-0.6
 41
-30.0
 62
     5
 63
     7
421
 16777215
 74
     1
 91
        4
 64
     7
 65
   257
 75
     7
175
     7
 42
1.0
 92
        8
 66
     7
 43
1.0
 76
     1
 77
     6
 78
     2
 67
     7
 79
     5
170
     0
171
     0
290
     0
174
     0
 93
        1
 44
0.0
173
     0
291
     1
 45
0.0
1001
ACAD
1000
AcDbSavedByObjectVersion
1070
     0
  0
VISUALSTYLE
  5
33
102
{ACAD_REACTORS
330
2A
102
}
330
2A
100
AcDbVisualStyle
  2
Realistic
 70
     8
 71
     2
 72
     2
 73
     0
 90
        0
 40
-0.6
 41
-30.0
 62
     5
 63
     7
421
 16777215
 74
     1
 91
        0
 64
     7
 65
   257
 75
     1
175
     1
 42
1.0
 92
        8
 66
     8
424
  7895160
 43
1.0
 76
     1
 77
     6
 78
     2
 67
     7
 79
     5
170
     0
171
     0
290
     0
174
     0
 93
       13
 44
0.0
173
     0
291
     0
 45
0.0
1001
ACAD
1000
AcDbSavedByObjectVersion
1070
     0
  0
VISUALSTYLE
  5
37
102
{ACAD_REACTORS
330
2A
102
}
330
2A
100
AcDbVisualStyle
  2
Thicken
 70
    13
 71
     2
 72
     2
 73
     0
 90
        0
 40
-0.6
 41
-30.0
 62
     5
 63
     7
421
 16777215
 74
     1
 91
        4
 64
     7
 65
   257
 75
     1
175
     1
 42
1.0
 92
       12
 66
     7
 43
1.0
 76
     1
 77
     6
 78
     2
 67
     7
 79
     5
170
     0
171
     0
290
     0
174
     0
 93
        1
 44
0.0
173
     0
291
     1
 45
0.0
1001
ACAD
1000
AcDbSavedByObjectVersion
1070
     0
  0
DICTIONARYVAR
  5
B2
102
{ACAD_REACTORS
330
B1
102
}
330
B1
100
DictionaryVariables
280
     0
  1
1:1
  0
ENDSEC
  0
EOF
