  0
SECTION
  2
HEADER
  9
$ACADVER
  1
AC1018
  9
$ACADMAINTVER
 70
     0
  9
$DWGCODEPAGE
  3
ANSI_936
  9
$INSBASE
 10
0.0
 20
0.0
 30
0.0
  9
$EXTMIN
 10
19500.52650007869
 20
24856.52386788156
 30
0.0
  9
$EXTMAX
 10
19985.47041614035
 20
25205.55772128542
 30
0.0
  9
$LIMMIN
 10
0.0
 20
0.0
  9
$LIMMAX
 10
12.0
 20
9.0
  9
$ORTHOMODE
 70
     0
  9
$REGENMODE
 70
     1
  9
$FILLMODE
 70
     1
  9
$QTEXTMODE
 70
     0
  9
$MIRRTEXT
 70
     1
  9
$LTSCALE
 40
1.0
  9
$ATTMODE
 70
     1
  9
$TEXTSIZE
 40
0.2
  9
$TRACEWID
 40
0.05
  9
$TEXTSTYLE
  7
Standard
  9
$CLAYER
  8
EDA102
  9
$CELTYPE
  6
ByLayer
  9
$CECOLOR
 62
   256
  9
$CELTSCALE
 40
1.0
  9
$DISPSILH
 70
     0
  9
$DIMSCALE
 40
1.0
  9
$DIMASZ
 40
0.18
  9
$DIMEXO
 40
0.0625
  9
$DIMDLI
 40
0.38
  9
$DIMRND
 40
0.0
  9
$DIMDLE
 40
0.0
  9
$DIMEXE
 40
0.18
  9
$DIMTP
 40
0.0
  9
$DIMTM
 40
0.0
  9
$DIMTXT
 40
0.18
  9
$DIMCEN
 40
0.09
  9
$DIMTSZ
 40
0.0
  9
$DIMTOL
 70
     0
  9
$DIMLIM
 70
     0
  9
$DIMTIH
 70
     1
  9
$DIMTOH
 70
     1
  9
$DIMSE1
 70
     0
  9
$DIMSE2
 70
     0
  9
$DIMTAD
 70
     0
  9
$DIMZIN
 70
     0
  9
$DIMBLK
  1

  9
$DIMASO
 70
     1
  9
$DIMSHO
 70
     1
  9
$DIMPOST
  1

  9
$DIMAPOST
  1

  9
$DIMALT
 70
     0
  9
$DIMALTD
 70
     2
  9
$DIMALTF
 40
25.4
  9
$DIMLFAC
 40
1.0
  9
$DIMTOFL
 70
     0
  9
$DIMTVP
 40
0.0
  9
$DIMTIX
 70
     0
  9
$DIMSOXD
 70
     0
  9
$DIMSAH
 70
     0
  9
$DIMBLK1
  1

  9
$DIMBLK2
  1

  9
$DIMSTYLE
  2
Standard
  9
$DIMCLRD
 70
     0
  9
$DIMCLRE
 70
     0
  9
$DIMCLRT
 70
     0
  9
$DIMTFAC
 40
1.0
  9
$DIMGAP
 40
0.09
  9
$DIMJUST
 70
     0
  9
$DIMSD1
 70
     0
  9
$DIMSD2
 70
     0
  9
$DIMTOLJ
 70
     1
  9
$DIMTZIN
 70
     0
  9
$DIMALTZ
 70
     0
  9
$DIMALTTZ
 70
     0
  9
$DIMUPT
 70
     0
  9
$DIMDEC
 70
     4
  9
$DIMTDEC
 70
     4
  9
$DIMALTU
 70
     2
  9
$DIMALTTD
 70
     2
  9
$DIMTXSTY
  7
Standard
  9
$DIMAUNIT
 70
     0
  9
$DIMADEC
 70
     0
  9
$DIMALTRND
 40
0.0
  9
$DIMAZIN
 70
     0
  9
$DIMDSEP
 70
    46
  9
$DIMATFIT
 70
     3
  9
$DIMFRAC
 70
     0
  9
$DIMLDRBLK
  1

  9
$DIMLUNIT
 70
     2
  9
$DIMLWD
 70
    -2
  9
$DIMLWE
 70
    -2
  9
$DIMTMOVE
 70
     2
  9
$LUNITS
 70
     2
  9
$LUPREC
 70
     2
  9
$SKETCHINC
 40
0.1
  9
$FILLETRAD
 40
0.5
  9
$AUNITS
 70
     0
  9
$AUPREC
 70
     0
  9
$MENU
  1
.
  9
$ELEVATION
 40
0.0
  9
$PELEVATION
 40
0.0
  9
$THICKNESS
 40
0.0
  9
$LIMCHECK
 70
     0
  9
$CHAMFERA
 40
0.5
  9
$CHAMFERB
 40
0.5
  9
$CHAMFERC
 40
1.0
  9
$CHAMFERD
 40
0.0
  9
$SKPOLY
 70
     0
  9
$TDCREATE
 40
2456450.354042419
  9
$TDUCREATE
 40
2456450.270709086
  9
$TDUPDATE
 40
2456450.35404243
  9
$TDUUPDATE
 40
2456450.270709097
  9
$TDINDWG
 40
0.0000000116
  9
$TDUSRTIMER
 40
0.0000000116
  9
$USRTIMER
 70
     1
  9
$ANGBASE
 50
0.0
  9
$ANGDIR
 70
     0
  9
$PDMODE
 70
     0
  9
$PDSIZE
 40
0.0
  9
$PLINEWID
 40
0.0
  9
$SPLFRAME
 70
     0
  9
$SPLINETYPE
 70
     6
  9
$SPLINESEGS
 70
     8
  9
$HANDSEED
  5
C8
  9
$SURFTAB1
 70
     6
  9
$SURFTAB2
 70
     6
  9
$SURFTYPE
 70
     6
  9
$SURFU
 70
     6
  9
$SURFV
 70
     6
  9
$UCSBASE
  2

  9
$UCSNAME
  2

  9
$UCSORG
 10
0.0
 20
0.0
 30
0.0
  9
$UCSXDIR
 10
1.0
 20
0.0
 30
0.0
  9
$UCSYDIR
 10
0.0
 20
1.0
 30
0.0
  9
$UCSORTHOREF
  2

  9
$UCSORTHOVIEW
 70
     0
  9
$UCSORGTOP
 10
0.0
 20
0.0
 30
0.0
  9
$UCSORGBOTTOM
 10
0.0
 20
0.0
 30
0.0
  9
$UCSORGLEFT
 10
0.0
 20
0.0
 30
0.0
  9
$UCSORGRIGHT
 10
0.0
 20
0.0
 30
0.0
  9
$UCSORGFRONT
 10
0.0
 20
0.0
 30
0.0
  9
$UCSORGBACK
 10
0.0
 20
0.0
 30
0.0
  9
$PUCSBASE
  2

  9
$PUCSNAME
  2

  9
$PUCSORG
 10
0.0
 20
0.0
 30
0.0
  9
$PUCSXDIR
 10
1.0
 20
0.0
 30
0.0
  9
$PUCSYDIR
 10
0.0
 20
1.0
 30
0.0
  9
$PUCSORTHOREF
  2

  9
$PUCSORTHOVIEW
 70
     0
  9
$PUCSORGTOP
 10
0.0
 20
0.0
 30
0.0
  9
$PUCSORGBOTTOM
 10
0.0
 20
0.0
 30
0.0
  9
$PUCSORGLEFT
 10
0.0
 20
0.0
 30
0.0
  9
$PUCSORGRIGHT
 10
0.0
 20
0.0
 30
0.0
  9
$PUCSORGFRONT
 10
0.0
 20
0.0
 30
0.0
  9
$PUCSORGBACK
 10
0.0
 20
0.0
 30
0.0
  9
$USERI1
 70
     0
  9
$USERI2
 70
     0
  9
$USERI3
 70
     0
  9
$USERI4
 70
     0
  9
$USERI5
 70
     0
  9
$USERR1
 40
0.0
  9
$USERR2
 40
0.0
  9
$USERR3
 40
0.0
  9
$USERR4
 40
0.0
  9
$USERR5
 40
0.0
  9
$WORLDVIEW
 70
     1
  9
$SHADEDGE
 70
     3
  9
$SHADEDIF
 70
    70
  9
$TILEMODE
 70
     1
  9
$MAXACTVP
 70
    64
  9
$PINSBASE
 10
0.0
 20
0.0
 30
0.0
  9
$PLIMCHECK
 70
     0
  9
$PEXTMIN
 10
1.000000000000000E+20
 20
1.000000000000000E+20
 30
1.000000000000000E+20
  9
$PEXTMAX
 10
-1.000000000000000E+20
 20
-1.000000000000000E+20
 30
-1.000000000000000E+20
  9
$PLIMMIN
 10
0.0
 20
0.0
  9
$PLIMMAX
 10
12.0
 20
9.0
  9
$UNITMODE
 70
     0
  9
$VISRETAIN
 70
     1
  9
$PLINEGEN
 70
     0
  9
$PSLTSCALE
 70
     1
  9
$TREEDEPTH
 70
  3020
  9
$CMLSTYLE
  2
Standard
  9
$CMLJUST
 70
     0
  9
$CMLSCALE
 40
1.0
  9
$PROXYGRAPHICS
 70
     1
  9
$MEASUREMENT
 70
     0
  9
$CELWEIGHT
370
    -1
  9
$ENDCAPS
280
     0
  9
$JOINSTYLE
280
     0
  9
$LWDISPLAY
290
     0
  9
$INSUNITS
 70
     4
  9
$HYPERLINKBASE
  1

  9
$STYLESHEET
  1

  9
$XEDIT
290
     1
  9
$CEPSNTYPE
380
     0
  9
$PSTYLEMODE
290
     1
  9
$FINGERPRINTGUID
  2
{E3F5F04B-D0AE-40C6-8651-BB3DC0633AF0}
  9
$VERSIONGUID
  2
{FAEB1C32-E019-11D5-929B-00C0DF256EC4}
  9
$EXTNAMES
290
     1
  9
$PSVPSCALE
 40
0.0
  9
$OLESTARTUP
290
     0
  9
$SORTENTS
280
   127
  9
$INDEXCTL
280
     0
  9
$HIDETEXT
280
     1
  9
$XCLIPFRAME
290
     0
  9
$HALOGAP
280
     0
  9
$OBSCOLOR
 70
   257
  9
$OBSLTYPE
280
     0
  9
$INTERSECTIONDISPLAY
280
     0
  9
$INTERSECTIONCOLOR
 70
   257
  9
$DIMASSOC
280
     2
  9
$PROJECTNAME
  1

  0
ENDSEC
  0
SECTION
  2
CLASSES
  0
CLASS
  1
ACDBDICTIONARYWDFLT
  2
AcDbDictionaryWithDefault
  3
ObjectDBX Classes
 90
        0
 91
        4
280
     0
281
     0
  0
CLASS
  1
VISUALSTYLE
  2
AcDbVisualStyle
  3
ObjectDBX Classes
 90
     4095
 91
        4
280
     0
281
     0
  0
CLASS
  1
SCALE
  2
AcDbScale
  3
ObjectDBX Classes
 90
     1153
 91
        4
280
     0
281
     0
  0
CLASS
  1
DICTIONARYVAR
  2
AcDbDictionaryVar
  3
ObjectDBX Classes
 90
        0
 91
        4
280
     0
281
     0
  0
ENDSEC
  0
SECTION
  2
TABLES
  0
TABLE
  2
VPORT
  5
8
330
0
100
AcDbSymbolTable
 70
     1
  0
VPORT
  5
29
330
8
100
AcDbSymbolTableRecord
100
AcDbViewportTableRecord
  2
*Active
 70
     0
 10
0.0
 20
0.0
 11
1.0
 21
1.0
 12
19742.99845810952
 22
25031.04079458349
 13
0.0
 23
0.0
 14
0.5
 24
0.5
 15
0.5
 25
0.5
 16
0.0
 26
0.0
 36
1.0
 17
0.0
 27
0.0
 37
0.0
 40
356.0145304719299
 41
1.389389342415881
 42
50.0
 43
0.0
 44
0.0
 50
0.0
 51
0.0
 71
     0
 72
   100
 73
     1
 74
     3
 75
     0
 76
     0
 77
     0
 78
     0
281
     0
 65
     1
110
0.0
120
0.0
130
0.0
111
1.0
121
0.0
131
0.0
112
0.0
122
1.0
132
0.0
 79
     0
146
0.0
  0
ENDTAB
  0
TABLE
  2
LTYPE
  5
5
330
0
100
AcDbSymbolTable
 70
     1
  0
LTYPE
  5
14
330
5
100
AcDbSymbolTableRecord
100
AcDbLinetypeTableRecord
  2
ByBlock
 70
     0
  3

 72
    65
 73
     0
 40
0.0
  0
LTYPE
  5
15
330
5
100
AcDbSymbolTableRecord
100
AcDbLinetypeTableRecord
  2
ByLayer
 70
     0
  3

 72
    65
 73
     0
 40
0.0
  0
LTYPE
  5
16
330
5
100
AcDbSymbolTableRecord
100
AcDbLinetypeTableRecord
  2
Continuous
 70
     0
  3
Solid line
 72
    65
 73
     0
 40
0.0
  0
ENDTAB
  0
TABLE
  2
LAYER
  5
2
330
0
100
AcDbSymbolTable
 70
     4
  0
LAYER
  5
10
330
2
100
AcDbSymbolTableRecord
100
AcDbLayerTableRecord
  2
0
 70
     0
 62
     7
  6
Continuous
370
    -3
390
F
  0
LAYER
  5
3B
330
2
100
AcDbSymbolTableRecord
100
AcDbLayerTableRecord
  2
EDA102
 70
     0
 62
     7
  6
Continuous
370
    -3
390
F
  0
LAYER
  5
61
330
2
100
AcDbSymbolTableRecord
100
AcDbLayerTableRecord
  2
Defpoints
 70
     0
 62
     7
  6
Continuous
290
     0
370
    -3
390
F
  0
LAYER
  5
6E
330
2
100
AcDbSymbolTableRecord
100
AcDbLayerTableRecord
  2
MAKE2D VISIBLE LINES
 70
     0
 62
     7
  6
Continuous
370
    -3
390
F
  0
ENDTAB
  0
TABLE
  2
STYLE
  5
3
330
0
100
AcDbSymbolTable
 70
     2
  0
STYLE
  5
11
330
3
100
AcDbSymbolTableRecord
100
AcDbTextStyleTableRecord
  2
Standard
 70
     0
 40
0.0
 41
1.0
 50
0.0
 71
     0
 42
0.2
  3
txt
  4

  0
STYLE
  5
5F
330
3
100
AcDbSymbolTableRecord
100
AcDbTextStyleTableRecord
  2
ARIAL
 70
     0
 40
0.0
 41
1.0
 50
0.0
 71
     0
 42
0.0
  3

  4

1001
ACAD
1000
Arial
1071
      256
  0
ENDTAB
  0
TABLE
  2
VIEW
  5
6
330
0
100
AcDbSymbolTable
 70
     0
  0
ENDTAB
  0
TABLE
  2
UCS
  5
7
330
0
100
AcDbSymbolTable
 70
     0
  0
ENDTAB
  0
TABLE
  2
APPID
  5
9
330
0
100
AcDbSymbolTable
 70
     1
  0
APPID
  5
12
330
9
100
AcDbSymbolTableRecord
100
AcDbRegAppTableRecord
  2
ACAD
 70
     0
  0
ENDTAB
  0
TABLE
  2
DIMSTYLE
  5
A
330
0
100
AcDbSymbolTable
 70
     2
100
AcDbDimStyleTable
  0
DIMSTYLE
105
27
330
A
100
AcDbSymbolTableRecord
100
AcDbDimStyleTableRecord
  2
Standard
 70
     0
340
11
  0
DIMSTYLE
105
60
102
{ACAD_REACTORS
330
3C
102
}
330
A
100
AcDbSymbolTableRecord
100
AcDbDimStyleTableRecord
  2
DEFAULT
 70
     0
 41
1.0
 42
0.5
 44
0.5
 73
     0
 77
     1
 78
     1
140
20.0
141
0.5
172
     1
174
     1
179
     2
271
     2
284
     1
340
5F
  0
ENDTAB
  0
TABLE
  2
BLOCK_RECORD
  5
1
330
0
100
AcDbSymbolTable
 70
     2
  0
BLOCK_RECORD
  5
1F
330
1
100
AcDbSymbolTableRecord
100
AcDbBlockTableRecord
  2
*Model_Space
340
22
  0
BLOCK_RECORD
  5
1B
330
1
100
AcDbSymbolTableRecord
100
AcDbBlockTableRecord
  2
*Paper_Space
340
1E
  0
BLOCK_RECORD
  5
23
330
1
100
AcDbSymbolTableRecord
100
AcDbBlockTableRecord
  2
*Paper_Space0
340
26
  0
BLOCK_RECORD
  5
62
330
1
100
AcDbSymbolTableRecord
100
AcDbBlockTableRecord
  2
*D1
340
0
  0
ENDTAB
  0
ENDSEC
  0
SECTION
  2
BLOCKS
  0
BLOCK
  5
20
330
1F
100
AcDbEntity
  8
0
100
AcDbBlockBegin
  2
*Model_Space
 70
     0
 10
0.0
 20
0.0
 30
0.0
  3
*Model_Space
  1

  0
ENDBLK
  5
21
330
1F
100
AcDbEntity
  8
0
100
AcDbBlockEnd
  0
BLOCK
  5
1C
330
1B
100
AcDbEntity
 67
     1
  8
0
100
AcDbBlockBegin
  2
*Paper_Space
 70
     0
 10
0.0
 20
0.0
 30
0.0
  3
*Paper_Space
  1

  0
ENDBLK
  5
1D
330
1B
100
AcDbEntity
 67
     1
  8
0
100
AcDbBlockEnd
  0
BLOCK
  5
24
330
23
100
AcDbEntity
  8
0
100
AcDbBlockBegin
  2
*Paper_Space0
 70
     0
 10
0.0
 20
0.0
 30
0.0
  3
*Paper_Space0
  1

  0
ENDBLK
  5
25
330
23
100
AcDbEntity
  8
0
100
AcDbBlockEnd
  0
BLOCK
  5
6C
330
62
100
AcDbEntity
  8
0
100
AcDbBlockBegin
  2
*D1
 70
     1
 10
0.0
 20
0.0
 30
0.0
  3
*D1
  1

  0
LINE
  5
63
330
62
100
AcDbEntity
  8
EDA102
 62
     0
370
    -2
100
AcDbLine
 10
19697.47041614035
 20
25205.55772122234
 30
0.0
 11
19985.47041614035
 21
25205.55772122234
 31
0.0
  0
LINE
  5
64
330
62
100
AcDbEntity
  8
EDA102
 62
     0
370
    -2
100
AcDbLine
 10
19714.5
 20
24856.5267587934
 30
0.0
 11
19985.47041614035
 21
24856.5267587934
 31
0.0
  0
LINE
  5
65
330
62
100
AcDbEntity
  8
EDA102
 62
     0
370
    -2
100
AcDbLine
 10
19984.97041614035
 20
25204.55772122234
 30
0.0
 11
19984.97041614035
 21
24857.5267587934
 31
0.0
  0
SOLID
  5
66
330
62
100
AcDbEntity
  8
EDA102
 62
     0
100
AcDbTrace
 10
19985.13708280701
 20
25204.55772122234
 30
0.0
 11
19984.80374947368
 21
25204.55772122234
 31
0.0
 12
19984.97041614035
 22
25205.55772122234
 32
0.0
 13
19984.97041614035
 23
25205.55772122234
 33
0.0
  0
SOLID
  5
67
330
62
100
AcDbEntity
  8
EDA102
 62
     0
100
AcDbTrace
 10
19984.80374947368
 20
24857.5267587934
 30
0.0
 11
19985.13708280701
 21
24857.5267587934
 31
0.0
 12
19984.97041614035
 22
24856.5267587934
 32
0.0
 13
19984.97041614035
 23
24856.5267587934
 33
0.0
  0
MTEXT
  5
68
330
62
100
AcDbEntity
  8
EDA102
 62
     0
100
AcDbMText
 10
19974.67041614035
 20
25031.04224000787
 30
0.0
 40
20.0
 41
0.0
 71
     5
 72
     1
  1
\A1;350^M^J
  7
ARIAL
 11
0.0
 21
1.0
 31
0.0
 73
     1
 44
1.0
  0
POINT
  5
69
330
62
100
AcDbEntity
  8
Defpoints
 62
     0
100
AcDbPoint
 10
19696.97041614035
 20
25205.55772122234
 30
0.0
  0
POINT
  5
6A
330
62
100
AcDbEntity
  8
Defpoints
 62
     0
100
AcDbPoint
 10
19714.0
 20
24856.5267587934
 30
0.0
  0
POINT
  5
6B
330
62
100
AcDbEntity
  8
Defpoints
 62
     0
100
AcDbPoint
 10
19984.97041614035
 20
24856.5267587934
 30
0.0
  0
ENDBLK
  5
6D
330
62
100
AcDbEntity
  8
0
100
AcDbBlockEnd
  0
ENDSEC
  0
SECTION
  2
ENTITIES
  0
DIMENSION
  5
3C
330
1F
100
AcDbEntity
  8
EDA102
100
AcDbDimension
  2
*D1
 10
19984.97041614035
 20
24856.5267587934
 30
0.0
 11
19974.67041614035
 21
25031.04224000787
 31
0.0
 70
    32
  1
350^M^J
 71
     5
 42
349.030962428933
  3
DEFAULT
100
AcDbAlignedDimension
 13
19696.97041614035
 23
25205.55772122234
 33
0.0
 14
19714.0
 24
24856.5267587934
 34
0.0
 50
90.0
100
AcDbRotatedDimension
1001
ACAD
1000
DSTYLE
1002
{
1070
   279
1070
     1
1002
}
  0
SPLINE
  5
6F
330
1F
100
AcDbEntity
  8
MAKE2D VISIBLE LINES
100
AcDbSpline
210
0.0
220
0.0
230
1.0
 70
    12
 71
     2
 72
     6
 73
     3
 74
     0
 42
0.0000000001
 43
0.0000000001
 40
0.0
 40
0.0
 40
0.0
 40
4.159932495397948
 40
4.159932495397948
 40
4.159932495397948
 10
19877.45308514519
 20
25177.5446048109
 30
0.0
 41
1.0
 10
19877.38262322529
 20
25175.33750652299
 30
0.0
 41
0.9151122642227856
 10
19875.70635419423
 20
25173.9000191769
 30
0.0
 41
1.0
  0
SPLINE
  5
70
330
1F
100
AcDbEntity
  8
MAKE2D VISIBLE LINES
100
AcDbSpline
210
0.0
220
0.0
230
1.0
 70
    12
 71
     2
 72
     6
 73
     3
 74
     0
 42
0.0000000001
 43
0.0000000001
 40
0.0
 40
0.0
 40
0.0
 40
7.508264838993076
 40
7.508264838993076
 40
7.508264838993076
 10
19872.66876625962
 20
25172.68555318229
 30
0.0
 41
1.0
 10
19877.31114115634
 20
25172.21289282641
 30
0.0
 41
0.7309802193745969
 10
19877.15836114173
 20
25167.54901989064
 30
0.0
 41
1.0
  0
SPLINE
  5
71
330
1F
100
AcDbEntity
  8
MAKE2D VISIBLE LINES
100
AcDbSpline
210
0.0
220
0.0
230
1.0
 70
    12
 71
     2
 72
     6
 73
     3
 74
     0
 42
0.0000000001
 43
0.0000000001
 40
0.0
 40
0.0
 40
0.0
 40
7.045223725046366
 40
7.045223725046366
 40
7.045223725046366
 10
19506.42055300759
 20
25077.59741264004
 30
0.0
 41
1.0
 10
19506.55765367969
 20
25073.34913937477
 30
0.0
 41
0.7618604560314114
 10
19510.7726551861
 20
25072.80106581066
 30
0.0
 41
1.0
  0
SPLINE
  5
72
330
1F
100
AcDbEntity
  8
MAKE2D VISIBLE LINES
100
AcDbSpline
210
0.0
220
0.0
230
1.0
 70
    12
 71
     2
 72
     6
 73
     3
 74
     0
 42
0.0000000001
 43
0.0000000001
 40
0.0
 40
0.0
 40
0.0
 40
4.490037312148752
 40
4.490037312148752
 40
4.490037312148752
 10
19669.93928307845
 20
25175.52114690769
 30
0.0
 41
1.0
 10
19672.18428967295
 20
25175.52853853862
 30
0.0
 41
0.9999999286613384
 10
19674.42930121085
 20
25175.53423417055
 30
0.0
 41
1.0
  0
SPLINE
  5
73
330
1F
100
AcDbEntity
  8
MAKE2D VISIBLE LINES
100
AcDbSpline
210
0.0
220
0.0
230
1.0
 70
    12
 71
     2
 72
    12
 73
     9
 74
     0
 42
0.0000000001
 43
0.0000000001
 40
0.0
 40
0.0
 40
0.0
 40
39.06438430725291
 40
39.06438430725291
 40
46.33604776986576
 40
46.33604776986576
 40
53.60771123236859
 40
53.60771123236859
 40
92.6708498349808
 40
92.6708498349808
 40
92.6708498349808
 10
19731.05528056281
 20
24875.07455857668
 30
0.0
 41
1.0
 10
19718.06202981493
 20
24859.101515361
 30
0.0
 41
0.924666286703396
 10
19697.58862616569
 20
24856.91007346528
 30
0.0
 41
1.0
 10
19693.9700262942
 20
24856.52231543203
 30
0.0
 41
0.9985645024782545
 10
19690.33071057387
 20
24856.52386788156
 30
0.0
 41
1.0
 10
19686.69139485336
 20
24856.522315432
 30
0.0
 41
0.9985645023811041
 10
19683.07279498308
 20
24856.91007347837
 30
0.0
 41
1.0
 10
19662.60005002475
 20
24859.10133196415
 30
0.0
 41
0.9246674662463191
 10
19649.60703884659
 20
24875.0737006177
 30
0.0
 41
1.0
  0
SPLINE
  5
74
330
1F
100
AcDbEntity
  8
MAKE2D VISIBLE LINES
100
AcDbSpline
210
0.0
220
0.0
230
1.0
 70
    12
 71
     2
 72
     6
 73
     3
 74
     0
 42
0.0000000001
 43
0.0000000001
 40
0.0
 40
0.0
 40
0.0
 40
4.159924952829291
 40
4.159924952829291
 40
4.159924952829291
 10
19504.95510931411
 20
25173.9000191769
 30
0.0
 41
1.0
 10
19503.27886847525
 20
25175.33752003459
 30
0.0
 41
0.9151174878869818
 10
19503.20837836316
 20
25177.5446048109
 30
0.0
 41
1.0
  0
SPLINE
  5
75
330
1F
100
AcDbEntity
  8
MAKE2D VISIBLE LINES
100
AcDbSpline
210
0.0
220
0.0
230
1.0
 70
    12
 71
     2
 72
     6
 73
     3
 74
     0
 42
0.0000000001
 43
0.0000000001
 40
0.0
 40
0.0
 40
0.0
 40
5.463707220601643
 40
5.463707220601643
 40
5.463707220601643
 10
19506.05723187689
 20
25172.07433545677
 30
0.0
 41
1.0
 10
19503.4047054838
 20
25170.58800066727
 30
0.0
 41
0.8544321820562184
 10
19503.5039160482
 20
25167.5490461371
 30
0.0
 41
1.0
  0
SPLINE
  5
76
330
1F
100
AcDbEntity
  8
MAKE2D VISIBLE LINES
100
AcDbSpline
210
0.0
220
0.0
230
1.0
 70
    12
 71
     2
 72
     6
 73
     3
 74
     0
 42
0.0000000001
 43
0.0000000001
 40
0.0
 40
0.0
 40
0.0
 40
7.707492134818278
 40
7.707492134818278
 40
7.707492134818278
 10
19869.22901057433
 20
25072.75952442527
 30
0.0
 41
1.0
 10
19874.08496119532
 20
25072.74394153918
 30
0.0
 41
0.7173154170858961
 10
19874.24176220435
 20
25077.59738492542
 30
0.0
 41
1.0
  0
SPLINE
  5
77
330
1F
100
AcDbEntity
  8
MAKE2D VISIBLE LINES
100
AcDbSpline
210
0.0
220
0.0
230
1.0
 70
     8
 71
     3
 72
     8
 73
     4
 74
     0
 42
0.0000000001
 43
0.0000000001
 40
0.0
 40
0.0
 40
0.0
 40
0.0
 40
0.2609139151499469
 40
0.2609139151499469
 40
0.2609139151499469
 40
0.2609139151499469
 10
19508.09283801317
 20
25172.70073824736
 30
0.0
 10
19508.17914846335
 20
25172.7034438767
 30
0.0
 10
19508.26793320769
 20
25172.70622660642
 30
0.0
 10
19508.35281720798
 20
25172.70888449161
 30
0.0
  0
SPLINE
  5
78
330
1F
100
AcDbEntity
  8
MAKE2D VISIBLE LINES
100
AcDbSpline
210
0.0
220
0.0
230
1.0
 70
     8
 71
     3
 72
    23
 73
    19
 74
     0
 42
0.0000000001
 43
0.0000000001
 40
0.0
 40
0.0
 40
0.0
 40
0.0
 40
17.96795462280495
 40
35.54837007176349
 40
52.54441566136062
 40
68.80061678791532
 40
84.41330646050517
 40
99.2782834205503
 40
113.5937120353698
 40
127.6052168954938
 40
141.6406032067199
 40
155.9764420697328
 40
170.8185894790428
 40
186.4116223040563
 40
202.8179750720588
 40
219.81494429067
 40
237.2944252687107
 40
255.1966367755533
 40
255.1966367755533
 40
255.1966367755533
 40
255.1966367755533
 10
19764.85214484636
 20
24948.55884874389
 30
0.0
 10
19764.50271585543
 20
24942.5797195139
 30
0.0
 10
19762.95331242845
 20
24930.79985388545
 30
0.0
 10
19758.10574359482
 20
24913.91680248587
 30
0.0
 10
19750.9297717789
 20
24898.50610853422
 30
0.0
 10
19741.65051723409
 20
24885.0438102017
 30
0.0
 10
19730.56341857061
 20
24873.99727918322
 30
0.0
 10
19718.00744272953
 20
24865.7621869797
 30
0.0
 10
19704.43541454535
 20
24860.67740618846
 30
0.0
 10
19690.31561451704
 20
24858.95559138555
 30
0.0
 10
19676.1895355735
 20
24860.68467077732
 30
0.0
 10
19662.61459381167
 20
24865.78272033847
 30
0.0
 10
19650.07069432121
 20
24874.0217053842
 30
0.0
 10
19638.96146598505
 20
24885.09684250478
 30
0.0
 10
19629.6705821618
 20
24898.60579979323
 30
0.0
 10
19622.5118814838
 20
24914.04271185801
 30
0.0
 10
19617.69631504887
 20
24930.87674812048
 30
0.0
 10
19616.15730803755
 20
24942.60161116279
 30
0.0
 10
19615.80915482262
 20
24948.55884874389
 30
0.0
  0
SPLINE
  5
79
330
1F
100
AcDbEntity
  8
MAKE2D VISIBLE LINES
100
AcDbSpline
210
0.0
220
0.0
230
1.0
 70
    12
 71
     2
 72
     6
 73
     3
 74
     0
 42
0.0000000001
 43
0.0000000001
 40
0.0
 40
0.0
 40
0.0
 40
2.148826011075576
 40
2.148826011075576
 40
2.148826011075576
 10
19604.56930516306
 20
25174.92484753981
 30
0.0
 41
1.0
 10
19605.64360163027
 20
25174.94067261293
 30
0.0
 41
0.9999999831451504
 10
19606.71790383608
 20
25174.956103199
 30
0.0
 41
1.0
  0
SPLINE
  5
7A
330
1F
100
AcDbEntity
  8
MAKE2D VISIBLE LINES
100
AcDbSpline
210
0.0
220
0.0
230
1.0
 70
    12
 71
     2
 72
     6
 73
     3
 74
     0
 42
0.0000000001
 43
0.0000000001
 40
0.0
 40
0.0
 40
0.0
 40
3.694391498627276
 40
3.694391498627276
 40
3.694391498627276
 10
19563.08409273675
 20
25174.16505927327
 30
0.0
 41
1.0
 10
19564.93084562011
 20
25174.20550867322
 30
0.0
 41
0.9999999494788835
 10
19566.77762835777
 20
25174.24457184591
 30
0.0
 41
1.0
  0
SPLINE
  5
7B
330
1F
100
AcDbEntity
  8
MAKE2D VISIBLE LINES
100
AcDbSpline
210
0.0
220
0.0
230
1.0
 70
    12
 71
     2
 72
     6
 73
     3
 74
     0
 42
0.0000000001
 43
0.0000000001
 40
-2.184141188894167
 40
-2.184141188894167
 40
-2.184141188894167
 40
0.0
 40
0.0
 40
0.0
 10
19566.77762835777
 20
25174.24457184591
 30
0.0
 41
1.0
 10
19567.86945744724
 20
25174.26753920343
 30
0.0
 41
0.9999999824785167
 10
19568.96128538739
 20
25174.29056114981
 30
0.0
 41
0.9999999999999998
  0
SPLINE
  5
7C
330
1F
100
AcDbEntity
  8
MAKE2D VISIBLE LINES
100
AcDbSpline
210
0.0
220
0.0
230
1.0
 70
    12
 71
     2
 72
     6
 73
     3
 74
     0
 42
0.0000000001
 43
0.0000000001
 40
0.0
 40
0.0
 40
0.0
 40
4.542465444680053
 40
4.542465444680053
 40
4.542465444680053
 10
19568.96128538739
 20
25174.29056114981
 30
0.0
 41
0.9999999999999998
 10
19571.23201754408
 20
25174.33824893216
 30
0.0
 41
0.9999999231036084
 10
19573.50279794975
 20
25174.3835815088
 30
0.0
 41
0.9999999999999998
  0
SPLINE
  5
7D
330
1F
100
AcDbEntity
  8
MAKE2D VISIBLE LINES
100
AcDbSpline
210
0.0
220
0.0
230
1.0
 70
    12
 71
     2
 72
     6
 73
     3
 74
     0
 42
0.0000000001
 43
0.0000000001
 40
-1.336448323044506
 40
-1.336448323044506
 40
-1.336448323044506
 40
0.0
 40
0.0
 40
0.0
 10
19573.50279794975
 20
25174.3835815088
 30
0.0
 41
1.0
 10
19574.170893955
 20
25174.39667212247
 30
0.0
 41
0.9999999934709636
 10
19574.83897975408
 20
25174.41027387764
 30
0.0
 41
1.0
  0
SPLINE
  5
7E
330
1F
100
AcDbEntity
  8
MAKE2D VISIBLE LINES
100
AcDbSpline
210
0.0
220
0.0
230
1.0
 70
    12
 71
     2
 72
     6
 73
     3
 74
     0
 42
0.0000000001
 43
0.0000000001
 40
0.0
 40
0.0
 40
0.0
 40
4.453982089935417
 40
4.453982089935417
 40
4.453982089935417
 10
19574.83897975408
 20
25174.41027387764
 30
0.0
 41
1.0
 10
19577.06552443509
 20
25174.45486633469
 30
0.0
 41
0.9999999256079121
 10
19579.29211674365
 20
25174.49701402955
 30
0.0
 41
0.9999999999999998
  0
SPLINE
  5
7F
330
1F
100
AcDbEntity
  8
MAKE2D VISIBLE LINES
100
AcDbSpline
210
0.0
220
0.0
230
1.0
 70
    12
 71
     2
 72
     6
 73
     3
 74
     0
 42
0.0000000001
 43
0.0000000001
 40
-7.041546184869123
 40
-7.041546184869123
 40
-7.041546184869123
 40
0.0
 40
0.0
 40
0.0
 10
19579.29211674365
 20
25174.49701402955
 30
0.0
 41
1.0
 10
19582.81225643789
 20
25174.56381841894
 30
0.0
 41
0.999999819920136
 10
19586.33245971631
 20
25174.62718388888
 30
0.0
 41
1.0
  0
SPLINE
  5
80
330
1F
100
AcDbEntity
  8
MAKE2D VISIBLE LINES
100
AcDbSpline
210
0.0
220
0.0
230
1.0
 70
    12
 71
     2
 72
     6
 73
     3
 74
     0
 42
0.0000000001
 43
0.0000000001
 40
0.0
 40
0.0
 40
0.0
 40
0.2633681350966687
 40
0.2633681350966687
 40
0.2633681350966687
 10
19586.33245971631
 20
25174.62718388888
 30
0.0
 41
1.0
 10
19586.46411554194
 20
25174.62993786491
 30
0.0
 41
0.9999999997373809
 10
19586.59578573931
 20
25174.631886969
 30
0.0
 41
0.9999999999999998
  0
SPLINE
  5
81
330
1F
100
AcDbEntity
  8
MAKE2D VISIBLE LINES
100
AcDbSpline
210
0.0
220
0.0
230
1.0
 70
    12
 71
     2
 72
     6
 73
     3
 74
     0
 42
0.0000000001
 43
0.0000000001
 40
-5.879945498823051
 40
-5.879945498823051
 40
-5.879945498823051
 40
0.0
 40
0.0
 40
0.0
 10
19586.59578573931
 20
25174.631886969
 30
0.0
 41
0.9999999999999958
 10
19589.53529795686
 20
25174.68393502686
 30
0.0
 41
0.9999998750612905
 10
19592.47484829167
 20
25174.73378352826
 30
0.0
 41
1.0
  0
SPLINE
  5
82
330
1F
100
AcDbEntity
  8
MAKE2D VISIBLE LINES
100
AcDbSpline
210
0.0
220
0.0
230
1.0
 70
    12
 71
     2
 72
     6
 73
     3
 74
     0
 42
0.0000000001
 43
0.0000000001
 40
0.0
 40
0.0
 40
0.0
 40
4.050207983835205
 40
4.050207983835205
 40
4.050207983835205
 10
19592.47484829167
 20
25174.73378352826
 30
0.0
 41
0.9999999999999998
 10
19594.49966050499
 20
25174.76816538351
 30
0.0
 41
0.9999999388360123
 10
19596.52450175825
 20
25174.80079043995
 30
0.0
 41
1.0
  0
SPLINE
  5
83
330
1F
100
AcDbEntity
  8
MAKE2D VISIBLE LINES
100
AcDbSpline
210
0.0
220
0.0
230
1.0
 70
    12
 71
     2
 72
     6
 73
     3
 74
     0
 42
0.0000000001
 43
0.0000000001
 40
0.0
 40
0.0
 40
0.0
 40
27.44977860442842
 40
27.44977860442842
 40
27.44977860442842
 10
19834.38407301345
 20
25173.77268808601
 30
0.0
 41
1.0
 10
19820.66337382251
 20
25174.11283246866
 30
0.0
 41
0.9999972204212381
 10
19806.94122034478
 20
25174.38812950672
 30
0.0
 41
1.0
  0
SPLINE
  5
84
330
1F
100
AcDbEntity
  8
MAKE2D VISIBLE LINES
100
AcDbSpline
210
0.0
220
0.0
230
1.0
 70
    12
 71
     2
 72
     6
 73
     3
 74
     0
 42
0.0000000001
 43
0.0000000001
 40
0.0
 40
0.0
 40
0.0
 40
0.6363167048793983
 40
0.6363167048793983
 40
0.6363167048793983
 10
19806.94122034478
 20
25174.38812950672
 30
0.0
 41
1.0
 10
19806.62312311668
 20
25174.39436697847
 30
0.0
 41
0.9999999985060056
 10
19806.30503097128
 20
25174.40085841879
 30
0.0
 41
1.0
  0
SPLINE
  5
85
330
1F
100
AcDbEntity
  8
MAKE2D VISIBLE LINES
100
AcDbSpline
210
0.0
220
0.0
230
1.0
 70
    12
 71
     2
 72
     6
 73
     3
 74
     0
 42
0.0000000001
 43
0.0000000001
 40
0.0
 40
0.0
 40
0.0
 40
5.835363565455082
 40
5.835363565455082
 40
5.835363565455082
 10
19806.30503097128
 20
25174.40085841879
 30
0.0
 41
0.9999999999999991
 10
19803.38793278498
 20
25174.45922423017
 30
0.0
 41
0.9999998722790989
 10
19800.47077125539
 20
25174.51433367918
 30
0.0
 41
1.0
  0
SPLINE
  5
86
330
1F
100
AcDbEntity
  8
MAKE2D VISIBLE LINES
100
AcDbSpline
210
0.0
220
0.0
230
1.0
 70
    12
 71
     2
 72
     6
 73
     3
 74
     0
 42
0.0000000001
 43
0.0000000001
 40
0.0
 40
0.0
 40
0.0
 40
5.835704891936886
 40
5.835704891936886
 40
5.835704891936886
 10
19800.47077125539
 20
25174.51433367918
 30
0.0
 41
1.0
 10
19797.55343902866
 20
25174.56944287072
 30
0.0
 41
0.9999998744755147
 10
19794.63605860367
 20
25174.62193815368
 30
0.0
 41
0.9999999999999993
  0
SPLINE
  5
87
330
1F
100
AcDbEntity
  8
MAKE2D VISIBLE LINES
100
AcDbSpline
210
0.0
220
0.0
230
1.0
 70
    12
 71
     2
 72
     6
 73
     3
 74
     0
 42
0.0000000001
 43
0.0000000001
 40
0.0
 40
0.0
 40
0.0
 40
0.3070995422108602
 40
0.3070995422108602
 40
0.3070995422108602
 10
19794.63605860367
 20
25174.62193815368
 30
0.0
 41
1.0
 10
19794.48253617411
 20
25174.62483903511
 30
0.0
 41
0.9999999996428941
 10
19794.32901094677
 20
25174.62758388584
 30
0.0
 41
1.0
  0
SPLINE
  5
88
330
1F
100
AcDbEntity
  8
MAKE2D VISIBLE LINES
100
AcDbSpline
210
0.0
220
0.0
230
1.0
 70
    12
 71
     2
 72
     6
 73
     3
 74
     0
 42
0.0000000001
 43
0.0000000001
 40
0.0
 40
0.0
 40
0.0
 40
2.007505079273928
 40
2.007505079273928
 40
2.007505079273928
 10
19646.52294844453
 20
25175.39345965238
 30
0.0
 41
1.0
 10
19647.52667221602
 20
25175.40105869194
 30
0.0
 41
0.9999999841208409
 10
19648.53039950708
 20
25175.40817871744
 30
0.0
 41
0.9999999999999996
  0
SPLINE
  5
89
330
1F
100
AcDbEntity
  8
MAKE2D VISIBLE LINES
100
AcDbSpline
210
0.0
220
0.0
230
1.0
 70
    12
 71
     2
 72
     6
 73
     3
 74
     0
 42
0.0000000001
 43
0.0000000001
 40
-4.035290245569089
 40
-4.035290245569089
 40
-4.035290245569089
 40
0.0
 40
0.0
 40
0.0
 10
19648.53039950708
 20
25175.40817871744
 30
0.0
 41
0.9999999999999996
 10
19650.54799441023
 20
25175.42242224868
 30
0.0
 41
0.9999999338405811
 10
19652.56559633175
 20
25175.43563755463
 30
0.0
 41
0.9999999999999982
  0
SPLINE
  5
8A
330
1F
100
AcDbEntity
  8
MAKE2D VISIBLE LINES
100
AcDbSpline
210
0.0
220
0.0
230
1.0
 70
    12
 71
     2
 72
     6
 73
     3
 74
     0
 42
0.0000000001
 43
0.0000000001
 40
0.0
 40
0.0
 40
0.0
 40
5.958515122876113
 40
5.958515122876113
 40
5.958515122876113
 10
19652.56559633175
 20
25175.43563755463
 30
0.0
 41
0.9999999999999989
 10
19655.54478930125
 20
25175.45530045234
 30
0.0
 41
0.9999998538089131
 10
19658.52400351575
 20
25175.47142316115
 30
0.0
 41
1.0
  0
SPLINE
  5
8B
330
1F
100
AcDbEntity
  8
MAKE2D VISIBLE LINES
100
AcDbSpline
210
0.0
220
0.0
230
1.0
 70
    12
 71
     2
 72
     6
 73
     3
 74
     0
 42
0.0000000001
 43
0.0000000001
 40
0.0
 40
0.0
 40
0.0
 40
0.7704956661474642
 40
0.7704956661474642
 40
0.7704956661474642
 10
19743.35814948943
 20
25175.31619988613
 30
0.0
 41
1.0
 10
19742.97291789536
 20
25175.3197371531
 30
0.0
 41
0.9999999977872361
 10
19742.58768521683
 20
25175.32315572632
 30
0.0
 41
1.0
  0
SPLINE
  5
8C
330
1F
100
AcDbEntity
  8
MAKE2D VISIBLE LINES
100
AcDbSpline
210
0.0
220
0.0
230
1.0
 70
    12
 71
     2
 72
     6
 73
     3
 74
     0
 42
0.0000000001
 43
0.0000000001
 40
0.0
 40
0.0
 40
0.0
 40
18.39885152254344
 40
18.39885152254344
 40
18.39885152254344
 10
19742.58768521683
 20
25175.32315572632
 30
0.0
 41
1.0
 10
19733.38862373807
 20
25175.40588812932
 30
0.0
 41
0.9999987397091565
 10
19724.18934766675
 20
25175.45970776253
 30
0.0
 41
1.0
  0
SPLINE
  5
8D
330
1F
100
AcDbEntity
  8
MAKE2D VISIBLE LINES
100
AcDbSpline
210
0.0
220
0.0
230
1.0
 70
    12
 71
     2
 72
     6
 73
     3
 74
     0
 42
0.0000000001
 43
0.0000000001
 40
0.0
 40
0.0
 40
0.0
 40
2.634366307599131
 40
2.634366307599131
 40
2.634366307599131
 10
19724.18934766675
 20
25175.45970776253
 30
0.0
 41
1.0
 10
19722.87218785479
 20
25175.46755713441
 30
0.0
 41
0.9999999710751579
 10
19721.55502320232
 20
25175.47454325317
 30
0.0
 41
1.0
  0
SPLINE
  5
8E
330
1F
100
AcDbEntity
  8
MAKE2D VISIBLE LINES
100
AcDbSpline
210
0.0
220
0.0
230
1.0
 70
    12
 71
     2
 72
     6
 73
     3
 74
     0
 42
0.0000000001
 43
0.0000000001
 40
0.0
 40
0.0
 40
0.0
 40
0.3548745925388345
 40
0.3548745925388345
 40
0.3548745925388345
 10
19696.60857995475
 20
25175.55197803185
 30
0.0
 41
1.0
 10
19696.43114278483
 20
25175.55218904897
 30
0.0
 41
0.9999999998307493
 10
19696.25370566743
 20
25175.55244574887
 30
0.0
 41
1.0
  0
SPLINE
  5
8F
330
1F
100
AcDbEntity
  8
MAKE2D VISIBLE LINES
100
AcDbSpline
210
0.0
220
0.0
230
1.0
 70
    12
 71
     2
 72
     6
 73
     3
 74
     0
 42
0.0000000001
 43
0.0000000001
 40
0.0
 40
0.0
 40
0.0
 40
5.922976364740536
 40
5.922976364740536
 40
5.922976364740536
 10
19696.25370566743
 20
25175.55244574887
 30
0.0
 41
1.0
 10
19693.29221951396
 20
25175.55598551751
 30
0.0
 41
0.9999999562625133
 10
19690.33073175414
 20
25175.55772128541
 30
0.0
 41
1.0
  0
SPLINE
  5
90
330
1F
100
AcDbEntity
  8
MAKE2D VISIBLE LINES
100
AcDbSpline
210
0.0
220
0.0
230
1.0
 70
    12
 71
     2
 72
     6
 73
     3
 74
     0
 42
0.0000000001
 43
0.0000000001
 40
0.0
 40
0.0
 40
0.0
 40
7.700471952968187
 40
7.700471952968187
 40
7.700471952968187
 10
19506.18123952663
 20
25172.64272344359
 30
0.0
 41
1.0
 10
19501.33243826694
 20
25172.63426765325
 30
0.0
 41
0.7178759507241425
 10
19501.17519165872
 20
25177.48052586571
 30
0.0
 41
1.0
  0
SPLINE
  5
91
330
1F
100
AcDbEntity
  8
MAKE2D VISIBLE LINES
100
AcDbSpline
210
0.0
220
0.0
230
1.0
 70
    24
 71
     2
 72
     6
 73
     3
 74
     0
 42
0.0000000001
 43
0.0000000001
 40
0.0
 40
0.0
 40
0.0
 40
19.99875288196414
 40
19.99875288196414
 40
19.99875288196414
 10
19501.17519165872
 20
25177.48052586571
 30
0.0
 10
19500.8508458687
 20
25187.47495510401
 30
0.0
 10
19500.52650007869
 20
25197.46938434231
 30
0.0
  0
SPLINE
  5
92
330
1F
100
AcDbEntity
  8
MAKE2D VISIBLE LINES
100
AcDbSpline
210
0.0
220
0.0
230
1.0
 70
    12
 71
     2
 72
     8
 73
     5
 74
     0
 42
0.0000000001
 43
0.0000000001
 40
0.0
 40
0.0
 40
0.0
 40
3.928956820473737
 40
3.928956820473737
 40
7.857913640947475
 40
7.857913640947475
 40
7.857913640947475
 10
19500.52650007869
 20
25197.46938434231
 30
0.0
 41
1.0
 10
19500.45932191495
 20
25199.54113983515
 30
0.0
 41
0.9238068430450864
 10
19501.87689778217
 20
25201.05261472931
 30
0.0
 41
1.0
 10
19503.29447364938
 20
25202.56408962348
 30
0.0
 41
0.9238068430450864
 10
19505.36589106312
 20
25202.62970723049
 30
0.0
 41
1.0
  0
SPLINE
  5
93
330
1F
100
AcDbEntity
  8
MAKE2D VISIBLE LINES
100
AcDbSpline
210
0.0
220
0.0
230
1.0
 70
    12
 71
     2
 72
     6
 73
     3
 74
     0
 42
0.0000000001
 43
0.0000000001
 40
0.0
 40
0.0
 40
0.0
 40
1.93210328535736
 40
1.93210328535736
 40
1.93210328535736
 10
19505.36589106312
 20
25202.62970723049
 30
0.0
 41
1.0
 10
19506.33169954692
 20
25202.66028652365
 30
0.0
 41
0.9999999863388148
 10
19507.29728638793
 20
25202.69025205178
 30
0.0
 41
1.0
  0
SPLINE
  5
94
330
1F
100
AcDbEntity
  8
MAKE2D VISIBLE LINES
100
AcDbSpline
210
0.0
220
0.0
230
1.0
 70
    12
 71
     2
 72
     6
 73
     3
 74
     0
 42
0.0000000001
 43
0.0000000001
 40
0.0
 40
0.0
 40
0.0
 40
0.0747838863556027
 40
0.0747838863556027
 40
0.0747838863556027
 10
19507.29728638793
 20
25202.69025205178
 30
0.0
 41
0.9999999965083303
 10
19507.33464951627
 20
25202.69171039746
 30
0.0
 41
0.9999703910071459
 10
19507.37506093016
 20
25202.69297565547
 30
0.0
 41
1.0
  0
SPLINE
  5
95
330
1F
100
AcDbEntity
  8
MAKE2D VISIBLE LINES
100
AcDbSpline
210
0.0
220
0.0
230
1.0
 70
    12
 71
     2
 72
     6
 73
     3
 74
     0
 42
0.0000000001
 43
0.0000000001
 40
0.0
 40
0.0
 40
0.0
 40
182.9825328308818
 40
182.9825328308818
 40
182.9825328308818
 10
19507.37506093016
 20
25202.69297565547
 30
0.0
 41
1.0
 10
19598.83198906011
 20
25205.55770401992
 30
0.0
 41
0.9998774408782157
 10
19690.33073175414
 20
25205.55772128541
 30
0.0
 41
1.0
  0
SPLINE
  5
96
330
1F
100
AcDbEntity
  8
MAKE2D VISIBLE LINES
100
AcDbSpline
210
0.0
220
0.0
230
1.0
 70
     8
 71
     3
 72
    25
 73
    21
 74
     0
 42
0.0000000001
 43
0.0000000001
 40
-184.9984480669242
 40
-184.9984480669242
 40
-184.9984480669242
 40
-184.9984480669242
 40
-160.8429889190388
 40
-138.5473434465954
 40
-91.8394284044748
 40
-46.54917189967927
 40
-23.11888703787719
 40
-11.38523655190503
 40
-5.699410812299881
 40
-2.85401890115953
 40
-2.139924045685388
 40
-1.428181587267578
 40
-0.7114622359879638
 40
-0.363281230542353
 40
-0.1754418256376214
 40
-0.0781375993947677
 40
-0.0348482191602098
 40
-0.0136997232295239
 40
-0.0022455695221804
 40
0.0
 40
0.0
 40
0.0
 40
0.0
 10
19690.33073175414
 20
25205.55772128541
 30
0.0
 10
19698.38252367066
 20
25205.55314104642
 30
0.0
 10
19713.86619874206
 20
25205.52735195558
 30
0.0
 10
19744.91853583367
 20
25205.3387535557
 30
0.0
 10
19783.01423698254
 20
25204.88266346605
 30
0.0
 10
19821.48243132777
 20
25204.12078498871
 30
0.0
 10
19848.29260924526
 20
25203.4314288528
 30
0.0
 10
19861.9023778363
 20
25203.04066695123
 30
0.0
 10
19868.65531038402
 20
25202.8367153924
 30
0.0
 10
19871.73473040672
 20
25202.7414661805
 30
0.0
 10
19873.15883105848
 20
25202.69698409007
 30
0.0
 10
19873.86830036465
 20
25202.67473668583
 30
0.0
 10
19874.46183570671
 20
25202.65605339058
 30
0.0
 10
19874.87932550517
 20
25202.64287394112
 30
0.0
 10
19875.09023732448
 20
25202.63620484955
 30
0.0
 10
19875.19983157609
 20
25202.63273771412
 30
0.0
 10
19875.25341253473
 20
25202.63104204074
 30
0.0
 10
19875.27919155636
 20
25202.6302259889
 30
0.0
 10
19875.29008886763
 20
25202.62988094915
 30
0.0
 10
19875.29547025375
 20
25202.6297105104
 30
0.0
 10
19875.29740956784
 20
25202.62964838921
 30
0.0
  0
SPLINE
  5
97
330
1F
100
AcDbEntity
  8
MAKE2D VISIBLE LINES
100
AcDbSpline
210
0.0
220
0.0
230
1.0
 70
    12
 71
     2
 72
     8
 73
     5
 74
     0
 42
0.0000000001
 43
0.0000000001
 40
0.0
 40
0.0
 40
0.0
 40
3.927154363766034
 40
3.927154363766034
 40
7.854308727532068
 40
7.854308727532068
 40
7.854308727532068
 10
19875.29740956784
 20
25202.62964838921
 30
0.0
 41
1.0
 10
19877.36956973921
 20
25202.56255179429
 30
0.0
 41
0.9238708533061708
 10
19878.78587299974
 20
25201.05132080659
 30
0.0
 41
1.0
 10
19880.20217626026
 20
25199.54008981889
 30
0.0
 41
0.9238708533061708
 10
19880.13496343189
 20
25197.46938434231
 30
0.0
 41
1.0
  0
SPLINE
  5
98
330
1F
100
AcDbEntity
  8
MAKE2D VISIBLE LINES
100
AcDbSpline
210
0.0
220
0.0
230
1.0
 70
    24
 71
     2
 72
     6
 73
     3
 74
     0
 42
0.0000000001
 43
0.0000000001
 40
0.0
 40
0.0
 40
0.0
 40
19.9987528819641
 40
19.9987528819641
 40
19.9987528819641
 10
19880.13496343189
 20
25197.46938434231
 30
0.0
 10
19879.81061764188
 20
25187.47495510401
 30
0.0
 10
19879.48627185186
 20
25177.48052586571
 30
0.0
  0
SPLINE
  5
99
330
1F
100
AcDbEntity
  8
MAKE2D VISIBLE LINES
100
AcDbSpline
210
0.0
220
0.0
230
1.0
 70
    12
 71
     2
 72
     6
 73
     3
 74
     0
 42
0.0000000001
 43
0.0000000001
 40
0.0
 40
0.0
 40
0.0
 40
7.817754221476687
 40
7.817754221476687
 40
7.817754221476687
 10
19879.48627185186
 20
25177.48052586571
 30
0.0
 41
0.999999999996815
 10
19879.32526778242
 20
25172.51923906094
 30
0.0
 41
0.7096647106023773
 10
19874.36294492949
 20
25172.64430293397
 30
0.0
 41
1.0
  0
SPLINE
  5
9A
330
1F
100
AcDbEntity
  8
MAKE2D VISIBLE LINES
100
AcDbSpline
210
0.0
220
0.0
230
1.0
 70
     8
 71
     3
 72
     8
 73
     4
 74
     0
 42
0.0000000001
 43
0.0000000001
 40
-1.91080199444368
 40
-1.91080199444368
 40
-1.91080199444368
 40
-1.91080199444368
 40
0.0
 40
0.0
 40
0.0
 40
0.0
 10
19870.68892623678
 20
25172.75937516672
 30
0.0
 10
19871.32528939721
 20
25172.73962684326
 30
0.0
 10
19871.96289617767
 20
25172.71973491359
 30
0.0
 10
19872.59810634011
 20
25172.70350106961
 30
0.0
  0
SPLINE
  5
9B
330
1F
100
AcDbEntity
  8
MAKE2D VISIBLE LINES
100
AcDbSpline
210
0.0
220
0.0
230
1.0
 70
    12
 71
     2
 72
     6
 73
     3
 74
     0
 42
0.0000000001
 43
0.0000000001
 40
0.0
 40
0.0
 40
0.0
 40
0.045146446761746
 40
0.045146446761746
 40
0.045146446761746
 10
19872.59810634011
 20
25172.70350106961
 30
0.0
 41
1.0
 10
19872.6207868189
 20
25172.70770389776
 30
0.0
 41
0.9999899276080678
 10
19872.64350836726
 20
25172.70340539595
 30
0.0
 41
0.9999999991485374
  0
SPLINE
  5
9C
330
1F
100
AcDbEntity
  8
MAKE2D VISIBLE LINES
100
AcDbSpline
210
0.0
220
0.0
230
1.0
 70
    12
 71
     2
 72
     6
 73
     3
 74
     0
 42
0.0000000001
 43
0.0000000001
 40
-1.652397772965488
 40
-1.652397772965488
 40
-1.652397772965488
 40
0.0
 40
0.0
 40
0.0
 10
19872.64350836725
 20
25172.70340539595
 30
0.0
 41
1.0
 10
19873.46945981574
 20
25172.67248030035
 30
0.0
 41
0.9999999899864384
 10
19874.29524769657
 20
25172.64642284469
 30
0.0
 41
1.0
  0
SPLINE
  5
9D
330
1F
100
AcDbEntity
  8
MAKE2D VISIBLE LINES
100
AcDbSpline
210
0.0
220
0.0
230
1.0
 70
    24
 71
     2
 72
     6
 73
     3
 74
     0
 42
0.0000000001
 43
0.0000000001
 40
0.0
 40
0.0
 40
0.0
 40
0.0111340165814436
 40
0.0111340165814436
 40
0.0111340165814436
 10
19874.29524769657
 20
25172.64642284469
 30
0.0
 10
19874.30081191869
 20
25172.64624674305
 30
0.0
 10
19874.30637614082
 20
25172.64607064141
 30
0.0
  0
SPLINE
  5
9E
330
1F
100
AcDbEntity
  8
MAKE2D VISIBLE LINES
100
AcDbSpline
210
0.0
220
0.0
230
1.0
 70
    12
 71
     2
 72
     6
 73
     3
 74
     0
 42
0.0000000001
 43
0.0000000001
 40
-0.0149923009128368
 40
-0.0149923009128368
 40
-0.0149923009128368
 40
0.0
 40
0.0
 40
0.0
 10
19874.30637614082
 20
25172.64607064141
 30
0.0
 41
1.0
 10
19874.31386529046
 20
25172.64575258435
 30
0.0
 41
0.9999999999921502
 10
19874.321359562
 20
25172.64559631783
 30
0.0
 41
0.9999999999999987
  0
SPLINE
  5
9F
330
1F
100
AcDbEntity
  8
MAKE2D VISIBLE LINES
100
AcDbSpline
210
0.0
220
0.0
230
1.0
 70
    24
 71
     2
 72
     6
 73
     3
 74
     0
 42
0.0000000001
 43
0.0000000001
 40
0.0
 40
0.0
 40
0.0
 40
0.0012251369912662
 40
0.0012251369912662
 40
0.0012251369912662
 10
19874.321359562
 20
25172.64559631783
 30
0.0
 10
19874.32309721327
 20
25172.64558137195
 30
0.0
 10
19874.32483486454
 20
25172.64556642608
 30
0.0
  0
SPLINE
  5
A0
330
1F
100
AcDbEntity
  8
MAKE2D VISIBLE LINES
100
AcDbSpline
210
0.0
220
0.0
230
1.0
 70
    12
 71
     2
 72
     6
 73
     3
 74
     0
 42
0.0000000001
 43
0.0000000001
 40
0.0
 40
0.0
 40
0.0
 40
7.853619836822384
 40
7.853619836822384
 40
7.853619836822384
 10
19874.32483486454
 20
25172.64556642608
 30
0.0
 41
1.0
 10
19879.32411810316
 20
25172.48299015471
 30
0.0
 41
0.7071251509833413
 10
19879.16183007798
 20
25167.48461212766
 30
0.0
 41
1.0
  0
SPLINE
  5
A1
330
1F
100
AcDbEntity
  8
MAKE2D VISIBLE LINES
100
AcDbSpline
210
0.0
220
0.0
230
1.0
 70
    24
 71
     2
 72
     6
 73
     3
 74
     0
 42
0.0000000001
 43
0.0000000001
 40
0.0
 40
0.0
 40
0.0
 40
89.997692908569
 40
89.997692908569
 40
89.997692908569
 10
19879.16183007798
 20
25167.48461212766
 30
0.0
 10
19877.70212064148
 20
25122.50877885717
 30
0.0
 10
19876.24241120498
 20
25077.53294558667
 30
0.0
  0
SPLINE
  5
A2
330
1F
100
AcDbEntity
  8
MAKE2D VISIBLE LINES
100
AcDbSpline
210
0.0
220
0.0
230
1.0
 70
    12
 71
     2
 72
     6
 73
     3
 74
     0
 42
0.0000000001
 43
0.0000000001
 40
0.0
 40
0.0
 40
0.0
 40
7.732833406889334
 40
7.732833406889334
 40
7.732833406889334
 10
19876.24241120498
 20
25077.53294558667
 30
0.0
 41
1.0
 10
19876.08257193651
 20
25072.65529326122
 30
0.0
 41
0.7156263227188532
 10
19871.20247799727
 20
25072.69681363508
 30
0.0
 41
1.0
  0
SPLINE
  5
A3
330
1F
100
AcDbEntity
  8
MAKE2D VISIBLE LINES
100
AcDbSpline
210
0.0
220
0.0
230
1.0
 70
    12
 71
     2
 72
     6
 73
     3
 74
     0
 42
0.0000000001
 43
0.0000000001
 40
0.0
 40
0.0
 40
0.0
 40
0.1201910986229533
 40
0.1201910986229533
 40
0.1201910986229533
 10
19871.20247799727
 20
25072.69681363508
 30
0.0
 41
1.0
 10
19871.14238243979
 20
25072.69736634866
 30
0.0
 41
0.9999363570200208
 10
19871.08231463693
 20
25072.69927437927
 30
0.0
 41
0.9999999999998017
  0
SPLINE
  5
A4
330
1F
100
AcDbEntity
  8
MAKE2D VISIBLE LINES
100
AcDbSpline
210
0.0
220
0.0
230
1.0
 70
     8
 71
     3
 72
    13
 73
     9
 74
     0
 42
0.0000000001
 43
0.0000000001
 40
0.0
 40
0.0
 40
0.0
 40
0.0
 40
0.0186412025190066
 40
0.0978709673036114
 40
0.2470248661905615
 40
0.6508644853266922
 40
1.657579292892806
 40
3.86232359211462
 40
3.86232359211462
 40
3.86232359211462
 40
3.86232359211462
 10
19871.08231463693
 20
25072.69927437927
 30
0.0
 10
19871.08864407201
 20
25072.69908192584
 30
0.0
 10
19871.05138188285
 20
25072.70027646023
 30
0.0
 10
19870.97110472489
 20
25072.70282337567
 30
0.0
 10
19870.75976527487
 20
25072.70952421464
 30
0.0
 10
19870.24034860664
 20
25072.72589338519
 30
0.0
 10
19869.03576379846
 20
25072.76367194723
 30
0.0
 10
19867.965837144
 20
25072.79702744722
 30
0.0
 10
19867.23126263431
 20
25072.8197561881
 30
0.0
  0
SPLINE
  5
A5
330
1F
100
AcDbEntity
  8
MAKE2D VISIBLE LINES
100
AcDbSpline
210
0.0
220
0.0
230
1.0
 70
    12
 71
     2
 72
     6
 73
     3
 74
     0
 42
0.0000000001
 43
0.0000000001
 40
-35.60332587693745
 40
-35.60332587693745
 40
-35.60332587693745
 40
0.0
 40
0.0
 40
0.0
 10
19867.23126263431
 20
25072.8197561881
 30
0.0
 41
1.0
 10
19849.4380698337
 20
25073.37069317235
 30
0.0
 41
0.9999951776349235
 10
19831.64179831501
 20
25073.8111032375
 30
0.0
 41
1.0
  0
SPLINE
  5
A6
330
1F
100
AcDbEntity
  8
MAKE2D VISIBLE LINES
100
AcDbSpline
210
0.0
220
0.0
230
1.0
 70
    12
 71
     2
 72
     6
 73
     3
 74
     0
 42
0.0000000001
 43
0.0000000001
 40
0.0
 40
0.0
 40
0.0
 40
0.1689246985701501
 40
0.1689246985701501
 40
0.1689246985701501
 10
19511.50747306292
 20
25072.75992171971
 30
0.0
 41
1.0
 10
19511.42305202023
 20
25072.75728050791
 30
0.0
 41
0.9999999999036417
 10
19511.33863105065
 20
25072.75463696041
 30
0.0
 41
1.0
  0
SPLINE
  5
A7
330
1F
100
AcDbEntity
  8
MAKE2D VISIBLE LINES
100
AcDbSpline
210
0.0
220
0.0
230
1.0
 70
    12
 71
     2
 72
     6
 73
     3
 74
     0
 42
0.0000000001
 43
0.0000000001
 40
0.0
 40
0.0
 40
0.0
 40
0.6984743891695123
 40
0.6984743891695123
 40
0.6984743891695123
 10
19511.33863105065
 20
25072.75463696041
 30
0.0
 41
1.0
 10
19510.98956501793
 20
25072.74370429663
 30
0.0
 41
0.9999999984069796
 10
19510.64050019055
 20
25072.73273321461
 30
0.0
 41
1.0
  0
SPLINE
  5
A8
330
1F
100
AcDbEntity
  8
MAKE2D VISIBLE LINES
100
AcDbSpline
210
0.0
220
0.0
230
1.0
 70
    12
 71
     2
 72
     6
 73
     3
 74
     0
 42
0.0000000001
 43
0.0000000001
 40
0.0
 40
0.0
 40
0.0
 40
0.0712412944453358
 40
0.0712412944453358
 40
0.0712412944453358
 10
19510.64050019055
 20
25072.73273321461
 30
0.0
 41
1.0
 10
19510.60489709414
 20
25072.73161516409
 30
0.0
 41
0.9999999999805115
 10
19510.56929407587
 20
25072.7304946289
 30
0.0
 41
1.0
  0
SPLINE
  5
A9
330
1F
100
AcDbEntity
  8
MAKE2D VISIBLE LINES
100
AcDbSpline
210
0.0
220
0.0
230
1.0
 70
    12
 71
     2
 72
     6
 73
     3
 74
     0
 42
0.0000000001
 43
0.0000000001
 40
0.0
 40
0.0
 40
0.0
 40
0.1005234608997258
 40
0.1005234608997258
 40
0.1005234608997258
 10
19510.56929407587
 20
25072.7304946289
 30
0.0
 41
1.0
 10
19510.51905720857
 20
25072.72891389732
 30
0.0
 41
0.9999999999625917
 10
19510.46882030171
 20
25072.72733442247
 30
0.0
 41
1.0
  0
SPLINE
  5
AA
330
1F
100
AcDbEntity
  8
MAKE2D VISIBLE LINES
100
AcDbSpline
210
0.0
220
0.0
230
1.0
 70
    12
 71
     2
 72
     6
 73
     3
 74
     0
 42
0.0000000001
 43
0.0000000001
 40
0.0
 40
0.0
 40
0.0
 40
0.05316265382846
 40
0.05316265382846
 40
0.05316265382846
 10
19510.46882030171
 20
25072.72733442247
 30
0.0
 41
1.0
 10
19510.44225208661
 20
25072.72649962363
 30
0.0
 41
0.9999999999882334
 10
19510.4156839479
 20
25072.72566239813
 30
0.0
 41
1.0
  0
SPLINE
  5
AB
330
1F
100
AcDbEntity
  8
MAKE2D VISIBLE LINES
100
AcDbSpline
210
0.0
220
0.0
230
1.0
 70
    12
 71
     2
 72
     6
 73
     3
 74
     0
 42
0.0000000001
 43
0.0000000001
 40
0.0
 40
0.0
 40
0.0
 40
0.1035537878718492
 40
0.1035537878718492
 40
0.1035537878718492
 10
19510.4156839479
 20
25072.72566239813
 30
0.0
 41
1.0
 10
19510.36393271038
 20
25072.72403262467
 30
0.0
 41
0.9999999999569777
 10
19510.31218143509
 20
25072.72240404924
 30
0.0
 41
1.0
  0
SPLINE
  5
AC
330
1F
100
AcDbEntity
  8
MAKE2D VISIBLE LINES
100
AcDbSpline
210
0.0
220
0.0
230
1.0
 70
    12
 71
     2
 72
     6
 73
     3
 74
     0
 42
0.0000000001
 43
0.0000000001
 40
0.0
 40
0.0
 40
0.0
 40
0.0409841826593021
 40
0.0409841826593021
 40
0.0409841826593021
 10
19510.31218143509
 20
25072.72240404924
 30
0.0
 41
1.0
 10
19510.29169946306
 20
25072.7217601299
 30
0.0
 41
0.9999999999925485
 10
19510.27121756302
 20
25072.72111392671
 30
0.0
 41
1.0
  0
SPLINE
  5
AD
330
1F
100
AcDbEntity
  8
MAKE2D VISIBLE LINES
100
AcDbSpline
210
0.0
220
0.0
230
1.0
 70
    12
 71
     2
 72
     6
 73
     3
 74
     0
 42
0.0000000001
 43
0.0000000001
 40
0.0
 40
0.0
 40
0.0
 40
0.1006752943430402
 40
0.1006752943430402
 40
0.1006752943430402
 10
19510.27121756302
 20
25072.72111392671
 30
0.0
 41
1.0
 10
19510.22090490028
 20
25072.71952814884
 30
0.0
 41
0.9999999999568883
 10
19510.17059220232
 20
25072.71794348556
 30
0.0
 41
1.0
  0
SPLINE
  5
AE
330
1F
100
AcDbEntity
  8
MAKE2D VISIBLE LINES
100
AcDbSpline
210
0.0
220
0.0
230
1.0
 70
    24
 71
     2
 72
     6
 73
     3
 74
     0
 42
0.0000000001
 43
0.0000000001
 40
0.0
 40
0.0
 40
0.0
 40
0.019161878344727
 40
0.019161878344727
 40
0.019161878344727
 10
19510.17059220232
 20
25072.71794348556
 30
0.0
 10
19510.16101601854
 20
25072.71764165729
 30
0.0
 10
19510.15143983477
 20
25072.71733982902
 30
0.0
  0
SPLINE
  5
AF
330
1F
100
AcDbEntity
  8
MAKE2D VISIBLE LINES
100
AcDbSpline
210
0.0
220
0.0
230
1.0
 70
    24
 71
     2
 72
     6
 73
     3
 74
     0
 42
0.0000000001
 43
0.0000000001
 40
0.0
 40
0.0
 40
0.0
 40
0.0119947197660828
 40
0.0119947197660828
 40
0.0119947197660828
 10
19510.15143983477
 20
25072.71733982902
 30
0.0
 10
19510.14544545221
 20
25072.71715087664
 30
0.0
 10
19510.13945106966
 20
25072.71696192426
 30
0.0
  0
SPLINE
  5
B0
330
1F
100
AcDbEntity
  8
MAKE2D VISIBLE LINES
100
AcDbSpline
210
0.0
220
0.0
230
1.0
 70
    12
 71
     2
 72
     6
 73
     3
 74
     0
 42
0.0000000001
 43
0.0000000001
 40
0.0
 40
0.0
 40
0.0
 40
0.1085311155945907
 40
0.1085311155945907
 40
0.1085311155945907
 10
19510.13945106966
 20
25072.71696192426
 30
0.0
 41
1.0
 10
19510.08521242436
 20
25072.7152530995
 30
0.0
 41
0.9999999999473619
 10
19510.03097387213
 20
25072.71354132389
 30
0.0
 41
1.0
  0
SPLINE
  5
B1
330
1F
100
AcDbEntity
  8
MAKE2D VISIBLE LINES
100
AcDbSpline
210
0.0
220
0.0
230
1.0
 70
    12
 71
     2
 72
     6
 73
     3
 74
     0
 42
0.0000000001
 43
0.0000000001
 40
0.0
 40
0.0
 40
0.0
 40
0.182405921388946
 40
0.182405921388946
 40
0.182405921388946
 10
19510.03097387213
 20
25072.71354132389
 30
0.0
 41
1.0
 10
19509.93981627476
 20
25072.71066514322
 30
0.0
 41
0.9999999998729658
 10
19509.84865872034
 20
25072.70778760164
 30
0.0
 41
1.0
  0
SPLINE
  5
B2
330
1F
100
AcDbEntity
  8
MAKE2D VISIBLE LINES
100
AcDbSpline
210
0.0
220
0.0
230
1.0
 70
    12
 71
     2
 72
     6
 73
     3
 74
     0
 42
0.0000000001
 43
0.0000000001
 40
0.0
 40
0.0
 40
0.0
 40
0.2698612694372225
 40
0.2698612694372225
 40
0.2698612694372225
 10
19509.84865872034
 20
25072.70778760164
 30
0.0
 41
1.0
 10
19509.71379525919
 20
25072.70353048469
 30
0.0
 41
0.999999999337596
 10
19509.57668100846
 20
25072.69919165088
 30
0.0
 41
1.0
  0
SPLINE
  5
B3
330
1F
100
AcDbEntity
  8
MAKE2D VISIBLE LINES
100
AcDbSpline
210
0.0
220
0.0
230
1.0
 70
    12
 71
     2
 72
     6
 73
     3
 74
     0
 42
0.0000000001
 43
0.0000000001
 40
0.0
 40
0.0
 40
0.0
 40
7.849916026372771
 40
7.849916026372771
 40
7.849916026372771
 10
19509.57668100846
 20
25072.69919165088
 30
0.0
 41
1.0
 10
19504.58095956954
 20
25072.54108748449
 30
0.0
 41
0.7073875108367632
 10
19504.41896727562
 20
25077.53447623933
 30
0.0
 41
1.0
  0
SPLINE
  5
B4
330
1F
100
AcDbEntity
  8
MAKE2D VISIBLE LINES
100
AcDbSpline
210
0.0
220
0.0
230
1.0
 70
    24
 71
     2
 72
     6
 73
     3
 74
     0
 42
0.0000000001
 43
0.0000000001
 40
0.0
 40
0.0
 40
0.0
 40
89.99733587130896
 40
89.99733587130896
 40
89.99733587130896
 10
19504.41896727562
 20
25077.53447623933
 30
0.0
 10
19502.95929502207
 20
25122.50985083431
 30
0.0
 10
19501.49962276852
 20
25167.4852254293
 30
0.0
  0
SPLINE
  5
B5
330
1F
100
AcDbEntity
  8
MAKE2D VISIBLE LINES
100
AcDbSpline
210
0.0
220
0.0
230
1.0
 70
    12
 71
     2
 72
     6
 73
     3
 74
     0
 42
0.0000000001
 43
0.0000000001
 40
0.0
 40
0.0
 40
0.0
 40
7.739750396808775
 40
7.739750396808775
 40
7.739750396808775
 10
19501.49962276852
 20
25167.4852254293
 30
0.0
 41
1.0
 10
19501.34109264042
 20
25172.37042988131
 30
0.0
 41
0.715139281924058
 10
19506.22106507475
 20
25172.64052817142
 30
0.0
 41
1.0
  0
SPLINE
  5
B6
330
1F
100
AcDbEntity
  8
MAKE2D VISIBLE LINES
100
AcDbSpline
210
0.0
220
0.0
230
1.0
 70
    12
 71
     2
 72
     6
 73
     3
 74
     0
 42
0.0000000001
 43
0.0000000001
 40
0.0
 40
0.0
 40
0.0
 40
0.132611670461543
 40
0.132611670461543
 40
0.132611670461543
 10
19506.22106507475
 20
25172.64052817142
 30
0.0
 41
1.0
 10
19506.28751421909
 20
25172.64407684402
 30
0.0
 41
0.9999371776373558
 10
19506.35363370934
 20
25172.64612346845
 30
0.0
 41
0.9999996998723965
  0
SPLINE
  5
B7
330
1F
100
AcDbEntity
  8
MAKE2D VISIBLE LINES
100
AcDbSpline
210
0.0
220
0.0
230
1.0
 70
    12
 71
     2
 72
     6
 73
     3
 74
     0
 42
0.0000000001
 43
0.0000000001
 40
0.0
 40
0.0
 40
0.0
 40
0.0157588791451664
 40
0.0157588791451664
 40
0.0157588791451664
 10
19506.35363370934
 20
25172.64612346846
 30
0.0
 41
0.9999999999414403
 10
19506.36135082335
 20
25172.64637018582
 30
0.0
 41
0.9999999985433468
 10
19506.36906795746
 20
25172.6466162735
 30
0.0
 41
1.0
  0
SPLINE
  5
B8
330
1F
100
AcDbEntity
  8
MAKE2D VISIBLE LINES
100
AcDbSpline
210
0.0
220
0.0
230
1.0
 70
    24
 71
     2
 72
     6
 73
     3
 74
     0
 42
0.0000000001
 43
0.0000000001
 40
0.0
 40
0.0
 40
0.0
 40
115.5599915020649
 40
115.5599915020649
 40
115.5599915020649
 10
19544.57747047454
 20
25073.69945755581
 30
0.0
 10
19546.59391702534
 20
25015.95465820299
 30
0.0
 10
19548.61036357614
 20
24958.20985885017
 30
0.0
  0
SPLINE
  5
B9
330
1F
100
AcDbEntity
  8
MAKE2D VISIBLE LINES
100
AcDbSpline
210
0.0
220
0.0
230
1.0
 70
    12
 71
     2
 72
     6
 73
     3
 74
     0
 42
0.0000000001
 43
0.0000000001
 40
0.0
 40
0.0
 40
0.0
 40
15.35890249394701
 40
15.35890249394701
 40
15.35890249394701
 10
19548.61036357614
 20
24958.20985885017
 30
0.0
 41
1.0
 10
19548.94737937021
 20
24948.55884874389
 30
0.0
 41
0.7193396240204024
 10
19558.60427202349
 20
24948.55884874389
 30
0.0
 41
1.0
  0
SPLINE
  5
BA
330
1F
100
AcDbEntity
  8
MAKE2D VISIBLE LINES
100
AcDbSpline
210
0.0
220
0.0
230
1.0
 70
    24
 71
     2
 72
     6
 73
     3
 74
     0
 42
0.0000000001
 43
0.0000000001
 40
-263.4528776575079
 40
-263.4528776575079
 40
-263.4528776575079
 40
0.0
 40
0.0
 40
0.0
 10
19558.60427202349
 20
24948.55884874389
 30
0.0
 10
19690.33071085225
 20
24948.55884874389
 30
0.0
 10
19822.057149681
 20
24948.55884874389
 30
0.0
  0
SPLINE
  5
BB
330
1F
100
AcDbEntity
  8
MAKE2D VISIBLE LINES
100
AcDbSpline
210
0.0
220
0.0
230
1.0
 70
    12
 71
     2
 72
     6
 73
     3
 74
     0
 42
0.0000000001
 43
0.0000000001
 40
0.0
 40
0.0
 40
0.0
 40
15.35890249394775
 40
15.35890249394775
 40
15.35890249394775
 10
19822.057149681
 20
24948.55884874389
 30
0.0
 41
1.0
 10
19831.71404233428
 20
24948.55884874389
 30
0.0
 41
0.7193396240205219
 10
19832.05105812835
 20
24958.20985885018
 30
0.0
 41
1.0
  0
SPLINE
  5
BC
330
1F
100
AcDbEntity
  8
MAKE2D VISIBLE LINES
100
AcDbSpline
210
0.0
220
0.0
230
1.0
 70
    24
 71
     2
 72
     6
 73
     3
 74
     0
 42
0.0000000001
 43
0.0000000001
 40
0.0
 40
0.0
 40
0.0
 40
115.5599912264095
 40
115.5599912264095
 40
115.5599912264095
 10
19832.05105812835
 20
24958.20985885018
 30
0.0
 10
19834.06750430186
 20
25015.95465807826
 30
0.0
 10
19836.08395047537
 20
25073.69945730633
 30
0.0
  0
SPLINE
  5
BD
330
1F
100
AcDbEntity
  8
MAKE2D VISIBLE LINES
100
AcDbSpline
210
0.0
220
0.0
230
1.0
 70
    12
 71
     2
 72
     6
 73
     3
 74
     0
 42
0.0000000001
 43
0.0000000001
 40
0.0
 40
0.0
 40
0.0
 40
107.6141934741879
 40
107.6141934741879
 40
107.6141934741879
 10
19647.36167735752
 20
24877.02864070096
 30
0.0
 41
1.0
 10
19593.47563546221
 20
24893.62270174066
 30
0.0
 41
0.9328536804862262
 10
19564.7300746843
 20
24942.12797061421
 30
0.0
 41
1.0
  0
SPLINE
  5
BE
330
1F
100
AcDbEntity
  8
MAKE2D VISIBLE LINES
100
AcDbSpline
210
0.0
220
0.0
230
1.0
 70
    24
 71
     2
 72
     6
 73
     3
 74
     0
 42
0.0000000001
 43
0.0000000001
 40
0.0
 40
0.0
 40
0.0
 40
6.430878129680877
 40
6.430878129680877
 40
6.430878129680877
 10
19564.7300746843
 20
24942.12797061421
 30
0.0
 10
19564.73007468429
 20
24945.34340967905
 30
0.0
 10
19564.73007468428
 20
24948.55884874389
 30
0.0
  0
SPLINE
  5
BF
330
1F
100
AcDbEntity
  8
MAKE2D VISIBLE LINES
100
AcDbSpline
210
0.0
220
0.0
230
1.0
 70
    12
 71
     2
 72
     6
 73
     3
 74
     0
 42
0.0000000001
 43
0.0000000001
 40
-35.67210760531674
 40
-35.67210760531674
 40
-35.67210760531674
 40
0.0
 40
0.0
 40
0.0
 10
19549.08842582821
 20
25073.81280724929
 30
0.0
 41
1.0
 10
19531.25776864051
 20
25073.37174920714
 30
0.0
 41
0.9999951606793203
 10
19513.43020089702
 20
25072.81975618863
 30
0.0
 41
1.0
  0
SPLINE
  5
C0
330
1F
100
AcDbEntity
  8
MAKE2D VISIBLE LINES
100
AcDbSpline
210
0.0
220
0.0
230
1.0
 70
    12
 71
     2
 72
     6
 73
     3
 74
     0
 42
0.0000000001
 43
0.0000000001
 40
0.0
 40
0.0
 40
0.0
 40
1.831536807466865
 40
1.831536807466865
 40
1.831536807466865
 10
19513.43020089702
 20
25072.81975618863
 30
0.0
 41
1.0
 10
19512.51487087664
 20
25072.79142357426
 30
0.0
 41
0.9999999875134634
 10
19511.59923579359
 20
25072.7627918473
 30
0.0
 41
1.0
  0
SPLINE
  5
C1
330
1F
100
AcDbEntity
  8
MAKE2D VISIBLE LINES
100
AcDbSpline
210
0.0
220
0.0
230
1.0
 70
    24
 71
     2
 72
     6
 73
     3
 74
     0
 42
0.0000000001
 43
0.0000000001
 40
0.0
 40
0.0
 40
0.0
 40
0.0136255731526072
 40
0.0136255731526072
 40
0.0136255731526072
 10
19511.59923579359
 20
25072.7627918473
 30
0.0
 10
19511.59226930405
 20
25072.76257399996
 30
0.0
 10
19511.5853028145
 20
25072.76235615262
 30
0.0
  0
SPLINE
  5
C2
330
1F
100
AcDbEntity
  8
MAKE2D VISIBLE LINES
100
AcDbSpline
210
0.0
220
0.0
230
1.0
 70
    24
 71
     2
 72
     6
 73
     3
 74
     0
 42
0.0000000001
 43
0.0000000001
 40
0.0
 40
0.0
 40
0.0
 40
6.430878130494875
 40
6.430878130494875
 40
6.430878130494875
 10
19815.93134701975
 20
24948.55884874389
 30
0.0
 10
19815.93134701975
 20
24945.34340967864
 30
0.0
 10
19815.93134701975
 20
24942.1279706134
 30
0.0
  0
SPLINE
  5
C3
330
1F
100
AcDbEntity
  8
MAKE2D VISIBLE LINES
100
AcDbSpline
210
0.0
220
0.0
230
1.0
 70
    12
 71
     2
 72
     6
 73
     3
 74
     0
 42
0.0000000001
 43
0.0000000001
 40
0.0
 40
0.0
 40
0.0
 40
107.6144668168492
 40
107.6144668168492
 40
107.6144668168492
 10
19815.93134701975
 20
24942.1279706134
 30
0.0
 41
1.0
 10
19787.18570714082
 20
24893.62256931388
 30
0.0
 41
0.9328534115673865
 10
19733.29949289512
 20
24877.02854383648
 30
0.0
 41
1.0
  0
ENDSEC
  0
SECTION
  2
OBJECTS
  0
DICTIONARY
  5
C
330
0
100
AcDbDictionary
281
     1
  3
ACAD_GROUP
350
D
  3
ACAD_LAYOUT
350
1A
  3
ACAD_MLEADERSTYLE
350
C7
  3
ACAD_MLINESTYLE
350
17
  3
ACAD_PLOTSETTINGS
350
19
  3
ACAD_PLOTSTYLENAME
350
E
  3
ACAD_SCALELIST
350
3D
  3
ACAD_TABLESTYLE
350
C6
  3
ACAD_VISUALSTYLE
350
2A
  3
AcDbVariableDictionary
350
C4
  0
DICTIONARY
  5
D
102
{ACAD_REACTORS
330
C
102
}
330
C
100
AcDbDictionary
281
     1
  0
DICTIONARY
  5
1A
102
{ACAD_REACTORS
330
C
102
}
330
C
100
AcDbDictionary
281
     1
  3
Layout1
350
1E
  3
Layout2
350
26
  3
Model
350
22
  0
DICTIONARY
  5
C7
102
{ACAD_REACTORS
330
C
102
}
330
C
100
AcDbDictionary
281
     1
  0
DICTIONARY
  5
17
102
{ACAD_REACTORS
330
C
102
}
330
C
100
AcDbDictionary
281
     1
  3
Standard
350
18
  0
DICTIONARY
  5
19
102
{ACAD_REACTORS
330
C
102
}
330
C
100
AcDbDictionary
281
     1
  0
ACDBDICTIONARYWDFLT
  5
E
102
{ACAD_REACTORS
330
C
102
}
330
C
100
AcDbDictionary
281
     1
  3
Normal
350
F
100
AcDbDictionaryWithDefault
340
F
  0
DICTIONARY
  5
3D
102
{ACAD_REACTORS
330
C
102
}
330
C
100
AcDbDictionary
281
     1
  3
A0
350
3E
  3
A1
350
3F
  3
A2
350
40
  3
A3
350
41
  3
A4
350
42
  3
A5
350
43
  3
A6
350
44
  3
A7
350
45
  3
A8
350
46
  3
A9
350
47
  3
B0
350
48
  3
B1
350
49
  3
B2
350
4A
  3
B3
350
4B
  3
B4
350
4C
  3
B5
350
4D
  3
B6
350
4E
  3
B7
350
4F
  3
B8
350
50
  3
B9
350
51
  3
C0
350
52
  3
C1
350
53
  3
C2
350
54
  3
C3
350
55
  3
C4
350
56
  3
C5
350
57
  3
C6
350
58
  3
C7
350
59
  3
C8
350
5A
  3
C9
350
5B
  3
D0
350
5C
  3
D1
350
5D
  3
D2
350
5E
  0
DICTIONARY
  5
C6
102
{ACAD_REACTORS
330
C
102
}
330
C
100
AcDbDictionary
281
     1
  0
DICTIONARY
  5
2A
102
{ACAD_REACTORS
330
C
102
}
330
C
100
AcDbDictionary
281
     1
  3
2dWireframe
350
2F
  3
3D Hidden
350
31
  3
3dWireframe
350
30
  3
Basic
350
32
  3
Brighten
350
36
  3
ColorChange
350
3A
  3
Conceptual
350
34
  3
Dim
350
35
  3
Facepattern
350
39
  3
Flat
350
2B
  3
FlatWithEdges
350
2C
  3
Gouraud
350
2D
  3
GouraudWithEdges
350
2E
  3
Linepattern
350
38
  3
Realistic
350
33
  3
Thicken
350
37
  0
DICTIONARY
  5
C4
102
{ACAD_REACTORS
330
C
102
}
330
C
100
AcDbDictionary
281
     1
  3
CANNOSCALE
350
C5
  0
LAYOUT
  5
1E
102
{ACAD_REACTORS
330
1A
102
}
330
1A
100
AcDbPlotSettings
  1

  2
none_device
  4

  6

 40
0.0
 41
0.0
 42
0.0
 43
0.0
 44
0.0
 45
0.0
 46
0.0
 47
0.0
 48
0.0
 49
0.0
140
0.0
141
0.0
142
1.0
143
1.0
 70
   688
 72
     0
 73
     0
 74
     5
  7

 75
    16
 76
     0
 77
     2
 78
   300
147
1.0
148
0.0
149
0.0
100
AcDbLayout
  1
Layout1
 70
     1
 71
     1
 10
0.0
 20
0.0
 11
12.0
 21
9.0
 12
0.0
 22
0.0
 32
0.0
 14
1.000000000000000E+20
 24
1.000000000000000E+20
 34
1.000000000000000E+20
 15
-1.000000000000000E+20
 25
-1.000000000000000E+20
 35
-1.000000000000000E+20
146
0.0
 13
0.0
 23
0.0
 33
0.0
 16
1.0
 26
0.0
 36
0.0
 17
0.0
 27
1.0
 37
0.0
 76
     0
330
1B
  0
LAYOUT
  5
26
102
{ACAD_REACTORS
330
1A
102
}
330
1A
100
AcDbPlotSettings
  1

  2
none_device
  4

  6

 40
0.0
 41
0.0
 42
0.0
 43
0.0
 44
0.0
 45
0.0
 46
0.0
 47
0.0
 48
0.0
 49
0.0
140
0.0
141
0.0
142
1.0
143
1.0
 70
   688
 72
     0
 73
     0
 74
     5
  7

 75
    16
 76
     0
 77
     2
 78
   300
147
1.0
148
0.0
149
0.0
100
AcDbLayout
  1
Layout2
 70
     1
 71
     2
 10
0.0
 20
0.0
 11
0.0
 21
0.0
 12
0.0
 22
0.0
 32
0.0
 14
0.0
 24
0.0
 34
0.0
 15
0.0
 25
0.0
 35
0.0
146
0.0
 13
0.0
 23
0.0
 33
0.0
 16
1.0
 26
0.0
 36
0.0
 17
0.0
 27
1.0
 37
0.0
 76
     0
330
23
  0
LAYOUT
  5
22
102
{ACAD_REACTORS
330
1A
102
}
330
1A
100
AcDbPlotSettings
  1

  2
none_device
  4

  6

 40
0.0
 41
0.0
 42
0.0
 43
0.0
 44
0.0
 45
0.0
 46
0.0
 47
0.0
 48
0.0
 49
0.0
140
0.0
141
0.0
142
1.0
143
1.0
 70
  1712
 72
     0
 73
     0
 74
     0
  7

 75
     0
 76
     0
 77
     2
 78
   300
147
1.0
148
0.0
149
0.0
100
AcDbLayout
  1
Model
 70
     1
 71
     0
 10
0.0
 20
0.0
 11
12.0
 21
9.0
 12
0.0
 22
0.0
 32
0.0
 14
19500.52650007869
 24
24856.52386788156
 34
0.0
 15
19985.47041614035
 25
25205.55772128542
 35
0.0
146
0.0
 13
0.0
 23
0.0
 33
0.0
 16
1.0
 26
0.0
 36
0.0
 17
0.0
 27
1.0
 37
0.0
 76
     0
330
1F
331
29
  0
MLINESTYLE
  5
18
102
{ACAD_REACTORS
330
17
102
}
330
17
100
AcDbMlineStyle
  2
Standard
 70
     0
  3

 62
   256
 51
90.0
 52
90.0
 71
     2
 49
0.5
 62
   256
  6
BYLAYER
 49
-0.5
 62
   256
  6
BYLAYER
  0
ACDBPLACEHOLDER
  5
F
102
{ACAD_REACTORS
330
E
102
}
330
E
  0
SCALE
  5
3E
102
{ACAD_REACTORS
330
3D
102
}
330
3D
100
AcDbScale
 70
     0
300
1:1
140
1.0
141
1.0
290
     1
  0
SCALE
  5
3F
102
{ACAD_REACTORS
330
3D
102
}
330
3D
100
AcDbScale
 70
     0
300
1:2
140
1.0
141
2.0
290
     0
  0
SCALE
  5
40
102
{ACAD_REACTORS
330
3D
102
}
330
3D
100
AcDbScale
 70
     0
300
1:4
140
1.0
141
4.0
290
     0
  0
SCALE
  5
41
102
{ACAD_REACTORS
330
3D
102
}
330
3D
100
AcDbScale
 70
     0
300
1:5
140
1.0
141
5.0
290
     0
  0
SCALE
  5
42
102
{ACAD_REACTORS
330
3D
102
}
330
3D
100
AcDbScale
 70
     0
300
1:8
140
1.0
141
8.0
290
     0
  0
SCALE
  5
43
102
{ACAD_REACTORS
330
3D
102
}
330
3D
100
AcDbScale
 70
     0
300
1:10
140
1.0
141
10.0
290
     0
  0
SCALE
  5
44
102
{ACAD_REACTORS
330
3D
102
}
330
3D
100
AcDbScale
 70
     0
300
1:16
140
1.0
141
16.0
290
     0
  0
SCALE
  5
45
102
{ACAD_REACTORS
330
3D
102
}
330
3D
100
AcDbScale
 70
     0
300
1:20
140
1.0
141
20.0
290
     0
  0
SCALE
  5
46
102
{ACAD_REACTORS
330
3D
102
}
330
3D
100
AcDbScale
 70
     0
300
1:30
140
1.0
141
30.0
290
     0
  0
SCALE
  5
47
102
{ACAD_REACTORS
330
3D
102
}
330
3D
100
AcDbScale
 70
     0
300
1:40
140
1.0
141
40.0
290
     0
  0
SCALE
  5
48
102
{ACAD_REACTORS
330
3D
102
}
330
3D
100
AcDbScale
 70
     0
300
1:50
140
1.0
141
50.0
290
     0
  0
SCALE
  5
49
102
{ACAD_REACTORS
330
3D
102
}
330
3D
100
AcDbScale
 70
     0
300
1:100
140
1.0
141
100.0
290
     0
  0
SCALE
  5
4A
102
{ACAD_REACTORS
330
3D
102
}
330
3D
100
AcDbScale
 70
     0
300
2:1
140
2.0
141
1.0
290
     0
  0
SCALE
  5
4B
102
{ACAD_REACTORS
330
3D
102
}
330
3D
100
AcDbScale
 70
     0
300
4:1
140
4.0
141
1.0
290
     0
  0
SCALE
  5
4C
102
{ACAD_REACTORS
330
3D
102
}
330
3D
100
AcDbScale
 70
     0
300
8:1
140
8.0
141
1.0
290
     0
  0
SCALE
  5
4D
102
{ACAD_REACTORS
330
3D
102
}
330
3D
100
AcDbScale
 70
     0
300
10:1
140
10.0
141
1.0
290
     0
  0
SCALE
  5
4E
102
{ACAD_REACTORS
330
3D
102
}
330
3D
100
AcDbScale
 70
     0
300
100:1
140
100.0
141
1.0
290
     0
  0
SCALE
  5
4F
102
{ACAD_REACTORS
330
3D
102
}
330
3D
100
AcDbScale
 70
     0
300
1/128" = 1'-0"
140
0.0078125
141
12.0
290
     0
  0
SCALE
  5
50
102
{ACAD_REACTORS
330
3D
102
}
330
3D
100
AcDbScale
 70
     0
300
1/64" = 1'-0"
140
0.015625
141
12.0
290
     0
  0
SCALE
  5
51
102
{ACAD_REACTORS
330
3D
102
}
330
3D
100
AcDbScale
 70
     0
300
1/32" = 1'-0"
140
0.03125
141
12.0
290
     0
  0
SCALE
  5
52
102
{ACAD_REACTORS
330
3D
102
}
330
3D
100
AcDbScale
 70
     0
300
1/16" = 1'-0"
140
0.0625
141
12.0
290
     0
  0
SCALE
  5
53
102
{ACAD_REACTORS
330
3D
102
}
330
3D
100
AcDbScale
 70
     0
300
3/32" = 1'-0"
140
0.09375
141
12.0
290
     0
  0
SCALE
  5
54
102
{ACAD_REACTORS
330
3D
102
}
330
3D
100
AcDbScale
 70
     0
300
1/8" = 1'-0"
140
0.125
141
12.0
290
     0
  0
SCALE
  5
55
102
{ACAD_REACTORS
330
3D
102
}
330
3D
100
AcDbScale
 70
     0
300
3/16" = 1'-0"
140
0.1875
141
12.0
290
     0
  0
SCALE
  5
56
102
{ACAD_REACTORS
330
3D
102
}
330
3D
100
AcDbScale
 70
     0
300
1/4" = 1'-0"
140
0.25
141
12.0
290
     0
  0
SCALE
  5
57
102
{ACAD_REACTORS
330
3D
102
}
330
3D
100
AcDbScale
 70
     0
300
3/8" = 1'-0"
140
0.375
141
12.0
290
     0
  0
SCALE
  5
58
102
{ACAD_REACTORS
330
3D
102
}
330
3D
100
AcDbScale
 70
     0
300
1/2" = 1'-0"
140
0.5
141
12.0
290
     0
  0
SCALE
  5
59
102
{ACAD_REACTORS
330
3D
102
}
330
3D
100
AcDbScale
 70
     0
300
3/4" = 1'-0"
140
0.75
141
12.0
290
     0
  0
SCALE
  5
5A
102
{ACAD_REACTORS
330
3D
102
}
330
3D
100
AcDbScale
 70
     0
300
1" = 1'-0"
140
1.0
141
12.0
290
     0
  0
SCALE
  5
5B
102
{ACAD_REACTORS
330
3D
102
}
330
3D
100
AcDbScale
 70
     0
300
1-1/2" = 1'-0"
140
1.5
141
12.0
290
     0
  0
SCALE
  5
5C
102
{ACAD_REACTORS
330
3D
102
}
330
3D
100
AcDbScale
 70
     0
300
3" = 1'-0"
140
3.0
141
12.0
290
     0
  0
SCALE
  5
5D
102
{ACAD_REACTORS
330
3D
102
}
330
3D
100
AcDbScale
 70
     0
300
6" = 1'-0"
140
6.0
141
12.0
290
     0
  0
SCALE
  5
5E
102
{ACAD_REACTORS
330
3D
102
}
330
3D
100
AcDbScale
 70
     0
300
1'-0" = 1'-0"
140
12.0
141
12.0
290
     0
  0
VISUALSTYLE
  5
2F
102
{ACAD_REACTORS
330
2A
102
}
330
2A
100
AcDbVisualStyle
  2
2dWireframe
 70
     4
 71
     0
 72
     2
 73
     0
 90
        0
 40
-0.6
 41
-30.0
 62
     5
 63
     7
421
 16777215
 74
     1
 91
        4
 64
     7
 65
   257
 75
     1
175
     1
 42
1.0
 92
        0
 66
   257
 43
1.0
 76
     1
 77
     6
 78
     2
 67
     7
 79
     5
170
     0
171
     0
290
     0
174
     0
 93
        1
 44
0.0
173
     0
291
     0
 45
0.0
1001
ACAD
1000
AcDbSavedByObjectVersion
1070
     0
  0
VISUALSTYLE
  5
31
102
{ACAD_REACTORS
330
2A
102
}
330
2A
100
AcDbVisualStyle
  2
3D Hidden
 70
     6
 71
     1
 72
     2
 73
     2
 90
        0
 40
-0.6
 41
-30.0
 62
     5
 63
     7
421
 16777215
 74
     2
 91
        2
 64
     7
 65
   257
 75
     2
175
     1
 42
40.0
 92
        0
 66
   257
 43
1.0
 76
     1
 77
     6
 78
     2
 67
     7
 79
     3
170
     0
171
     0
290
     0
174
     0
 93
        1
 44
0.0
173
     0
291
     0
 45
0.0
1001
ACAD
1000
AcDbSavedByObjectVersion
1070
     0
  0
VISUALSTYLE
  5
30
102
{ACAD_REACTORS
330
2A
102
}
330
2A
100
AcDbVisualStyle
  2
3dWireframe
 70
     5
 71
     0
 72
     2
 73
     0
 90
        0
 40
-0.6
 41
-30.0
 62
     5
 63
     7
421
 16777215
 74
     1
 91
        4
 64
     7
 65
   257
 75
     1
175
     1
 42
1.0
 92
        0
 66
   257
 43
1.0
 76
     1
 77
     6
 78
     2
 67
     7
 79
     5
170
     0
171
     0
290
     0
174
     0
 93
        1
 44
0.0
173
     0
291
     0
 45
0.0
1001
ACAD
1000
AcDbSavedByObjectVersion
1070
     0
  0
VISUALSTYLE
  5
32
102
{ACAD_REACTORS
330
2A
102
}
330
2A
100
AcDbVisualStyle
  2
Basic
 70
     7
 71
     1
 72
     0
 73
     1
 90
        0
 40
-0.6
 41
-30.0
 62
     5
 63
     7
421
 16777215
 74
     0
 91
        4
 64
     7
 65
   257
 75
     1
175
     1
 42
1.0
 92
        8
 66
     7
 43
1.0
 76
     1
 77
     6
 78
     2
 67
     7
 79
     5
170
     0
171
     0
290
     0
174
     0
 93
        1
 44
0.0
173
     0
291
     1
 45
0.0
1001
ACAD
1000
AcDbSavedByObjectVersion
1070
     0
  0
VISUALSTYLE
  5
36
102
{ACAD_REACTORS
330
2A
102
}
330
2A
100
AcDbVisualStyle
  2
Brighten
 70
    12
 71
     2
 72
     2
 73
     0
 90
        0
 40
-0.6
 41
-30.0
 62
     5
 63
     7
421
 16777215
 74
     1
 91
        4
 64
     7
 65
   257
 75
     1
175
     1
 42
1.0
 92
        8
 66
     7
 43
1.0
 76
     1
 77
     6
 78
     2
 67
     7
 79
     5
170
     0
171
     0
290
     0
174
     0
 93
        1
 44
50.0
173
     0
291
     1
 45
0.0
1001
ACAD
1000
AcDbSavedByObjectVersion
1070
     0
  0
VISUALSTYLE
  5
3A
102
{ACAD_REACTORS
330
2A
102
}
330
2A
100
AcDbVisualStyle
  2
ColorChange
 70
    16
 71
     2
 72
     2
 73
     3
 90
        0
 40
-0.6
 41
-30.0
 62
     5
 63
     8
421
  8421504
 74
     1
 91
        4
 64
     7
 65
   257
 75
     1
175
     1
 42
1.0
 92
        8
 66
     8
424
  8421504
 43
1.0
 76
     1
 77
     6
 78
     2
 67
     7
 79
     5
170
     0
171
     0
290
     0
174
     0
 93
        1
 44
0.0
173
     0
291
     1
 45
0.0
1001
ACAD
1000
AcDbSavedByObjectVersion
1070
     0
  0
VISUALSTYLE
  5
34
102
{ACAD_REACTORS
330
2A
102
}
330
2A
100
AcDbVisualStyle
  2
Conceptual
 70
     9
 71
     3
 72
     2
 73
     0
 90
        0
 40
-0.6
 41
-30.0
 62
     5
 63
     7
421
 16777215
 74
     2
 91
        2
 64
     7
 65
   257
 75
     1
175
     1
 42
40.0
 92
        8
 66
     7
 43
1.0
 76
     1
 77
     6
 78
     2
 67
     7
 79
     3
170
     0
171
     0
290
     0
174
     0
 93
        1
 44
0.0
173
     0
291
     0
 45
0.0
1001
ACAD
1000
AcDbSavedByObjectVersion
1070
     0
  0
VISUALSTYLE
  5
35
102
{ACAD_REACTORS
330
2A
102
}
330
2A
100
AcDbVisualStyle
  2
Dim
 70
    11
 71
     2
 72
     2
 73
     0
 90
        0
 40
-0.6
 41
-30.0
 62
     5
 63
     7
421
 16777215
 74
     1
 91
        4
 64
     7
 65
   257
 75
     1
175
     1
 42
1.0
 92
        8
 66
     7
 43
1.0
 76
     1
 77
     6
 78
     2
 67
     7
 79
     5
170
     0
171
     0
290
     0
174
     0
 93
        1
 44
-50.0
173
     0
291
     1
 45
0.0
1001
ACAD
1000
AcDbSavedByObjectVersion
1070
     0
  0
VISUALSTYLE
  5
39
102
{ACAD_REACTORS
330
2A
102
}
330
2A
100
AcDbVisualStyle
  2
Facepattern
 70
    15
 71
     2
 72
     2
 73
     0
 90
        0
 40
-0.6
 41
-30.0
 62
     5
 63
     7
421
 16777215
 74
     1
 91
        4
 64
     7
 65
   257
 75
     1
175
     1
 42
1.0
 92
        8
 66
     7
 43
1.0
 76
     1
 77
     6
 78
     2
 67
     7
 79
     5
170
     0
171
     0
290
     0
174
     0
 93
        1
 44
0.0
173
     0
291
     1
 45
0.0
1001
ACAD
1000
AcDbSavedByObjectVersion
1070
     0
  0
VISUALSTYLE
  5
2B
102
{ACAD_REACTORS
330
2A
102
}
330
2A
100
AcDbVisualStyle
  2
Flat
 70
     0
 71
     2
 72
     1
 73
     1
 90
        2
 40
-0.6
 41
30.0
 62
     5
 63
     7
421
 16777215
 74
     0
 91
        4
 64
     7
 65
   257
 75
     1
175
     1
 42
1.0
 92
        8
 66
     7
 43
1.0
 76
     1
 77
     6
 78
     2
 67
     7
 79
     5
170
     0
171
     0
290
     0
174
     0
 93
       13
 44
0.0
173
     0
291
     1
 45
0.0
1001
ACAD
1000
AcDbSavedByObjectVersion
1070
     0
  0
VISUALSTYLE
  5
2C
102
{ACAD_REACTORS
330
2A
102
}
330
2A
100
AcDbVisualStyle
  2
FlatWithEdges
 70
     1
 71
     2
 72
     1
 73
     1
 90
        2
 40
-0.6
 41
30.0
 62
     5
 63
     7
421
 16777215
 74
     1
 91
        4
 64
     7
 65
   257
 75
     1
175
     1
 42
1.0
 92
        0
 66
   257
 43
1.0
 76
     1
 77
     6
 78
     2
 67
     7
 79
     5
170
     0
171
     0
290
     0
174
     0
 93
       13
 44
0.0
173
     0
291
     1
 45
0.0
1001
ACAD
1000
AcDbSavedByObjectVersion
1070
     0
  0
VISUALSTYLE
  5
2D
102
{ACAD_REACTORS
330
2A
102
}
330
2A
100
AcDbVisualStyle
  2
Gouraud
 70
     2
 71
     2
 72
     2
 73
     1
 90
        2
 40
-0.6
 41
30.0
 62
     5
 63
     7
421
 16777215
 74
     0
 91
        4
 64
     7
 65
   257
 75
     1
175
     1
 42
1.0
 92
        0
 66
     7
 43
1.0
 76
     1
 77
     6
 78
     2
 67
     7
 79
     5
170
     0
171
     0
290
     0
174
     0
 93
       13
 44
0.0
173
     0
291
     1
 45
0.0
1001
ACAD
1000
AcDbSavedByObjectVersion
1070
     0
  0
VISUALSTYLE
  5
2E
102
{ACAD_REACTORS
330
2A
102
}
330
2A
100
AcDbVisualStyle
  2
GouraudWithEdges
 70
     3
 71
     2
 72
     2
 73
     1
 90
        2
 40
-0.6
 41
30.0
 62
     5
 63
     7
421
 16777215
 74
     1
 91
        4
 64
     7
 65
   257
 75
     1
175
     1
 42
1.0
 92
        0
 66
   257
 43
1.0
 76
     1
 77
     6
 78
     2
 67
     7
 79
     5
170
     0
171
     0
290
     0
174
     0
 93
       13
 44
0.0
173
     0
291
     1
 45
0.0
1001
ACAD
1000
AcDbSavedByObjectVersion
1070
     0
  0
VISUALSTYLE
  5
38
102
{ACAD_REACTORS
330
2A
102
}
330
2A
100
AcDbVisualStyle
  2
Linepattern
 70
    14
 71
     2
 72
     2
 73
     0
 90
        0
 40
-0.6
 41
-30.0
 62
     5
 63
     7
421
 16777215
 74
     1
 91
        4
 64
     7
 65
   257
 75
     7
175
     7
 42
1.0
 92
        8
 66
     7
 43
1.0
 76
     1
 77
     6
 78
     2
 67
     7
 79
     5
170
     0
171
     0
290
     0
174
     0
 93
        1
 44
0.0
173
     0
291
     1
 45
0.0
1001
ACAD
1000
AcDbSavedByObjectVersion
1070
     0
  0
VISUALSTYLE
  5
33
102
{ACAD_REACTORS
330
2A
102
}
330
2A
100
AcDbVisualStyle
  2
Realistic
 70
     8
 71
     2
 72
     2
 73
     0
 90
        0
 40
-0.6
 41
-30.0
 62
     5
 63
     7
421
 16777215
 74
     1
 91
        0
 64
     7
 65
   257
 75
     1
175
     1
 42
1.0
 92
        8
 66
     8
424
  7895160
 43
1.0
 76
     1
 77
     6
 78
     2
 67
     7
 79
     5
170
     0
171
     0
290
     0
174
     0
 93
       13
 44
0.0
173
     0
291
     0
 45
0.0
1001
ACAD
1000
AcDbSavedByObjectVersion
1070
     0
  0
VISUALSTYLE
  5
37
102
{ACAD_REACTORS
330
2A
102
}
330
2A
100
AcDbVisualStyle
  2
Thicken
 70
    13
 71
     2
 72
     2
 73
     0
 90
        0
 40
-0.6
 41
-30.0
 62
     5
 63
     7
421
 16777215
 74
     1
 91
        4
 64
     7
 65
   257
 75
     1
175
     1
 42
1.0
 92
       12
 66
     7
 43
1.0
 76
     1
 77
     6
 78
     2
 67
     7
 79
     5
170
     0
171
     0
290
     0
174
     0
 93
        1
 44
0.0
173
     0
291
     1
 45
0.0
1001
ACAD
1000
AcDbSavedByObjectVersion
1070
     0
  0
DICTIONARYVAR
  5
C5
102
{ACAD_REACTORS
330
C4
102
}
330
C4
100
DictionaryVariables
280
     0
  1
1:1
  0
ENDSEC
  0
EOF
