  0
SECTION
  2
HEADER
  9
$ACADVER
  1
AC1018
  9
$ACADMAINTVER
 70
     0
  9
$DWGCODEPAGE
  3
ANSI_936
  9
$INSBASE
 10
0.0
 20
0.0
 30
0.0
  9
$EXTMIN
 10
18611.0000099898
 20
24856.52675502064
 30
0.0
  9
$EXTMAX
 10
19237.47041614035
 20
25313.10811546105
 30
0.0
  9
$LIMMIN
 10
0.0
 20
0.0
  9
$LIMMAX
 10
12.0
 20
9.0
  9
$ORTHOMODE
 70
     0
  9
$REGENMODE
 70
     1
  9
$FILLMODE
 70
     1
  9
$QTEXTMODE
 70
     0
  9
$MIRRTEXT
 70
     1
  9
$LTSCALE
 40
1.0
  9
$ATTMODE
 70
     1
  9
$TEXTSIZE
 40
0.2
  9
$TRACEWID
 40
0.05
  9
$TEXTSTYLE
  7
Standard
  9
$CLAYER
  8
EDA102
  9
$CELTYPE
  6
ByLayer
  9
$CECOLOR
 62
   256
  9
$CELTSCALE
 40
1.0
  9
$DISPSILH
 70
     0
  9
$DIMSCALE
 40
1.0
  9
$DIMASZ
 40
0.18
  9
$DIMEXO
 40
0.0625
  9
$DIMDLI
 40
0.38
  9
$DIMRND
 40
0.0
  9
$DIMDLE
 40
0.0
  9
$DIMEXE
 40
0.18
  9
$DIMTP
 40
0.0
  9
$DIMTM
 40
0.0
  9
$DIMTXT
 40
0.18
  9
$DIMCEN
 40
0.09
  9
$DIMTSZ
 40
0.0
  9
$DIMTOL
 70
     0
  9
$DIMLIM
 70
     0
  9
$DIMTIH
 70
     1
  9
$DIMTOH
 70
     1
  9
$DIMSE1
 70
     0
  9
$DIMSE2
 70
     0
  9
$DIMTAD
 70
     0
  9
$DIMZIN
 70
     0
  9
$DIMBLK
  1

  9
$DIMASO
 70
     1
  9
$DIMSHO
 70
     1
  9
$DIMPOST
  1

  9
$DIMAPOST
  1

  9
$DIMALT
 70
     0
  9
$DIMALTD
 70
     2
  9
$DIMALTF
 40
25.4
  9
$DIMLFAC
 40
1.0
  9
$DIMTOFL
 70
     0
  9
$DIMTVP
 40
0.0
  9
$DIMTIX
 70
     0
  9
$DIMSOXD
 70
     0
  9
$DIMSAH
 70
     0
  9
$DIMBLK1
  1

  9
$DIMBLK2
  1

  9
$DIMSTYLE
  2
Standard
  9
$DIMCLRD
 70
     0
  9
$DIMCLRE
 70
     0
  9
$DIMCLRT
 70
     0
  9
$DIMTFAC
 40
1.0
  9
$DIMGAP
 40
0.09
  9
$DIMJUST
 70
     0
  9
$DIMSD1
 70
     0
  9
$DIMSD2
 70
     0
  9
$DIMTOLJ
 70
     1
  9
$DIMTZIN
 70
     0
  9
$DIMALTZ
 70
     0
  9
$DIMALTTZ
 70
     0
  9
$DIMUPT
 70
     0
  9
$DIMDEC
 70
     4
  9
$DIMTDEC
 70
     4
  9
$DIMALTU
 70
     2
  9
$DIMALTTD
 70
     2
  9
$DIMTXSTY
  7
Standard
  9
$DIMAUNIT
 70
     0
  9
$DIMADEC
 70
     0
  9
$DIMALTRND
 40
0.0
  9
$DIMAZIN
 70
     0
  9
$DIMDSEP
 70
    46
  9
$DIMATFIT
 70
     3
  9
$DIMFRAC
 70
     0
  9
$DIMLDRBLK
  1

  9
$DIMLUNIT
 70
     2
  9
$DIMLWD
 70
    -2
  9
$DIMLWE
 70
    -2
  9
$DIMTMOVE
 70
     2
  9
$LUNITS
 70
     2
  9
$LUPREC
 70
     2
  9
$SKETCHINC
 40
0.1
  9
$FILLETRAD
 40
0.5
  9
$AUNITS
 70
     0
  9
$AUPREC
 70
     0
  9
$MENU
  1
.
  9
$ELEVATION
 40
0.0
  9
$PELEVATION
 40
0.0
  9
$THICKNESS
 40
0.0
  9
$LIMCHECK
 70
     0
  9
$CHAMFERA
 40
0.5
  9
$CHAMFERB
 40
0.5
  9
$CHAMFERC
 40
1.0
  9
$CHAMFERD
 40
0.0
  9
$SKPOLY
 70
     0
  9
$TDCREATE
 40
2456450.353705868
  9
$TDUCREATE
 40
2456450.270372535
  9
$TDUPDATE
 40
2456450.35370588
  9
$TDUUPDATE
 40
2456450.270372546
  9
$TDINDWG
 40
0.0000000116
  9
$TDUSRTIMER
 40
0.0000000116
  9
$USRTIMER
 70
     1
  9
$ANGBASE
 50
0.0
  9
$ANGDIR
 70
     0
  9
$PDMODE
 70
     0
  9
$PDSIZE
 40
0.0
  9
$PLINEWID
 40
0.0
  9
$SPLFRAME
 70
     0
  9
$SPLINETYPE
 70
     6
  9
$SPLINESEGS
 70
     8
  9
$HANDSEED
  5
AF
  9
$SURFTAB1
 70
     6
  9
$SURFTAB2
 70
     6
  9
$SURFTYPE
 70
     6
  9
$SURFU
 70
     6
  9
$SURFV
 70
     6
  9
$UCSBASE
  2

  9
$UCSNAME
  2

  9
$UCSORG
 10
0.0
 20
0.0
 30
0.0
  9
$UCSXDIR
 10
1.0
 20
0.0
 30
0.0
  9
$UCSYDIR
 10
0.0
 20
1.0
 30
0.0
  9
$UCSORTHOREF
  2

  9
$UCSORTHOVIEW
 70
     0
  9
$UCSORGTOP
 10
0.0
 20
0.0
 30
0.0
  9
$UCSORGBOTTOM
 10
0.0
 20
0.0
 30
0.0
  9
$UCSORGLEFT
 10
0.0
 20
0.0
 30
0.0
  9
$UCSORGRIGHT
 10
0.0
 20
0.0
 30
0.0
  9
$UCSORGFRONT
 10
0.0
 20
0.0
 30
0.0
  9
$UCSORGBACK
 10
0.0
 20
0.0
 30
0.0
  9
$PUCSBASE
  2

  9
$PUCSNAME
  2

  9
$PUCSORG
 10
0.0
 20
0.0
 30
0.0
  9
$PUCSXDIR
 10
1.0
 20
0.0
 30
0.0
  9
$PUCSYDIR
 10
0.0
 20
1.0
 30
0.0
  9
$PUCSORTHOREF
  2

  9
$PUCSORTHOVIEW
 70
     0
  9
$PUCSORGTOP
 10
0.0
 20
0.0
 30
0.0
  9
$PUCSORGBOTTOM
 10
0.0
 20
0.0
 30
0.0
  9
$PUCSORGLEFT
 10
0.0
 20
0.0
 30
0.0
  9
$PUCSORGRIGHT
 10
0.0
 20
0.0
 30
0.0
  9
$PUCSORGFRONT
 10
0.0
 20
0.0
 30
0.0
  9
$PUCSORGBACK
 10
0.0
 20
0.0
 30
0.0
  9
$USERI1
 70
     0
  9
$USERI2
 70
     0
  9
$USERI3
 70
     0
  9
$USERI4
 70
     0
  9
$USERI5
 70
     0
  9
$USERR1
 40
0.0
  9
$USERR2
 40
0.0
  9
$USERR3
 40
0.0
  9
$USERR4
 40
0.0
  9
$USERR5
 40
0.0
  9
$WORLDVIEW
 70
     1
  9
$SHADEDGE
 70
     3
  9
$SHADEDIF
 70
    70
  9
$TILEMODE
 70
     1
  9
$MAXACTVP
 70
    64
  9
$PINSBASE
 10
0.0
 20
0.0
 30
0.0
  9
$PLIMCHECK
 70
     0
  9
$PEXTMIN
 10
1.000000000000000E+20
 20
1.000000000000000E+20
 30
1.000000000000000E+20
  9
$PEXTMAX
 10
-1.000000000000000E+20
 20
-1.000000000000000E+20
 30
-1.000000000000000E+20
  9
$PLIMMIN
 10
0.0
 20
0.0
  9
$PLIMMAX
 10
12.0
 20
9.0
  9
$UNITMODE
 70
     0
  9
$VISRETAIN
 70
     1
  9
$PLINEGEN
 70
     0
  9
$PSLTSCALE
 70
     1
  9
$TREEDEPTH
 70
  3020
  9
$CMLSTYLE
  2
Standard
  9
$CMLJUST
 70
     0
  9
$CMLSCALE
 40
1.0
  9
$PROXYGRAPHICS
 70
     1
  9
$MEASUREMENT
 70
     0
  9
$CELWEIGHT
370
    -1
  9
$ENDCAPS
280
     0
  9
$JOINSTYLE
280
     0
  9
$LWDISPLAY
290
     0
  9
$INSUNITS
 70
     4
  9
$HYPERLINKBASE
  1

  9
$STYLESHEET
  1

  9
$XEDIT
290
     1
  9
$CEPSNTYPE
380
     0
  9
$PSTYLEMODE
290
     1
  9
$FINGERPRINTGUID
  2
{08943196-2A27-43A5-870F-F38B53646896}
  9
$VERSIONGUID
  2
{FAEB1C32-E019-11D5-929B-00C0DF256EC4}
  9
$EXTNAMES
290
     1
  9
$PSVPSCALE
 40
0.0
  9
$OLESTARTUP
290
     0
  9
$SORTENTS
280
   127
  9
$INDEXCTL
280
     0
  9
$HIDETEXT
280
     1
  9
$XCLIPFRAME
290
     0
  9
$HALOGAP
280
     0
  9
$OBSCOLOR
 70
   257
  9
$OBSLTYPE
280
     0
  9
$INTERSECTIONDISPLAY
280
     0
  9
$INTERSECTIONCOLOR
 70
   257
  9
$DIMASSOC
280
     2
  9
$PROJECTNAME
  1

  0
ENDSEC
  0
SECTION
  2
CLASSES
  0
CLASS
  1
ACDBDICTIONARYWDFLT
  2
AcDbDictionaryWithDefault
  3
ObjectDBX Classes
 90
        0
 91
        4
280
     0
281
     0
  0
CLASS
  1
VISUALSTYLE
  2
AcDbVisualStyle
  3
ObjectDBX Classes
 90
     4095
 91
        4
280
     0
281
     0
  0
CLASS
  1
SCALE
  2
AcDbScale
  3
ObjectDBX Classes
 90
     1153
 91
        4
280
     0
281
     0
  0
CLASS
  1
DICTIONARYVAR
  2
AcDbDictionaryVar
  3
ObjectDBX Classes
 90
        0
 91
        4
280
     0
281
     0
  0
ENDSEC
  0
SECTION
  2
TABLES
  0
TABLE
  2
VPORT
  5
8
330
0
100
AcDbSymbolTable
 70
     1
  0
VPORT
  5
29
330
8
100
AcDbSymbolTableRecord
100
AcDbViewportTableRecord
  2
*Active
 70
     0
 10
0.0
 20
0.0
 11
1.0
 21
1.0
 12
18924.23521306508
 22
25084.81743524085
 13
0.0
 23
0.0
 14
0.5
 24
0.5
 15
0.5
 25
0.5
 16
0.0
 26
0.0
 36
1.0
 17
0.0
 27
0.0
 37
0.0
 40
465.7129876492184
 41
1.372089315136004
 42
50.0
 43
0.0
 44
0.0
 50
0.0
 51
0.0
 71
     0
 72
   100
 73
     1
 74
     3
 75
     0
 76
     0
 77
     0
 78
     0
281
     0
 65
     1
110
0.0
120
0.0
130
0.0
111
1.0
121
0.0
131
0.0
112
0.0
122
1.0
132
0.0
 79
     0
146
0.0
  0
ENDTAB
  0
TABLE
  2
LTYPE
  5
5
330
0
100
AcDbSymbolTable
 70
     1
  0
LTYPE
  5
14
330
5
100
AcDbSymbolTableRecord
100
AcDbLinetypeTableRecord
  2
ByBlock
 70
     0
  3

 72
    65
 73
     0
 40
0.0
  0
LTYPE
  5
15
330
5
100
AcDbSymbolTableRecord
100
AcDbLinetypeTableRecord
  2
ByLayer
 70
     0
  3

 72
    65
 73
     0
 40
0.0
  0
LTYPE
  5
16
330
5
100
AcDbSymbolTableRecord
100
AcDbLinetypeTableRecord
  2
Continuous
 70
     0
  3
Solid line
 72
    65
 73
     0
 40
0.0
  0
ENDTAB
  0
TABLE
  2
LAYER
  5
2
330
0
100
AcDbSymbolTable
 70
     4
  0
LAYER
  5
10
330
2
100
AcDbSymbolTableRecord
100
AcDbLayerTableRecord
  2
0
 70
     0
 62
     7
  6
Continuous
370
    -3
390
F
  0
LAYER
  5
3B
330
2
100
AcDbSymbolTableRecord
100
AcDbLayerTableRecord
  2
EDA102
 70
     0
 62
     7
  6
Continuous
370
    -3
390
F
  0
LAYER
  5
61
330
2
100
AcDbSymbolTableRecord
100
AcDbLayerTableRecord
  2
Defpoints
 70
     0
 62
     7
  6
Continuous
290
     0
370
    -3
390
F
  0
LAYER
  5
7B
330
2
100
AcDbSymbolTableRecord
100
AcDbLayerTableRecord
  2
MAKE2D VISIBLE LINES
 70
     0
 62
     7
  6
Continuous
370
    -3
390
F
  0
ENDTAB
  0
TABLE
  2
STYLE
  5
3
330
0
100
AcDbSymbolTable
 70
     2
  0
STYLE
  5
11
330
3
100
AcDbSymbolTableRecord
100
AcDbTextStyleTableRecord
  2
Standard
 70
     0
 40
0.0
 41
1.0
 50
0.0
 71
     0
 42
0.2
  3
txt
  4

  0
STYLE
  5
5F
330
3
100
AcDbSymbolTableRecord
100
AcDbTextStyleTableRecord
  2
ARIAL
 70
     0
 40
0.0
 41
1.0
 50
0.0
 71
     0
 42
0.0
  3
ARIAL.TTF
  4

1001
ACAD
1000
Arial
1071
      256
  0
ENDTAB
  0
TABLE
  2
VIEW
  5
6
330
0
100
AcDbSymbolTable
 70
     0
  0
ENDTAB
  0
TABLE
  2
UCS
  5
7
330
0
100
AcDbSymbolTable
 70
     0
  0
ENDTAB
  0
TABLE
  2
APPID
  5
9
330
0
100
AcDbSymbolTable
 70
     1
  0
APPID
  5
12
330
9
100
AcDbSymbolTableRecord
100
AcDbRegAppTableRecord
  2
ACAD
 70
     0
  0
ENDTAB
  0
TABLE
  2
DIMSTYLE
  5
A
330
0
100
AcDbSymbolTable
 70
     2
100
AcDbDimStyleTable
  0
DIMSTYLE
105
27
330
A
100
AcDbSymbolTableRecord
100
AcDbDimStyleTableRecord
  2
Standard
 70
     0
340
11
  0
DIMSTYLE
105
60
102
{ACAD_REACTORS
330
3C
330
6E
102
}
330
A
100
AcDbSymbolTableRecord
100
AcDbDimStyleTableRecord
  2
DEFAULT
 70
     0
 41
1.0
 42
0.5
 44
0.5
 73
     0
 77
     1
 78
     1
140
20.0
141
0.5
172
     1
174
     1
179
     2
271
     2
284
     1
340
5F
  0
ENDTAB
  0
TABLE
  2
BLOCK_RECORD
  5
1
330
0
100
AcDbSymbolTable
 70
     3
  0
BLOCK_RECORD
  5
1F
330
1
100
AcDbSymbolTableRecord
100
AcDbBlockTableRecord
  2
*Model_Space
340
22
  0
BLOCK_RECORD
  5
1B
330
1
100
AcDbSymbolTableRecord
100
AcDbBlockTableRecord
  2
*Paper_Space
340
1E
  0
BLOCK_RECORD
  5
23
330
1
100
AcDbSymbolTableRecord
100
AcDbBlockTableRecord
  2
*Paper_Space0
340
26
  0
BLOCK_RECORD
  5
62
330
1
100
AcDbSymbolTableRecord
100
AcDbBlockTableRecord
  2
*D1
340
0
  0
BLOCK_RECORD
  5
6F
330
1
100
AcDbSymbolTableRecord
100
AcDbBlockTableRecord
  2
*D2
340
0
  0
ENDTAB
  0
ENDSEC
  0
SECTION
  2
BLOCKS
  0
BLOCK
  5
20
330
1F
100
AcDbEntity
  8
0
100
AcDbBlockBegin
  2
*Model_Space
 70
     0
 10
0.0
 20
0.0
 30
0.0
  3
*Model_Space
  1

  0
ENDBLK
  5
21
330
1F
100
AcDbEntity
  8
0
100
AcDbBlockEnd
  0
BLOCK
  5
1C
330
1B
100
AcDbEntity
 67
     1
  8
0
100
AcDbBlockBegin
  2
*Paper_Space
 70
     0
 10
0.0
 20
0.0
 30
0.0
  3
*Paper_Space
  1

  0
ENDBLK
  5
1D
330
1B
100
AcDbEntity
 67
     1
  8
0
100
AcDbBlockEnd
  0
BLOCK
  5
24
330
23
100
AcDbEntity
  8
0
100
AcDbBlockBegin
  2
*Paper_Space0
 70
     0
 10
0.0
 20
0.0
 30
0.0
  3
*Paper_Space0
  1

  0
ENDBLK
  5
25
330
23
100
AcDbEntity
  8
0
100
AcDbBlockEnd
  0
BLOCK
  5
6C
330
62
100
AcDbEntity
  8
0
100
AcDbBlockBegin
  2
*D1
 70
     1
 10
0.0
 20
0.0
 30
0.0
  3
*D1
  1

  0
LINE
  5
63
330
62
100
AcDbEntity
  8
EDA102
 62
     0
370
    -2
100
AcDbLine
 10
18949.47041614035
 20
25205.55772122234
 30
0.0
 11
19237.47041614035
 21
25205.55772122234
 31
0.0
  0
LINE
  5
64
330
62
100
AcDbEntity
  8
EDA102
 62
     0
370
    -2
100
AcDbLine
 10
19112.02554899837
 20
24856.5267587934
 30
0.0
 11
19237.47041614035
 21
24856.5267587934
 31
0.0
  0
LINE
  5
65
330
62
100
AcDbEntity
  8
EDA102
 62
     0
370
    -2
100
AcDbLine
 10
19236.97041614035
 20
25204.55772122234
 30
0.0
 11
19236.97041614035
 21
24857.5267587934
 31
0.0
  0
SOLID
  5
66
330
62
100
AcDbEntity
  8
EDA102
 62
     0
100
AcDbTrace
 10
19237.13708280701
 20
25204.55772122234
 30
0.0
 11
19236.80374947368
 21
25204.55772122234
 31
0.0
 12
19236.97041614035
 22
25205.55772122234
 32
0.0
 13
19236.97041614035
 23
25205.55772122234
 33
0.0
  0
SOLID
  5
67
330
62
100
AcDbEntity
  8
EDA102
 62
     0
100
AcDbTrace
 10
19236.80374947368
 20
24857.5267587934
 30
0.0
 11
19237.13708280701
 21
24857.5267587934
 31
0.0
 12
19236.97041614035
 22
24856.5267587934
 32
0.0
 13
19236.97041614035
 23
24856.5267587934
 33
0.0
  0
MTEXT
  5
68
330
62
100
AcDbEntity
  8
EDA102
 62
     0
100
AcDbMText
 10
19226.67041614035
 20
25031.04224000787
 30
0.0
 40
20.0
 41
0.0
 71
     5
 72
     1
  1
\A1;350^M^J
  7
ARIAL
 11
0.0
 21
1.0
 31
0.0
 73
     1
 44
1.0
  0
POINT
  5
69
330
62
100
AcDbEntity
  8
Defpoints
 62
     0
100
AcDbPoint
 10
18948.97041614035
 20
25205.55772122234
 30
0.0
  0
POINT
  5
6A
330
62
100
AcDbEntity
  8
Defpoints
 62
     0
100
AcDbPoint
 10
19111.52554899837
 20
24856.5267587934
 30
0.0
  0
POINT
  5
6B
330
62
100
AcDbEntity
  8
Defpoints
 62
     0
100
AcDbPoint
 10
19236.97041614035
 20
24856.5267587934
 30
0.0
  0
ENDBLK
  5
6D
330
62
100
AcDbEntity
  8
0
100
AcDbBlockEnd
  0
BLOCK
  5
79
330
6F
100
AcDbEntity
  8
0
100
AcDbBlockBegin
  2
*D2
 70
     1
 10
0.0
 20
0.0
 30
0.0
  3
*D2
  1

  0
LINE
  5
70
330
6F
100
AcDbEntity
  8
EDA102
 62
     0
370
    -2
100
AcDbLine
 10
18611.0000149847
 20
25126.05811546106
 30
0.0
 11
18611.0000149847
 21
25293.05811546106
 31
0.0
  0
LINE
  5
71
330
6F
100
AcDbEntity
  8
EDA102
 62
     0
370
    -2
100
AcDbLine
 10
19160.75600178243
 20
25077.69130909778
 30
0.0
 11
19160.75600178243
 21
25293.05811546106
 31
0.0
  0
LINE
  5
72
330
6F
100
AcDbEntity
  8
EDA102
 62
     0
370
    -2
100
AcDbLine
 10
18612.0000149847
 20
25292.55811546106
 30
0.0
 11
19159.75600178243
 21
25292.55811546106
 31
0.0
  0
SOLID
  5
73
330
6F
100
AcDbEntity
  8
EDA102
 62
     0
100
AcDbTrace
 10
18612.0000149847
 20
25292.72478212772
 30
0.0
 11
18612.0000149847
 21
25292.39144879439
 31
0.0
 12
18611.0000149847
 22
25292.55811546106
 32
0.0
 13
18611.0000149847
 23
25292.55811546106
 33
0.0
  0
SOLID
  5
74
330
6F
100
AcDbEntity
  8
EDA102
 62
     0
100
AcDbTrace
 10
19159.75600178243
 20
25292.39144879439
 30
0.0
 11
19159.75600178243
 21
25292.72478212772
 31
0.0
 12
19160.75600178243
 22
25292.55811546106
 32
0.0
 13
19160.75600178243
 23
25292.55811546106
 33
0.0
  0
MTEXT
  5
75
330
6F
100
AcDbEntity
  8
EDA102
 62
     0
100
AcDbMText
 10
18885.87800838357
 20
25302.85811546105
 30
0.0
 40
20.0
 41
0.0
 71
     5
 72
     1
  1
\A1;550
  7
ARIAL
 73
     1
 44
1.0
  0
POINT
  5
76
330
6F
100
AcDbEntity
  8
Defpoints
 62
     0
100
AcDbPoint
 10
18611.0000149847
 20
25125.55811546106
 30
0.0
  0
POINT
  5
77
330
6F
100
AcDbEntity
  8
Defpoints
 62
     0
100
AcDbPoint
 10
19160.75600178243
 20
25077.19130909778
 30
0.0
  0
POINT
  5
78
330
6F
100
AcDbEntity
  8
Defpoints
 62
     0
100
AcDbPoint
 10
19160.75600178243
 20
25292.55811546106
 30
0.0
  0
ENDBLK
  5
7A
330
6F
100
AcDbEntity
  8
0
100
AcDbBlockEnd
  0
ENDSEC
  0
SECTION
  2
ENTITIES
  0
DIMENSION
  5
3C
330
1F
100
AcDbEntity
  8
EDA102
100
AcDbDimension
  2
*D1
 10
19236.97041614035
 20
24856.5267587934
 30
0.0
 11
19226.67041614035
 21
25031.04224000787
 31
0.0
 70
    32
  1
350^M^J
 71
     5
 42
349.030962428933
  3
DEFAULT
100
AcDbAlignedDimension
 13
18948.97041614035
 23
25205.55772122234
 33
0.0
 14
19111.52554899837
 24
24856.5267587934
 34
0.0
 50
90.0
100
AcDbRotatedDimension
1001
ACAD
1000
DSTYLE
1002
{
1070
   279
1070
     1
1002
}
  0
DIMENSION
  5
6E
330
1F
100
AcDbEntity
  8
EDA102
100
AcDbDimension
  2
*D2
 10
19160.75600178243
 20
25292.55811546106
 30
0.0
 11
18885.87800838357
 21
25302.85811546105
 31
0.0
 70
    32
  1
550
 71
     5
 42
549.7559867977252
  3
DEFAULT
100
AcDbAlignedDimension
 13
18611.0000149847
 23
25125.55811546106
 33
0.0
 14
19160.75600178243
 24
25077.19130909778
 34
0.0
100
AcDbRotatedDimension
1001
ACAD
1000
DSTYLE
1002
{
1070
   279
1070
     1
1002
}
  0
SPLINE
  5
7C
330
1F
100
AcDbEntity
  8
MAKE2D VISIBLE LINES
100
AcDbSpline
210
0.0
220
0.0
230
1.0
 70
    24
 71
     2
 72
     6
 73
     3
 74
     0
 42
0.0000000001
 43
0.0000000001
 40
0.0
 40
0.0
 40
0.0
 40
65.38741660005769
 40
65.38741660005769
 40
65.38741660005769
 10
19160.75600178219
 20
24942.12797058475
 30
0.0
 10
19160.75600178219
 20
24909.43426228472
 30
0.0
 10
19160.75600178219
 20
24876.74055398469
 30
0.0
  0
SPLINE
  5
7D
330
1F
100
AcDbEntity
  8
MAKE2D VISIBLE LINES
100
AcDbSpline
210
0.0
220
0.0
230
1.0
 70
    12
 71
     2
 72
     6
 73
     3
 74
     0
 42
0.0000000001
 43
0.0000000001
 40
0.0
 40
0.0
 40
0.0
 40
0.0476864452759058
 40
0.0476864452759058
 40
0.0476864452759058
 10
19078.78431122759
 20
25175.5727011218
 30
0.0
 41
1.0
 10
19078.76095246368
 20
25175.56791754373
 30
0.0
 41
0.9999799416263646
 10
19078.73765616864
 20
25175.56283845842
 30
0.0
 41
1.0
  0
SPLINE
  5
7E
330
1F
100
AcDbEntity
  8
MAKE2D VISIBLE LINES
100
AcDbSpline
210
0.0
220
0.0
230
1.0
 70
    12
 71
     2
 72
     6
 73
     3
 74
     0
 42
0.0000000001
 43
0.0000000001
 40
0.0
 40
0.0
 40
0.0
 40
4.188661094864687
 40
4.188661094864687
 40
4.188661094864687
 10
18617.84571555426
 20
25201.45734179133
 30
0.0
 41
1.0
 10
18616.19518189781
 20
25199.96473263529
 30
0.0
 41
0.9139866770668322
 10
18616.1951501816
 20
25197.73939143836
 30
0.0
 41
1.0
  0
SPLINE
  5
7F
330
1F
100
AcDbEntity
  8
MAKE2D VISIBLE LINES
100
AcDbSpline
210
0.0
220
0.0
230
1.0
 70
    12
 71
     2
 72
     6
 73
     3
 74
     0
 42
0.0000000001
 43
0.0000000001
 40
0.0
 40
0.0
 40
0.0
 40
0.0770758563299674
 40
0.0770758563299674
 40
0.0770758563299674
 10
18613.95394267479
 20
25175.98008667497
 30
0.0
 41
1.0
 10
18613.92010095473
 20
25175.99852332459
 30
0.0
 41
0.9999999198305703
 10
18613.88624448059
 20
25176.01693286628
 30
0.0
 41
1.0
  0
SPLINE
  5
80
330
1F
100
AcDbEntity
  8
MAKE2D VISIBLE LINES
100
AcDbSpline
210
0.0
220
0.0
230
1.0
 70
    12
 71
     2
 72
     6
 73
     3
 74
     0
 42
0.0000000001
 43
0.0000000001
 40
0.0
 40
0.0
 40
0.0
 40
5.962961363307776
 40
5.962961363307776
 40
5.962961363307776
 10
18616.19786182333
 20
25177.74854979815
 30
0.0
 41
1.0
 10
18616.19464022023
 20
25174.35178473539
 30
0.0
 41
0.8263077051573037
 10
18619.35511810252
 20
25173.10703462959
 30
0.0
 41
1.0
  0
SPLINE
  5
81
330
1F
100
AcDbEntity
  8
MAKE2D VISIBLE LINES
100
AcDbSpline
210
0.0
220
0.0
230
1.0
 70
    12
 71
     2
 72
     6
 73
     3
 74
     0
 42
0.0000000001
 43
0.0000000001
 40
0.0
 40
0.0
 40
0.0
 40
1.373313790295952
 40
1.373313790295952
 40
1.373313790295952
 10
19074.49534639491
 20
25073.90608223944
 30
0.0
 41
1.0
 10
19073.86171632184
 20
25073.64492242317
 30
0.0
 41
0.999594080277383
 10
19073.24396264253
 20
25073.34815330213
 30
0.0
 41
0.9999982244862161
  0
SPLINE
  5
82
330
1F
100
AcDbEntity
  8
MAKE2D VISIBLE LINES
100
AcDbSpline
210
0.0
220
0.0
230
1.0
 70
     8
 71
     3
 72
    12
 73
     8
 74
     0
 42
0.0000000001
 43
0.0000000001
 40
0.0
 40
0.0
 40
0.0
 40
0.0
 40
0.8188985548165925
 40
1.638335519597581
 40
2.519017098094595
 40
4.114566921545468
 40
227.2041499478564
 40
227.2041499478564
 40
227.2041499478564
 40
227.2041499478564
 10
19073.24396264253
 20
25073.34815330213
 30
0.0
 10
19072.99925419613
 20
25073.22787431728
 30
0.0
 10
19072.49209234639
 20
25073.01891902956
 30
0.0
 10
19071.66936812811
 20
25072.83851426842
 30
0.0
 10
19070.57169355908
 20
25072.76240370886
 30
0.0
 10
18995.38427659443
 20
25072.71143089784
 30
0.0
 10
18920.48998845503
 20
25072.70081304161
 30
0.0
 10
18846.12787147065
 20
25072.69663234468
 30
0.0
  0
SPLINE
  5
83
330
1F
100
AcDbEntity
  8
MAKE2D VISIBLE LINES
100
AcDbSpline
210
0.0
220
0.0
230
1.0
 70
    12
 71
     2
 72
     6
 73
     3
 74
     0
 42
0.0000000001
 43
0.0000000001
 40
0.0
 40
0.0
 40
0.0
 40
223.0304911837164
 40
223.0304911837164
 40
223.0304911837164
 10
18846.12787147065
 20
25072.69663234468
 30
0.0
 41
1.0
 10
18734.6126229714
 20
25072.69688088935
 30
0.0
 41
0.9999999609020656
 10
18623.0947663783
 20
25072.75949948932
 30
0.0
 41
1.0
  0
SPLINE
  5
84
330
1F
100
AcDbEntity
  8
MAKE2D VISIBLE LINES
100
AcDbSpline
210
0.0
220
0.0
230
1.0
 70
     8
 71
     3
 72
    11
 73
     7
 74
     0
 42
0.0000000001
 43
0.0000000001
 40
0.0
 40
0.0
 40
0.0
 40
0.0
 40
0.9554655034279492
 40
1.730220943897881
 40
2.661580437199296
 40
4.433740367769183
 40
4.433740367769183
 40
4.433740367769183
 40
4.433740367769183
 10
18623.0947663783
 20
25072.75949948932
 30
0.0
 10
18622.77407823684
 20
25072.75926164932
 30
0.0
 10
18622.19635659914
 20
25072.76516467349
 30
0.0
 10
18621.31054407405
 20
25072.78449861901
 30
0.0
 10
18620.15054874803
 20
25072.85981046197
 30
0.0
 10
18619.28242937157
 20
25073.15027851022
 30
0.0
 10
18618.76514751355
 20
25073.43550933808
 30
0.0
  0
SPLINE
  5
85
330
1F
100
AcDbEntity
  8
MAKE2D VISIBLE LINES
100
AcDbSpline
210
0.0
220
0.0
230
1.0
 70
     8
 71
     3
 72
    14
 73
    10
 74
     0
 42
0.0000000001
 43
0.0000000001
 40
0.0
 40
0.0
 40
0.0
 40
0.0
 40
5.632840312368093
 40
5.890961119054595
 40
6.188730916526666
 40
6.47148665603549
 40
7.054429339806291
 40
9.124072838963885
 40
11.19628277438441
 40
11.19628277438441
 40
11.19628277438441
 40
11.19628277438441
 10
18618.76514751355
 20
25073.43550933808
 30
0.0
 10
18617.11409232881
 20
25074.32974522381
 30
0.0
 10
18615.36567070175
 20
25075.2240834111
 30
0.0
 10
18613.54774922669
 20
25076.19914356838
 30
0.0
 10
18613.30718662598
 20
25076.34188607263
 30
0.0
 10
18612.98704168306
 20
25076.5608573785
 30
0.0
 10
18612.22647439618
 20
25077.17939829397
 30
0.0
 10
18611.29048906898
 20
25078.48782466485
 30
0.0
 10
18610.99942816999
 20
25079.86819535958
 30
0.0
 10
18611.0000099898
 20
25080.55886098572
 30
0.0
  0
SPLINE
  5
86
330
1F
100
AcDbEntity
  8
MAKE2D VISIBLE LINES
100
AcDbSpline
210
0.0
220
0.0
230
1.0
 70
    24
 71
     2
 72
     6
 73
     3
 74
     0
 42
0.0000000001
 43
0.0000000001
 40
0.0
 40
0.0
 40
0.0
 40
89.99850895042209
 40
89.99850895042209
 40
89.99850895042209
 10
18611.0000099898
 20
25080.55886098572
 30
0.0
 10
18611.0000149847
 20
25125.55811546106
 30
0.0
 10
18611.00001997961
 20
25170.55736993639
 30
0.0
  0
SPLINE
  5
87
330
1F
100
AcDbEntity
  8
MAKE2D VISIBLE LINES
100
AcDbSpline
210
0.0
220
0.0
230
1.0
 70
    12
 71
     2
 72
     6
 73
     3
 74
     0
 42
0.0000000001
 43
0.0000000001
 40
0.0
 40
0.0
 40
0.0
 40
6.78961512518365
 40
6.78961512518365
 40
6.78961512518365
 10
18611.00001997961
 20
25170.55736993639
 30
0.0
 41
1.0
 10
18611.00125416926
 20
25174.59158839142
 30
0.0
 41
0.7783630833502
 10
18614.94429870766
 20
25175.44441887536
 30
0.0
 41
1.0
  0
SPLINE
  5
88
330
1F
100
AcDbEntity
  8
MAKE2D VISIBLE LINES
100
AcDbSpline
210
0.0
220
0.0
230
1.0
 70
     8
 71
     3
 72
    15
 73
    11
 74
     0
 42
0.0000000001
 43
0.0000000001
 40
0.0
 40
0.0
 40
0.0
 40
0.0
 40
17.92771391290851
 40
35.78936955057791
 40
53.43945053657678
 40
71.02942375314989
 40
88.35978828309878
 40
105.4798299020156
 40
122.4923586507842
 40
139.4374899348318
 40
139.4374899348318
 40
139.4374899348318
 40
139.4374899348318
 10
19005.1589643165
 20
24948.55884871525
 30
0.0
 10
19004.73764053151
 20
24942.59782914038
 30
0.0
 10
19002.85174247862
 20
24930.77132644476
 30
0.0
 10
18996.97620076216
 20
24913.88028063445
 30
0.0
 10
18988.23986605696
 20
24898.40292798282
 30
0.0
 10
18976.94257005014
 20
24884.90811922529
 30
0.0
 10
18963.4588077843
 20
24873.87090945087
 30
0.0
 10
18948.28586000248
 20
24865.69612802799
 30
0.0
 10
18931.93350154842
 20
24860.66441789545
 30
0.0
 10
18920.61481878459
 20
24859.52817718913
 30
0.0
 10
18914.96649303228
 20
24859.52734934787
 30
0.0
  0
SPLINE
  5
89
330
1F
100
AcDbEntity
  8
MAKE2D VISIBLE LINES
100
AcDbSpline
210
0.0
220
0.0
230
1.0
 70
     8
 71
     3
 72
    14
 73
    10
 74
     0
 42
0.0000000001
 43
0.0000000001
 40
0.0
 40
0.0
 40
0.0
 40
0.0
 40
16.92451812856767
 40
33.89063578808034
 40
51.0517261603376
 40
68.35512877357156
 40
86.05141763730111
 40
103.638838741827
 40
139.4798361138552
 40
139.4798361138552
 40
139.4798361138552
 40
139.4798361138552
 10
18914.96649303228
 20
24859.52734934787
 30
0.0
 10
18909.3249507788
 20
24859.5253798449
 30
0.0
 10
18898.02830632739
 20
24860.65234142882
 30
0.0
 10
18881.67924102839
 20
24865.66502568097
 30
0.0
 10
18866.50788577889
 20
24873.81955638869
 30
0.0
 10
18852.98198097744
 20
24884.87025931992
 30
0.0
 10
18841.67747790314
 20
24898.36461748482
 30
0.0
 10
18829.96606783027
 20
24919.09301549044
 30
0.0
 10
18825.56914144232
 20
24936.64241588656
 30
0.0
 10
18824.73166780187
 20
24948.55884871525
 30
0.0
  0
SPLINE
  5
8A
330
1F
100
AcDbEntity
  8
MAKE2D VISIBLE LINES
100
AcDbSpline
210
0.0
220
0.0
230
1.0
 70
    12
 71
     2
 72
     6
 73
     3
 74
     0
 42
0.0000000001
 43
0.0000000001
 40
0.0
 40
0.0
 40
0.0
 40
67.83768538905468
 40
67.83768538905468
 40
67.83768538905468
 10
19038.64212882519
 20
24942.12797058374
 30
0.0
 41
1.0
 10
19047.67590776236
 20
24909.43425975136
 30
0.0
 41
0.9999999999999628
 10
19056.70970450075
 20
24876.74055384203
 30
0.0
 41
1.0
  0
SPLINE
  5
8B
330
1F
100
AcDbEntity
  8
MAKE2D VISIBLE LINES
100
AcDbSpline
210
0.0
220
0.0
230
1.0
 70
    24
 71
     2
 72
     6
 73
     3
 74
     0
 42
0.0000000001
 43
0.0000000001
 40
-104.0462972835558
 40
-104.0462972835558
 40
-104.0462972835558
 40
0.0
 40
0.0
 40
0.0
 10
19056.70970450075
 20
24876.74055384203
 30
0.0
 10
19108.73285314147
 20
24876.74055384153
 30
0.0
 10
19160.75600178219
 20
24876.74055384103
 30
0.0
  0
SPLINE
  5
8C
330
1F
100
AcDbEntity
  8
MAKE2D VISIBLE LINES
100
AcDbSpline
210
0.0
220
0.0
230
1.0
 70
    24
 71
     2
 72
     6
 73
     3
 74
     0
 42
0.0000000001
 43
0.0000000001
 40
0.0
 40
0.0
 40
0.0
 40
20.21089336762714
 40
20.21089336762714
 40
20.21089336762714
 10
19160.75600178219
 20
24876.74055384103
 30
0.0
 10
19160.75600178219
 20
24866.6336582036
 30
0.0
 10
19160.75600178219
 20
24856.52676256617
 30
0.0
  0
SPLINE
  5
8D
330
1F
100
AcDbEntity
  8
MAKE2D VISIBLE LINES
100
AcDbSpline
210
0.0
220
0.0
230
1.0
 70
    24
 71
     2
 72
     6
 73
     3
 74
     0
 42
0.0000000001
 43
0.0000000001
 40
0.0
 40
0.0
 40
0.0
 40
98.46010684540607
 40
98.46010684540607
 40
98.46010684540607
 10
19160.75600178219
 20
24856.52676256617
 30
0.0
 10
19111.52554899837
 20
24856.5267587934
 30
0.0
 10
19062.29509621455
 20
24856.52675502064
 30
0.0
  0
SPLINE
  5
8E
330
1F
100
AcDbEntity
  8
MAKE2D VISIBLE LINES
100
AcDbSpline
210
0.0
220
0.0
230
1.0
 70
    12
 71
     2
 72
     8
 73
     5
 74
     0
 42
0.0000000001
 43
0.0000000001
 40
-20.96827648223553
 40
-20.96827648223553
 40
-20.96827648223553
 40
-20.57358980660502
 40
-20.57358980660502
 40
0.0
 40
0.0
 40
0.0
 10
19062.29509621455
 20
24856.52675502064
 30
0.0
 41
1.0
 10
19062.24173797956
 20
24856.71986076186
 30
0.0
 41
1.0
 10
19062.1891793292
 20
24856.9100734246
 30
0.0
 41
1.0
 10
19059.44944205138
 20
24866.82531365904
 30
0.0
 41
0.9999999999999999
 10
19056.70970451832
 20
24876.74055382609
 30
0.0
 41
1.0
  0
SPLINE
  5
8F
330
1F
100
AcDbEntity
  8
MAKE2D VISIBLE LINES
100
AcDbSpline
210
0.0
220
0.0
230
1.0
 70
    24
 71
     2
 72
     6
 73
     3
 74
     0
 42
0.0000000001
 43
0.0000000001
 40
0.0
 40
0.0
 40
0.0
 40
33.78080823288246
 40
33.78080823288246
 40
33.78080823288246
 10
19160.75600178218
 20
25134.85463192086
 30
0.0
 10
19160.75600178218
 20
25151.7450360373
 30
0.0
 10
19160.75600178219
 20
25168.63544015374
 30
0.0
  0
SPLINE
  5
90
330
1F
100
AcDbEntity
  8
MAKE2D VISIBLE LINES
100
AcDbSpline
210
0.0
220
0.0
230
1.0
 70
    24
 71
     2
 72
     6
 73
     3
 74
     0
 42
0.0000000001
 43
0.0000000001
 40
0.0
 40
0.0
 40
0.0
 40
0.0178138408193718
 40
0.0178138408193718
 40
0.0178138408193718
 10
19160.75600178219
 20
25168.63544015374
 30
0.0
 10
19160.75600178219
 20
25168.64434707415
 30
0.0
 10
19160.75600178219
 20
25168.65325399456
 30
0.0
  0
SPLINE
  5
91
330
1F
100
AcDbEntity
  8
MAKE2D VISIBLE LINES
100
AcDbSpline
210
0.0
220
0.0
230
1.0
 70
    24
 71
     2
 72
     6
 73
     3
 74
     0
 42
0.0000000001
 43
0.0000000001
 40
0.0
 40
0.0
 40
0.0
 40
1.481754853029997
 40
1.481754853029997
 40
1.481754853029997
 10
19160.75600178219
 20
25078.67306394642
 30
0.0
 10
19160.75600178231
 20
25077.9321865221
 30
0.0
 10
19160.75600178243
 20
25077.19130909778
 30
0.0
  0
SPLINE
  5
92
330
1F
100
AcDbEntity
  8
MAKE2D VISIBLE LINES
100
AcDbSpline
210
0.0
220
0.0
230
1.0
 70
    24
 71
     2
 72
     6
 73
     3
 74
     0
 42
0.0000000001
 43
0.0000000001
 40
-118.9814503744174
 40
-118.9814503744174
 40
-118.9814503744174
 40
0.0
 40
0.0
 40
0.0
 10
19160.75600178243
 20
25077.19130909778
 30
0.0
 10
19160.75600178231
 20
25017.70058391276
 30
0.0
 10
19160.75600178218
 20
24958.20985872775
 30
0.0
  0
SPLINE
  5
93
330
1F
100
AcDbEntity
  8
MAKE2D VISIBLE LINES
100
AcDbSpline
210
0.0
220
0.0
230
1.0
 70
    24
 71
     2
 72
     6
 73
     3
 74
     0
 42
0.0000000001
 43
0.0000000001
 40
0.0
 40
0.0
 40
0.0
 40
9.641422274603997
 40
9.641422274603997
 40
9.641422274603997
 10
19160.75600178218
 20
24958.20985872775
 30
0.0
 10
19160.75600178218
 20
24953.38914759026
 30
0.0
 10
19160.75600178218
 20
24948.56843645277
 30
0.0
  0
SPLINE
  5
94
330
1F
100
AcDbEntity
  8
MAKE2D VISIBLE LINES
100
AcDbSpline
210
0.0
220
0.0
230
1.0
 70
    24
 71
     2
 72
     6
 73
     3
 74
     0
 42
0.0000000001
 43
0.0000000001
 40
0.0
 40
0.0
 40
0.0
 40
6.44046586764307
 40
6.44046586764307
 40
6.44046586764307
 10
19160.75600178218
 20
24948.56843645277
 30
0.0
 10
19160.75600178218
 20
24945.34820351876
 30
0.0
 10
19160.75600178219
 20
24942.12797058475
 30
0.0
  0
SPLINE
  5
95
330
1F
100
AcDbEntity
  8
MAKE2D VISIBLE LINES
100
AcDbSpline
210
0.0
220
0.0
230
1.0
 70
    24
 71
     2
 72
     6
 73
     3
 74
     0
 42
0.0000000001
 43
0.0000000001
 40
0.0
 40
0.0
 40
0.0
 40
122.1138729627419
 40
122.1138729627419
 40
122.1138729627419
 10
19160.75600178219
 20
24942.12797058475
 30
0.0
 10
19099.69906530081
 20
24942.12797058475
 30
0.0
 10
19038.64212881944
 20
24942.12797058475
 30
0.0
  0
SPLINE
  5
96
330
1F
100
AcDbEntity
  8
MAKE2D VISIBLE LINES
100
AcDbSpline
210
0.0
220
0.0
230
1.0
 70
    24
 71
     2
 72
     6
 73
     3
 74
     0
 42
0.0000000001
 43
0.0000000001
 40
-6.67186301487754
 40
-6.67186301487754
 40
-6.67186301487754
 40
0.0
 40
0.0
 40
0.0
 10
19038.64212881944
 20
24942.12797058475
 30
0.0
 10
19037.75365223562
 20
24945.34340965
 30
0.0
 10
19036.8651756518
 20
24948.55884871525
 30
0.0
  0
SPLINE
  5
97
330
1F
100
AcDbEntity
  8
MAKE2D VISIBLE LINES
100
AcDbSpline
210
0.0
220
0.0
230
1.0
 70
    24
 71
     2
 72
     6
 73
     3
 74
     0
 42
0.0000000001
 43
0.0000000001
 40
-77.04160090563295
 40
-77.04160090563295
 40
-77.04160090563295
 40
0.0
 40
0.0
 40
0.0
 10
19078.71440091777
 20
25175.55772125676
 30
0.0
 10
19117.23520137059
 20
25175.55772125676
 30
0.0
 10
19155.7560018234
 20
25175.55772125676
 30
0.0
  0
SPLINE
  5
98
330
1F
100
AcDbEntity
  8
MAKE2D VISIBLE LINES
100
AcDbSpline
210
0.0
220
0.0
230
1.0
 70
    12
 71
     2
 72
     6
 73
     3
 74
     0
 42
0.0000000001
 43
0.0000000001
 40
0.0
 40
0.0
 40
0.0
 40
7.854265597962375
 40
7.854265597962375
 40
7.854265597962375
 10
19155.7560018234
 20
25175.55772125676
 30
0.0
 41
1.0
 10
19160.7560677069
 20
25175.55733922789
 30
0.0
 41
0.7071291355385054
 10
19160.75600182547
 20
25170.55727333024
 30
0.0
 41
1.0
  0
SPLINE
  5
99
330
1F
100
AcDbEntity
  8
MAKE2D VISIBLE LINES
100
AcDbSpline
210
0.0
220
0.0
230
1.0
 70
    24
 71
     2
 72
     6
 73
     3
 74
     0
 42
0.0000000001
 43
0.0000000001
 40
0.0
 40
0.0
 40
0.0
 40
1.904019335672047
 40
1.904019335672047
 40
1.904019335672047
 10
19160.75600182547
 20
25170.55727333024
 30
0.0
 10
19160.75600180383
 20
25169.6052636624
 30
0.0
 10
19160.75600178219
 20
25168.65325399456
 30
0.0
  0
SPLINE
  5
9A
330
1F
100
AcDbEntity
  8
MAKE2D VISIBLE LINES
100
AcDbSpline
210
0.0
220
0.0
230
1.0
 70
     8
 71
     3
 72
    13
 73
     9
 74
     0
 42
0.0000000001
 43
0.0000000001
 40
0.0
 40
0.0
 40
0.0
 40
0.0
 40
1.089357087043707
 40
1.435212272609026
 40
1.873342742854445
 40
2.941070824861762
 40
3.960550414860336
 40
7.91784070854412
 40
7.91784070854412
 40
7.91784070854412
 40
7.91784070854412
 10
19160.75600178219
 20
25168.65325399456
 30
0.0
 10
19160.73295623339
 20
25169.01427379912
 30
0.0
 10
19160.71482591616
 20
25169.49709486858
 30
0.0
 10
19160.55926921736
 20
25170.102483166
 30
0.0
 10
19160.3377962286
 20
25170.67966765946
 30
0.0
 10
19159.96898812935
 20
25171.43895910414
 30
0.0
 10
19158.6972586288
 20
25173.01980265175
 30
0.0
 10
19157.08110953852
 20
25173.75361911503
 30
0.0
 10
19155.75600178398
 20
25173.77762066248
 30
0.0
  0
SPLINE
  5
9B
330
1F
100
AcDbEntity
  8
MAKE2D VISIBLE LINES
100
AcDbSpline
210
0.0
220
0.0
230
1.0
 70
    24
 71
     2
 72
     6
 73
     3
 74
     0
 42
0.0000000001
 43
0.0000000001
 40
-123.5266389820667
 40
-123.5266389820667
 40
-123.5266389820667
 40
0.0
 40
0.0
 40
0.0
 10
18711.66803539156
 20
25072.7196183448
 30
0.0
 10
18731.03529823685
 20
25014.07137229743
 30
0.0
 10
18750.40256108213
 20
24955.42312625005
 30
0.0
  0
SPLINE
  5
9C
330
1F
100
AcDbEntity
  8
MAKE2D VISIBLE LINES
100
AcDbSpline
210
0.0
220
0.0
230
1.0
 70
    12
 71
     2
 72
     6
 73
     3
 74
     0
 42
0.0000000001
 43
0.0000000001
 40
0.0
 40
0.0
 40
0.0
 40
12.51843634705135
 40
12.51843634705135
 40
12.51843634705135
 10
18750.40256108213
 20
24955.42312625005
 30
0.0
 41
1.0
 10
18752.66933419504
 20
24948.55884871524
 30
0.0
 41
0.8104234222056724
 10
18759.89820453696
 20
24948.55884871525
 30
0.0
 41
1.0
  0
SPLINE
  5
9D
330
1F
100
AcDbEntity
  8
MAKE2D VISIBLE LINES
100
AcDbSpline
210
0.0
220
0.0
230
1.0
 70
    24
 71
     2
 72
     6
 73
     3
 74
     0
 42
0.0000000001
 43
0.0000000001
 40
0.0
 40
0.0
 40
0.0
 40
400.8577972452185
 40
400.8577972452185
 40
400.8577972452185
 10
18759.89820453696
 20
24948.55884871525
 30
0.0
 10
18960.32710315957
 20
24948.55884871525
 30
0.0
 10
19160.75600178218
 20
24948.55884871525
 30
0.0
  0
SPLINE
  5
9E
330
1F
100
AcDbEntity
  8
MAKE2D VISIBLE LINES
100
AcDbSpline
210
0.0
220
0.0
230
1.0
 70
    12
 71
     2
 72
     6
 73
     3
 74
     0
 42
0.0000000001
 43
0.0000000001
 40
0.0
 40
0.0
 40
0.0
 40
5.711440920874674
 40
5.711440920874674
 40
5.711440920874674
 10
18618.80395711903
 20
25173.36287617063
 30
0.0
 41
1.0
 10
18616.29143256593
 20
25174.71650031838
 30
0.0
 41
0.9999997417736092
 10
18613.78087050185
 20
25176.07376082642
 30
0.0
 41
0.9999999996812267
  0
SPLINE
  5
9F
330
1F
100
AcDbEntity
  8
MAKE2D VISIBLE LINES
100
AcDbSpline
210
0.0
220
0.0
230
1.0
 70
    12
 71
     2
 72
     6
 73
     3
 74
     0
 42
0.0000000001
 43
0.0000000001
 40
0.0
 40
0.0
 40
0.0
 40
5.557756604978716
 40
5.557756604978716
 40
5.557756604978716
 10
18613.78087050184
 20
25176.07376082642
 30
0.0
 41
0.9998014292780331
 10
18611.00896633261
 20
25177.45887814574
 30
0.0
 41
0.8512696725489839
 10
18611.00001107063
 20
25180.55757505059
 30
0.0
 41
0.9999999985626513
  0
SPLINE
  5
A0
330
1F
100
AcDbEntity
  8
MAKE2D VISIBLE LINES
100
AcDbSpline
210
0.0
220
0.0
230
1.0
 70
    24
 71
     2
 72
     6
 73
     3
 74
     0
 42
0.0000000001
 43
0.0000000001
 40
0.0
 40
0.0
 40
0.0
 40
19.9999914071384
 40
19.9999914071384
 40
19.9999914071384
 10
18611.00001107063
 20
25180.55757505059
 30
0.0
 10
18611.00001552512
 20
25190.5575707543
 30
0.0
 10
18611.00001997961
 20
25200.557566458
 30
0.0
  0
SPLINE
  5
A1
330
1F
100
AcDbEntity
  8
MAKE2D VISIBLE LINES
100
AcDbSpline
210
0.0
220
0.0
230
1.0
 70
    12
 71
     2
 72
     6
 73
     3
 74
     0
 42
0.0000000001
 43
0.0000000001
 40
0.0
 40
0.0
 40
0.0
 40
7.854077798200167
 40
7.854077798200167
 40
7.854077798200167
 10
18611.00001997961
 20
25200.557566458
 30
0.0
 41
1.0
 10
18611.00000383894
 20
25205.55758347728
 30
0.0
 41
0.7071153822676582
 10
18616.00002085636
 20
25205.55772061515
 30
0.0
 41
0.9999999999985354
  0
SPLINE
  5
A2
330
1F
100
AcDbEntity
  8
MAKE2D VISIBLE LINES
100
AcDbSpline
210
0.0
220
0.0
230
1.0
 70
    12
 71
     2
 72
     6
 73
     3
 74
     0
 42
0.0000000001
 43
0.0000000001
 40
-462.2826861628455
 40
-462.2826861628455
 40
-462.2826861628455
 40
0.0
 40
0.0
 40
0.0
 10
18616.00002085636
 20
25205.55772061515
 30
0.0
 41
1.0
 10
18847.14136393778
 20
25205.55772198628
 30
0.0
 41
1.0
 10
19078.28270701921
 20
25205.55772072054
 30
0.0
 41
1.0
  0
SPLINE
  5
A3
330
1F
100
AcDbEntity
  8
MAKE2D VISIBLE LINES
100
AcDbSpline
210
0.0
220
0.0
230
1.0
 70
    12
 71
     2
 72
     6
 73
     3
 74
     0
 42
0.0000000001
 43
0.0000000001
 40
0.0
 40
0.0
 40
0.0
 40
7.855117432959466
 40
7.855117432959466
 40
7.855117432959466
 10
19078.28270701921
 20
25205.55772072054
 30
0.0
 41
1.0
 10
19083.28296815812
 20
25205.55798481693
 30
0.0
 41
0.7071966662567736
 10
19083.28450303232
 20
25200.55772390664
 30
0.0
 41
1.0
  0
SPLINE
  5
A4
330
1F
100
AcDbEntity
  8
MAKE2D VISIBLE LINES
100
AcDbSpline
210
0.0
220
0.0
230
1.0
 70
    24
 71
     2
 72
     6
 73
     3
 74
     0
 42
0.0000000001
 43
0.0000000001
 40
0.0
 40
0.0
 40
0.0
 40
20.0000032773039
 40
20.0000032773039
 40
20.0000032773039
 10
19083.28450303232
 20
25200.55772390664
 30
0.0
 10
19083.28450303226
 20
25190.55772226799
 30
0.0
 10
19083.28450303221
 20
25180.55772062934
 30
0.0
  0
SPLINE
  5
A5
330
1F
100
AcDbEntity
  8
MAKE2D VISIBLE LINES
100
AcDbSpline
210
0.0
220
0.0
230
1.0
 70
    12
 71
     2
 72
     6
 73
     3
 74
     0
 42
0.0000000001
 43
0.0000000001
 40
0.0
 40
0.0
 40
0.0
 40
0.3731401838567985
 40
0.3731401838567985
 40
0.3731401838567985
 10
19083.28450303221
 20
25180.55772062934
 30
0.0
 41
1.0
 10
19083.28435081534
 20
25180.3710619962
 30
0.0
 41
0.9992854230194943
 10
19083.27030480985
 20
25180.18493241513
 30
0.0
 41
0.9999999974181248
  0
SPLINE
  5
A6
330
1F
100
AcDbEntity
  8
MAKE2D VISIBLE LINES
100
AcDbSpline
210
0.0
220
0.0
230
1.0
 70
     8
 71
     3
 72
    12
 73
     8
 74
     0
 42
0.0000000001
 43
0.0000000001
 40
0.0
 40
0.0
 40
0.0
 40
0.0
 40
0.8587254386250758
 40
1.717035877622314
 40
3.444707261804038
 40
5.164694708605708
 40
6.889337963335452
 40
6.889337963335452
 40
6.889337963335452
 40
6.889337963335452
 10
19083.27030480985
 20
25180.18493241513
 30
0.0
 10
19083.24942946484
 20
25179.89931973116
 30
0.0
 10
19083.15701692314
 20
25179.33285310679
 30
0.0
 10
19082.78210684341
 20
25178.24280302654
 30
0.0
 10
19081.97071971792
 20
25177.0334372147
 30
0.0
 10
19080.56271575002
 20
25175.9943789778
 30
0.0
 10
19079.44642769365
 20
25175.6609963503
 30
0.0
 10
19078.87615894819
 20
25175.58990752822
 30
0.0
  0
SPLINE
  5
A7
330
1F
100
AcDbEntity
  8
MAKE2D VISIBLE LINES
100
AcDbSpline
210
0.0
220
0.0
230
1.0
 70
     8
 71
     3
 72
    12
 73
     8
 74
     0
 42
0.0000000001
 43
0.0000000001
 40
0.0
 40
0.0
 40
0.0
 40
0.0
 40
0.4846303004176888
 40
1.118526177946146
 40
2.478604297738028
 40
3.95950172598782
 40
6.141722881398295
 40
6.141722881398295
 40
6.141722881398295
 40
6.141722881398295
 10
19078.87615894819
 20
25175.58990752822
 30
0.0
 10
19078.71707465035
 20
25175.56161334883
 30
0.0
 10
19078.35500443923
 20
25175.47222690194
 30
0.0
 10
19077.56277050737
 20
25175.23715360389
 30
0.0
 10
19076.47745645979
 20
25174.83068211618
 30
0.0
 10
19074.9470515343
 20
25174.15083506184
 30
0.0
 10
19073.8584883964
 20
25173.59727756102
 30
0.0
 10
19073.20580798247
 20
25173.27657862542
 30
0.0
  0
SPLINE
  5
A8
330
1F
100
AcDbEntity
  8
MAKE2D VISIBLE LINES
100
AcDbSpline
210
0.0
220
0.0
230
1.0
 70
     8
 71
     3
 72
    12
 73
     8
 74
     0
 42
0.0000000001
 43
0.0000000001
 40
0.0
 40
0.0
 40
0.0
 40
0.0
 40
0.4022976114233261
 40
0.8074218316953834
 40
1.620730605635712
 40
2.509259976145113
 40
4.10009906209998
 40
4.10009906209998
 40
4.10009906209998
 40
4.10009906209998
 10
19073.20580798247
 20
25173.27657862542
 30
0.0
 10
19073.08555003557
 20
25173.21746511052
 30
0.0
 10
19072.83901913884
 20
25173.10834512175
 30
0.0
 10
19072.32902551755
 20
25172.92982289972
 30
0.0
 10
19071.6403444155
 20
25172.77864060488
 30
0.0
 10
19070.54293183966
 20
25172.71436721145
 30
0.0
 10
19069.71717838549
 20
25172.70857160109
 30
0.0
 10
19069.17671152156
 20
25172.70586565013
 30
0.0
  0
SPLINE
  5
A9
330
1F
100
AcDbEntity
  8
MAKE2D VISIBLE LINES
100
AcDbSpline
210
0.0
220
0.0
230
1.0
 70
     8
 71
     3
 72
    11
 73
     7
 74
     0
 42
0.0000000001
 43
0.0000000001
 40
0.0
 40
0.0
 40
0.0
 40
0.0
 40
109.4045283622316
 40
224.0910311626185
 40
338.7774784839684
 40
446.1777912505631
 40
446.1777912505631
 40
446.1777912505631
 40
446.1777912505631
 10
19069.17671152156
 20
25172.70586565013
 30
0.0
 10
19032.69867227685
 20
25172.6850774726
 30
0.0
 10
18958.00159769915
 20
25172.65354586845
 30
0.0
 10
18845.07581441765
 20
25172.63697982447
 30
0.0
 10
18732.81803690884
 20
25172.6540296609
 30
0.0
 10
18658.78913433843
 20
25172.68546213086
 30
0.0
 10
18622.98795997361
 20
25172.70588283666
 30
0.0
  0
SPLINE
  5
AA
330
1F
100
AcDbEntity
  8
MAKE2D VISIBLE LINES
100
AcDbSpline
210
0.0
220
0.0
230
1.0
 70
     8
 71
     3
 72
    11
 73
     7
 74
     0
 42
0.0000000001
 43
0.0000000001
 40
0.0
 40
0.0
 40
0.0
 40
0.0
 40
1.097400781472467
 40
1.902241780793528
 40
2.431332428661995
 40
2.911353608298458
 40
2.911353608298458
 40
2.911353608298458
 40
2.911353608298458
 10
18622.98795997361
 20
25172.70588283666
 30
0.0
 10
18622.62135367107
 20
25172.70652944051
 30
0.0
 10
18621.9871098922
 20
25172.71440220225
 30
0.0
 10
18621.1769715689
 20
25172.7374193133
 30
0.0
 10
18620.57402384511
 20
25172.78782153656
 30
0.0
 10
18620.24247956584
 20
25172.84735158203
 30
0.0
 10
18620.08638179321
 20
25172.88228658338
 30
0.0
  0
ENDSEC
  0
SECTION
  2
OBJECTS
  0
DICTIONARY
  5
C
330
0
100
AcDbDictionary
281
     1
  3
ACAD_GROUP
350
D
  3
ACAD_LAYOUT
350
1A
  3
ACAD_MLEADERSTYLE
350
AE
  3
ACAD_MLINESTYLE
350
17
  3
ACAD_PLOTSETTINGS
350
19
  3
ACAD_PLOTSTYLENAME
350
E
  3
ACAD_SCALELIST
350
3D
  3
ACAD_TABLESTYLE
350
AD
  3
ACAD_VISUALSTYLE
350
2A
  3
AcDbVariableDictionary
350
AB
  0
DICTIONARY
  5
D
102
{ACAD_REACTORS
330
C
102
}
330
C
100
AcDbDictionary
281
     1
  0
DICTIONARY
  5
1A
102
{ACAD_REACTORS
330
C
102
}
330
C
100
AcDbDictionary
281
     1
  3
Layout1
350
1E
  3
Layout2
350
26
  3
Model
350
22
  0
DICTIONARY
  5
AE
102
{ACAD_REACTORS
330
C
102
}
330
C
100
AcDbDictionary
281
     1
  0
DICTIONARY
  5
17
102
{ACAD_REACTORS
330
C
102
}
330
C
100
AcDbDictionary
281
     1
  3
Standard
350
18
  0
DICTIONARY
  5
19
102
{ACAD_REACTORS
330
C
102
}
330
C
100
AcDbDictionary
281
     1
  0
ACDBDICTIONARYWDFLT
  5
E
102
{ACAD_REACTORS
330
C
102
}
330
C
100
AcDbDictionary
281
     1
  3
Normal
350
F
100
AcDbDictionaryWithDefault
340
F
  0
DICTIONARY
  5
3D
102
{ACAD_REACTORS
330
C
102
}
330
C
100
AcDbDictionary
281
     1
  3
A0
350
3E
  3
A1
350
3F
  3
A2
350
40
  3
A3
350
41
  3
A4
350
42
  3
A5
350
43
  3
A6
350
44
  3
A7
350
45
  3
A8
350
46
  3
A9
350
47
  3
B0
350
48
  3
B1
350
49
  3
B2
350
4A
  3
B3
350
4B
  3
B4
350
4C
  3
B5
350
4D
  3
B6
350
4E
  3
B7
350
4F
  3
B8
350
50
  3
B9
350
51
  3
C0
350
52
  3
C1
350
53
  3
C2
350
54
  3
C3
350
55
  3
C4
350
56
  3
C5
350
57
  3
C6
350
58
  3
C7
350
59
  3
C8
350
5A
  3
C9
350
5B
  3
D0
350
5C
  3
D1
350
5D
  3
D2
350
5E
  0
DICTIONARY
  5
AD
102
{ACAD_REACTORS
330
C
102
}
330
C
100
AcDbDictionary
281
     1
  0
DICTIONARY
  5
2A
102
{ACAD_REACTORS
330
C
102
}
330
C
100
AcDbDictionary
281
     1
  3
2dWireframe
350
2F
  3
3D Hidden
350
31
  3
3dWireframe
350
30
  3
Basic
350
32
  3
Brighten
350
36
  3
ColorChange
350
3A
  3
Conceptual
350
34
  3
Dim
350
35
  3
Facepattern
350
39
  3
Flat
350
2B
  3
FlatWithEdges
350
2C
  3
Gouraud
350
2D
  3
GouraudWithEdges
350
2E
  3
Linepattern
350
38
  3
Realistic
350
33
  3
Thicken
350
37
  0
DICTIONARY
  5
AB
102
{ACAD_REACTORS
330
C
102
}
330
C
100
AcDbDictionary
281
     1
  3
CANNOSCALE
350
AC
  0
LAYOUT
  5
1E
102
{ACAD_REACTORS
330
1A
102
}
330
1A
100
AcDbPlotSettings
  1

  2
none_device
  4

  6

 40
0.0
 41
0.0
 42
0.0
 43
0.0
 44
0.0
 45
0.0
 46
0.0
 47
0.0
 48
0.0
 49
0.0
140
0.0
141
0.0
142
1.0
143
1.0
 70
   688
 72
     0
 73
     0
 74
     5
  7

 75
    16
 76
     0
 77
     2
 78
   300
147
1.0
148
0.0
149
0.0
100
AcDbLayout
  1
Layout1
 70
     1
 71
     1
 10
0.0
 20
0.0
 11
12.0
 21
9.0
 12
0.0
 22
0.0
 32
0.0
 14
1.000000000000000E+20
 24
1.000000000000000E+20
 34
1.000000000000000E+20
 15
-1.000000000000000E+20
 25
-1.000000000000000E+20
 35
-1.000000000000000E+20
146
0.0
 13
0.0
 23
0.0
 33
0.0
 16
1.0
 26
0.0
 36
0.0
 17
0.0
 27
1.0
 37
0.0
 76
     0
330
1B
  0
LAYOUT
  5
26
102
{ACAD_REACTORS
330
1A
102
}
330
1A
100
AcDbPlotSettings
  1

  2
none_device
  4

  6

 40
0.0
 41
0.0
 42
0.0
 43
0.0
 44
0.0
 45
0.0
 46
0.0
 47
0.0
 48
0.0
 49
0.0
140
0.0
141
0.0
142
1.0
143
1.0
 70
   688
 72
     0
 73
     0
 74
     5
  7

 75
    16
 76
     0
 77
     2
 78
   300
147
1.0
148
0.0
149
0.0
100
AcDbLayout
  1
Layout2
 70
     1
 71
     2
 10
0.0
 20
0.0
 11
0.0
 21
0.0
 12
0.0
 22
0.0
 32
0.0
 14
0.0
 24
0.0
 34
0.0
 15
0.0
 25
0.0
 35
0.0
146
0.0
 13
0.0
 23
0.0
 33
0.0
 16
1.0
 26
0.0
 36
0.0
 17
0.0
 27
1.0
 37
0.0
 76
     0
330
23
  0
LAYOUT
  5
22
102
{ACAD_REACTORS
330
1A
102
}
330
1A
100
AcDbPlotSettings
  1

  2
none_device
  4

  6

 40
0.0
 41
0.0
 42
0.0
 43
0.0
 44
0.0
 45
0.0
 46
0.0
 47
0.0
 48
0.0
 49
0.0
140
0.0
141
0.0
142
1.0
143
1.0
 70
  1712
 72
     0
 73
     0
 74
     0
  7

 75
     0
 76
     0
 77
     2
 78
   300
147
1.0
148
0.0
149
0.0
100
AcDbLayout
  1
Model
 70
     1
 71
     0
 10
0.0
 20
0.0
 11
12.0
 21
9.0
 12
0.0
 22
0.0
 32
0.0
 14
18611.0000099898
 24
24856.52675502064
 34
0.0
 15
19237.47041614035
 25
25313.10811546105
 35
0.0
146
0.0
 13
0.0
 23
0.0
 33
0.0
 16
1.0
 26
0.0
 36
0.0
 17
0.0
 27
1.0
 37
0.0
 76
     0
330
1F
331
29
  0
MLINESTYLE
  5
18
102
{ACAD_REACTORS
330
17
102
}
330
17
100
AcDbMlineStyle
  2
Standard
 70
     0
  3

 62
   256
 51
90.0
 52
90.0
 71
     2
 49
0.5
 62
   256
  6
BYLAYER
 49
-0.5
 62
   256
  6
BYLAYER
  0
ACDBPLACEHOLDER
  5
F
102
{ACAD_REACTORS
330
E
102
}
330
E
  0
SCALE
  5
3E
102
{ACAD_REACTORS
330
3D
102
}
330
3D
100
AcDbScale
 70
     0
300
1:1
140
1.0
141
1.0
290
     1
  0
SCALE
  5
3F
102
{ACAD_REACTORS
330
3D
102
}
330
3D
100
AcDbScale
 70
     0
300
1:2
140
1.0
141
2.0
290
     0
  0
SCALE
  5
40
102
{ACAD_REACTORS
330
3D
102
}
330
3D
100
AcDbScale
 70
     0
300
1:4
140
1.0
141
4.0
290
     0
  0
SCALE
  5
41
102
{ACAD_REACTORS
330
3D
102
}
330
3D
100
AcDbScale
 70
     0
300
1:5
140
1.0
141
5.0
290
     0
  0
SCALE
  5
42
102
{ACAD_REACTORS
330
3D
102
}
330
3D
100
AcDbScale
 70
     0
300
1:8
140
1.0
141
8.0
290
     0
  0
SCALE
  5
43
102
{ACAD_REACTORS
330
3D
102
}
330
3D
100
AcDbScale
 70
     0
300
1:10
140
1.0
141
10.0
290
     0
  0
SCALE
  5
44
102
{ACAD_REACTORS
330
3D
102
}
330
3D
100
AcDbScale
 70
     0
300
1:16
140
1.0
141
16.0
290
     0
  0
SCALE
  5
45
102
{ACAD_REACTORS
330
3D
102
}
330
3D
100
AcDbScale
 70
     0
300
1:20
140
1.0
141
20.0
290
     0
  0
SCALE
  5
46
102
{ACAD_REACTORS
330
3D
102
}
330
3D
100
AcDbScale
 70
     0
300
1:30
140
1.0
141
30.0
290
     0
  0
SCALE
  5
47
102
{ACAD_REACTORS
330
3D
102
}
330
3D
100
AcDbScale
 70
     0
300
1:40
140
1.0
141
40.0
290
     0
  0
SCALE
  5
48
102
{ACAD_REACTORS
330
3D
102
}
330
3D
100
AcDbScale
 70
     0
300
1:50
140
1.0
141
50.0
290
     0
  0
SCALE
  5
49
102
{ACAD_REACTORS
330
3D
102
}
330
3D
100
AcDbScale
 70
     0
300
1:100
140
1.0
141
100.0
290
     0
  0
SCALE
  5
4A
102
{ACAD_REACTORS
330
3D
102
}
330
3D
100
AcDbScale
 70
     0
300
2:1
140
2.0
141
1.0
290
     0
  0
SCALE
  5
4B
102
{ACAD_REACTORS
330
3D
102
}
330
3D
100
AcDbScale
 70
     0
300
4:1
140
4.0
141
1.0
290
     0
  0
SCALE
  5
4C
102
{ACAD_REACTORS
330
3D
102
}
330
3D
100
AcDbScale
 70
     0
300
8:1
140
8.0
141
1.0
290
     0
  0
SCALE
  5
4D
102
{ACAD_REACTORS
330
3D
102
}
330
3D
100
AcDbScale
 70
     0
300
10:1
140
10.0
141
1.0
290
     0
  0
SCALE
  5
4E
102
{ACAD_REACTORS
330
3D
102
}
330
3D
100
AcDbScale
 70
     0
300
100:1
140
100.0
141
1.0
290
     0
  0
SCALE
  5
4F
102
{ACAD_REACTORS
330
3D
102
}
330
3D
100
AcDbScale
 70
     0
300
1/128" = 1'-0"
140
0.0078125
141
12.0
290
     0
  0
SCALE
  5
50
102
{ACAD_REACTORS
330
3D
102
}
330
3D
100
AcDbScale
 70
     0
300
1/64" = 1'-0"
140
0.015625
141
12.0
290
     0
  0
SCALE
  5
51
102
{ACAD_REACTORS
330
3D
102
}
330
3D
100
AcDbScale
 70
     0
300
1/32" = 1'-0"
140
0.03125
141
12.0
290
     0
  0
SCALE
  5
52
102
{ACAD_REACTORS
330
3D
102
}
330
3D
100
AcDbScale
 70
     0
300
1/16" = 1'-0"
140
0.0625
141
12.0
290
     0
  0
SCALE
  5
53
102
{ACAD_REACTORS
330
3D
102
}
330
3D
100
AcDbScale
 70
     0
300
3/32" = 1'-0"
140
0.09375
141
12.0
290
     0
  0
SCALE
  5
54
102
{ACAD_REACTORS
330
3D
102
}
330
3D
100
AcDbScale
 70
     0
300
1/8" = 1'-0"
140
0.125
141
12.0
290
     0
  0
SCALE
  5
55
102
{ACAD_REACTORS
330
3D
102
}
330
3D
100
AcDbScale
 70
     0
300
3/16" = 1'-0"
140
0.1875
141
12.0
290
     0
  0
SCALE
  5
56
102
{ACAD_REACTORS
330
3D
102
}
330
3D
100
AcDbScale
 70
     0
300
1/4" = 1'-0"
140
0.25
141
12.0
290
     0
  0
SCALE
  5
57
102
{ACAD_REACTORS
330
3D
102
}
330
3D
100
AcDbScale
 70
     0
300
3/8" = 1'-0"
140
0.375
141
12.0
290
     0
  0
SCALE
  5
58
102
{ACAD_REACTORS
330
3D
102
}
330
3D
100
AcDbScale
 70
     0
300
1/2" = 1'-0"
140
0.5
141
12.0
290
     0
  0
SCALE
  5
59
102
{ACAD_REACTORS
330
3D
102
}
330
3D
100
AcDbScale
 70
     0
300
3/4" = 1'-0"
140
0.75
141
12.0
290
     0
  0
SCALE
  5
5A
102
{ACAD_REACTORS
330
3D
102
}
330
3D
100
AcDbScale
 70
     0
300
1" = 1'-0"
140
1.0
141
12.0
290
     0
  0
SCALE
  5
5B
102
{ACAD_REACTORS
330
3D
102
}
330
3D
100
AcDbScale
 70
     0
300
1-1/2" = 1'-0"
140
1.5
141
12.0
290
     0
  0
SCALE
  5
5C
102
{ACAD_REACTORS
330
3D
102
}
330
3D
100
AcDbScale
 70
     0
300
3" = 1'-0"
140
3.0
141
12.0
290
     0
  0
SCALE
  5
5D
102
{ACAD_REACTORS
330
3D
102
}
330
3D
100
AcDbScale
 70
     0
300
6" = 1'-0"
140
6.0
141
12.0
290
     0
  0
SCALE
  5
5E
102
{ACAD_REACTORS
330
3D
102
}
330
3D
100
AcDbScale
 70
     0
300
1'-0" = 1'-0"
140
12.0
141
12.0
290
     0
  0
VISUALSTYLE
  5
2F
102
{ACAD_REACTORS
330
2A
102
}
330
2A
100
AcDbVisualStyle
  2
2dWireframe
 70
     4
 71
     0
 72
     2
 73
     0
 90
        0
 40
-0.6
 41
-30.0
 62
     5
 63
     7
421
 16777215
 74
     1
 91
        4
 64
     7
 65
   257
 75
     1
175
     1
 42
1.0
 92
        0
 66
   257
 43
1.0
 76
     1
 77
     6
 78
     2
 67
     7
 79
     5
170
     0
171
     0
290
     0
174
     0
 93
        1
 44
0.0
173
     0
291
     0
 45
0.0
1001
ACAD
1000
AcDbSavedByObjectVersion
1070
     0
  0
VISUALSTYLE
  5
31
102
{ACAD_REACTORS
330
2A
102
}
330
2A
100
AcDbVisualStyle
  2
3D Hidden
 70
     6
 71
     1
 72
     2
 73
     2
 90
        0
 40
-0.6
 41
-30.0
 62
     5
 63
     7
421
 16777215
 74
     2
 91
        2
 64
     7
 65
   257
 75
     2
175
     1
 42
40.0
 92
        0
 66
   257
 43
1.0
 76
     1
 77
     6
 78
     2
 67
     7
 79
     3
170
     0
171
     0
290
     0
174
     0
 93
        1
 44
0.0
173
     0
291
     0
 45
0.0
1001
ACAD
1000
AcDbSavedByObjectVersion
1070
     0
  0
VISUALSTYLE
  5
30
102
{ACAD_REACTORS
330
2A
102
}
330
2A
100
AcDbVisualStyle
  2
3dWireframe
 70
     5
 71
     0
 72
     2
 73
     0
 90
        0
 40
-0.6
 41
-30.0
 62
     5
 63
     7
421
 16777215
 74
     1
 91
        4
 64
     7
 65
   257
 75
     1
175
     1
 42
1.0
 92
        0
 66
   257
 43
1.0
 76
     1
 77
     6
 78
     2
 67
     7
 79
     5
170
     0
171
     0
290
     0
174
     0
 93
        1
 44
0.0
173
     0
291
     0
 45
0.0
1001
ACAD
1000
AcDbSavedByObjectVersion
1070
     0
  0
VISUALSTYLE
  5
32
102
{ACAD_REACTORS
330
2A
102
}
330
2A
100
AcDbVisualStyle
  2
Basic
 70
     7
 71
     1
 72
     0
 73
     1
 90
        0
 40
-0.6
 41
-30.0
 62
     5
 63
     7
421
 16777215
 74
     0
 91
        4
 64
     7
 65
   257
 75
     1
175
     1
 42
1.0
 92
        8
 66
     7
 43
1.0
 76
     1
 77
     6
 78
     2
 67
     7
 79
     5
170
     0
171
     0
290
     0
174
     0
 93
        1
 44
0.0
173
     0
291
     1
 45
0.0
1001
ACAD
1000
AcDbSavedByObjectVersion
1070
     0
  0
VISUALSTYLE
  5
36
102
{ACAD_REACTORS
330
2A
102
}
330
2A
100
AcDbVisualStyle
  2
Brighten
 70
    12
 71
     2
 72
     2
 73
     0
 90
        0
 40
-0.6
 41
-30.0
 62
     5
 63
     7
421
 16777215
 74
     1
 91
        4
 64
     7
 65
   257
 75
     1
175
     1
 42
1.0
 92
        8
 66
     7
 43
1.0
 76
     1
 77
     6
 78
     2
 67
     7
 79
     5
170
     0
171
     0
290
     0
174
     0
 93
        1
 44
50.0
173
     0
291
     1
 45
0.0
1001
ACAD
1000
AcDbSavedByObjectVersion
1070
     0
  0
VISUALSTYLE
  5
3A
102
{ACAD_REACTORS
330
2A
102
}
330
2A
100
AcDbVisualStyle
  2
ColorChange
 70
    16
 71
     2
 72
     2
 73
     3
 90
        0
 40
-0.6
 41
-30.0
 62
     5
 63
     8
421
  8421504
 74
     1
 91
        4
 64
     7
 65
   257
 75
     1
175
     1
 42
1.0
 92
        8
 66
     8
424
  8421504
 43
1.0
 76
     1
 77
     6
 78
     2
 67
     7
 79
     5
170
     0
171
     0
290
     0
174
     0
 93
        1
 44
0.0
173
     0
291
     1
 45
0.0
1001
ACAD
1000
AcDbSavedByObjectVersion
1070
     0
  0
VISUALSTYLE
  5
34
102
{ACAD_REACTORS
330
2A
102
}
330
2A
100
AcDbVisualStyle
  2
Conceptual
 70
     9
 71
     3
 72
     2
 73
     0
 90
        0
 40
-0.6
 41
-30.0
 62
     5
 63
     7
421
 16777215
 74
     2
 91
        2
 64
     7
 65
   257
 75
     1
175
     1
 42
40.0
 92
        8
 66
     7
 43
1.0
 76
     1
 77
     6
 78
     2
 67
     7
 79
     3
170
     0
171
     0
290
     0
174
     0
 93
        1
 44
0.0
173
     0
291
     0
 45
0.0
1001
ACAD
1000
AcDbSavedByObjectVersion
1070
     0
  0
VISUALSTYLE
  5
35
102
{ACAD_REACTORS
330
2A
102
}
330
2A
100
AcDbVisualStyle
  2
Dim
 70
    11
 71
     2
 72
     2
 73
     0
 90
        0
 40
-0.6
 41
-30.0
 62
     5
 63
     7
421
 16777215
 74
     1
 91
        4
 64
     7
 65
   257
 75
     1
175
     1
 42
1.0
 92
        8
 66
     7
 43
1.0
 76
     1
 77
     6
 78
     2
 67
     7
 79
     5
170
     0
171
     0
290
     0
174
     0
 93
        1
 44
-50.0
173
     0
291
     1
 45
0.0
1001
ACAD
1000
AcDbSavedByObjectVersion
1070
     0
  0
VISUALSTYLE
  5
39
102
{ACAD_REACTORS
330
2A
102
}
330
2A
100
AcDbVisualStyle
  2
Facepattern
 70
    15
 71
     2
 72
     2
 73
     0
 90
        0
 40
-0.6
 41
-30.0
 62
     5
 63
     7
421
 16777215
 74
     1
 91
        4
 64
     7
 65
   257
 75
     1
175
     1
 42
1.0
 92
        8
 66
     7
 43
1.0
 76
     1
 77
     6
 78
     2
 67
     7
 79
     5
170
     0
171
     0
290
     0
174
     0
 93
        1
 44
0.0
173
     0
291
     1
 45
0.0
1001
ACAD
1000
AcDbSavedByObjectVersion
1070
     0
  0
VISUALSTYLE
  5
2B
102
{ACAD_REACTORS
330
2A
102
}
330
2A
100
AcDbVisualStyle
  2
Flat
 70
     0
 71
     2
 72
     1
 73
     1
 90
        2
 40
-0.6
 41
30.0
 62
     5
 63
     7
421
 16777215
 74
     0
 91
        4
 64
     7
 65
   257
 75
     1
175
     1
 42
1.0
 92
        8
 66
     7
 43
1.0
 76
     1
 77
     6
 78
     2
 67
     7
 79
     5
170
     0
171
     0
290
     0
174
     0
 93
       13
 44
0.0
173
     0
291
     1
 45
0.0
1001
ACAD
1000
AcDbSavedByObjectVersion
1070
     0
  0
VISUALSTYLE
  5
2C
102
{ACAD_REACTORS
330
2A
102
}
330
2A
100
AcDbVisualStyle
  2
FlatWithEdges
 70
     1
 71
     2
 72
     1
 73
     1
 90
        2
 40
-0.6
 41
30.0
 62
     5
 63
     7
421
 16777215
 74
     1
 91
        4
 64
     7
 65
   257
 75
     1
175
     1
 42
1.0
 92
        0
 66
   257
 43
1.0
 76
     1
 77
     6
 78
     2
 67
     7
 79
     5
170
     0
171
     0
290
     0
174
     0
 93
       13
 44
0.0
173
     0
291
     1
 45
0.0
1001
ACAD
1000
AcDbSavedByObjectVersion
1070
     0
  0
VISUALSTYLE
  5
2D
102
{ACAD_REACTORS
330
2A
102
}
330
2A
100
AcDbVisualStyle
  2
Gouraud
 70
     2
 71
     2
 72
     2
 73
     1
 90
        2
 40
-0.6
 41
30.0
 62
     5
 63
     7
421
 16777215
 74
     0
 91
        4
 64
     7
 65
   257
 75
     1
175
     1
 42
1.0
 92
        0
 66
     7
 43
1.0
 76
     1
 77
     6
 78
     2
 67
     7
 79
     5
170
     0
171
     0
290
     0
174
     0
 93
       13
 44
0.0
173
     0
291
     1
 45
0.0
1001
ACAD
1000
AcDbSavedByObjectVersion
1070
     0
  0
VISUALSTYLE
  5
2E
102
{ACAD_REACTORS
330
2A
102
}
330
2A
100
AcDbVisualStyle
  2
GouraudWithEdges
 70
     3
 71
     2
 72
     2
 73
     1
 90
        2
 40
-0.6
 41
30.0
 62
     5
 63
     7
421
 16777215
 74
     1
 91
        4
 64
     7
 65
   257
 75
     1
175
     1
 42
1.0
 92
        0
 66
   257
 43
1.0
 76
     1
 77
     6
 78
     2
 67
     7
 79
     5
170
     0
171
     0
290
     0
174
     0
 93
       13
 44
0.0
173
     0
291
     1
 45
0.0
1001
ACAD
1000
AcDbSavedByObjectVersion
1070
     0
  0
VISUALSTYLE
  5
38
102
{ACAD_REACTORS
330
2A
102
}
330
2A
100
AcDbVisualStyle
  2
Linepattern
 70
    14
 71
     2
 72
     2
 73
     0
 90
        0
 40
-0.6
 41
-30.0
 62
     5
 63
     7
421
 16777215
 74
     1
 91
        4
 64
     7
 65
   257
 75
     7
175
     7
 42
1.0
 92
        8
 66
     7
 43
1.0
 76
     1
 77
     6
 78
     2
 67
     7
 79
     5
170
     0
171
     0
290
     0
174
     0
 93
        1
 44
0.0
173
     0
291
     1
 45
0.0
1001
ACAD
1000
AcDbSavedByObjectVersion
1070
     0
  0
VISUALSTYLE
  5
33
102
{ACAD_REACTORS
330
2A
102
}
330
2A
100
AcDbVisualStyle
  2
Realistic
 70
     8
 71
     2
 72
     2
 73
     0
 90
        0
 40
-0.6
 41
-30.0
 62
     5
 63
     7
421
 16777215
 74
     1
 91
        0
 64
     7
 65
   257
 75
     1
175
     1
 42
1.0
 92
        8
 66
     8
424
  7895160
 43
1.0
 76
     1
 77
     6
 78
     2
 67
     7
 79
     5
170
     0
171
     0
290
     0
174
     0
 93
       13
 44
0.0
173
     0
291
     0
 45
0.0
1001
ACAD
1000
AcDbSavedByObjectVersion
1070
     0
  0
VISUALSTYLE
  5
37
102
{ACAD_REACTORS
330
2A
102
}
330
2A
100
AcDbVisualStyle
  2
Thicken
 70
    13
 71
     2
 72
     2
 73
     0
 90
        0
 40
-0.6
 41
-30.0
 62
     5
 63
     7
421
 16777215
 74
     1
 91
        4
 64
     7
 65
   257
 75
     1
175
     1
 42
1.0
 92
       12
 66
     7
 43
1.0
 76
     1
 77
     6
 78
     2
 67
     7
 79
     5
170
     0
171
     0
290
     0
174
     0
 93
        1
 44
0.0
173
     0
291
     1
 45
0.0
1001
ACAD
1000
AcDbSavedByObjectVersion
1070
     0
  0
DICTIONARYVAR
  5
AC
102
{ACAD_REACTORS
330
AB
102
}
330
AB
100
DictionaryVariables
280
     0
  1
1:1
  0
ENDSEC
  0
EOF
