  0
SECTION
  2
HEADER
  9
$ACADVER
  1
AC1018
  9
$ACADMAINTVER
 70
     0
  9
$DWGCODEPAGE
  3
ANSI_936
  9
$INSBASE
 10
0.0
 20
0.0
 30
0.0
  9
$EXTMIN
 10
3945.299854460054
 20
726.0
 30
0.0
  9
$EXTMAX
 10
4552.849854460055
 20
1170.550079813448
 30
0.0
  9
$LIMMIN
 10
0.0
 20
0.0
  9
$LIMMAX
 10
12.0
 20
9.0
  9
$ORTHOMODE
 70
     0
  9
$REGENMODE
 70
     1
  9
$FILLMODE
 70
     1
  9
$QTEXTMODE
 70
     0
  9
$MIRRTEXT
 70
     1
  9
$LTSCALE
 40
1.0
  9
$ATTMODE
 70
     1
  9
$TEXTSIZE
 40
0.2
  9
$TRACEWID
 40
0.05
  9
$TEXTSTYLE
  7
Standard
  9
$CLAYER
  8
E45716
  9
$CELTYPE
  6
ByLayer
  9
$CECOLOR
 62
   256
  9
$CELTSCALE
 40
1.0
  9
$DISPSILH
 70
     0
  9
$DIMSCALE
 40
1.0
  9
$DIMASZ
 40
0.18
  9
$DIMEXO
 40
0.0625
  9
$DIMDLI
 40
0.38
  9
$DIMRND
 40
0.0
  9
$DIMDLE
 40
0.0
  9
$DIMEXE
 40
0.18
  9
$DIMTP
 40
0.0
  9
$DIMTM
 40
0.0
  9
$DIMTXT
 40
0.18
  9
$DIMCEN
 40
0.09
  9
$DIMTSZ
 40
0.0
  9
$DIMTOL
 70
     0
  9
$DIMLIM
 70
     0
  9
$DIMTIH
 70
     1
  9
$DIMTOH
 70
     1
  9
$DIMSE1
 70
     0
  9
$DIMSE2
 70
     0
  9
$DIMTAD
 70
     0
  9
$DIMZIN
 70
     0
  9
$DIMBLK
  1

  9
$DIMASO
 70
     1
  9
$DIMSHO
 70
     1
  9
$DIMPOST
  1

  9
$DIMAPOST
  1

  9
$DIMALT
 70
     0
  9
$DIMALTD
 70
     2
  9
$DIMALTF
 40
25.4
  9
$DIMLFAC
 40
1.0
  9
$DIMTOFL
 70
     0
  9
$DIMTVP
 40
0.0
  9
$DIMTIX
 70
     0
  9
$DIMSOXD
 70
     0
  9
$DIMSAH
 70
     0
  9
$DIMBLK1
  1

  9
$DIMBLK2
  1

  9
$DIMSTYLE
  2
Standard
  9
$DIMCLRD
 70
     0
  9
$DIMCLRE
 70
     0
  9
$DIMCLRT
 70
     0
  9
$DIMTFAC
 40
1.0
  9
$DIMGAP
 40
0.09
  9
$DIMJUST
 70
     0
  9
$DIMSD1
 70
     0
  9
$DIMSD2
 70
     0
  9
$DIMTOLJ
 70
     1
  9
$DIMTZIN
 70
     0
  9
$DIMALTZ
 70
     0
  9
$DIMALTTZ
 70
     0
  9
$DIMUPT
 70
     0
  9
$DIMDEC
 70
     4
  9
$DIMTDEC
 70
     4
  9
$DIMALTU
 70
     2
  9
$DIMALTTD
 70
     2
  9
$DIMTXSTY
  7
Standard
  9
$DIMAUNIT
 70
     0
  9
$DIMADEC
 70
     0
  9
$DIMALTRND
 40
0.0
  9
$DIMAZIN
 70
     0
  9
$DIMDSEP
 70
    46
  9
$DIMATFIT
 70
     3
  9
$DIMFRAC
 70
     0
  9
$DIMLDRBLK
  1

  9
$DIMLUNIT
 70
     2
  9
$DIMLWD
 70
    -2
  9
$DIMLWE
 70
    -2
  9
$DIMTMOVE
 70
     2
  9
$LUNITS
 70
     2
  9
$LUPREC
 70
     2
  9
$SKETCHINC
 40
0.1
  9
$FILLETRAD
 40
0.5
  9
$AUNITS
 70
     0
  9
$AUPREC
 70
     0
  9
$MENU
  1
.
  9
$ELEVATION
 40
0.0
  9
$PELEVATION
 40
0.0
  9
$THICKNESS
 40
0.0
  9
$LIMCHECK
 70
     0
  9
$CHAMFERA
 40
0.5
  9
$CHAMFERB
 40
0.5
  9
$CHAMFERC
 40
1.0
  9
$CHAMFERD
 40
0.0
  9
$SKPOLY
 70
     0
  9
$TDCREATE
 40
2456449.985055509
  9
$TDUCREATE
 40
2456449.901722176
  9
$TDUPDATE
 40
2456449.985055521
  9
$TDUUPDATE
 40
2456449.901722188
  9
$TDINDWG
 40
0.0000000116
  9
$TDUSRTIMER
 40
0.0000000116
  9
$USRTIMER
 70
     1
  9
$ANGBASE
 50
0.0
  9
$ANGDIR
 70
     0
  9
$PDMODE
 70
     0
  9
$PDSIZE
 40
0.0
  9
$PLINEWID
 40
0.0
  9
$SPLFRAME
 70
     0
  9
$SPLINETYPE
 70
     6
  9
$SPLINESEGS
 70
     8
  9
$HANDSEED
  5
190
  9
$SURFTAB1
 70
     6
  9
$SURFTAB2
 70
     6
  9
$SURFTYPE
 70
     6
  9
$SURFU
 70
     6
  9
$SURFV
 70
     6
  9
$UCSBASE
  2

  9
$UCSNAME
  2

  9
$UCSORG
 10
0.0
 20
0.0
 30
0.0
  9
$UCSXDIR
 10
1.0
 20
0.0
 30
0.0
  9
$UCSYDIR
 10
0.0
 20
1.0
 30
0.0
  9
$UCSORTHOREF
  2

  9
$UCSORTHOVIEW
 70
     0
  9
$UCSORGTOP
 10
0.0
 20
0.0
 30
0.0
  9
$UCSORGBOTTOM
 10
0.0
 20
0.0
 30
0.0
  9
$UCSORGLEFT
 10
0.0
 20
0.0
 30
0.0
  9
$UCSORGRIGHT
 10
0.0
 20
0.0
 30
0.0
  9
$UCSORGFRONT
 10
0.0
 20
0.0
 30
0.0
  9
$UCSORGBACK
 10
0.0
 20
0.0
 30
0.0
  9
$PUCSBASE
  2

  9
$PUCSNAME
  2

  9
$PUCSORG
 10
0.0
 20
0.0
 30
0.0
  9
$PUCSXDIR
 10
1.0
 20
0.0
 30
0.0
  9
$PUCSYDIR
 10
0.0
 20
1.0
 30
0.0
  9
$PUCSORTHOREF
  2

  9
$PUCSORTHOVIEW
 70
     0
  9
$PUCSORGTOP
 10
0.0
 20
0.0
 30
0.0
  9
$PUCSORGBOTTOM
 10
0.0
 20
0.0
 30
0.0
  9
$PUCSORGLEFT
 10
0.0
 20
0.0
 30
0.0
  9
$PUCSORGRIGHT
 10
0.0
 20
0.0
 30
0.0
  9
$PUCSORGFRONT
 10
0.0
 20
0.0
 30
0.0
  9
$PUCSORGBACK
 10
0.0
 20
0.0
 30
0.0
  9
$USERI1
 70
     0
  9
$USERI2
 70
     0
  9
$USERI3
 70
     0
  9
$USERI4
 70
     0
  9
$USERI5
 70
     0
  9
$USERR1
 40
0.0
  9
$USERR2
 40
0.0
  9
$USERR3
 40
0.0
  9
$USERR4
 40
0.0
  9
$USERR5
 40
0.0
  9
$WORLDVIEW
 70
     1
  9
$SHADEDGE
 70
     3
  9
$SHADEDIF
 70
    70
  9
$TILEMODE
 70
     1
  9
$MAXACTVP
 70
    64
  9
$PINSBASE
 10
0.0
 20
0.0
 30
0.0
  9
$PLIMCHECK
 70
     0
  9
$PEXTMIN
 10
1.000000000000000E+20
 20
1.000000000000000E+20
 30
1.000000000000000E+20
  9
$PEXTMAX
 10
-1.000000000000000E+20
 20
-1.000000000000000E+20
 30
-1.000000000000000E+20
  9
$PLIMMIN
 10
0.0
 20
0.0
  9
$PLIMMAX
 10
12.0
 20
9.0
  9
$UNITMODE
 70
     0
  9
$VISRETAIN
 70
     1
  9
$PLINEGEN
 70
     0
  9
$PSLTSCALE
 70
     1
  9
$TREEDEPTH
 70
  3020
  9
$CMLSTYLE
  2
Standard
  9
$CMLJUST
 70
     0
  9
$CMLSCALE
 40
1.0
  9
$PROXYGRAPHICS
 70
     1
  9
$MEASUREMENT
 70
     0
  9
$CELWEIGHT
370
    -1
  9
$ENDCAPS
280
     0
  9
$JOINSTYLE
280
     0
  9
$LWDISPLAY
290
     0
  9
$INSUNITS
 70
     4
  9
$HYPERLINKBASE
  1

  9
$STYLESHEET
  1

  9
$XEDIT
290
     1
  9
$CEPSNTYPE
380
     0
  9
$PSTYLEMODE
290
     1
  9
$FINGERPRINTGUID
  2
{78442ED8-A030-4A89-8443-197F5E7EA201}
  9
$VERSIONGUID
  2
{FAEB1C32-E019-11D5-929B-00C0DF256EC4}
  9
$EXTNAMES
290
     1
  9
$PSVPSCALE
 40
0.0
  9
$OLESTARTUP
290
     0
  9
$SORTENTS
280
   127
  9
$INDEXCTL
280
     0
  9
$HIDETEXT
280
     1
  9
$XCLIPFRAME
290
     0
  9
$HALOGAP
280
     0
  9
$OBSCOLOR
 70
   257
  9
$OBSLTYPE
280
     0
  9
$INTERSECTIONDISPLAY
280
     0
  9
$INTERSECTIONCOLOR
 70
   257
  9
$DIMASSOC
280
     2
  9
$PROJECTNAME
  1

  0
ENDSEC
  0
SECTION
  2
CLASSES
  0
CLASS
  1
ACDBDICTIONARYWDFLT
  2
AcDbDictionaryWithDefault
  3
ObjectDBX Classes
 90
        0
 91
        4
280
     0
281
     0
  0
CLASS
  1
VISUALSTYLE
  2
AcDbVisualStyle
  3
ObjectDBX Classes
 90
     4095
 91
        4
280
     0
281
     0
  0
CLASS
  1
SCALE
  2
AcDbScale
  3
ObjectDBX Classes
 90
     1153
 91
        4
280
     0
281
     0
  0
CLASS
  1
DICTIONARYVAR
  2
AcDbDictionaryVar
  3
ObjectDBX Classes
 90
        0
 91
        4
280
     0
281
     0
  0
ENDSEC
  0
SECTION
  2
TABLES
  0
TABLE
  2
VPORT
  5
8
330
0
100
AcDbSymbolTable
 70
     1
  0
VPORT
  5
29
330
8
100
AcDbSymbolTableRecord
100
AcDbViewportTableRecord
  2
*Active
 70
     0
 10
0.0
 20
0.0
 11
1.0
 21
1.0
 12
4249.074854460055
 22
948.2750399067241
 13
0.0
 23
0.0
 14
0.5
 24
0.5
 15
0.5
 25
0.5
 16
0.0
 26
0.0
 36
1.0
 17
0.0
 27
0.0
 37
0.0
 40
453.4410814097172
 41
1.366662672189721
 42
50.0
 43
0.0
 44
0.0
 50
0.0
 51
0.0
 71
     0
 72
   100
 73
     1
 74
     3
 75
     0
 76
     0
 77
     0
 78
     0
281
     0
 65
     1
110
0.0
120
0.0
130
0.0
111
1.0
121
0.0
131
0.0
112
0.0
122
1.0
132
0.0
 79
     0
146
0.0
  0
ENDTAB
  0
TABLE
  2
LTYPE
  5
5
330
0
100
AcDbSymbolTable
 70
     1
  0
LTYPE
  5
14
330
5
100
AcDbSymbolTableRecord
100
AcDbLinetypeTableRecord
  2
ByBlock
 70
     0
  3

 72
    65
 73
     0
 40
0.0
  0
LTYPE
  5
15
330
5
100
AcDbSymbolTableRecord
100
AcDbLinetypeTableRecord
  2
ByLayer
 70
     0
  3

 72
    65
 73
     0
 40
0.0
  0
LTYPE
  5
16
330
5
100
AcDbSymbolTableRecord
100
AcDbLinetypeTableRecord
  2
Continuous
 70
     0
  3
Solid line
 72
    65
 73
     0
 40
0.0
  0
ENDTAB
  0
TABLE
  2
LAYER
  5
2
330
0
100
AcDbSymbolTable
 70
     4
  0
LAYER
  5
10
330
2
100
AcDbSymbolTableRecord
100
AcDbLayerTableRecord
  2
0
 70
     0
 62
     7
  6
Continuous
370
    -3
390
F
  0
LAYER
  5
3B
330
2
100
AcDbSymbolTableRecord
100
AcDbLayerTableRecord
  2
E45716
 70
     0
 62
     7
  6
Continuous
370
    -3
390
F
  0
LAYER
  5
61
330
2
100
AcDbSymbolTableRecord
100
AcDbLayerTableRecord
  2
Defpoints
 70
     0
 62
     7
  6
Continuous
290
     0
370
    -3
390
F
  0
LAYER
  5
7B
330
2
100
AcDbSymbolTableRecord
100
AcDbLayerTableRecord
  2
MAKE2D VISIBLE LINES
 70
     0
 62
     7
  6
Continuous
370
    -3
390
F
  0
ENDTAB
  0
TABLE
  2
STYLE
  5
3
330
0
100
AcDbSymbolTable
 70
     2
  0
STYLE
  5
11
330
3
100
AcDbSymbolTableRecord
100
AcDbTextStyleTableRecord
  2
Standard
 70
     0
 40
0.0
 41
1.0
 50
0.0
 71
     0
 42
0.2
  3
txt
  4

  0
STYLE
  5
5F
330
3
100
AcDbSymbolTableRecord
100
AcDbTextStyleTableRecord
  2
ARIAL
 70
     0
 40
0.0
 41
1.0
 50
0.0
 71
     0
 42
0.0
  3

  4

1001
ACAD
1000
Arial
1071
      256
  0
ENDTAB
  0
TABLE
  2
VIEW
  5
6
330
0
100
AcDbSymbolTable
 70
     0
  0
ENDTAB
  0
TABLE
  2
UCS
  5
7
330
0
100
AcDbSymbolTable
 70
     0
  0
ENDTAB
  0
TABLE
  2
APPID
  5
9
330
0
100
AcDbSymbolTable
 70
     1
  0
APPID
  5
12
330
9
100
AcDbSymbolTableRecord
100
AcDbRegAppTableRecord
  2
ACAD
 70
     0
  0
ENDTAB
  0
TABLE
  2
DIMSTYLE
  5
A
330
0
100
AcDbSymbolTable
 70
     2
100
AcDbDimStyleTable
  0
DIMSTYLE
105
27
330
A
100
AcDbSymbolTableRecord
100
AcDbDimStyleTableRecord
  2
Standard
 70
     0
340
11
  0
DIMSTYLE
105
60
102
{ACAD_REACTORS
330
3C
330
6E
102
}
330
A
100
AcDbSymbolTableRecord
100
AcDbDimStyleTableRecord
  2
DEFAULT
 70
     0
 41
1.0
 42
0.5
 44
0.5
 73
     0
 77
     1
 78
     1
140
20.0
141
0.5
172
     1
174
     1
179
     2
271
     2
284
     1
340
5F
  0
ENDTAB
  0
TABLE
  2
BLOCK_RECORD
  5
1
330
0
100
AcDbSymbolTable
 70
     3
  0
BLOCK_RECORD
  5
1F
330
1
100
AcDbSymbolTableRecord
100
AcDbBlockTableRecord
  2
*Model_Space
340
22
  0
BLOCK_RECORD
  5
1B
330
1
100
AcDbSymbolTableRecord
100
AcDbBlockTableRecord
  2
*Paper_Space
340
1E
  0
BLOCK_RECORD
  5
23
330
1
100
AcDbSymbolTableRecord
100
AcDbBlockTableRecord
  2
*Paper_Space0
340
26
  0
BLOCK_RECORD
  5
62
330
1
100
AcDbSymbolTableRecord
100
AcDbBlockTableRecord
  2
*D1
340
0
  0
BLOCK_RECORD
  5
6F
330
1
100
AcDbSymbolTableRecord
100
AcDbBlockTableRecord
  2
*D2
340
0
  0
ENDTAB
  0
ENDSEC
  0
SECTION
  2
BLOCKS
  0
BLOCK
  5
20
330
1F
100
AcDbEntity
  8
0
100
AcDbBlockBegin
  2
*Model_Space
 70
     0
 10
0.0
 20
0.0
 30
0.0
  3
*Model_Space
  1

  0
ENDBLK
  5
21
330
1F
100
AcDbEntity
  8
0
100
AcDbBlockEnd
  0
BLOCK
  5
1C
330
1B
100
AcDbEntity
 67
     1
  8
0
100
AcDbBlockBegin
  2
*Paper_Space
 70
     0
 10
0.0
 20
0.0
 30
0.0
  3
*Paper_Space
  1

  0
ENDBLK
  5
1D
330
1B
100
AcDbEntity
 67
     1
  8
0
100
AcDbBlockEnd
  0
BLOCK
  5
24
330
23
100
AcDbEntity
  8
0
100
AcDbBlockBegin
  2
*Paper_Space0
 70
     0
 10
0.0
 20
0.0
 30
0.0
  3
*Paper_Space0
  1

  0
ENDBLK
  5
25
330
23
100
AcDbEntity
  8
0
100
AcDbBlockEnd
  0
BLOCK
  5
6C
330
62
100
AcDbEntity
  8
0
100
AcDbBlockBegin
  2
*D1
 70
     1
 10
0.0
 20
0.0
 30
0.0
  3
*D1
  1

  0
LINE
  5
63
330
62
100
AcDbEntity
  8
E45716
 62
     0
370
    -2
100
AcDbLine
 10
4114.349854460054
 20
726.0
 30
0.0
 11
3965.349854460054
 21
726.0
 31
0.0
  0
LINE
  5
64
330
62
100
AcDbEntity
  8
E45716
 62
     0
370
    -2
100
AcDbLine
 10
4114.349854460054
 20
1006.0
 30
0.0
 11
3965.349854460054
 21
1006.0
 31
0.0
  0
LINE
  5
65
330
62
100
AcDbEntity
  8
E45716
 62
     0
370
    -2
100
AcDbLine
 10
3965.849854460054
 20
727.0
 30
0.0
 11
3965.849854460054
 21
1005.0
 31
0.0
  0
SOLID
  5
66
330
62
100
AcDbEntity
  8
E45716
 62
     0
100
AcDbTrace
 10
3965.683187793388
 20
727.0
 30
0.0
 11
3966.016521126721
 21
727.0
 31
0.0
 12
3965.849854460054
 22
726.0
 32
0.0
 13
3965.849854460054
 23
726.0
 33
0.0
  0
SOLID
  5
67
330
62
100
AcDbEntity
  8
E45716
 62
     0
100
AcDbTrace
 10
3966.016521126721
 20
1005.0
 30
0.0
 11
3965.683187793388
 21
1005.0
 31
0.0
 12
3965.849854460054
 22
1006.0
 32
0.0
 13
3965.849854460054
 23
1006.0
 33
0.0
  0
MTEXT
  5
68
330
62
100
AcDbEntity
  8
E45716
 62
     0
100
AcDbMText
 10
3955.549854460054
 20
866.0
 30
0.0
 40
20.0
 41
0.0
 71
     5
 72
     1
  1
\A1;280.00
  7
ARIAL
 11
0.0
 21
1.0
 31
0.0
 73
     1
 44
1.0
  0
POINT
  5
69
330
62
100
AcDbEntity
  8
Defpoints
 62
     0
100
AcDbPoint
 10
4114.849854460054
 20
726.0
 30
0.0
  0
POINT
  5
6A
330
62
100
AcDbEntity
  8
Defpoints
 62
     0
100
AcDbPoint
 10
4114.849854460054
 20
1006.0
 30
0.0
  0
POINT
  5
6B
330
62
100
AcDbEntity
  8
Defpoints
 62
     0
100
AcDbPoint
 10
3965.849854460054
 20
1006.0
 30
0.0
  0
ENDBLK
  5
6D
330
62
100
AcDbEntity
  8
0
100
AcDbBlockEnd
  0
BLOCK
  5
79
330
6F
100
AcDbEntity
  8
0
100
AcDbBlockBegin
  2
*D2
 70
     1
 10
0.0
 20
0.0
 30
0.0
  3
*D2
  1

  0
LINE
  5
70
330
6F
100
AcDbEntity
  8
E45716
 62
     0
370
    -2
100
AcDbLine
 10
4028.849854460054
 20
866.5000798134481
 30
0.0
 11
4028.849854460054
 21
1150.500079813448
 31
0.0
  0
LINE
  5
71
330
6F
100
AcDbEntity
  8
E45716
 62
     0
370
    -2
100
AcDbLine
 10
4552.849854460054
 20
866.5
 30
0.0
 11
4552.849854460054
 21
1150.500079813448
 31
0.0
  0
LINE
  5
72
330
6F
100
AcDbEntity
  8
E45716
 62
     0
370
    -2
100
AcDbLine
 10
4029.849854460054
 20
1150.000079813448
 30
0.0
 11
4551.849854460054
 21
1150.000079813448
 31
0.0
  0
SOLID
  5
73
330
6F
100
AcDbEntity
  8
E45716
 62
     0
100
AcDbTrace
 10
4029.849854460054
 20
1150.166746480115
 30
0.0
 11
4029.849854460054
 21
1149.833413146781
 31
0.0
 12
4028.849854460054
 22
1150.000079813448
 32
0.0
 13
4028.849854460054
 23
1150.000079813448
 33
0.0
  0
SOLID
  5
74
330
6F
100
AcDbEntity
  8
E45716
 62
     0
100
AcDbTrace
 10
4551.849854460054
 20
1149.833413146781
 30
0.0
 11
4551.849854460054
 21
1150.166746480115
 31
0.0
 12
4552.849854460054
 22
1150.000079813448
 32
0.0
 13
4552.849854460054
 23
1150.000079813448
 33
0.0
  0
MTEXT
  5
75
330
6F
100
AcDbEntity
  8
E45716
 62
     0
100
AcDbMText
 10
4290.849854460054
 20
1160.300079813448
 30
0.0
 40
20.0
 41
0.0
 71
     5
 72
     1
  1
\A1;524.00
  7
ARIAL
 73
     1
 44
1.0
  0
POINT
  5
76
330
6F
100
AcDbEntity
  8
Defpoints
 62
     0
100
AcDbPoint
 10
4028.849854460054
 20
866.0000798134481
 30
0.0
  0
POINT
  5
77
330
6F
100
AcDbEntity
  8
Defpoints
 62
     0
100
AcDbPoint
 10
4552.849854460054
 20
866.0
 30
0.0
  0
POINT
  5
78
330
6F
100
AcDbEntity
  8
Defpoints
 62
     0
100
AcDbPoint
 10
4552.849854460054
 20
1150.000079813448
 30
0.0
  0
ENDBLK
  5
7A
330
6F
100
AcDbEntity
  8
0
100
AcDbBlockEnd
  0
ENDSEC
  0
SECTION
  2
ENTITIES
  0
DIMENSION
  5
3C
330
1F
100
AcDbEntity
  8
E45716
100
AcDbDimension
  2
*D1
 10
3965.849854460054
 20
1006.0
 30
0.0
 11
3955.549854460054
 21
866.0
 31
0.0
 70
    32
  1
<>
 71
     5
 42
280.0
  3
DEFAULT
100
AcDbAlignedDimension
 13
4114.849854460054
 23
726.0
 33
0.0
 14
4114.849854460054
 24
1006.0
 34
0.0
 50
90.0
100
AcDbRotatedDimension
1001
ACAD
1000
DSTYLE
1002
{
1070
   279
1070
     1
1002
}
  0
DIMENSION
  5
6E
330
1F
100
AcDbEntity
  8
E45716
100
AcDbDimension
  2
*D2
 10
4552.849854460054
 20
1150.000079813448
 30
0.0
 11
4290.849854460054
 21
1160.300079813448
 31
0.0
 70
    32
  1
<>
 71
     5
 42
524.0
  3
DEFAULT
100
AcDbAlignedDimension
 13
4028.849854460054
 23
866.0000798134481
 33
0.0
 14
4552.849854460054
 24
866.0
 34
0.0
100
AcDbRotatedDimension
1001
ACAD
1000
DSTYLE
1002
{
1070
   279
1070
     1
1002
}
  0
SPLINE
  5
7C
330
1F
100
AcDbEntity
  8
MAKE2D VISIBLE LINES
100
AcDbSpline
210
0.0
220
0.0
230
1.0
 70
    12
 71
     2
 72
     6
 73
     3
 74
     0
 42
0.0000000001
 43
0.0000000001
 40
0.0
 40
0.0
 40
0.0
 40
0.6943071000402924
 40
0.6943071000402924
 40
0.6943071000402924
 10
4053.618359807235
 20
811.2783709623754
 30
0.0
 41
1.0
 10
4053.84981532758
 20
811.0002991980822
 30
0.0
 41
0.9403878608207702
 10
4053.849854460054
 20
810.6385042803959
 30
0.0
 41
1.0
  0
SPLINE
  5
7D
330
1F
100
AcDbEntity
  8
MAKE2D VISIBLE LINES
100
AcDbSpline
210
0.0
220
0.0
230
1.0
 70
    12
 71
     2
 72
     6
 73
     3
 74
     0
 42
0.0000000001
 43
0.0000000001
 40
0.0
 40
0.0
 40
0.0
 40
0.8760082891180364
 40
0.8760082891180364
 40
0.8760082891180364
 10
4039.149700793595
 20
763.358581728302
 30
0.0
 41
1.0
 10
4038.849763279059
 20
762.998960795416
 30
0.0
 41
0.9057718217445329
 10
4038.381479513998
 20
762.9987525262147
 30
0.0
 41
1.0
  0
SPLINE
  5
7E
330
1F
100
AcDbEntity
  8
MAKE2D VISIBLE LINES
100
AcDbSpline
210
0.0
220
0.0
230
1.0
 70
    12
 71
     2
 72
     6
 73
     3
 74
     0
 42
0.0000000001
 43
0.0000000001
 40
0.0
 40
0.0
 40
0.0
 40
0.694275018025191
 40
0.694275018025191
 40
0.694275018025191
 10
4053.849854460052
 20
781.3614293382163
 30
0.0
 41
1.0
 10
4053.849899070688
 20
780.9996329834319
 30
0.0
 41
0.9403182158919605
 10
4053.618393145659
 20
780.7216013107734
 30
0.0
 41
1.0
  0
SPLINE
  5
7F
330
1F
100
AcDbEntity
  8
MAKE2D VISIBLE LINES
100
AcDbSpline
210
0.0
220
0.0
230
1.0
 70
    24
 71
     2
 72
     6
 73
     3
 74
     0
 42
0.0000000001
 43
0.0000000001
 40
0.0
 40
0.0
 40
0.0
 40
10.00000000000011
 40
10.00000000000011
 40
10.00000000000011
 10
4053.849854460054
 20
808.0
 30
0.0
 10
4058.849854460054
 20
808.0
 30
0.0
 10
4063.849854460054
 20
808.0
 30
0.0
  0
SPLINE
  5
80
330
1F
100
AcDbEntity
  8
MAKE2D VISIBLE LINES
100
AcDbSpline
210
0.0
220
0.0
230
1.0
 70
    12
 71
     2
 72
     6
 73
     3
 74
     0
 42
0.0000000001
 43
0.0000000001
 40
0.0
 40
0.0
 40
0.0
 40
4.712096315585081
 40
4.712096315585081
 40
4.712096315585081
 10
4064.849854434567
 20
831.9981728273411
 30
0.0
 41
1.0
 10
4064.849524184527
 20
828.9985031203238
 30
0.0
 41
0.7071534756220197
 10
4061.849854460054
 20
828.9984371854795
 30
0.0
 41
1.0
  0
SPLINE
  5
81
330
1F
100
AcDbEntity
  8
MAKE2D VISIBLE LINES
100
AcDbSpline
210
0.0
220
0.0
230
1.0
 70
    12
 71
     2
 72
     6
 73
     3
 74
     0
 42
0.0000000001
 43
0.0000000001
 40
0.0001015393854782
 40
0.0001015393854782
 40
0.0001015393854782
 40
0.9994284978775648
 40
0.9994284978775648
 40
0.9994284978775648
 10
4138.332553088967
 20
1003.641367674269
 30
0.0
 41
0.9999436389053499
 10
4138.444173590173
 20
1003.593487711967
 30
0.0
 41
0.7226254267222004
 10
4138.232638061409
 20
1002.659400800652
 30
0.0
 41
0.9996829275083886
  0
SPLINE
  5
82
330
1F
100
AcDbEntity
  8
MAKE2D VISIBLE LINES
100
AcDbSpline
210
0.0
220
0.0
230
1.0
 70
    12
 71
     2
 72
     6
 73
     3
 74
     0
 42
0.0000000001
 43
0.0000000001
 40
0.0001015393852231
 40
0.0001015393852231
 40
0.0001015393852231
 40
0.9994284978775649
 40
0.9994284978775649
 40
0.9994284978775649
 10
4138.332553088967
 20
728.3586323257308
 30
0.0
 41
0.9999436389054915
 10
4138.444173590174
 20
728.4065122880321
 30
0.0
 41
0.7226254267221296
 10
4138.232638061409
 20
729.3405991993483
 30
0.0
 41
0.9996829275083887
  0
SPLINE
  5
83
330
1F
100
AcDbEntity
  8
MAKE2D VISIBLE LINES
100
AcDbSpline
210
0.0
220
0.0
230
1.0
 70
    24
 71
     2
 72
     6
 73
     3
 74
     0
 42
0.0000000001
 43
0.0000000001
 40
0.0
 40
0.0
 40
0.0
 40
7.000000000000028
 40
7.000000000000028
 40
7.000000000000028
 10
4083.849854460054
 20
777.0
 30
0.0
 10
4083.849854460054
 20
780.5
 30
0.0
 10
4083.849854460054
 20
784.0
 30
0.0
  0
SPLINE
  5
84
330
1F
100
AcDbEntity
  8
MAKE2D VISIBLE LINES
100
AcDbSpline
210
0.0
220
0.0
230
1.0
 70
    24
 71
     2
 72
     6
 73
     3
 74
     0
 42
0.0000000001
 43
0.0000000001
 40
0.0
 40
0.0
 40
0.0
 40
38.0000000000001
 40
38.0000000000001
 40
38.0000000000001
 10
4083.849854460054
 20
807.9999999999999
 30
0.0
 10
4083.849854460054
 20
827.0
 30
0.0
 10
4083.849854460054
 20
846.0
 30
0.0
  0
SPLINE
  5
85
330
1F
100
AcDbEntity
  8
MAKE2D VISIBLE LINES
100
AcDbSpline
210
0.0
220
0.0
230
1.0
 70
    24
 71
     2
 72
     6
 73
     3
 74
     0
 42
0.0000000001
 43
0.0000000001
 40
0.0
 40
0.0
 40
0.0
 40
38.00000000000014
 40
38.00000000000014
 40
38.00000000000014
 10
4083.849854460054
 20
886.0
 30
0.0
 10
4083.849854460054
 20
905.0
 30
0.0
 10
4083.849854460054
 20
924.0000000000001
 30
0.0
  0
SPLINE
  5
86
330
1F
100
AcDbEntity
  8
MAKE2D VISIBLE LINES
100
AcDbSpline
210
0.0
220
0.0
230
1.0
 70
    24
 71
     2
 72
     6
 73
     3
 74
     0
 42
0.0000000001
 43
0.0000000001
 40
0.0
 40
0.0
 40
0.0
 40
6.999999999999858
 40
6.999999999999858
 40
6.999999999999858
 10
4083.849854460054
 20
948.0000000000001
 30
0.0
 10
4083.849854460054
 20
951.5
 30
0.0
 10
4083.849854460054
 20
955.0
 30
0.0
  0
SPLINE
  5
87
330
1F
100
AcDbEntity
  8
MAKE2D VISIBLE LINES
100
AcDbSpline
210
0.0
220
0.0
230
1.0
 70
    12
 71
     2
 72
     6
 73
     3
 74
     0
 42
0.0000000001
 43
0.0000000001
 40
0.0
 40
0.0
 40
0.0
 40
4.712471760497047
 40
4.712471760497047
 40
4.712471760497047
 10
4061.849854460054
 20
903.0013986827279
 30
0.0
 41
1.0
 10
4064.849896507749
 20
903.001327324269
 30
0.0
 41
0.7071102354363613
 10
4064.849854460054
 20
900.0012852760206
 30
0.0
 41
1.0
  0
SPLINE
  5
88
330
1F
100
AcDbEntity
  8
MAKE2D VISIBLE LINES
100
AcDbSpline
210
0.0
220
0.0
230
1.0
 70
    24
 71
     2
 72
     6
 73
     3
 74
     0
 42
0.0000000001
 43
0.0000000001
 40
0.0
 40
0.0
 40
0.0
 40
32.0
 40
32.0
 40
32.0
 10
4029.849854460054
 20
903.0
 30
0.0
 10
4045.849854460054
 20
903.0
 30
0.0
 10
4061.849854460054
 20
903.0
 30
0.0
  0
SPLINE
  5
89
330
1F
100
AcDbEntity
  8
MAKE2D VISIBLE LINES
100
AcDbSpline
210
0.0
220
0.0
230
1.0
 70
    24
 71
     2
 72
     6
 73
     3
 74
     0
 42
0.0000000001
 43
0.0000000001
 40
0.0
 40
0.0
 40
0.0
 40
32.0
 40
32.0
 40
32.0
 10
4061.849854460054
 20
829.0
 30
0.0
 10
4045.849854460054
 20
829.0
 30
0.0
 10
4029.849854460054
 20
829.0
 30
0.0
  0
SPLINE
  5
8A
330
1F
100
AcDbEntity
  8
MAKE2D VISIBLE LINES
100
AcDbSpline
210
0.0
220
0.0
230
1.0
 70
    24
 71
     2
 72
     6
 73
     3
 74
     0
 42
0.0000000001
 43
0.0000000001
 40
0.0
 40
0.0
 40
0.0
 40
68.0
 40
68.0
 40
68.0
 10
4133.849854460054
 20
846.0
 30
0.0
 10
4099.849854460054
 20
846.0
 30
0.0
 10
4065.849854460054
 20
846.0
 30
0.0
  0
SPLINE
  5
8B
330
1F
100
AcDbEntity
  8
MAKE2D VISIBLE LINES
100
AcDbSpline
210
0.0
220
0.0
230
1.0
 70
    24
 71
     2
 72
     6
 73
     3
 74
     0
 42
0.0000000001
 43
0.0000000001
 40
0.0
 40
0.0
 40
0.0
 40
4.406098382145728
 40
4.406098382145728
 40
4.406098382145728
 10
4087.311392921593
 20
956.0
 30
0.0
 10
4089.514442112666
 20
956.0
 30
0.0
 10
4091.717491303739
 20
956.0
 30
0.0
  0
SPLINE
  5
8C
330
1F
100
AcDbEntity
  8
MAKE2D VISIBLE LINES
100
AcDbSpline
210
0.0
220
0.0
230
1.0
 70
    24
 71
     2
 72
     6
 73
     3
 74
     0
 42
0.0000000001
 43
0.0000000001
 40
0.0
 40
0.0
 40
0.0
 40
0.4610990155184709
 40
0.4610990155184709
 40
0.4610990155184709
 10
4125.179784735044
 20
956.0000000000001
 30
0.0
 10
4125.410334242802
 20
956.0000000000001
 30
0.0
 10
4125.640883750562
 20
956.0000000000001
 30
0.0
  0
SPLINE
  5
8D
330
1F
100
AcDbEntity
  8
MAKE2D VISIBLE LINES
100
AcDbSpline
210
0.0
220
0.0
230
1.0
 70
    24
 71
     2
 72
     6
 73
     3
 74
     0
 42
0.0000000001
 43
0.0000000001
 40
0.0
 40
0.0
 40
0.0
 40
1.788981547848266
 40
1.788981547848266
 40
1.788981547848266
 10
4126.130204648548
 20
956.0000000000001
 30
0.0
 10
4127.024695422472
 20
956.0000000000001
 30
0.0
 10
4127.919186196396
 20
956.0000000000001
 30
0.0
  0
SPLINE
  5
8E
330
1F
100
AcDbEntity
  8
MAKE2D VISIBLE LINES
100
AcDbSpline
210
0.0
220
0.0
230
1.0
 70
    24
 71
     2
 72
     6
 73
     3
 74
     0
 42
0.0000000001
 43
0.0000000001
 40
0.0
 40
0.0
 40
0.0
 40
23.26153410145108
 40
23.26153410145108
 40
23.26153410145108
 10
4063.849854460054
 20
929.813347547882
 30
0.0
 10
4063.849854460054
 20
941.4441145986075
 30
0.0
 10
4063.849854460054
 20
953.0748816493331
 30
0.0
  0
SPLINE
  5
8F
330
1F
100
AcDbEntity
  8
MAKE2D VISIBLE LINES
100
AcDbSpline
210
0.0
220
0.0
230
1.0
 70
    28
 71
     3
 72
    16
 73
    12
 74
     0
 42
0.0000000001
 43
0.0000000001
 40
84.02684076120204
 40
84.02684076120204
 40
84.02684076120204
 40
84.02684076120204
 40
86.54264364451242
 40
86.54264364451242
 40
86.54264364451242
 40
92.56708690481994
 40
98.9782726676382
 40
98.9782726676382
 40
98.9782726676382
 40
101.3353694901131
 40
103.8511723734252
 40
103.8511723734252
 40
103.8511723734252
 40
103.8511723734252
 10
4063.849854460054
 20
918.9251183503118
 30
0.0
 41
1.0
 10
4063.849854460054
 20
918.9062139920838
 30
0.0
 41
1.0
 10
4063.849854460054
 20
919.1974202058992
 30
0.0
 41
1.0
 10
4063.849854460054
 20
919.7392291997089
 30
0.0
 41
1.0
 10
4063.849854460054
 20
921.0272250245768
 30
0.0
 41
1.0
 10
4063.849854460054
 20
923.4250363995802
 30
0.0
 41
1.0
 10
4063.849854460054
 20
925.1916608323554
 30
0.0
 41
1.0
 10
4063.849854460054
 20
925.9258816518321
 30
0.0
 41
1.0
 10
4063.849854460054
 20
926.1930792450135
 30
0.0
 41
1.0
 10
4063.849854460054
 20
927.2883592795777
 30
0.0
 41
1.0
 10
4063.849854460054
 20
928.9870059054024
 30
0.0
 41
1.0
 10
4063.849854460054
 20
929.813347547882
 30
0.0
 41
1.0
  0
SPLINE
  5
90
330
1F
100
AcDbEntity
  8
MAKE2D VISIBLE LINES
100
AcDbSpline
210
0.0
220
0.0
230
1.0
 70
    28
 71
     3
 72
     9
 73
     5
 74
     0
 42
0.0000000001
 43
0.0000000001
 40
0.0000000000000001
 40
0.0000000000000001
 40
0.0000000000000001
 40
0.0000000000000001
 40
2.276286736501141
 40
4.703933196946934
 40
4.703933196946934
 40
4.703933196946934
 40
4.703933196946934
 10
4084.849854460054
 20
776.0
 30
0.0
 41
1.0
 10
4084.848006881341
 20
776.0
 30
0.0
 41
1.0
 10
4085.309213143312
 20
776.0
 30
0.0
 41
1.0
 10
4086.562995782408
 20
776.0
 30
0.0
 41
1.0
 10
4087.311392921593
 20
776.0
 30
0.0
 41
1.0
  0
SPLINE
  5
91
330
1F
100
AcDbEntity
  8
MAKE2D VISIBLE LINES
100
AcDbSpline
210
0.0
220
0.0
230
1.0
 70
    24
 71
     2
 72
     6
 73
     3
 74
     0
 42
0.0000000001
 43
0.0000000001
 40
0.0
 40
0.0
 40
0.0
 40
0.5488026282960163
 40
0.5488026282960163
 40
0.5488026282960163
 10
4117.141672760909
 20
956.0
 30
0.0
 10
4117.416074075058
 20
956.0
 30
0.0
 10
4117.690475389206
 20
956.0
 30
0.0
  0
SPLINE
  5
92
330
1F
100
AcDbEntity
  8
MAKE2D VISIBLE LINES
100
AcDbSpline
210
0.0
220
0.0
230
1.0
 70
    24
 71
     2
 72
     6
 73
     3
 74
     0
 42
0.0000000001
 43
0.0000000001
 40
0.0
 40
0.0
 40
0.0
 40
0.4524310487000776
 40
0.4524310487000776
 40
0.4524310487000776
 10
4125.658309240565
 20
956.0000000000001
 30
0.0
 10
4125.884524764915
 20
956.0000000000001
 30
0.0
 10
4126.110740289266
 20
956.0000000000001
 30
0.0
  0
SPLINE
  5
93
330
1F
100
AcDbEntity
  8
MAKE2D VISIBLE LINES
100
AcDbSpline
210
0.0
220
0.0
230
1.0
 70
    24
 71
     2
 72
     6
 73
     3
 74
     0
 42
0.0000000001
 43
0.0000000001
 40
0.0
 40
0.0
 40
0.0
 40
2.461538461539362
 40
2.461538461539362
 40
2.461538461539362
 10
4087.311392921593
 20
956.0
 30
0.0
 10
4086.080623690823
 20
956.0
 30
0.0
 10
4084.849854460053
 20
956.0
 30
0.0
  0
SPLINE
  5
94
330
1F
100
AcDbEntity
  8
MAKE2D VISIBLE LINES
100
AcDbSpline
210
0.0
220
0.0
230
1.0
 70
    24
 71
     2
 72
     6
 73
     3
 74
     0
 42
0.0000000001
 43
0.0000000001
 40
0.0
 40
0.0
 40
0.0
 40
0.0110561404411555
 40
0.0110561404411555
 40
0.0110561404411555
 10
4119.375070031558
 20
956.0000000000001
 30
0.0
 10
4119.380598101779
 20
956.0000000000001
 30
0.0
 10
4119.386126171999
 20
956.0000000000001
 30
0.0
  0
SPLINE
  5
95
330
1F
100
AcDbEntity
  8
MAKE2D VISIBLE LINES
100
AcDbSpline
210
0.0
220
0.0
230
1.0
 70
    24
 71
     2
 72
     6
 73
     3
 74
     0
 42
0.0000000001
 43
0.0000000001
 40
0.0
 40
0.0
 40
0.0
 40
0.4061890259986285
 40
0.4061890259986285
 40
0.4061890259986285
 10
4127.945953924524
 20
956.0000000000001
 30
0.0
 10
4128.149048437524
 20
956.0000000000001
 30
0.0
 10
4128.352142950524
 20
956.0000000000001
 30
0.0
  0
SPLINE
  5
96
330
1F
100
AcDbEntity
  8
MAKE2D VISIBLE LINES
100
AcDbSpline
210
0.0
220
0.0
230
1.0
 70
    24
 71
     2
 72
     6
 73
     3
 74
     0
 42
0.0000000001
 43
0.0000000001
 40
0.0
 40
0.0
 40
0.0
 40
0.114079732442633
 40
0.114079732442633
 40
0.114079732442633
 10
4118.701972029639
 20
956.0000000000001
 30
0.0
 10
4118.759011895861
 20
956.0000000000001
 30
0.0
 10
4118.816051762082
 20
956.0000000000001
 30
0.0
  0
SPLINE
  5
97
330
1F
100
AcDbEntity
  8
MAKE2D VISIBLE LINES
100
AcDbSpline
210
0.0
220
0.0
230
1.0
 70
    24
 71
     2
 72
     6
 73
     3
 74
     0
 42
0.0000000001
 43
0.0000000001
 40
0.0
 40
0.0
 40
0.0
 40
0.3963262465603066
 40
0.3963262465603066
 40
0.3963262465603066
 10
4128.380547694954
 20
956.0000000000001
 30
0.0
 10
4128.578710818234
 20
956.0000000000001
 30
0.0
 10
4128.776873941514
 20
956.0000000000001
 30
0.0
  0
SPLINE
  5
98
330
1F
100
AcDbEntity
  8
MAKE2D VISIBLE LINES
100
AcDbSpline
210
0.0
220
0.0
230
1.0
 70
    24
 71
     2
 72
     6
 73
     3
 74
     0
 42
0.0000000001
 43
0.0000000001
 40
0.0
 40
0.0
 40
0.0
 40
0.4088877667543329
 40
0.4088877667543329
 40
0.4088877667543329
 10
4129.224583381589
 20
956.0000000000001
 30
0.0
 10
4129.429027264966
 20
956.0000000000001
 30
0.0
 10
4129.633471148343
 20
956.0000000000001
 30
0.0
  0
SPLINE
  5
99
330
1F
100
AcDbEntity
  8
MAKE2D VISIBLE LINES
100
AcDbSpline
210
0.0
220
0.0
230
1.0
 70
    24
 71
     2
 72
     6
 73
     3
 74
     0
 42
0.0000000001
 43
0.0000000001
 40
0.0
 40
0.0
 40
0.0
 40
0.3074230070019439
 40
0.3074230070019439
 40
0.3074230070019439
 10
4132.219017696989
 20
956.0000000000002
 30
0.0
 10
4132.37272920049
 20
956.0000000000002
 30
0.0
 10
4132.526440703991
 20
956.0000000000002
 30
0.0
  0
SPLINE
  5
9A
330
1F
100
AcDbEntity
  8
MAKE2D VISIBLE LINES
100
AcDbSpline
210
0.0
220
0.0
230
1.0
 70
    24
 71
     2
 72
     6
 73
     3
 74
     0
 42
0.0000000001
 43
0.0000000001
 40
0.0
 40
0.0
 40
0.0
 40
0.2991040827865845
 40
0.2991040827865845
 40
0.2991040827865845
 10
4132.54674448033
 20
956.0000000000002
 30
0.0
 10
4132.696296521723
 20
956.0000000000002
 30
0.0
 10
4132.845848563116
 20
956.0000000000002
 30
0.0
  0
SPLINE
  5
9B
330
1F
100
AcDbEntity
  8
MAKE2D VISIBLE LINES
100
AcDbSpline
210
0.0
220
0.0
230
1.0
 70
    24
 71
     2
 72
     6
 73
     3
 74
     0
 42
0.0000000001
 43
0.0000000001
 40
0.0
 40
0.0
 40
0.0
 40
0.6010771468244229
 40
0.6010771468244229
 40
0.6010771468244229
 10
4132.863736870636
 20
956.0000000000002
 30
0.0
 10
4133.164275444048
 20
956.0000000000002
 30
0.0
 10
4133.46481401746
 20
956.0000000000002
 30
0.0
  0
SPLINE
  5
9C
330
1F
100
AcDbEntity
  8
MAKE2D VISIBLE LINES
100
AcDbSpline
210
0.0
220
0.0
230
1.0
 70
    24
 71
     2
 72
     6
 73
     3
 74
     0
 42
0.0000000001
 43
0.0000000001
 40
0.0
 40
0.0
 40
0.0
 40
0.395411156464661
 40
0.395411156464661
 40
0.395411156464661
 10
4135.009112992884
 20
956.0000000000002
 30
0.0
 10
4135.206818571117
 20
956.0000000000002
 30
0.0
 10
4135.40452414935
 20
956.0000000000002
 30
0.0
  0
SPLINE
  5
9D
330
1F
100
AcDbEntity
  8
MAKE2D VISIBLE LINES
100
AcDbSpline
210
0.0
220
0.0
230
1.0
 70
    24
 71
     2
 72
     6
 73
     3
 74
     0
 42
0.0000000001
 43
0.0000000001
 40
0.0
 40
0.0
 40
0.0
 40
0.1406811319917551
 40
0.1406811319917551
 40
0.1406811319917551
 10
4135.892033118485
 20
956.0000000000002
 30
0.0
 10
4135.962373684481
 20
956.0000000000002
 30
0.0
 10
4136.032714250477
 20
956.0000000000002
 30
0.0
  0
SPLINE
  5
9E
330
1F
100
AcDbEntity
  8
MAKE2D VISIBLE LINES
100
AcDbSpline
210
0.0
220
0.0
230
1.0
 70
    24
 71
     2
 72
     6
 73
     3
 74
     0
 42
0.0000000001
 43
0.0000000001
 40
0.0
 40
0.0
 40
0.0
 40
0.06136933752191
 40
0.06136933752191
 40
0.06136933752191
 10
4136.722448269988
 20
956.0000000000002
 30
0.0
 10
4136.753132938748
 20
956.0000000000002
 30
0.0
 10
4136.783817607509
 20
956.0000000000002
 30
0.0
  0
SPLINE
  5
9F
330
1F
100
AcDbEntity
  8
MAKE2D VISIBLE LINES
100
AcDbSpline
210
0.0
220
0.0
230
1.0
 70
    24
 71
     2
 72
     6
 73
     3
 74
     0
 42
0.0000000001
 43
0.0000000001
 40
0.0
 40
0.0
 40
0.0
 40
0.00936527340059
 40
0.00936527340059
 40
0.00936527340059
 10
4136.840489187097
 20
956.0000000000002
 30
0.0
 10
4136.845171823798
 20
956.0000000000002
 30
0.0
 10
4136.849854460498
 20
956.0000000000002
 30
0.0
  0
SPLINE
  5
A0
330
1F
100
AcDbEntity
  8
MAKE2D VISIBLE LINES
100
AcDbSpline
210
0.0
220
0.0
230
1.0
 70
    28
 71
     3
 72
    16
 73
    12
 74
     0
 42
0.0000000001
 43
0.0000000001
 40
84.02684076120204
 40
84.02684076120204
 40
84.02684076120204
 40
84.02684076120204
 40
86.54264364451242
 40
86.54264364451242
 40
86.54264364451242
 40
92.56708690481994
 40
98.9782726676382
 40
98.9782726676382
 40
98.9782726676382
 40
101.3353694901131
 40
103.8511723734252
 40
103.8511723734252
 40
103.8511723734252
 40
103.8511723734252
 10
4063.849854460054
 20
813.0748816496882
 30
0.0
 41
1.0
 10
4063.849854460054
 20
813.0937860079162
 30
0.0
 41
1.0
 10
4063.849854460054
 20
812.8025797941008
 30
0.0
 41
1.0
 10
4063.849854460054
 20
812.2607708002911
 30
0.0
 41
1.0
 10
4063.849854460054
 20
810.9727749754232
 30
0.0
 41
1.0
 10
4063.849854460054
 20
808.5749636004198
 30
0.0
 41
1.0
 10
4063.849854460054
 20
806.8083391676446
 30
0.0
 41
1.0
 10
4063.849854460054
 20
806.0741183481679
 30
0.0
 41
1.0
 10
4063.849854460054
 20
805.8069207549867
 30
0.0
 41
1.0
 10
4063.849854460054
 20
804.7116407204223
 30
0.0
 41
1.0
 10
4063.849854460054
 20
803.0129940945976
 30
0.0
 41
1.0
 10
4063.849854460054
 20
802.186652452118
 30
0.0
 41
1.0
  0
SPLINE
  5
A1
330
1F
100
AcDbEntity
  8
MAKE2D VISIBLE LINES
100
AcDbSpline
210
0.0
220
0.0
230
1.0
 70
    24
 71
     2
 72
     6
 73
     3
 74
     0
 42
0.0000000001
 43
0.0000000001
 40
0.0
 40
0.0
 40
0.0
 40
0.4064051250442162
 40
0.4064051250442162
 40
0.4064051250442162
 10
4117.847990013062
 20
956.0
 30
0.0
 10
4118.051192575585
 20
956.0
 30
0.0
 10
4118.254395138107
 20
956.0
 30
0.0
  0
SPLINE
  5
A2
330
1F
100
AcDbEntity
  8
MAKE2D VISIBLE LINES
100
AcDbSpline
210
0.0
220
0.0
230
1.0
 70
     8
 71
     3
 72
    16
 73
    12
 74
     0
 42
0.0000000001
 43
0.0000000001
 40
0.0
 40
0.0
 40
0.0
 40
0.0
 40
0.2075326617771744
 40
0.7213409535279609
 40
2.358913687942127
 40
5.107425771944859
 40
8.886771452491354
 40
19.02989912250267
 40
33.5872751259291
 40
72.55496384421893
 40
122.6449522316474
 40
122.6449522316474
 40
122.6449522316474
 40
122.6449522316474
 10
4101.873371576608
 20
955.9633104130996
 30
0.0
 10
4101.930957406747
 20
955.9237356614553
 30
0.0
 10
4102.161939382885
 20
955.8521704482208
 30
0.0
 10
4102.938392894395
 20
955.7248038065002
 30
0.0
 10
4104.565109300453
 20
955.5730545547397
 30
0.0
 10
4107.28126029816
 20
955.3967249790707
 30
0.0
 10
4112.832145511353
 20
955.1328331922881
 30
0.0
 10
4122.319980587927
 20
954.8072848448444
 30
0.0
 10
4143.535813099768
 20
954.2609465780422
 30
0.0
 10
4178.068578287861
 20
953.6284970865756
 30
0.0
 10
4207.75185872267
 20
953.2319739420632
 30
0.0
 10
4224.447473543097
 20
953.0439061815492
 30
0.0
  0
SPLINE
  5
A3
330
1F
100
AcDbEntity
  8
MAKE2D VISIBLE LINES
100
AcDbSpline
210
0.0
220
0.0
230
1.0
 70
    12
 71
     3
 72
    12
 73
     8
 74
     0
 42
0.0000000001
 43
0.0000000001
 40
-30.65202004424435
 40
-30.65202004424435
 40
-30.65202004424435
 40
-30.65202004424435
 40
-23.00838056126781
 40
-23.00838056126781
 40
-15.34543892095125
 40
-15.34543892095125
 40
-0.0505070875447923
 40
-0.0505070875447923
 40
-0.0505070875447923
 40
-0.0505070875447923
 10
4224.447473543096
 20
953.0439061815492
 30
0.0
 41
1.0
 10
4225.222125816157
 20
950.6099240010932
 30
0.0
 41
1.0
 10
4225.810131664606
 20
948.1524810011983
 30
0.0
 41
1.0
 10
4226.613992593107
 20
943.0928409602773
 30
0.0
 41
1.0
 10
4226.816916412961
 20
940.5678527880202
 30
0.0
 41
1.0
 10
4226.816920919218
 20
932.8777936181741
 30
0.0
 41
1.0
 10
4225.995664003956
 20
927.8227800471362
 30
0.0
 41
1.0
 10
4224.447473790768
 20
922.9580616093508
 30
0.0
 41
1.0
  0
SPLINE
  5
A4
330
1F
100
AcDbEntity
  8
MAKE2D VISIBLE LINES
100
AcDbSpline
210
0.0
220
0.0
230
1.0
 70
    12
 71
     2
 72
     6
 73
     3
 74
     0
 42
0.0000000001
 43
0.0000000001
 40
0.0
 40
0.0
 40
0.0
 40
5.272645634414261
 40
5.272645634414261
 40
5.272645634414261
 10
4081.982682265135
 20
953.1831638627609
 30
0.0
 41
1.0
 10
4082.549136974092
 20
950.6074384603584
 30
0.0
 41
0.9994571302177812
 10
4082.944733945624
 20
948.000000000491
 30
0.0
 41
1.0
  0
SPLINE
  5
A5
330
1F
100
AcDbEntity
  8
MAKE2D VISIBLE LINES
100
AcDbSpline
210
0.0
220
0.0
230
1.0
 70
    12
 71
     2
 72
     6
 73
     3
 74
     0
 42
0.0000000001
 43
0.0000000001
 40
0.0
 40
0.0
 40
0.0
 40
11.0710730324929
 40
11.0710730324929
 40
11.0710730324929
 10
4103.961075524201
 20
930.8992076281569
 30
0.0
 41
1.0
 10
4103.350333411528
 20
925.3856763164871
 30
0.0
 41
0.9968343963805482
 10
4101.873371461158
 20
920.03865688038
 30
0.0
 41
1.0
  0
SPLINE
  5
A6
330
1F
100
AcDbEntity
  8
MAKE2D VISIBLE LINES
100
AcDbSpline
210
0.0
220
0.0
230
1.0
 70
    24
 71
     2
 72
     6
 73
     3
 74
     0
 42
0.0000000001
 43
0.0000000001
 40
0.0
 40
0.0
 40
0.0
 40
17.14452311893865
 40
17.14452311893865
 40
17.14452311893865
 10
4064.349854460054
 20
953.5751542412187
 30
0.0
 10
4072.922116019524
 20
953.5751542412187
 30
0.0
 10
4081.494377578993
 20
953.5751542412187
 30
0.0
  0
SPLINE
  5
A7
330
1F
100
AcDbEntity
  8
MAKE2D VISIBLE LINES
100
AcDbSpline
210
0.0
220
0.0
230
1.0
 70
    24
 71
     2
 72
     6
 73
     3
 74
     0
 42
0.0000000001
 43
0.0000000001
 40
0.0
 40
0.0
 40
0.0
 40
8.531625054015535
 40
8.531625054015535
 40
8.531625054015535
 10
4029.849854460054
 20
969.0
 30
0.0
 10
4034.115666987062
 20
969.0
 30
0.0
 10
4038.38147951407
 20
969.0
 30
0.0
  0
SPLINE
  5
A8
330
1F
100
AcDbEntity
  8
MAKE2D VISIBLE LINES
100
AcDbSpline
210
0.0
220
0.0
230
1.0
 70
    24
 71
     2
 72
     6
 73
     3
 74
     0
 42
0.0000000001
 43
0.0000000001
 40
0.0
 40
0.0
 40
0.0
 40
22.60032414724192
 40
22.60032414724192
 40
22.60032414724192
 10
4053.618075739651
 20
920.7218655355167
 30
0.0
 10
4046.383888266439
 20
912.0408405676619
 30
0.0
 10
4039.149700793227
 20
903.359815599807
 30
0.0
  0
SPLINE
  5
A9
330
1F
100
AcDbEntity
  8
MAKE2D VISIBLE LINES
100
AcDbSpline
210
0.0
220
0.0
230
1.0
 70
    12
 71
     2
 72
     6
 73
     3
 74
     0
 42
0.0000000001
 43
0.0000000001
 40
0.0
 40
0.0
 40
0.0
 40
0.7620305816490023
 40
0.7620305816490023
 40
0.7620305816490023
 10
4039.1497007936
 20
903.3584369366271
 30
0.0
 41
1.0
 10
4038.893135597348
 20
903.0508391692362
 30
0.0
 41
0.9284179036703951
 10
4038.495196138607
 20
903.0051634250298
 30
0.0
 41
1.0
  0
SPLINE
  5
AA
330
1F
100
AcDbEntity
  8
MAKE2D VISIBLE LINES
100
AcDbSpline
210
0.0
220
0.0
230
1.0
 70
    12
 71
     2
 72
     6
 73
     3
 74
     0
 42
0.0000000001
 43
0.0000000001
 40
0.0
 40
0.0
 40
0.0
 40
0.8759830634958263
 40
0.8759830634958263
 40
0.8759830634958263
 10
4038.381479513998
 20
969.0012474737853
 30
0.0
 41
1.0
 10
4038.8497205363
 20
969.0009479504624
 30
0.0
 41
0.9058544081805803
 10
4039.149700793595
 20
968.641418271698
 30
0.0
 41
1.0
  0
SPLINE
  5
AB
330
1F
100
AcDbEntity
  8
MAKE2D VISIBLE LINES
100
AcDbSpline
210
0.0
220
0.0
230
1.0
 70
    12
 71
     2
 72
     6
 73
     3
 74
     0
 42
0.0000000001
 43
0.0000000001
 40
0.0
 40
0.0
 40
0.0
 40
0.6942584787332616
 40
0.6942584787332616
 40
0.6942584787332616
 10
4053.61839314565
 20
951.2783986892941
 30
0.0
 41
1.0
 10
4053.849825185435
 20
951.0003402882031
 30
0.0
 41
0.9403876929084979
 10
4053.849854460052
 20
950.6385706617843
 30
0.0
 41
1.0
  0
SPLINE
  5
AC
330
1F
100
AcDbEntity
  8
MAKE2D VISIBLE LINES
100
AcDbSpline
210
0.0
220
0.0
230
1.0
 70
    12
 71
     2
 72
     6
 73
     3
 74
     0
 42
0.0000000001
 43
0.0000000001
 40
0.0
 40
0.0
 40
0.0
 40
0.6943258636669101
 40
0.6943258636669101
 40
0.6943258636669101
 10
4053.849854460054
 20
921.3614957196042
 30
0.0
 41
1.0
 10
4053.849899145833
 20
920.999670477672
 30
0.0
 41
0.9403090460816912
 10
4053.618359807235
 20
920.721629037635
 30
0.0
 41
1.0
  0
SPLINE
  5
AD
330
1F
100
AcDbEntity
  8
MAKE2D VISIBLE LINES
100
AcDbSpline
210
0.0
220
0.0
230
1.0
 70
    24
 71
     2
 72
     6
 73
     3
 74
     0
 42
0.0000000001
 43
0.0000000001
 40
0.0
 40
0.0
 40
0.0
 40
10.00000000000011
 40
10.00000000000011
 40
10.00000000000011
 10
4063.849854460054
 20
924.0
 30
0.0
 10
4058.849854460054
 20
924.0
 30
0.0
 10
4053.849854460054
 20
924.0
 30
0.0
  0
SPLINE
  5
AE
330
1F
100
AcDbEntity
  8
MAKE2D VISIBLE LINES
100
AcDbSpline
210
0.0
220
0.0
230
1.0
 70
    24
 71
     2
 72
     6
 73
     3
 74
     0
 42
0.0000000001
 43
0.0000000001
 40
0.0
 40
0.0
 40
0.0
 40
0.9051205144023697
 40
0.9051205144023697
 40
0.9051205144023697
 10
4082.944733945652
 20
948.0
 30
0.0
 10
4083.397294202853
 20
948.0
 30
0.0
 10
4083.849854460054
 20
948.0
 30
0.0
  0
SPLINE
  5
AF
330
1F
100
AcDbEntity
  8
MAKE2D VISIBLE LINES
100
AcDbSpline
210
0.0
220
0.0
230
1.0
 70
    12
 71
     2
 72
     6
 73
     3
 74
     0
 42
0.0000000001
 43
0.0000000001
 40
0.0
 40
0.0
 40
0.0
 40
0.0912179742161126
 40
0.0912179742161126
 40
0.0912179742161126
 10
4138.212024988292
 20
968.1809949021699
 30
0.0
 41
1.0
 10
4138.17122861426
 20
968.1605269994858
 30
0.0
 41
0.9988841203799427
 10
4138.132545405884
 20
968.1363012164405
 30
0.0
 41
1.0
  0
SPLINE
  5
B0
330
1F
100
AcDbEntity
  8
MAKE2D VISIBLE LINES
100
AcDbSpline
210
0.0
220
0.0
230
1.0
 70
    12
 71
     2
 72
     6
 73
     3
 74
     0
 42
0.0000000001
 43
0.0000000001
 40
0.0
 40
0.0
 40
0.0
 40
1.57079531492649
 40
1.57079531492649
 40
1.57079531492649
 10
4137.849861154606
 20
957.0
 30
0.0
 41
1.0
 10
4137.849858732027
 20
956.0000023946669
 30
0.0
 41
0.7071084843419784
 10
4136.849861126694
 20
956.0
 30
0.0
 41
1.0
  0
SPLINE
  5
B1
330
1F
100
AcDbEntity
  8
MAKE2D VISIBLE LINES
100
AcDbSpline
210
0.0
220
0.0
230
1.0
 70
    12
 71
     2
 72
     6
 73
     3
 74
     0
 42
0.0000000001
 43
0.0000000001
 40
0.0
 40
0.0
 40
0.0
 40
0.9739994408051286
 40
0.9739994408051286
 40
0.9739994408051286
 10
4138.287861620918
 20
968.2091154511745
 30
0.0
 41
1.0
 10
4137.849886369078
 20
967.9114946770625
 30
0.0
 41
0.8837697686714607
 10
4137.84985475402
 20
967.3819661646976
 30
0.0
 41
1.0
  0
SPLINE
  5
B2
330
1F
100
AcDbEntity
  8
MAKE2D VISIBLE LINES
100
AcDbSpline
210
0.0
220
0.0
230
1.0
 70
    12
 71
     2
 72
     6
 73
     3
 74
     0
 42
0.0000000001
 43
0.0000000001
 40
0.0
 40
0.0
 40
0.0
 40
1.107076019382602
 40
1.107076019382602
 40
1.107076019382602
 10
4141.849889056932
 20
970.6180339886165
 30
0.0
 41
1.0
 10
4141.849702595683
 20
970.0001178800544
 30
0.0
 41
0.850803838742722
 10
4141.297099147903
 20
969.7236223439427
 30
0.0
 41
1.0
  0
SPLINE
  5
B3
330
1F
100
AcDbEntity
  8
MAKE2D VISIBLE LINES
100
AcDbSpline
210
0.0
220
0.0
230
1.0
 70
    12
 71
     2
 72
     6
 73
     3
 74
     0
 42
0.0000000001
 43
0.0000000001
 40
0.0
 40
0.0
 40
0.0
 40
1.384873956652376
 40
1.384873956652376
 40
1.384873956652376
 10
4091.84897357514
 20
1002.948706705113
 30
0.0
 41
1.0
 10
4091.848990157766
 20
1003.778142296422
 30
0.0
 41
0.769700024670973
 10
4092.664130844295
 20
1003.931468946329
 30
0.0
 41
1.0
  0
SPLINE
  5
B4
330
1F
100
AcDbEntity
  8
MAKE2D VISIBLE LINES
100
AcDbSpline
210
0.0
220
0.0
230
1.0
 70
    12
 71
     2
 72
     6
 73
     3
 74
     0
 42
0.0000000001
 43
0.0000000001
 40
0.0
 40
0.0
 40
0.0
 40
1.350531638502603
 40
1.350531638502603
 40
1.350531638502603
 10
4141.06834329875
 20
1003.100772211925
 30
0.0
 41
1.0
 10
4141.849854438888
 20
1002.925793104513
 30
0.0
 41
0.7805418828688597
 10
4141.849856373452
 20
1002.124932723306
 30
0.0
 41
1.0
  0
SPLINE
  5
B5
330
1F
100
AcDbEntity
  8
MAKE2D VISIBLE LINES
100
AcDbSpline
210
0.0
220
0.0
230
1.0
 70
    12
 71
     2
 72
     6
 73
     3
 74
     0
 42
0.0000000001
 43
0.0000000001
 40
0.0
 40
0.0
 40
0.0
 40
0.0137002021197853
 40
0.0137002021197853
 40
0.0137002021197853
 10
4106.635850494667
 20
1005.718567092421
 30
0.0
 41
1.0
 10
4106.642688133233
 20
1005.719015588403
 30
0.0
 41
0.9995117751258006
 10
4106.649540434114
 20
1005.719036141759
 30
0.0
 41
1.0
  0
SPLINE
  5
B6
330
1F
100
AcDbEntity
  8
MAKE2D VISIBLE LINES
100
AcDbSpline
210
0.0
220
0.0
230
1.0
 70
    12
 71
     2
 72
     6
 73
     3
 74
     0
 42
0.0000000001
 43
0.0000000001
 40
0.0
 40
0.0
 40
0.0
 40
0.1151702230479598
 40
0.1151702230479598
 40
0.1151702230479598
 10
4107.130304682654
 20
1005.71903614191
 30
0.0
 41
1.0
 10
4107.177744607362
 20
1005.754532013719
 30
0.0
 41
0.9583909737010344
 10
4107.236875086052
 20
1005.758285660162
 30
0.0
 41
1.0
  0
SPLINE
  5
B7
330
1F
100
AcDbEntity
  8
MAKE2D VISIBLE LINES
100
AcDbSpline
210
0.0
220
0.0
230
1.0
 70
    12
 71
     2
 72
     6
 73
     3
 74
     0
 42
0.0000000001
 43
0.0000000001
 40
0.0
 40
0.0
 40
0.0
 40
0.013550160030318
 40
0.013550160030318
 40
0.013550160030318
 10
4123.050004045009
 20
1005.719035232994
 30
0.0
 41
1.0
 10
4123.056781253751
 20
1005.719011133027
 30
0.0
 41
0.9995194372465853
 10
4123.063543944728
 20
1005.718567117398
 30
0.0
 41
1.0
  0
SPLINE
  5
B8
330
1F
100
AcDbEntity
  8
MAKE2D VISIBLE LINES
100
AcDbSpline
210
0.0
220
0.0
230
1.0
 70
    12
 71
     2
 72
     6
 73
     3
 74
     0
 42
0.0000000001
 43
0.0000000001
 40
0.0
 40
0.0
 40
0.0
 40
0.0135501600302033
 40
0.0135501600302033
 40
0.0135501600302033
 10
4123.063543944728
 20
726.2814328826016
 30
0.0
 41
1.0
 10
4123.05678125375
 20
726.2809888669735
 30
0.0
 41
0.9995194372468759
 10
4123.05000404501
 20
726.2809647670064
 30
0.0
 41
1.0
  0
SPLINE
  5
B9
330
1F
100
AcDbEntity
  8
MAKE2D VISIBLE LINES
100
AcDbSpline
210
0.0
220
0.0
230
1.0
 70
    12
 71
     2
 72
     6
 73
     3
 74
     0
 42
0.0000000001
 43
0.0000000001
 40
0.0
 40
0.0
 40
0.0
 40
25.93558050513901
 40
25.93558050513901
 40
25.93558050513901
 10
4101.873371461158
 20
920.0386568803797
 30
0.0
 41
1.0
 10
4114.841169082915
 20
920.0144273832814
 30
0.0
 41
0.9999965293203142
 10
4127.808914348439
 20
920.0585290375204
 30
0.0
 41
1.0
  0
SPLINE
  5
BA
330
1F
100
AcDbEntity
  8
MAKE2D VISIBLE LINES
100
AcDbSpline
210
0.0
220
0.0
230
1.0
 70
    12
 71
     2
 72
     6
 73
     3
 74
     0
 42
0.0000000001
 43
0.0000000001
 40
0.0
 40
0.0
 40
0.0
 40
5.272737226395579
 40
5.272737226395579
 40
5.272737226395579
 10
4082.94473938046
 20
924.000000012705
 30
0.0
 41
1.0
 10
4082.549141405619
 20
921.3925151651869
 30
0.0
 41
0.999457016124933
 10
4081.982664801681
 20
918.8167474650782
 30
0.0
 41
1.0
  0
SPLINE
  5
BB
330
1F
100
AcDbEntity
  8
MAKE2D VISIBLE LINES
100
AcDbSpline
210
0.0
220
0.0
230
1.0
 70
    12
 71
     2
 72
     6
 73
     3
 74
     0
 42
0.0000000001
 43
0.0000000001
 40
0.0
 40
0.0
 40
0.0
 40
11.0726208896224
 40
11.0726208896224
 40
11.0726208896224
 10
4101.873371576608
 20
955.9633104130996
 30
0.0
 41
1.0
 10
4103.349508802034
 20
950.615304828521
 30
0.0
 41
0.9968463789850602
 10
4103.960944029512
 20
945.1011147879462
 30
0.0
 41
1.0
  0
SPLINE
  5
BC
330
1F
100
AcDbEntity
  8
MAKE2D VISIBLE LINES
100
AcDbSpline
210
0.0
220
0.0
230
1.0
 70
    24
 71
     2
 72
     6
 73
     3
 74
     0
 42
0.0000000001
 43
0.0000000001
 40
0.0
 40
0.0
 40
0.0
 40
17.14456406482009
 40
17.14456406482009
 40
17.14456406482009
 10
4081.494418524875
 20
918.4248457587792
 30
0.0
 10
4072.922136492464
 20
918.4248457587792
 30
0.0
 10
4064.349854460054
 20
918.4248457587792
 30
0.0
  0
SPLINE
  5
BD
330
1F
100
AcDbEntity
  8
MAKE2D VISIBLE LINES
100
AcDbSpline
210
0.0
220
0.0
230
1.0
 70
    12
 71
     2
 72
     6
 73
     3
 74
     0
 42
0.0000000001
 43
0.0000000001
 40
0.0
 40
0.0
 40
0.0
 40
0.7854602530895406
 40
0.7854602530895406
 40
0.7854602530895406
 10
4064.349854460054
 20
918.4241675772829
 30
0.0
 41
1.0
 10
4063.849821586598
 20
918.4242187553723
 30
0.0
 41
0.7071197235467097
 10
4063.849854460055
 20
918.9242516303674
 30
0.0
 41
1.0
  0
SPLINE
  5
BE
330
1F
100
AcDbEntity
  8
MAKE2D VISIBLE LINES
100
AcDbSpline
210
0.0
220
0.0
230
1.0
 70
    12
 71
     2
 72
     6
 73
     3
 74
     0
 42
0.0000000001
 43
0.0000000001
 40
0.0
 40
0.0
 40
0.0
 40
0.7854628264384557
 40
0.7854628264384557
 40
0.7854628264384557
 10
4063.849854460055
 20
953.0757483694462
 30
0.0
 41
1.0
 10
4063.849815590561
 20
953.5757872394704
 30
0.0
 41
0.707111245232553
 10
4064.349854460054
 20
953.5758324225894
 30
0.0
 41
1.0
  0
SPLINE
  5
BF
330
1F
100
AcDbEntity
  8
MAKE2D VISIBLE LINES
100
AcDbSpline
210
0.0
220
0.0
230
1.0
 70
    12
 71
     2
 72
     6
 73
     3
 74
     0
 42
0.0000000001
 43
0.0000000001
 40
0.0
 40
0.0
 40
0.0
 40
0.6777044300101244
 40
0.6777044300101244
 40
0.6777044300101244
 10
4081.494377400234
 20
953.5758644569775
 30
0.0
 41
1.0
 10
4081.897392581494
 20
953.5770536891531
 30
0.0
 41
0.7774337132288879
 10
4081.982707731217
 20
953.1831704884119
 30
0.0
 41
1.0
  0
SPLINE
  5
C0
330
1F
100
AcDbEntity
  8
MAKE2D VISIBLE LINES
100
AcDbSpline
210
0.0
220
0.0
230
1.0
 70
    12
 71
     2
 72
     6
 73
     3
 74
     0
 42
0.0000000001
 43
0.0000000001
 40
0.0
 40
0.0
 40
0.0
 40
0.6775753003683899
 40
0.6775753003683899
 40
0.6775753003683899
 10
4081.982688550858
 20
918.8167422431302
 30
0.0
 41
1.0
 10
4081.897321780046
 20
918.4229816102794
 30
0.0
 41
0.7775207717336777
 10
4081.494415351236
 20
918.4241353721067
 30
0.0
 41
1.0
  0
SPLINE
  5
C1
330
1F
100
AcDbEntity
  8
MAKE2D VISIBLE LINES
100
AcDbSpline
210
0.0
220
0.0
230
1.0
 70
    24
 71
     2
 72
     6
 73
     3
 74
     0
 42
0.0000000001
 43
0.0000000001
 40
0.0
 40
0.0
 40
0.0
 40
22.60032414724192
 40
22.60032414724192
 40
22.60032414724192
 10
4039.149700793227
 20
968.640184400193
 30
0.0
 10
4046.383888266439
 20
959.9591594323381
 30
0.0
 10
4053.618075739651
 20
951.2781344644833
 30
0.0
  0
SPLINE
  5
C2
330
1F
100
AcDbEntity
  8
MAKE2D VISIBLE LINES
100
AcDbSpline
210
0.0
220
0.0
230
1.0
 70
    12
 71
     2
 72
     6
 73
     3
 74
     0
 42
0.0000000001
 43
0.0000000001
 40
0.0
 40
0.0
 40
0.0
 40
1.570823840986786
 40
1.570823840986786
 40
1.570823840986786
 10
4029.849854460054
 20
902.9987525262158
 30
0.0
 41
1.0
 10
4028.849839049013
 20
902.9987737295846
 30
0.0
 41
0.7071088290488736
 10
4028.849854460055
 20
903.998789140732
 30
0.0
 41
1.0
  0
SPLINE
  5
C3
330
1F
100
AcDbEntity
  8
MAKE2D VISIBLE LINES
100
AcDbSpline
210
0.0
220
0.0
230
1.0
 70
    12
 71
     2
 72
     6
 73
     3
 74
     0
 42
0.0000000001
 43
0.0000000001
 40
0.0
 40
0.0
 40
0.0
 40
1.57082790450769
 40
1.57082790450769
 40
1.57082790450769
 10
4028.849854460055
 20
968.001352604978
 30
0.0
 41
1.0
 10
4028.849835755102
 20
969.0013713100094
 30
0.0
 41
0.707108141151495
 10
4029.849854460054
 20
969.0013938615994
 30
0.0
 41
1.0
  0
SPLINE
  5
C4
330
1F
100
AcDbEntity
  8
MAKE2D VISIBLE LINES
100
AcDbSpline
210
0.0
220
0.0
230
1.0
 70
    24
 71
     2
 72
     6
 73
     3
 74
     0
 42
0.0000000001
 43
0.0000000001
 40
0.0
 40
0.0
 40
0.0
 40
0.9051150784005131
 40
0.9051150784005131
 40
0.9051150784005131
 10
4083.849854460054
 20
924.0
 30
0.0
 10
4083.397296920854
 20
924.0
 30
0.0
 10
4082.944739381654
 20
924.0
 30
0.0
  0
SPLINE
  5
C5
330
1F
100
AcDbEntity
  8
MAKE2D VISIBLE LINES
100
AcDbSpline
210
0.0
220
0.0
230
1.0
 70
    24
 71
     2
 72
     6
 73
     3
 74
     0
 42
0.0000000001
 43
0.0000000001
 40
0.0
 40
0.0
 40
0.0
 40
10.00000000000011
 40
10.00000000000011
 40
10.00000000000011
 10
4053.849854460054
 20
948.0
 30
0.0
 10
4058.849854460054
 20
948.0
 30
0.0
 10
4063.849854460054
 20
948.0
 30
0.0
  0
SPLINE
  5
C6
330
1F
100
AcDbEntity
  8
MAKE2D VISIBLE LINES
100
AcDbSpline
210
0.0
220
0.0
230
1.0
 70
    24
 71
     2
 72
     6
 73
     3
 74
     0
 42
0.0000000001
 43
0.0000000001
 40
0.0
 40
0.0
 40
0.0
 40
3.437935871556476
 40
3.437935871556476
 40
3.437935871556476
 10
4091.849854460054
 20
999.5107708335584
 30
0.0
 10
4091.849854460054
 20
1001.229738769337
 30
0.0
 10
4091.849854460054
 20
1002.948706705115
 30
0.0
  0
SPLINE
  5
C7
330
1F
100
AcDbEntity
  8
MAKE2D VISIBLE LINES
100
AcDbSpline
210
0.0
220
0.0
230
1.0
 70
    12
 71
     2
 72
     6
 73
     3
 74
     0
 42
0.0000000001
 43
0.0000000001
 40
0.0
 40
0.0
 40
0.0
 40
14.09363537277736
 40
14.09363537277736
 40
14.09363537277736
 10
4092.664160442289
 20
1003.931312995888
 30
0.0
 41
1.0
 10
4099.597472274638
 20
1005.235613323093
 30
0.0
 41
0.99827644998559
 10
4106.635851980518
 20
1005.718545434251
 30
0.0
 41
1.0
  0
SPLINE
  5
C8
330
1F
100
AcDbEntity
  8
MAKE2D VISIBLE LINES
100
AcDbSpline
210
0.0
220
0.0
230
1.0
 70
    12
 71
     2
 72
     6
 73
     3
 74
     0
 42
0.0000000001
 43
0.0000000001
 40
0.0
 40
0.0
 40
0.0
 40
7.618094011403283
 40
7.618094011403283
 40
7.618094011403283
 10
4107.236876337289
 20
1005.758267381223
 30
0.0
 41
1.0
 10
4111.039527850587
 20
1005.999991065016
 30
0.0
 41
0.9994963382854158
 10
4114.849854460054
 20
1006.0
 30
0.0
 41
1.0
  0
SPLINE
  5
C9
330
1F
100
AcDbEntity
  8
MAKE2D VISIBLE LINES
100
AcDbSpline
210
0.0
220
0.0
230
1.0
 70
    12
 71
     2
 72
     6
 73
     3
 74
     0
 42
0.0000000001
 43
0.0000000001
 40
0.0
 40
0.0
 40
0.0
 40
7.617803462760454
 40
7.617803462760454
 40
7.617803462760454
 10
4114.849854460054
 20
1006.0
 30
0.0
 41
1.0
 10
4118.660035983886
 20
1006.000006914919
 30
0.0
 41
0.9994962448516168
 10
4122.462542285997
 20
1005.758285862866
 30
0.0
 41
1.0
  0
SPLINE
  5
CA
330
1F
100
AcDbEntity
  8
MAKE2D VISIBLE LINES
100
AcDbSpline
210
0.0
220
0.0
230
1.0
 70
    24
 71
     2
 72
     6
 73
     3
 74
     0
 42
0.0000000001
 43
0.0000000001
 40
0.0
 40
0.0
 40
0.0
 40
8.200317073295764
 40
8.200317073295764
 40
8.200317073295764
 10
4114.849854460054
 20
1005.719036140693
 30
0.0
 10
4110.749695923407
 20
1005.719036141219
 30
0.0
 10
4106.649537386758
 20
1005.719036141746
 30
0.0
  0
SPLINE
  5
CB
330
1F
100
AcDbEntity
  8
MAKE2D VISIBLE LINES
100
AcDbSpline
210
0.0
220
0.0
230
1.0
 70
    24
 71
     2
 72
     6
 73
     3
 74
     0
 42
0.0000000001
 43
0.0000000001
 40
0.0
 40
0.0
 40
0.0
 40
8.200001946632028
 40
8.200001946632028
 40
8.200001946632028
 10
4114.849854460054
 20
1005.719036140693
 30
0.0
 10
4118.94985543337
 20
1005.719036140687
 30
0.0
 10
4123.049856406687
 20
1005.719036140682
 30
0.0
  0
SPLINE
  5
CC
330
1F
100
AcDbEntity
  8
MAKE2D VISIBLE LINES
100
AcDbSpline
210
0.0
220
0.0
230
1.0
 70
    12
 71
     2
 72
     6
 73
     3
 74
     0
 42
0.0000000001
 43
0.0000000001
 40
0.0
 40
0.0
 40
0.0
 40
0.1151513545973419
 40
0.1151513545973419
 40
0.1151513545973419
 10
4122.462544650815
 20
1005.758285660162
 30
0.0
 41
1.0
 10
4122.521590677483
 20
1005.754258941016
 30
0.0
 41
0.9597515624766582
 10
4122.569151187672
 20
1005.719036141543
 30
0.0
 41
1.0
  0
SPLINE
  5
CD
330
1F
100
AcDbEntity
  8
MAKE2D VISIBLE LINES
100
AcDbSpline
210
0.0
220
0.0
230
1.0
 70
    24
 71
     2
 72
     6
 73
     3
 74
     0
 42
0.0000000001
 43
0.0000000001
 40
0.0
 40
0.0
 40
0.0
 40
7.6388701633241
 40
7.6388701633241
 40
7.6388701633241
 10
4123.048286309072
 20
726.2809638594324
 30
0.0
 10
4119.22885122741
 20
726.2809638594322
 30
0.0
 10
4115.409416145748
 20
726.2809638594321
 30
0.0
  0
SPLINE
  5
CE
330
1F
100
AcDbEntity
  8
MAKE2D VISIBLE LINES
100
AcDbSpline
210
0.0
220
0.0
230
1.0
 70
    24
 71
     2
 72
     6
 73
     3
 74
     0
 42
0.0000000001
 43
0.0000000001
 40
0.0
 40
0.0
 40
0.0
 40
0.0815617657552821
 40
0.0815617657552821
 40
0.0815617657552821
 10
4115.249697163345
 20
726.2809638594164
 30
0.0
 10
4115.208916280468
 20
726.2809638594108
 30
0.0
 10
4115.16813539759
 20
726.2809638594051
 30
0.0
  0
SPLINE
  5
CF
330
1F
100
AcDbEntity
  8
MAKE2D VISIBLE LINES
100
AcDbSpline
210
0.0
220
0.0
230
1.0
 70
    12
 71
     2
 72
     6
 73
     3
 74
     0
 42
0.0000000001
 43
0.0000000001
 40
0.0
 40
0.0
 40
0.0
 40
1.928891857134486
 40
1.928891857134486
 40
1.928891857134486
 10
4101.171452888485
 20
940.9834134568861
 30
0.0
 41
1.0
 10
4101.377156018173
 20
941.9272295140194
 30
0.0
 41
0.9976314401746185
 10
4101.710447639925
 20
942.8338822712179
 30
0.0
 41
1.0
  0
SPLINE
  5
D0
330
1F
100
AcDbEntity
  8
MAKE2D VISIBLE LINES
100
AcDbSpline
210
0.0
220
0.0
230
1.0
 70
    12
 71
     2
 72
     6
 73
     3
 74
     0
 42
0.0000000001
 43
0.0000000001
 40
0.0
 40
0.0
 40
0.0
 40
15.48424388805135
 40
15.48424388805135
 40
15.48424388805135
 10
4083.849854460056
 20
830.5728738293103
 30
0.0
 41
1.0
 10
4083.224414944164
 20
838.2897563791325
 30
0.0
 41
0.9999875043059365
 10
4082.521852361425
 20
845.9999999999999
 30
0.0
 41
1.0
  0
SPLINE
  5
D1
330
1F
100
AcDbEntity
  8
MAKE2D VISIBLE LINES
100
AcDbSpline
210
0.0
220
0.0
230
1.0
 70
    12
 71
     2
 72
     6
 73
     3
 74
     0
 42
0.0000000001
 43
0.0000000001
 40
0.0
 40
0.0
 40
0.0
 40
32.77914209468069
 40
32.77914209468069
 40
32.77914209468069
 10
4078.189169893874
 20
886.0000000000991
 30
0.0
 41
1.0
 10
4076.128766777975
 20
902.2618929911525
 30
0.0
 41
0.9997867854535405
 10
4073.398678326594
 20
918.424845744289
 30
0.0
 41
1.0
  0
SPLINE
  5
D2
330
1F
100
AcDbEntity
  8
MAKE2D VISIBLE LINES
100
AcDbSpline
210
0.0
220
0.0
230
1.0
 70
     8
 71
     3
 72
    16
 73
    12
 74
     0
 42
0.0000000001
 43
0.0000000001
 40
0.0
 40
0.0
 40
0.0
 40
0.0
 40
27.34558378632667
 40
47.64953135931999
 40
75.3372200644224
 40
85.26813468200723
 40
92.95777680920594
 40
98.5722815069077
 40
100.5926900352639
 40
101.4132242053572
 40
101.9792305798119
 40
101.9792305798119
 40
101.9792305798119
 40
101.9792305798119
 10
4100.964183389997
 20
940.033125443506
 30
0.0
 10
4096.397450920561
 20
947.9218115711815
 30
0.0
 10
4088.440453321551
 20
961.6682123267475
 30
0.0
 10
4075.816543179655
 20
983.3768714399262
 30
0.0
 10
4066.053244189564
 20
1000.034222037771
 30
0.0
 10
4058.265761676315
 20
1012.974706931752
 30
0.0
 10
4054.179638964879
 20
1019.554364472331
 30
0.0
 10
4051.394123660119
 20
1023.836939770051
 30
0.0
 10
4049.768066130373
 20
1026.139790345355
 30
0.0
 10
4049.07877174363
 20
1027.042447764691
 30
0.0
 10
4048.786641951669
 20
1027.40074930293
 30
0.0
 10
4048.660482359967
 20
1027.541088648279
 30
0.0
  0
SPLINE
  5
D3
330
1F
100
AcDbEntity
  8
MAKE2D VISIBLE LINES
100
AcDbSpline
210
0.0
220
0.0
230
1.0
 70
    12
 71
     2
 72
     6
 73
     3
 74
     0
 42
0.0000000001
 43
0.0000000001
 40
0.0
 40
0.0
 40
0.0
 40
10.25368381932551
 40
10.25368381932551
 40
10.25368381932551
 10
4085.93656714708
 20
965.9657819962235
 30
0.0
 41
1.0
 10
4087.191087169626
 20
960.9946304390593
 30
0.0
 41
0.9999526273515571
 10
4088.34859961815
 20
955.9999999999999
 30
0.0
 41
1.0
  0
SPLINE
  5
D4
330
1F
100
AcDbEntity
  8
MAKE2D VISIBLE LINES
100
AcDbSpline
210
0.0
220
0.0
230
1.0
 70
     8
 71
     3
 72
    15
 73
    11
 74
     0
 42
0.0000000001
 43
0.0000000001
 40
0.0
 40
0.0
 40
0.0
 40
0.0
 40
8.13778486803542
 40
16.00970824869472
 40
23.37812722886594
 40
30.4434455950638
 40
37.20077500228036
 40
43.49174446923429
 40
49.52337113595142
 40
55.78072750687099
 40
55.78072750687099
 40
55.78072750687099
 40
55.78072750687099
 10
4164.450287059986
 20
953.89109055006
 30
0.0
 10
4165.040877113153
 20
956.5384219987739
 30
0.0
 10
4166.508591068256
 20
961.6800089800915
 30
0.0
 10
4169.578614909434
 20
968.8597427653915
 30
0.0
 10
4173.390645573691
 20
975.2646772142596
 30
0.0
 10
4177.876070953685
 20
980.7492536749785
 30
0.0
 10
4182.9336180206
 20
985.1895138127536
 30
0.0
 10
4188.421022884126
 20
988.4617770297663
 30
0.0
 10
4194.299893849798
 20
990.516216445519
 30
0.0
 10
4198.393461168065
 20
991.003205764591
 30
0.0
 10
4200.479758920723
 20
991.0022386262051
 30
0.0
  0
SPLINE
  5
D5
330
1F
100
AcDbEntity
  8
MAKE2D VISIBLE LINES
100
AcDbSpline
210
0.0
220
0.0
230
1.0
 70
    24
 71
     2
 72
     6
 73
     3
 74
     0
 42
0.0000000001
 43
0.0000000001
 40
0.0
 40
0.0
 40
0.0
 40
337.9998584111726
 40
337.9998584111726
 40
337.9998584111726
 10
4452.849702902469
 20
882.0
 30
0.0
 10
4283.849773696883
 20
882.0
 30
0.0
 10
4114.849844491297
 20
882.0
 30
0.0
  0
SPLINE
  5
D6
330
1F
100
AcDbEntity
  8
MAKE2D VISIBLE LINES
100
AcDbSpline
210
0.0
220
0.0
230
1.0
 70
    12
 71
     2
 72
     6
 73
     3
 74
     0
 42
0.0000000001
 43
0.0000000001
 40
0.0
 40
0.0
 40
0.0
 40
20.73650490210875
 40
20.73650490210875
 40
20.73650490210875
 10
4094.850065808627
 20
886.0000000000001
 30
0.0
 41
1.0
 10
4094.849839714206
 20
896.3682524490613
 30
0.0
 41
0.9999999999317237
 10
4094.849855937553
 20
906.7365049005749
 30
0.0
 41
1.0
  0
SPLINE
  5
D7
330
1F
100
AcDbEntity
  8
MAKE2D VISIBLE LINES
100
AcDbSpline
210
0.0
220
0.0
230
1.0
 70
    12
 71
     2
 72
     6
 73
     3
 74
     0
 42
0.0000000001
 43
0.0000000001
 40
0.0
 40
0.0
 40
0.0
 40
16.63190160923318
 40
16.63190160923318
 40
16.63190160923318
 10
4097.627168839797
 20
924.7335308382753
 30
0.0
 41
1.0
 10
4099.399302436441
 20
932.8584665486001
 30
0.0
 41
0.9999999999996416
 10
4101.171449790783
 20
940.9833992584136
 30
0.0
 41
1.0
  0
SPLINE
  5
D8
330
1F
100
AcDbEntity
  8
MAKE2D VISIBLE LINES
100
AcDbSpline
210
0.0
220
0.0
230
1.0
 70
    24
 71
     2
 72
     6
 73
     3
 74
     0
 42
0.0000000001
 43
0.0000000001
 40
0.0
 40
0.0
 40
0.0
 40
12.72792206135773
 40
12.72792206135773
 40
12.72792206135773
 10
4200.485893429376
 20
991.0
 30
0.0
 10
4206.849854460055
 20
990.9999999999998
 30
0.0
 10
4213.213815490733
 20
990.9999999999997
 30
0.0
  0
SPLINE
  5
D9
330
1F
100
AcDbEntity
  8
MAKE2D VISIBLE LINES
100
AcDbSpline
210
0.0
220
0.0
230
1.0
 70
     8
 71
     3
 72
    13
 73
     9
 74
     0
 42
0.0000000001
 43
0.0000000001
 40
0.0
 40
0.0
 40
0.0
 40
0.0
 40
5.869919864949674
 40
12.24891941705846
 40
18.53671446889325
 40
25.39789334976939
 40
39.6607899557761
 40
55.78855727905646
 40
55.78855727905646
 40
55.78855727905646
 40
55.78855727905646
 10
4200.485892995408
 20
884.9979971050825
 30
0.0
 10
4198.52839578239
 20
884.9980763921843
 30
0.0
 10
4194.449256452042
 20
885.4521261808229
 30
0.0
 10
4188.562603791483
 20
887.4618802551538
 30
0.0
 10
4182.942564690273
 20
890.794016850712
 30
0.0
 10
4176.04570183832
 20
896.8612645548383
 30
0.0
 10
4168.966913046297
 20
907.2197943342297
 30
0.0
 10
4165.624236720037
 20
916.8658704931735
 30
0.0
 10
4164.449010128526
 20
922.1108547015642
 30
0.0
  0
SPLINE
  5
DA
330
1F
100
AcDbEntity
  8
MAKE2D VISIBLE LINES
100
AcDbSpline
210
0.0
220
0.0
230
1.0
 70
    12
 71
     2
 72
     6
 73
     3
 74
     0
 42
0.0000000001
 43
0.0000000001
 40
0.0
 40
0.0
 40
0.0
 40
0.1780112770661629
 40
0.1780112770661629
 40
0.1780112770661629
 10
4098.999741420919
 20
868.1708577014878
 30
0.0
 41
1.0
 10
4099.011816472416
 20
868.2590413737979
 30
0.0
 41
0.9999845458836268
 10
4099.024871275846
 20
868.3470853346248
 30
0.0
 41
1.0
  0
SPLINE
  5
DB
330
1F
100
AcDbEntity
  8
MAKE2D VISIBLE LINES
100
AcDbSpline
210
0.0
220
0.0
230
1.0
 70
    24
 71
     2
 72
     6
 73
     3
 74
     0
 42
0.0000000001
 43
0.0000000001
 40
0.0
 40
0.0
 40
0.0
 40
338.0001842596988
 40
338.0001842596988
 40
338.0001842596988
 10
4452.850026359055
 20
850.0
 30
0.0
 10
4283.849934229205
 20
850.0
 30
0.0
 10
4114.849842099356
 20
850.0
 30
0.0
  0
SPLINE
  5
DC
330
1F
100
AcDbEntity
  8
MAKE2D VISIBLE LINES
100
AcDbSpline
210
0.0
220
0.0
230
1.0
 70
    12
 71
     2
 72
     6
 73
     3
 74
     0
 42
0.0000000001
 43
0.0000000001
 40
0.0
 40
0.0
 40
0.0
 40
3.963036810976175
 40
3.963036810976175
 40
3.963036810976175
 10
4132.95300770551
 20
920.6967019946314
 30
0.0
 41
1.0
 10
4133.375274790702
 20
918.7606994894242
 30
0.0
 41
0.9999999999995758
 10
4133.797538309537
 20
916.8246962064238
 30
0.0
 41
1.0
  0
SPLINE
  5
DD
330
1F
100
AcDbEntity
  8
MAKE2D VISIBLE LINES
100
AcDbSpline
210
0.0
220
0.0
230
1.0
 70
    24
 71
     2
 72
     6
 73
     3
 74
     0
 42
0.0000000001
 43
0.0000000001
 40
0.0
 40
0.0
 40
0.0
 40
12.72792206135762
 40
12.72792206135762
 40
12.72792206135762
 10
4213.213815490733
 20
885.0000000000003
 30
0.0
 10
4206.849854460055
 20
885.0000000000002
 30
0.0
 10
4200.485893429376
 20
885.0
 30
0.0
  0
SPLINE
  5
DE
330
1F
100
AcDbEntity
  8
MAKE2D VISIBLE LINES
100
AcDbSpline
210
0.0
220
0.0
230
1.0
 70
     8
 71
     3
 72
    31
 73
    27
 74
     0
 42
0.0000000001
 43
0.0000000001
 40
0.0
 40
0.0
 40
0.0
 40
0.0
 40
28.62301055184256
 40
41.64148367738968
 40
55.35832153411611
 40
66.5196647630972
 40
70.83207424864639
 40
74.32279180687014
 40
80.00091387775538
 40
83.8637834989959
 40
87.29878238098868
 40
90.57741355683412
 40
93.83755573086196
 40
97.0606757523734
 40
100.3105290082218
 40
103.5565012847098
 40
106.8306607954996
 40
110.1932919593367
 40
113.3375431624677
 40
117.3442138618529
 40
123.3252864455072
 40
131.9091924433745
 40
143.9729019359183
 40
160.8748075921459
 40
182.6464749042835
 40
215.0573750182739
 40
215.0573750182739
 40
215.0573750182739
 40
215.0573750182739
 10
4066.320693857228
 20
953.5751542412187
 30
0.0
 10
4064.117889298423
 20
962.8588432590329
 30
0.0
 10
4060.520342615465
 20
976.2684609356492
 30
0.0
 10
4055.285125717457
 20
993.9630375382283
 30
0.0
 10
4051.555165036867
 20
1006.032361186048
 30
0.0
 10
4048.655752522931
 20
1015.320370247802
 30
0.0
 10
4046.827398138861
 20
1021.371896635505
 30
0.0
 10
4045.587700349725
 20
1025.690942502304
 30
0.0
 10
4044.48054574659
 20
1029.892903647833
 30
0.0
 10
4043.790571397501
 20
1034.174394544583
 30
0.0
 10
4043.996626539896
 20
1037.723537933816
 30
0.0
 10
4045.096657613489
 20
1040.896572777456
 30
0.0
 10
4046.989539909612
 20
1043.582244774416
 30
0.0
 10
4049.557426110969
 20
1045.620424219547
 30
0.0
 10
4052.590535877481
 20
1046.849311568699
 30
0.0
 10
4055.865621144207
 20
1047.170569843072
 30
0.0
 10
4059.134654145413
 20
1046.549931221552
 30
0.0
 10
4062.069631116006
 20
1045.058423145818
 30
0.0
 10
4064.718511853089
 20
1042.734807100058
 30
0.0
 10
4067.457232172196
 20
1039.309219169189
 30
0.0
 10
4070.945190651029
 20
1034.195213104541
 30
0.0
 10
4075.676556797155
 20
1026.682732155479
 30
0.0
 10
4082.15463463114
 20
1015.973674594828
 30
0.0
 10
4090.75569699996
 20
1001.411063858297
 30
0.0
 10
4102.693682997425
 20
980.9434086517431
 30
0.0
 10
4111.747954290249
 20
965.3160317695297
 30
0.0
 10
4117.161135916732
 20
955.9663814262394
 30
0.0
  0
SPLINE
  5
DF
330
1F
100
AcDbEntity
  8
MAKE2D VISIBLE LINES
100
AcDbSpline
210
0.0
220
0.0
230
1.0
 70
     8
 71
     3
 72
    23
 73
    19
 74
     0
 42
0.0000000001
 43
0.0000000001
 40
0.0
 40
0.0
 40
0.0
 40
0.0
 40
7.555877179136124
 40
15.25224443915575
 40
23.23675021110664
 40
32.18001362460878
 40
41.32603720633251
 40
51.50215488051064
 40
61.27277053187489
 40
71.86266844768541
 40
81.84875398967353
 40
92.21777764131195
 40
101.88675543431
 40
111.6941745949449
 40
120.306473076608
 40
128.3920908045654
 40
136.1198978040994
 40
143.6021980932448
 40
143.6021980932448
 40
143.6021980932448
 40
143.6021980932448
 10
4213.21957989902
 20
991.0020035185022
 30
0.0
 10
4215.737928899533
 20
991.0028081168498
 30
0.0
 10
4220.820063408043
 20
990.273148048977
 30
0.0
 10
4227.980666402287
 20
987.1604724716137
 30
0.0
 10
4234.553113376467
 20
982.1577064072077
 30
0.0
 10
4240.246635672782
 20
975.5345704118084
 30
0.0
 10
4244.96944943263
 20
967.3405629362531
 30
0.0
 10
4248.391584048283
 20
958.2350920534035
 30
0.0
 10
4250.505838083953
 20
948.2515928893438
 30
0.0
 10
4251.223745199954
 20
938.1374147864177
 30
0.0
 10
4250.518894732832
 20
927.8218010904898
 30
0.0
 10
4248.460484597603
 20
918.0017415191192
 30
0.0
 10
4244.970379367804
 20
908.6532073685023
 30
0.0
 10
4240.286499946676
 20
900.5020597748443
 30
0.0
 10
4234.482738733502
 20
893.7843879922923
 30
0.0
 10
4227.963583526133
 20
888.8210820691104
 30
0.0
 10
4220.77476352838
 20
885.720608989833
 30
0.0
 10
4215.708009986525
 20
884.9970654973557
 30
0.0
 10
4213.213816007554
 20
884.9977620805909
 30
0.0
  0
SPLINE
  5
E0
330
1F
100
AcDbEntity
  8
MAKE2D VISIBLE LINES
100
AcDbSpline
210
0.0
220
0.0
230
1.0
 70
    12
 71
     2
 72
     6
 73
     3
 74
     0
 42
0.0000000001
 43
0.0000000001
 40
0.0
 40
0.0
 40
0.0
 40
1.570824215298052
 40
1.570824215298052
 40
1.570824215298052
 10
4028.849854460055
 20
828.001210859268
 30
0.0
 41
1.0
 10
4028.849838176891
 20
829.0012271425051
 30
0.0
 41
0.7071082123867846
 10
4029.849854460054
 20
829.0012474737842
 30
0.0
 41
1.0
  0
SPLINE
  5
E1
330
1F
100
AcDbEntity
  8
MAKE2D VISIBLE LINES
100
AcDbSpline
210
0.0
220
0.0
230
1.0
 70
    12
 71
     2
 72
     6
 73
     3
 74
     0
 42
0.0000000001
 43
0.0000000001
 40
0.0
 40
0.0
 40
0.0
 40
4.712462759209165
 40
4.712462759209165
 40
4.712462759209165
 10
4136.849854459944
 20
848.9992488543011
 30
0.0
 41
1.0
 10
4136.849890228307
 20
845.9992130855223
 30
0.0
 41
0.7071104135428695
 10
4133.849854460054
 20
845.9991464951476
 30
0.0
 41
1.0
  0
SPLINE
  5
E2
330
1F
100
AcDbEntity
  8
MAKE2D VISIBLE LINES
100
AcDbSpline
210
0.0
220
0.0
230
1.0
 70
    24
 71
     2
 72
     6
 73
     3
 74
     0
 42
0.0000000001
 43
0.0000000001
 40
0.0
 40
0.0
 40
0.0
 40
22.60032414724192
 40
22.60032414724192
 40
22.60032414724192
 10
4039.149700793227
 20
828.640184400193
 30
0.0
 10
4046.383888266439
 20
819.9591594323381
 30
0.0
 10
4053.618075739651
 20
811.2781344644833
 30
0.0
  0
SPLINE
  5
E3
330
1F
100
AcDbEntity
  8
MAKE2D VISIBLE LINES
100
AcDbSpline
210
0.0
220
0.0
230
1.0
 70
    12
 71
     2
 72
     6
 73
     3
 74
     0
 42
0.0000000001
 43
0.0000000001
 40
0.0
 40
0.0
 40
0.0
 40
1.570827529854051
 40
1.570827529854051
 40
1.570827529854051
 10
4029.849854460054
 20
762.9986061384005
 30
0.0
 41
1.0
 10
4028.849836628024
 20
762.9986295628762
 30
0.0
 41
0.7071087583762674
 10
4028.849854460055
 20
763.998647395022
 30
0.0
 41
1.0
  0
SPLINE
  5
E4
330
1F
100
AcDbEntity
  8
MAKE2D VISIBLE LINES
100
AcDbSpline
210
0.0
220
0.0
230
1.0
 70
    24
 71
     2
 72
     6
 73
     3
 74
     0
 42
0.0000000001
 43
0.0000000001
 40
0.0
 40
0.0
 40
0.0
 40
22.60032414724192
 40
22.60032414724192
 40
22.60032414724192
 10
4053.618075739651
 20
780.7218655355167
 30
0.0
 10
4046.383888266439
 20
772.0408405676619
 30
0.0
 10
4039.149700793227
 20
763.359815599807
 30
0.0
  0
SPLINE
  5
E5
330
1F
100
AcDbEntity
  8
MAKE2D VISIBLE LINES
100
AcDbSpline
210
0.0
220
0.0
230
1.0
 70
    24
 71
     2
 72
     6
 73
     3
 74
     0
 42
0.0000000001
 43
0.0000000001
 40
0.0
 40
0.0
 40
0.0
 40
8.531625054015535
 40
8.531625054015535
 40
8.531625054015535
 10
4038.38147951407
 20
763.0
 30
0.0
 10
4034.115666987062
 20
763.0
 30
0.0
 10
4029.849854460054
 20
763.0
 30
0.0
  0
SPLINE
  5
E6
330
1F
100
AcDbEntity
  8
MAKE2D VISIBLE LINES
100
AcDbSpline
210
0.0
220
0.0
230
1.0
 70
    12
 71
     2
 72
     6
 73
     3
 74
     0
 42
0.0000000001
 43
0.0000000001
 40
0.0
 40
0.0
 40
0.0
 40
0.6775771141413077
 40
0.6775771141413077
 40
0.6775771141413077
 10
4081.494415350592
 20
813.5758646279098
 30
0.0
 41
1.0
 10
4081.897325493019
 20
813.5770230080635
 30
0.0
 41
0.7775135805158228
 10
4081.982688550901
 20
813.1832577568492
 30
0.0
 41
1.0
  0
SPLINE
  5
E7
330
1F
100
AcDbEntity
  8
MAKE2D VISIBLE LINES
100
AcDbSpline
210
0.0
220
0.0
230
1.0
 70
    12
 71
     2
 72
     6
 73
     3
 74
     0
 42
0.0000000001
 43
0.0000000001
 40
0.0
 40
0.0
 40
0.0
 40
0.6777026221015237
 40
0.6777026221015237
 40
0.6777026221015237
 10
4081.982707731217
 20
778.8168295115881
 30
0.0
 41
1.0
 10
4081.897388878857
 20
778.4229509152215
 30
0.0
 41
0.7774408819390535
 10
4081.494377400234
 20
778.4241355430224
 30
0.0
 41
1.0
  0
SPLINE
  5
E8
330
1F
100
AcDbEntity
  8
MAKE2D VISIBLE LINES
100
AcDbSpline
210
0.0
220
0.0
230
1.0
 70
    12
 71
     2
 72
     6
 73
     3
 74
     0
 42
0.0000000001
 43
0.0000000001
 40
0.0
 40
0.0
 40
0.0
 40
0.78546025309411
 40
0.78546025309411
 40
0.78546025309411
 10
4064.349854460054
 20
778.4241675774107
 30
0.0
 41
1.0
 10
4063.849821586665
 20
778.4242187556259
 30
0.0
 41
0.7071197236830695
 10
4063.849854460055
 20
778.9242516305538
 30
0.0
 41
1.0
  0
SPLINE
  5
E9
330
1F
100
AcDbEntity
  8
MAKE2D VISIBLE LINES
100
AcDbSpline
210
0.0
220
0.0
230
1.0
 70
    12
 71
     2
 72
     6
 73
     3
 74
     0
 42
0.0000000001
 43
0.0000000001
 40
0.0
 40
0.0
 40
0.0
 40
0.7854628264344394
 40
0.7854628264344394
 40
0.7854628264344394
 10
4063.849854460055
 20
813.0757483696326
 30
0.0
 41
1.0
 10
4063.849815590492
 20
813.5757872397252
 30
0.0
 41
0.7071112450942386
 10
4064.349854460054
 20
813.5758324227171
 30
0.0
 41
1.0
  0
SPLINE
  5
EA
330
1F
100
AcDbEntity
  8
MAKE2D VISIBLE LINES
100
AcDbSpline
210
0.0
220
0.0
230
1.0
 70
    12
 71
     2
 72
     6
 73
     3
 74
     0
 42
0.0000000001
 43
0.0000000001
 40
0.0
 40
0.0
 40
0.0
 40
5.272645634414226
 40
5.272645634414226
 40
5.272645634414226
 10
4082.944733945624
 20
783.999999999509
 30
0.0
 41
1.0
 10
4082.549136974091
 20
781.3925615396417
 30
0.0
 41
0.9994571302177857
 10
4081.982682265135
 20
778.8168361372391
 30
0.0
 41
1.0
  0
SPLINE
  5
EB
330
1F
100
AcDbEntity
  8
MAKE2D VISIBLE LINES
100
AcDbSpline
210
0.0
220
0.0
230
1.0
 70
    24
 71
     2
 72
     6
 73
     3
 74
     0
 42
0.0000000001
 43
0.0000000001
 40
0.0
 40
0.0
 40
0.0
 40
17.14456406482009
 40
17.14456406482009
 40
17.14456406482009
 10
4064.349854460054
 20
813.5751542412208
 30
0.0
 10
4072.922136492464
 20
813.5751542412208
 30
0.0
 10
4081.494418524875
 20
813.5751542412208
 30
0.0
  0
SPLINE
  5
EC
330
1F
100
AcDbEntity
  8
MAKE2D VISIBLE LINES
100
AcDbSpline
210
0.0
220
0.0
230
1.0
 70
    24
 71
     2
 72
     6
 73
     3
 74
     0
 42
0.0000000001
 43
0.0000000001
 40
0.0
 40
0.0
 40
0.0
 40
17.14452311893865
 40
17.14452311893865
 40
17.14452311893865
 10
4081.494377578993
 20
778.4248457587813
 30
0.0
 10
4072.922116019524
 20
778.4248457587813
 30
0.0
 10
4064.349854460054
 20
778.4248457587813
 30
0.0
  0
SPLINE
  5
ED
330
1F
100
AcDbEntity
  8
MAKE2D VISIBLE LINES
100
AcDbSpline
210
0.0
220
0.0
230
1.0
 70
    24
 71
     2
 72
     6
 73
     3
 74
     0
 42
0.0000000001
 43
0.0000000001
 40
0.0
 40
0.0
 40
0.0
 40
3.446317519362091
 40
3.446317519362091
 40
3.446317519362091
 10
4138.214587957418
 20
763.8176332513182
 30
0.0
 10
4139.755828006487
 20
763.047013226784
 30
0.0
 10
4141.297068055555
 20
762.2763932022497
 30
0.0
  0
SPLINE
  5
EE
330
1F
100
AcDbEntity
  8
MAKE2D VISIBLE LINES
100
AcDbSpline
210
0.0
220
0.0
230
1.0
 70
    24
 71
     2
 72
     6
 73
     3
 74
     0
 42
0.0000000001
 43
0.0000000001
 40
0.0
 40
0.0
 40
0.0
 40
0.1428094403746627
 40
0.1428094403746627
 40
0.1428094403746627
 10
4136.707045019781
 20
776.0
 30
0.0
 10
4136.778449739968
 20
776.0
 30
0.0
 10
4136.849854460155
 20
776.0
 30
0.0
  0
SPLINE
  5
EF
330
1F
100
AcDbEntity
  8
MAKE2D VISIBLE LINES
100
AcDbSpline
210
0.0
220
0.0
230
1.0
 70
    24
 71
     2
 72
     6
 73
     3
 74
     0
 42
0.0000000001
 43
0.0000000001
 40
0.0
 40
0.0
 40
0.0
 40
0.0508110330888485
 40
0.0508110330888485
 40
0.0508110330888485
 10
4136.644309405295
 20
776.0
 30
0.0
 10
4136.669714921839
 20
776.0
 30
0.0
 10
4136.695120438383
 20
776.0
 30
0.0
  0
SPLINE
  5
F0
330
1F
100
AcDbEntity
  8
MAKE2D VISIBLE LINES
100
AcDbSpline
210
0.0
220
0.0
230
1.0
 70
    24
 71
     2
 72
     6
 73
     3
 74
     0
 42
0.0000000001
 43
0.0000000001
 40
0.0
 40
0.0
 40
0.0
 40
10.38196601125014
 40
10.38196601125014
 40
10.38196601125014
 10
4137.849854460054
 20
764.6180339887499
 30
0.0
 10
4137.849854460054
 20
769.8090169943749
 30
0.0
 10
4137.849854460054
 20
775.0
 30
0.0
  0
SPLINE
  5
F1
330
1F
100
AcDbEntity
  8
MAKE2D VISIBLE LINES
100
AcDbSpline
210
0.0
220
0.0
230
1.0
 70
    24
 71
     2
 72
     6
 73
     3
 74
     0
 42
0.0000000001
 43
0.0000000001
 40
0.0
 40
0.0
 40
0.0
 40
0.037059602512727
 40
0.037059602512727
 40
0.037059602512727
 10
4136.570294609665
 20
776.0
 30
0.0
 10
4136.588824410922
 20
776.0
 30
0.0
 10
4136.607354212179
 20
776.0
 30
0.0
  0
SPLINE
  5
F2
330
1F
100
AcDbEntity
  8
MAKE2D VISIBLE LINES
100
AcDbSpline
210
0.0
220
0.0
230
1.0
 70
    24
 71
     2
 72
     6
 73
     3
 74
     0
 42
0.0000000001
 43
0.0000000001
 40
0.0
 40
0.0
 40
0.0
 40
0.1582720610429078
 40
0.1582720610429078
 40
0.1582720610429078
 10
4135.525150357188
 20
776.0
 30
0.0
 10
4135.60428638771
 20
776.0
 30
0.0
 10
4135.683422418231
 20
776.0
 30
0.0
  0
SPLINE
  5
F3
330
1F
100
AcDbEntity
  8
MAKE2D VISIBLE LINES
100
AcDbSpline
210
0.0
220
0.0
230
1.0
 70
    24
 71
     2
 72
     6
 73
     3
 74
     0
 42
0.0000000001
 43
0.0000000001
 40
0.0
 40
0.0
 40
0.0
 40
0.0599853512945856
 40
0.0599853512945856
 40
0.0599853512945856
 10
4135.404524149394
 20
776.0
 30
0.0
 10
4135.434516825042
 20
776.0
 30
0.0
 10
4135.464509500689
 20
776.0
 30
0.0
  0
SPLINE
  5
F4
330
1F
100
AcDbEntity
  8
MAKE2D VISIBLE LINES
100
AcDbSpline
210
0.0
220
0.0
230
1.0
 70
    24
 71
     2
 72
     6
 73
     3
 74
     0
 42
0.0000000001
 43
0.0000000001
 40
0.0
 40
0.0
 40
0.0
 40
0.1137677983127787
 40
0.1137677983127787
 40
0.1137677983127787
 10
4136.115929101862
 20
776.0
 30
0.0
 10
4136.172813001019
 20
776.0
 30
0.0
 10
4136.229696900175
 20
776.0
 30
0.0
  0
SPLINE
  5
F5
330
1F
100
AcDbEntity
  8
MAKE2D VISIBLE LINES
100
AcDbSpline
210
0.0
220
0.0
230
1.0
 70
    24
 71
     2
 72
     6
 73
     3
 74
     0
 42
0.0000000001
 43
0.0000000001
 40
0.0
 40
0.0
 40
0.0
 40
0.2304429731489108
 40
0.2304429731489108
 40
0.2304429731489108
 10
4136.254605715981
 20
776.0
 30
0.0
 10
4136.369827202556
 20
776.0
 30
0.0
 10
4136.48504868913
 20
776.0
 30
0.0
  0
SPLINE
  5
F6
330
1F
100
AcDbEntity
  8
MAKE2D VISIBLE LINES
100
AcDbSpline
210
0.0
220
0.0
230
1.0
 70
    24
 71
     2
 72
     6
 73
     3
 74
     0
 42
0.0000000001
 43
0.0000000001
 40
0.0
 40
0.0
 40
0.0
 40
0.578986472806946
 40
0.578986472806946
 40
0.578986472806946
 10
4134.530406593909
 20
776.0
 30
0.0
 10
4134.819899830312
 20
776.0
 30
0.0
 10
4135.109393066716
 20
776.0
 30
0.0
  0
SPLINE
  5
F7
330
1F
100
AcDbEntity
  8
MAKE2D VISIBLE LINES
100
AcDbSpline
210
0.0
220
0.0
230
1.0
 70
    24
 71
     2
 72
     6
 73
     3
 74
     0
 42
0.0000000001
 43
0.0000000001
 40
0.0
 40
0.0
 40
0.0
 40
0.2967587358948549
 40
0.2967587358948549
 40
0.2967587358948549
 10
4132.679041994637
 20
776.0
 30
0.0
 10
4132.827421362585
 20
776.0
 30
0.0
 10
4132.975800730532
 20
776.0
 30
0.0
  0
SPLINE
  5
F8
330
1F
100
AcDbEntity
  8
MAKE2D VISIBLE LINES
100
AcDbSpline
210
0.0
220
0.0
230
1.0
 70
    24
 71
     2
 72
     6
 73
     3
 74
     0
 42
0.0000000001
 43
0.0000000001
 40
0.0
 40
0.0
 40
0.0
 40
2.970556793691003
 40
2.970556793691003
 40
2.970556793691003
 10
4129.600531113387
 20
776.0
 30
0.0
 10
4131.085809510232
 20
776.0
 30
0.0
 10
4132.571087907078
 20
776.0
 30
0.0
  0
SPLINE
  5
F9
330
1F
100
AcDbEntity
  8
MAKE2D VISIBLE LINES
100
AcDbSpline
210
0.0
220
0.0
230
1.0
 70
    24
 71
     2
 72
     6
 73
     3
 74
     0
 42
0.0000000001
 43
0.0000000001
 40
0.0
 40
0.0
 40
0.0
 40
0.3075387291294192
 40
0.3075387291294192
 40
0.3075387291294192
 10
4133.054822868103
 20
776.0
 30
0.0
 10
4133.208592232668
 20
776.0
 30
0.0
 10
4133.362361597232
 20
776.0
 30
0.0
  0
SPLINE
  5
FA
330
1F
100
AcDbEntity
  8
MAKE2D VISIBLE LINES
100
AcDbSpline
210
0.0
220
0.0
230
1.0
 70
    24
 71
     2
 72
     6
 73
     3
 74
     0
 42
0.0000000001
 43
0.0000000001
 40
0.0
 40
0.0
 40
0.0
 40
0.3912016505386191
 40
0.3912016505386191
 40
0.3912016505386191
 10
4134.020840229622
 20
776.0
 30
0.0
 10
4134.216441054891
 20
776.0
 30
0.0
 10
4134.41204188016
 20
776.0
 30
0.0
  0
SPLINE
  5
FB
330
1F
100
AcDbEntity
  8
MAKE2D VISIBLE LINES
100
AcDbSpline
210
0.0
220
0.0
230
1.0
 70
    24
 71
     2
 72
     6
 73
     3
 74
     0
 42
0.0000000001
 43
0.0000000001
 40
0.0
 40
0.0
 40
0.0
 40
0.4922205603224938
 40
0.4922205603224938
 40
0.4922205603224938
 10
4128.776873970636
 20
776.0
 30
0.0
 10
4129.022984250798
 20
776.0
 30
0.0
 10
4129.269094530959
 20
776.0
 30
0.0
  0
SPLINE
  5
FC
330
1F
100
AcDbEntity
  8
MAKE2D VISIBLE LINES
100
AcDbSpline
210
0.0
220
0.0
230
1.0
 70
    24
 71
     2
 72
     6
 73
     3
 74
     0
 42
0.0000000001
 43
0.0000000001
 40
0.0
 40
0.0
 40
0.0
 40
0.0085660263406453
 40
0.0085660263406453
 40
0.0085660263406453
 10
4125.640883750562
 20
776.0
 30
0.0
 10
4125.645166763732
 20
776.0
 30
0.0
 10
4125.649449776903
 20
776.0
 30
0.0
  0
SPLINE
  5
FD
330
1F
100
AcDbEntity
  8
MAKE2D VISIBLE LINES
100
AcDbSpline
210
0.0
220
0.0
230
1.0
 70
    24
 71
     2
 72
     6
 73
     3
 74
     0
 42
0.0000000001
 43
0.0000000001
 40
0.0
 40
0.0
 40
0.0
 40
0.2006524399857881
 40
0.2006524399857881
 40
0.2006524399857881
 10
4127.919186196396
 20
776.0
 30
0.0
 10
4128.019512416389
 20
776.0
 30
0.0
 10
4128.119838636382
 20
776.0
 30
0.0
  0
SPLINE
  5
FE
330
1F
100
AcDbEntity
  8
MAKE2D VISIBLE LINES
100
AcDbSpline
210
0.0
220
0.0
230
1.0
 70
    24
 71
     2
 72
     6
 73
     3
 74
     0
 42
0.0000000001
 43
0.0000000001
 40
0.0
 40
0.0
 40
0.0
 40
0.2831946447283826
 40
0.2831946447283826
 40
0.2831946447283826
 10
4128.352142950524
 20
776.0
 30
0.0
 10
4128.493740272887
 20
776.0
 30
0.0
 10
4128.635337595251
 20
776.0
 30
0.0
  0
SPLINE
  5
FF
330
1F
100
AcDbEntity
  8
MAKE2D VISIBLE LINES
100
AcDbSpline
210
0.0
220
0.0
230
1.0
 70
    24
 71
     2
 72
     6
 73
     3
 74
     0
 42
0.0000000001
 43
0.0000000001
 40
0.0
 40
0.0
 40
0.0
 40
0.0961071142762648
 40
0.0961071142762648
 40
0.0961071142762648
 10
4125.164492993359
 20
776.0
 30
0.0
 10
4125.212546550498
 20
776.0
 30
0.0
 10
4125.260600107636
 20
776.0
 30
0.0
  0
SPLINE
  5
100
330
1F
100
AcDbEntity
  8
MAKE2D VISIBLE LINES
100
AcDbSpline
210
0.0
220
0.0
230
1.0
 70
    24
 71
     2
 72
     6
 73
     3
 74
     0
 42
0.0000000001
 43
0.0000000001
 40
0.0
 40
0.0
 40
0.0
 40
1.613419248154514
 40
1.613419248154514
 40
1.613419248154514
 10
4123.182804563946
 20
776.0
 30
0.0
 10
4123.989514188022
 20
776.0
 30
0.0
 10
4124.7962238121
 20
776.0
 30
0.0
  0
SPLINE
  5
101
330
1F
100
AcDbEntity
  8
MAKE2D VISIBLE LINES
100
AcDbSpline
210
0.0
220
0.0
230
1.0
 70
    24
 71
     2
 72
     6
 73
     3
 74
     0
 42
0.0000000001
 43
0.0000000001
 40
0.0
 40
0.0
 40
0.0
 40
2.267404035444429
 40
2.267404035444429
 40
2.267404035444429
 10
4120.74021143176
 20
776.0
 30
0.0
 10
4121.873913449483
 20
776.0
 30
0.0
 10
4123.007615467204
 20
776.0
 30
0.0
  0
SPLINE
  5
102
330
1F
100
AcDbEntity
  8
MAKE2D VISIBLE LINES
100
AcDbSpline
210
0.0
220
0.0
230
1.0
 70
    24
 71
     2
 72
     6
 73
     3
 74
     0
 42
0.0000000001
 43
0.0000000001
 40
0.0
 40
0.0
 40
0.0
 40
0.4592770331209977
 40
0.4592770331209977
 40
0.4592770331209977
 10
4120.065760157271
 20
776.0
 30
0.0
 10
4120.295398673832
 20
776.0
 30
0.0
 10
4120.525037190392
 20
776.0
 30
0.0
  0
SPLINE
  5
103
330
1F
100
AcDbEntity
  8
MAKE2D VISIBLE LINES
100
AcDbSpline
210
0.0
220
0.0
230
1.0
 70
    24
 71
     2
 72
     6
 73
     3
 74
     0
 42
0.0000000001
 43
0.0000000001
 40
0.0
 40
0.0
 40
0.0
 40
0.5607643837647629
 40
0.5607643837647629
 40
0.5607643837647629
 10
4119.329859289275
 20
776.0
 30
0.0
 10
4119.610241481158
 20
776.0
 30
0.0
 10
4119.89062367304
 20
776.0
 30
0.0
  0
SPLINE
  5
104
330
1F
100
AcDbEntity
  8
MAKE2D VISIBLE LINES
100
AcDbSpline
210
0.0
220
0.0
230
1.0
 70
    24
 71
     2
 72
     6
 73
     3
 74
     0
 42
0.0000000001
 43
0.0000000001
 40
0.0
 40
0.0
 40
0.0
 40
0.354752703931581
 40
0.354752703931581
 40
0.354752703931581
 10
4118.254395138018
 20
776.0
 30
0.0
 10
4118.431771489983
 20
776.0
 30
0.0
 10
4118.609147841949
 20
776.0
 30
0.0
  0
SPLINE
  5
105
330
1F
100
AcDbEntity
  8
MAKE2D VISIBLE LINES
100
AcDbSpline
210
0.0
220
0.0
230
1.0
 70
    24
 71
     2
 72
     6
 73
     3
 74
     0
 42
0.0000000001
 43
0.0000000001
 40
0.0
 40
0.0
 40
0.0
 40
0.435757656097735
 40
0.435757656097735
 40
0.435757656097735
 10
4118.816051762282
 20
776.0
 30
0.0
 10
4119.033930590331
 20
776.0
 30
0.0
 10
4119.25180941838
 20
776.0
 30
0.0
  0
SPLINE
  5
106
330
1F
100
AcDbEntity
  8
MAKE2D VISIBLE LINES
100
AcDbSpline
210
0.0
220
0.0
230
1.0
 70
    24
 71
     2
 72
     6
 73
     3
 74
     0
 42
0.0000000001
 43
0.0000000001
 40
0.0
 40
0.0
 40
0.0
 40
0.1387966284543154
 40
0.1387966284543154
 40
0.1387966284543154
 10
4116.851939807459
 20
776.0
 30
0.0
 10
4116.921338121686
 20
776.0
 30
0.0
 10
4116.990736435913
 20
776.0
 30
0.0
  0
SPLINE
  5
107
330
1F
100
AcDbEntity
  8
MAKE2D VISIBLE LINES
100
AcDbSpline
210
0.0
220
0.0
230
1.0
 70
    24
 71
     2
 72
     6
 73
     3
 74
     0
 42
0.0000000001
 43
0.0000000001
 40
0.0
 40
0.0
 40
0.0
 40
0.2727169769325428
 40
0.2727169769325428
 40
0.2727169769325428
 10
4117.690475388603
 20
776.0
 30
0.0
 10
4117.826833877069
 20
776.0
 30
0.0
 10
4117.963192365536
 20
776.0
 30
0.0
  0
SPLINE
  5
108
330
1F
100
AcDbEntity
  8
MAKE2D VISIBLE LINES
100
AcDbSpline
210
0.0
220
0.0
230
1.0
 70
    24
 71
     2
 72
     6
 73
     3
 74
     0
 42
0.0000000001
 43
0.0000000001
 40
0.0
 40
0.0
 40
0.0
 40
1.38992935745523
 40
1.38992935745523
 40
1.38992935745523
 10
4112.444518080121
 20
776.0
 30
0.0
 10
4113.139482758849
 20
776.0
 30
0.0
 10
4113.834447437577
 20
776.0
 30
0.0
  0
SPLINE
  5
109
330
1F
100
AcDbEntity
  8
MAKE2D VISIBLE LINES
100
AcDbSpline
210
0.0
220
0.0
230
1.0
 70
    24
 71
     2
 72
     6
 73
     3
 74
     0
 42
0.0000000001
 43
0.0000000001
 40
0.0
 40
0.0
 40
0.0
 40
2.077196675290679
 40
2.077196675290679
 40
2.077196675290679
 10
4113.84786352811
 20
776.0
 30
0.0
 10
4114.886461865755
 20
776.0
 30
0.0
 10
4115.925060203401
 20
776.0
 30
0.0
  0
SPLINE
  5
10A
330
1F
100
AcDbEntity
  8
MAKE2D VISIBLE LINES
100
AcDbSpline
210
0.0
220
0.0
230
1.0
 70
    24
 71
     2
 72
     6
 73
     3
 74
     0
 42
0.0000000001
 43
0.0000000001
 40
0.0
 40
0.0
 40
0.0
 40
0.3064710371984347
 40
0.3064710371984347
 40
0.3064710371984347
 10
4111.752784608373
 20
776.0
 30
0.0
 10
4111.906020126972
 20
776.0
 30
0.0
 10
4112.059255645571
 20
776.0
 30
0.0
  0
SPLINE
  5
10B
330
1F
100
AcDbEntity
  8
MAKE2D VISIBLE LINES
100
AcDbSpline
210
0.0
220
0.0
230
1.0
 70
    24
 71
     2
 72
     6
 73
     3
 74
     0
 42
0.0000000001
 43
0.0000000001
 40
0.0
 40
0.0
 40
0.0
 40
0.5139871503359927
 40
0.5139871503359927
 40
0.5139871503359927
 10
4110.369755123636
 20
776.0
 30
0.0
 10
4110.626748698804
 20
776.0
 30
0.0
 10
4110.883742273972
 20
776.0
 30
0.0
  0
SPLINE
  5
10C
330
1F
100
AcDbEntity
  8
MAKE2D VISIBLE LINES
100
AcDbSpline
210
0.0
220
0.0
230
1.0
 70
    24
 71
     2
 72
     6
 73
     3
 74
     0
 42
0.0000000001
 43
0.0000000001
 40
0.0
 40
0.0
 40
0.0
 40
0.3812513834799347
 40
0.3812513834799347
 40
0.3812513834799347
 10
4111.06413306087
 20
776.0
 30
0.0
 10
4111.25475875261
 20
776.0
 30
0.0
 10
4111.44538444435
 20
776.0
 30
0.0
  0
SPLINE
  5
10D
330
1F
100
AcDbEntity
  8
MAKE2D VISIBLE LINES
100
AcDbSpline
210
0.0
220
0.0
230
1.0
 70
    24
 71
     2
 72
     6
 73
     3
 74
     0
 42
0.0000000001
 43
0.0000000001
 40
0.0
 40
0.0
 40
0.0
 40
10.38196601125014
 40
10.38196601125014
 40
10.38196601125014
 10
4137.849854460054
 20
967.3819660112501
 30
0.0
 10
4137.849854460054
 20
962.1909830056251
 30
0.0
 10
4137.849854460054
 20
957.0
 30
0.0
  0
SPLINE
  5
10E
330
1F
100
AcDbEntity
  8
MAKE2D VISIBLE LINES
100
AcDbSpline
210
0.0
220
0.0
230
1.0
 70
    24
 71
     2
 72
     6
 73
     3
 74
     0
 42
0.0000000001
 43
0.0000000001
 40
0.0
 40
0.0
 40
0.0
 40
0.6897340244607904
 40
0.6897340244607904
 40
0.6897340244607904
 10
4136.032714249077
 20
956.0
 30
0.0
 10
4136.377581261308
 20
956.0
 30
0.0
 10
4136.722448273538
 20
956.0
 30
0.0
  0
SPLINE
  5
10F
330
1F
100
AcDbEntity
  8
MAKE2D VISIBLE LINES
100
AcDbSpline
210
0.0
220
0.0
230
1.0
 70
    24
 71
     2
 72
     6
 73
     3
 74
     0
 42
0.0000000001
 43
0.0000000001
 40
0.0
 40
0.0
 40
0.0
 40
3.4463175193621
 40
3.4463175193621
 40
3.4463175193621
 10
4138.214587957418
 20
968.1823667486818
 30
0.0
 10
4139.755828006487
 20
968.952986773216
 30
0.0
 10
4141.297068055555
 20
969.7236067977503
 30
0.0
  0
SPLINE
  5
110
330
1F
100
AcDbEntity
  8
MAKE2D VISIBLE LINES
100
AcDbSpline
210
0.0
220
0.0
230
1.0
 70
    24
 71
     2
 72
     6
 73
     3
 74
     0
 42
0.0000000001
 43
0.0000000001
 40
0.0
 40
0.0
 40
0.0
 40
0.3693714144020532
 40
0.3693714144020532
 40
0.3693714144020532
 10
4109.023628287565
 20
776.0
 30
0.0
 10
4109.208313994766
 20
776.0
 30
0.0
 10
4109.392999701967
 20
776.0
 30
0.0
  0
SPLINE
  5
111
330
1F
100
AcDbEntity
  8
MAKE2D VISIBLE LINES
100
AcDbSpline
210
0.0
220
0.0
230
1.0
 70
    24
 71
     2
 72
     6
 73
     3
 74
     0
 42
0.0000000001
 43
0.0000000001
 40
0.0
 40
0.0
 40
0.0
 40
0.4875089634412006
 40
0.4875089634412006
 40
0.4875089634412006
 10
4135.404524149394
 20
956.0
 30
0.0
 10
4135.648278631115
 20
956.0
 30
0.0
 10
4135.892033112836
 20
956.0
 30
0.0
  0
SPLINE
  5
112
330
1F
100
AcDbEntity
  8
MAKE2D VISIBLE LINES
100
AcDbSpline
210
0.0
220
0.0
230
1.0
 70
    24
 71
     2
 72
     6
 73
     3
 74
     0
 42
0.0000000001
 43
0.0000000001
 40
0.0
 40
0.0
 40
0.0
 40
1.213263809384754
 40
1.213263809384754
 40
1.213263809384754
 10
4133.797539092675
 20
916.8246963263962
 30
0.0
 10
4133.926812508842
 20
916.2319985520935
 30
0.0
 10
4134.056085925008
 20
915.6393007777908
 30
0.0
  0
SPLINE
  5
113
330
1F
100
AcDbEntity
  8
MAKE2D VISIBLE LINES
100
AcDbSpline
210
0.0
220
0.0
230
1.0
 70
    24
 71
     2
 72
     6
 73
     3
 74
     0
 42
0.0000000001
 43
0.0000000001
 40
0.0
 40
0.0
 40
0.0
 40
9.308032399948603
 40
9.308032399948603
 40
9.308032399948603
 10
4095.643622995055
 20
915.6393007777908
 30
0.0
 10
4096.635395053887
 20
920.1864157942539
 30
0.0
 10
4097.627167112718
 20
924.733530810717
 30
0.0
  0
SPLINE
  5
114
330
1F
100
AcDbEntity
  8
MAKE2D VISIBLE LINES
100
AcDbSpline
210
0.0
220
0.0
230
1.0
 70
    12
 71
     2
 72
     8
 73
     5
 74
     0
 42
0.0000000001
 43
0.0000000001
 40
0.0
 40
0.0
 40
0.0
 40
2.52999475208233
 40
2.52999475208233
 40
5.059989504164659
 40
5.059989504164659
 40
5.059989504164659
 10
4095.643622995055
 20
915.6393007777908
 30
0.0
 41
1.0
 10
4095.356045874242
 20
914.3246777242794
 30
0.0
 41
0.9124148610948319
 10
4096.146622020799
 20
913.2356764709582
 30
0.0
 41
1.0
 10
4096.937198167354
 20
912.1466752176369
 30
0.0
 41
0.9124148610948319
 10
4098.276244341951
 20
912.0129227764061
 30
0.0
 41
1.0
  0
SPLINE
  5
115
330
1F
100
AcDbEntity
  8
MAKE2D VISIBLE LINES
100
AcDbSpline
210
0.0
220
0.0
230
1.0
 70
    12
 71
     2
 72
     6
 73
     3
 74
     0
 42
0.0000000001
 43
0.0000000001
 40
0.0
 40
0.0
 40
0.0
 40
4.29321773165289
 40
4.29321773165289
 40
4.29321773165289
 10
4103.783072179163
 20
946.574574883138
 30
0.0
 41
1.0
 10
4102.458522539913
 20
944.8639361591089
 30
0.0
 41
0.988332532660662
 10
4101.710448953472
 20
942.8338862828109
 30
0.0
 41
1.0
  0
SPLINE
  5
116
330
1F
100
AcDbEntity
  8
MAKE2D VISIBLE LINES
100
AcDbSpline
210
0.0
220
0.0
230
1.0
 70
    24
 71
     2
 72
     6
 73
     3
 74
     0
 42
0.0000000001
 43
0.0000000001
 40
0.0
 40
0.0
 40
0.0
 40
2.263495098964796
 40
2.263495098964796
 40
2.263495098964796
 10
4094.849854460054
 20
909.0
 30
0.0
 10
4094.849854460059
 20
907.8682524505176
 30
0.0
 10
4094.849854460063
 20
906.7365049010352
 30
0.0
  0
SPLINE
  5
117
330
1F
100
AcDbEntity
  8
MAKE2D VISIBLE LINES
100
AcDbSpline
210
0.0
220
0.0
230
1.0
 70
    24
 71
     2
 72
     6
 73
     3
 74
     0
 42
0.0000000001
 43
0.0000000001
 40
0.0
 40
0.0
 40
0.0
 40
1.544298975028369
 40
1.544298975028369
 40
1.544298975028369
 10
4133.464814017902
 20
956.0
 30
0.0
 10
4134.236963505416
 20
956.0
 30
0.0
 10
4135.009112992931
 20
956.0
 30
0.0
  0
SPLINE
  5
118
330
1F
100
AcDbEntity
  8
MAKE2D VISIBLE LINES
100
AcDbSpline
210
0.0
220
0.0
230
1.0
 70
    24
 71
     2
 72
     6
 73
     3
 74
     0
 42
0.0000000001
 43
0.0000000001
 40
0.0
 40
0.0
 40
0.0
 40
23.17157192306999
 40
23.17157192306999
 40
23.17157192306999
 10
4134.849854460054
 20
885.82842807693
 30
0.0
 10
4134.849854460054
 20
897.4142140384649
 30
0.0
 10
4134.849854460054
 20
909.0
 30
0.0
  0
SPLINE
  5
119
330
1F
100
AcDbEntity
  8
MAKE2D VISIBLE LINES
100
AcDbSpline
210
0.0
220
0.0
230
1.0
 70
    12
 71
     2
 72
     6
 73
     3
 74
     0
 42
0.0000000001
 43
0.0000000001
 40
0.0
 40
0.0
 40
0.0
 40
3.601788625385469
 40
3.601788625385469
 40
3.601788625385469
 10
4096.76511091209
 20
911.7964178615574
 30
0.0
 41
1.0
 10
4094.850564281166
 20
911.0535988759879
 30
0.0
 41
0.825238727507522
 10
4094.849854460054
 20
909.0
 30
0.0
 41
1.0
  0
SPLINE
  5
11A
330
1F
100
AcDbEntity
  8
MAKE2D VISIBLE LINES
100
AcDbSpline
210
0.0
220
0.0
230
1.0
 70
    24
 71
     2
 72
     6
 73
     3
 74
     0
 42
0.0000000001
 43
0.0000000001
 40
0.0
 40
0.0
 40
0.0
 40
34.0
 40
34.0
 40
34.0
 10
4131.849854460054
 20
912.0
 30
0.0
 10
4114.849854460054
 20
912.0
 30
0.0
 10
4097.849854460054
 20
912.0
 30
0.0
  0
SPLINE
  5
11B
330
1F
100
AcDbEntity
  8
MAKE2D VISIBLE LINES
100
AcDbSpline
210
0.0
220
0.0
230
1.0
 70
    24
 71
     2
 72
     6
 73
     3
 74
     0
 42
0.0000000001
 43
0.0000000001
 40
0.0
 40
0.0
 40
0.0
 40
0.0178883081784988
 40
0.0178883081784988
 40
0.0178883081784988
 10
4132.845848563118
 20
956.0
 30
0.0
 10
4132.854792717208
 20
956.0
 30
0.0
 10
4132.863736871297
 20
956.0
 30
0.0
  0
SPLINE
  5
11C
330
1F
100
AcDbEntity
  8
MAKE2D VISIBLE LINES
100
AcDbSpline
210
0.0
220
0.0
230
1.0
 70
    24
 71
     2
 72
     6
 73
     3
 74
     0
 42
0.0000000001
 43
0.0000000001
 40
0.0
 40
0.0
 40
0.0
 40
0.2396988177664525
 40
0.2396988177664525
 40
0.2396988177664525
 10
4108.427589027953
 20
776.0
 30
0.0
 10
4108.547438436836
 20
776.0
 30
0.0
 10
4108.667287845719
 20
776.0
 30
0.0
  0
SPLINE
  5
11D
330
1F
100
AcDbEntity
  8
MAKE2D VISIBLE LINES
100
AcDbSpline
210
0.0
220
0.0
230
1.0
 70
    12
 71
     2
 72
     6
 73
     3
 74
     0
 42
0.0000000001
 43
0.0000000001
 40
0.0
 40
0.0
 40
0.0
 40
7.024735414386845
 40
7.024735414386845
 40
7.024735414386845
 10
4103.960944029522
 20
945.1011147879444
 30
0.0
 41
1.0
 10
4101.994322088588
 20
942.0853462207335
 30
0.0
 41
0.9637473657163658
 10
4101.858683219163
 20
938.4875602339573
 30
0.0
 41
1.0
  0
SPLINE
  5
11E
330
1F
100
AcDbEntity
  8
MAKE2D VISIBLE LINES
100
AcDbSpline
210
0.0
220
0.0
230
1.0
 70
    24
 71
     2
 72
     6
 73
     3
 74
     0
 42
0.0000000001
 43
0.0000000001
 40
0.0
 40
0.0
 40
0.0
 40
0.020303777105255
 40
0.020303777105255
 40
0.020303777105255
 10
4132.526440703994
 20
956.0
 30
0.0
 10
4132.536592592547
 20
956.0
 30
0.0
 10
4132.546744481099
 20
956.0
 30
0.0
  0
SPLINE
  5
11F
330
1F
100
AcDbEntity
  8
MAKE2D VISIBLE LINES
100
AcDbSpline
210
0.0
220
0.0
230
1.0
 70
    24
 71
     2
 72
     6
 73
     3
 74
     0
 42
0.0000000001
 43
0.0000000001
 40
0.0
 40
0.0
 40
0.0
 40
2.585546576480397
 40
2.585546576480397
 40
2.585546576480397
 10
4129.633471121379
 20
956.0
 30
0.0
 10
4130.92624440962
 20
956.0
 30
0.0
 10
4132.21901769786
 20
956.0
 30
0.0
  0
SPLINE
  5
120
330
1F
100
AcDbEntity
  8
MAKE2D VISIBLE LINES
100
AcDbSpline
210
0.0
220
0.0
230
1.0
 70
    24
 71
     2
 72
     6
 73
     3
 74
     0
 42
0.0000000001
 43
0.0000000001
 40
0.0
 40
0.0
 40
0.0
 40
0.0849894389468773
 40
0.0849894389468773
 40
0.0849894389468773
 10
4108.037587343403
 20
776.0
 30
0.0
 10
4108.080082062876
 20
776.0
 30
0.0
 10
4108.12257678235
 20
776.0
 30
0.0
  0
SPLINE
  5
121
330
1F
100
AcDbEntity
  8
MAKE2D VISIBLE LINES
100
AcDbSpline
210
0.0
220
0.0
230
1.0
 70
    24
 71
     2
 72
     6
 73
     3
 74
     0
 42
0.0000000001
 43
0.0000000001
 40
0.0
 40
0.0
 40
0.0
 40
0.0267677282892009
 40
0.0267677282892009
 40
0.0267677282892009
 10
4127.919186196396
 20
956.0
 30
0.0
 10
4127.93257006054
 20
956.0
 30
0.0
 10
4127.945953924685
 20
956.0
 30
0.0
  0
SPLINE
  5
122
330
1F
100
AcDbEntity
  8
MAKE2D VISIBLE LINES
100
AcDbSpline
210
0.0
220
0.0
230
1.0
 70
    24
 71
     2
 72
     6
 73
     3
 74
     0
 42
0.0000000001
 43
0.0000000001
 40
0.0
 40
0.0
 40
0.0
 40
0.0284047446635896
 40
0.0284047446635896
 40
0.0284047446635896
 10
4128.352142950524
 20
956.0
 30
0.0
 10
4128.366345322855
 20
956.0
 30
0.0
 10
4128.380547695187
 20
956.0
 30
0.0
  0
SPLINE
  5
123
330
1F
100
AcDbEntity
  8
MAKE2D VISIBLE LINES
100
AcDbSpline
210
0.0
220
0.0
230
1.0
 70
    24
 71
     2
 72
     6
 73
     3
 74
     0
 42
0.0000000001
 43
0.0000000001
 40
0.0
 40
0.0
 40
0.0
 40
0.4477094091530489
 40
0.4477094091530489
 40
0.4477094091530489
 10
4128.776873970636
 20
956.0
 30
0.0
 10
4129.000728675212
 20
956.0
 30
0.0
 10
4129.224583379789
 20
956.0
 30
0.0
  0
SPLINE
  5
124
330
1F
100
AcDbEntity
  8
MAKE2D VISIBLE LINES
100
AcDbSpline
210
0.0
220
0.0
230
1.0
 70
    24
 71
     2
 72
     6
 73
     3
 74
     0
 42
0.0000000001
 43
0.0000000001
 40
0.0
 40
0.0
 40
0.0
 40
0.0194643505112708
 40
0.0194643505112708
 40
0.0194643505112708
 10
4126.110740316896
 20
956.0
 30
0.0
 10
4126.120472492152
 20
956.0
 30
0.0
 10
4126.130204667407
 20
956.0
 30
0.0
  0
SPLINE
  5
125
330
1F
100
AcDbEntity
  8
MAKE2D VISIBLE LINES
100
AcDbSpline
210
0.0
220
0.0
230
1.0
 70
    24
 71
     2
 72
     6
 73
     3
 74
     0
 42
0.0000000001
 43
0.0000000001
 40
0.0
 40
0.0
 40
0.0
 40
0.0174254785611083
 40
0.0174254785611083
 40
0.0174254785611083
 10
4125.640883750562
 20
956.0
 30
0.0
 10
4125.649596489842
 20
956.0
 30
0.0
 10
4125.658309229123
 20
956.0
 30
0.0
  0
SPLINE
  5
126
330
1F
100
AcDbEntity
  8
MAKE2D VISIBLE LINES
100
AcDbSpline
210
0.0
220
0.0
230
1.0
 70
    24
 71
     3
 72
     8
 73
     4
 74
     0
 42
0.0000000001
 43
0.0000000001
 40
0.0
 40
0.0
 40
0.0
 40
0.0
 40
72.00288041548345
 40
72.00288041548345
 40
72.00288041548345
 40
72.00288041548345
 10
4028.849854460054
 20
829.9986396057063
 30
0.0
 10
4028.849854460055
 20
853.9995997442007
 30
0.0
 10
4028.849854460055
 20
878.0005598826954
 30
0.0
 10
4028.849854460054
 20
902.0015200211899
 30
0.0
  0
SPLINE
  5
127
330
1F
100
AcDbEntity
  8
MAKE2D VISIBLE LINES
100
AcDbSpline
210
0.0
220
0.0
230
1.0
 70
    12
 71
     2
 72
     6
 73
     3
 74
     0
 42
0.0000000001
 43
0.0000000001
 40
0.0
 40
0.0
 40
0.0
 40
0.094408682778405
 40
0.094408682778405
 40
0.094408682778405
 10
4064.853774553651
 20
886.9115419870245
 30
0.0
 41
1.0
 10
4064.857953260089
 20
886.8644877363366
 30
0.0
 41
0.9988860819406107
 10
4064.866549091638
 20
886.8180369475889
 30
0.0
 41
1.0
  0
SPLINE
  5
128
330
1F
100
AcDbEntity
  8
MAKE2D VISIBLE LINES
100
AcDbSpline
210
0.0
220
0.0
230
1.0
 70
    24
 71
     2
 72
     6
 73
     3
 74
     0
 42
0.0000000001
 43
0.0000000001
 40
0.0
 40
0.0
 40
0.0
 40
68.0
 40
68.0
 40
68.0
 10
4133.849854460054
 20
886.0
 30
0.0
 10
4099.849854460054
 20
886.0
 30
0.0
 10
4065.849854460054
 20
886.0
 30
0.0
  0
SPLINE
  5
129
330
1F
100
AcDbEntity
  8
MAKE2D VISIBLE LINES
100
AcDbSpline
210
0.0
220
0.0
230
1.0
 70
    24
 71
     2
 72
     6
 73
     3
 74
     0
 42
0.0000000001
 43
0.0000000001
 40
0.0
 40
0.0
 40
0.0
 40
0.9051150784005131
 40
0.9051150784005131
 40
0.9051150784005131
 10
4082.944739381654
 20
808.0
 30
0.0
 10
4083.397296920854
 20
808.0
 30
0.0
 10
4083.849854460054
 20
808.0
 30
0.0
  0
SPLINE
  5
12A
330
1F
100
AcDbEntity
  8
MAKE2D VISIBLE LINES
100
AcDbSpline
210
0.0
220
0.0
230
1.0
 70
    24
 71
     2
 72
     6
 73
     3
 74
     0
 42
0.0000000001
 43
0.0000000001
 40
0.0
 40
0.0
 40
0.0
 40
0.2050982405045261
 40
0.2050982405045261
 40
0.2050982405045261
 10
4116.352249195314
 20
776.0
 30
0.0
 10
4116.454798315566
 20
776.0
 30
0.0
 10
4116.557347435819
 20
776.0
 30
0.0
  0
SPLINE
  5
12B
330
1F
100
AcDbEntity
  8
MAKE2D VISIBLE LINES
100
AcDbSpline
210
0.0
220
0.0
230
1.0
 70
    24
 71
     2
 72
     6
 73
     3
 74
     0
 42
0.0000000001
 43
0.0000000001
 40
0.0
 40
0.0
 40
0.0
 40
0.9051205144023697
 40
0.9051205144023697
 40
0.9051205144023697
 10
4083.849854460054
 20
784.0
 30
0.0
 10
4083.397294202853
 20
784.0
 30
0.0
 10
4082.944733945652
 20
784.0
 30
0.0
  0
SPLINE
  5
12C
330
1F
100
AcDbEntity
  8
MAKE2D VISIBLE LINES
100
AcDbSpline
210
0.0
220
0.0
230
1.0
 70
    12
 71
     2
 72
     6
 73
     3
 74
     0
 42
0.0000000001
 43
0.0000000001
 40
0.0
 40
0.0
 40
0.0
 40
14.09363537277794
 40
14.09363537277794
 40
14.09363537277794
 10
4106.635851980518
 20
726.2814545657486
 30
0.0
 41
1.0
 10
4099.597472274638
 20
726.7643866769071
 30
0.0
 41
0.9982764499855906
 10
4092.664160442289
 20
728.0686870041121
 30
0.0
 41
1.0
  0
SPLINE
  5
12D
330
1F
100
AcDbEntity
  8
MAKE2D VISIBLE LINES
100
AcDbSpline
210
0.0
220
0.0
230
1.0
 70
    24
 71
     2
 72
     6
 73
     3
 74
     0
 42
0.0000000001
 43
0.0000000001
 40
0.0
 40
0.0
 40
0.0
 40
0.128690445577945
 40
0.128690445577945
 40
0.128690445577945
 10
4106.388315988739
 20
776.0
 30
0.0
 10
4106.452661211528
 20
776.0
 30
0.0
 10
4106.517006434316
 20
776.0
 30
0.0
  0
SPLINE
  5
12E
330
1F
100
AcDbEntity
  8
MAKE2D VISIBLE LINES
100
AcDbSpline
210
0.0
220
0.0
230
1.0
 70
    24
 71
     2
 72
     6
 73
     3
 74
     0
 42
0.0000000001
 43
0.0000000001
 40
0.0
 40
0.0
 40
0.0
 40
0.0119245774815226
 40
0.0119245774815226
 40
0.0119245774815226
 10
4136.707045019382
 20
776.0
 30
0.0
 10
4136.701082730642
 20
776.0
 30
0.0
 10
4136.695120441901
 20
776.0
 30
0.0
  0
SPLINE
  5
12F
330
1F
100
AcDbEntity
  8
MAKE2D VISIBLE LINES
100
AcDbSpline
210
0.0
220
0.0
230
1.0
 70
    12
 71
     2
 72
     6
 73
     3
 74
     0
 42
0.0000000001
 43
0.0000000001
 40
0.0
 40
0.0
 40
0.0
 40
4.71238284651231
 40
4.71238284651231
 40
4.71238284651231
 10
4133.849854460054
 20
886.0000009609681
 30
0.0
 41
1.0
 10
4136.849839977083
 20
885.9999863338533
 30
0.0
 41
0.7071102118513197
 10
4136.849854460054
 20
883.0000008168238
 30
0.0
 41
1.0
  0
SPLINE
  5
130
330
1F
100
AcDbEntity
  8
MAKE2D VISIBLE LINES
100
AcDbSpline
210
0.0
220
0.0
230
1.0
 70
    24
 71
     2
 72
     6
 73
     3
 74
     0
 42
0.0000000001
 43
0.0000000001
 40
0.0
 40
0.0
 40
0.0
 40
45.94870670511477
 40
45.94870670511477
 40
45.94870670511477
 10
4091.849854460054
 20
729.0512932948852
 30
0.0
 10
4091.849854460054
 20
752.0256466474426
 30
0.0
 10
4091.849854460054
 20
775.0
 30
0.0
  0
SPLINE
  5
131
330
1F
100
AcDbEntity
  8
MAKE2D VISIBLE LINES
100
AcDbSpline
210
0.0
220
0.0
230
1.0
 70
    24
 71
     2
 72
     6
 73
     3
 74
     0
 42
0.0000000001
 43
0.0000000001
 40
0.0
 40
0.0
 40
0.0
 40
38.95230398929755
 40
38.95230398929755
 40
38.95230398929755
 10
4137.849854460054
 20
920.9523039892974
 30
0.0
 10
4137.849854460054
 20
901.4761519946487
 30
0.0
 10
4137.849854460054
 20
882.0
 30
0.0
  0
SPLINE
  5
132
330
1F
100
AcDbEntity
  8
MAKE2D VISIBLE LINES
100
AcDbSpline
210
0.0
220
0.0
230
1.0
 70
    24
 71
     2
 72
     6
 73
     3
 74
     0
 42
0.0000000001
 43
0.0000000001
 40
0.0
 40
0.0
 40
0.0
 40
0.4475768925086641
 40
0.4475768925086641
 40
0.4475768925086641
 10
4118.254395138018
 20
956.0
 30
0.0
 10
4118.478183584271
 20
956.0
 30
0.0
 10
4118.701972030526
 20
956.0
 30
0.0
  0
SPLINE
  5
133
330
1F
100
AcDbEntity
  8
MAKE2D VISIBLE LINES
100
AcDbSpline
210
0.0
220
0.0
230
1.0
 70
    24
 71
     2
 72
     6
 73
     3
 74
     0
 42
0.0000000001
 43
0.0000000001
 40
0.0
 40
0.0
 40
0.0
 40
0.5590182431749326
 40
0.5590182431749326
 40
0.5590182431749326
 10
4118.816051762282
 20
956.0
 30
0.0
 10
4119.095560883869
 20
956.0
 30
0.0
 10
4119.375070005457
 20
956.0
 30
0.0
  0
SPLINE
  5
134
330
1F
100
AcDbEntity
  8
MAKE2D VISIBLE LINES
100
AcDbSpline
210
0.0
220
0.0
230
1.0
 70
    12
 71
     2
 72
     6
 73
     3
 74
     0
 42
0.0000000001
 43
0.0000000001
 40
0.0
 40
0.0
 40
0.0
 40
5.272737226395501
 40
5.272737226395501
 40
5.272737226395501
 10
4081.982664801681
 20
813.1832525349218
 30
0.0
 41
1.0
 10
4082.54914140562
 20
810.6074848348131
 30
0.0
 41
0.99945701612493
 10
4082.94473938046
 20
807.9999999872952
 30
0.0
 41
1.0
  0
SPLINE
  5
135
330
1F
100
AcDbEntity
  8
MAKE2D VISIBLE LINES
100
AcDbSpline
210
0.0
220
0.0
230
1.0
 70
    24
 71
     2
 72
     6
 73
     3
 74
     0
 42
0.0000000001
 43
0.0000000001
 40
0.0
 40
0.0
 40
0.0
 40
0.5353150480361819
 40
0.5353150480361819
 40
0.5353150480361819
 10
4107.047061280573
 20
776.0
 30
0.0
 10
4107.314718804591
 20
776.0
 30
0.0
 10
4107.582376328609
 20
776.0
 30
0.0
  0
SPLINE
  5
136
330
1F
100
AcDbEntity
  8
MAKE2D VISIBLE LINES
100
AcDbSpline
210
0.0
220
0.0
230
1.0
 70
    24
 71
     3
 72
     8
 73
     4
 74
     0
 42
0.0000000001
 43
0.0000000001
 40
0.0
 40
0.0
 40
0.0
 40
0.0
 40
68.00272039240129
 40
68.00272039240129
 40
68.00272039240129
 40
68.00272039240129
 10
4064.849854460054
 20
900.001284816833
 30
0.0
 10
4064.849854460055
 20
877.3337113526993
 30
0.0
 10
4064.849854460054
 20
854.6661378885656
 30
0.0
 10
4064.849854460054
 20
831.9985644244318
 30
0.0
  0
SPLINE
  5
137
330
1F
100
AcDbEntity
  8
MAKE2D VISIBLE LINES
100
AcDbSpline
210
0.0
220
0.0
230
1.0
 70
    24
 71
     2
 72
     6
 73
     3
 74
     0
 42
0.0000000001
 43
0.0000000001
 40
0.0
 40
0.0
 40
0.0
 40
0.0369551856015278
 40
0.0369551856015278
 40
0.0369551856015278
 10
4136.644309397978
 20
776.0
 30
0.0
 10
4136.625831805177
 20
776.0
 30
0.0
 10
4136.607354212376
 20
776.0
 30
0.0
  0
SPLINE
  5
138
330
1F
100
AcDbEntity
  8
MAKE2D VISIBLE LINES
100
AcDbSpline
210
0.0
220
0.0
230
1.0
 70
     8
 71
     3
 72
    16
 73
    12
 74
     0
 42
0.0000000001
 43
0.0000000001
 40
0.0
 40
0.0
 40
0.0
 40
0.0
 40
0.207532673514482
 40
0.7213409780306064
 40
2.358913733973383
 40
5.107425840576472
 40
8.886771543999885
 40
19.02989925938473
 40
33.5872753124262
 40
72.55496413191223
 40
122.6449526152966
 40
122.6449526152966
 40
122.6449526152966
 40
122.6449526152966
 10
4101.873371461158
 20
920.03865688038
 30
0.0
 10
4101.930957293005
 20
920.0782316365841
 30
0.0
 10
4102.161939274692
 20
920.1497968602108
 30
0.0
 10
4102.938392798865
 20
920.2771635205806
 30
0.0
 10
4104.565109221938
 20
920.4289127951574
 30
0.0
 10
4107.281260240305
 20
920.6052423978037
 30
0.0
 10
4112.832145481888
 20
920.8691342258593
 30
0.0
 10
4122.319980596
 20
921.1946826262274
 30
0.0
 10
4143.535813170924
 20
921.7410209850754
 30
0.0
 10
4178.068578439234
 20
922.3734705916789
 30
0.0
 10
4207.751858938756
 20
922.7699938128519
 30
0.0
 10
4224.447473790769
 20
922.9580616093508
 30
0.0
  0
SPLINE
  5
139
330
1F
100
AcDbEntity
  8
MAKE2D VISIBLE LINES
100
AcDbSpline
210
0.0
220
0.0
230
1.0
 70
     8
 71
     3
 72
    15
 73
    11
 74
     0
 42
0.0000000001
 43
0.0000000001
 40
0.0
 40
0.0
 40
0.0
 40
0.0
 40
0.1163730703940159
 40
0.3467106686541111
 40
0.961260258382175
 40
2.836734362311732
 40
5.549592444105528
 40
9.524333584603536
 40
21.43982354735872
 40
36.71527143948207
 40
36.71527143948207
 40
36.71527143948207
 40
36.71527143948207
 10
4127.87307328657
 20
955.8727809506365
 30
0.0
 10
4127.907177630447
 20
955.8540393965006
 30
0.0
 10
4128.015341877967
 20
955.81275730965
 30
0.0
 10
4128.326521743668
 20
955.7344523377899
 30
0.0
 10
4129.22320944305
 20
955.5959398486345
 30
0.0
 10
4130.9504151939
 20
955.4349748539752
 30
0.0
 10
4133.798406053032
 20
955.2434140834578
 30
0.0
 10
4139.99202613998
 20
954.9361935907226
 30
0.0
 10
4150.374715353822
 20
954.5805177291444
 30
0.0
 10
4159.435300657567
 20
954.344895327746
 30
0.0
 10
4164.525717517536
 20
954.2251515059401
 30
0.0
  0
SPLINE
  5
13A
330
1F
100
AcDbEntity
  8
MAKE2D VISIBLE LINES
100
AcDbSpline
210
0.0
220
0.0
230
1.0
 70
    24
 71
     2
 72
     6
 73
     3
 74
     0
 42
0.0000000001
 43
0.0000000001
 40
0.0
 40
0.0
 40
0.0
 40
23.26153410145109
 40
23.26153410145109
 40
23.26153410145109
 10
4063.849854460054
 20
802.186652452118
 30
0.0
 10
4063.849854460054
 20
790.5558854013925
 30
0.0
 10
4063.849854460054
 20
778.9251183506669
 30
0.0
  0
SPLINE
  5
13B
330
1F
100
AcDbEntity
  8
MAKE2D VISIBLE LINES
100
AcDbSpline
210
0.0
220
0.0
230
1.0
 70
     8
 71
     3
 72
    15
 73
    11
 74
     0
 42
0.0000000001
 43
0.0000000001
 40
0.0
 40
0.0
 40
0.0
 40
0.0
 40
0.071638723129292
 40
0.203934541903386
 40
0.6884085689510335
 40
2.448591496232719
 40
5.304989201201052
 40
9.62264919295836
 40
21.53819482072296
 40
36.81200369733307
 40
36.81200369733307
 40
36.81200369733307
 40
36.81200369733307
 10
4127.808914348439
 20
920.0585290375207
 30
0.0
 10
4127.812014442863
 20
920.0842042622176
 30
0.0
 10
4127.865144974025
 20
920.130057656321
 30
0.0
 10
4128.080146470069
 20
920.2140647801696
 30
0.0
 10
4128.859625678789
 20
920.3623642935157
 30
0.0
 10
4130.551721188455
 20
920.5356637634665
 30
0.0
 10
4133.522629286423
 20
920.7436914976499
 30
0.0
 10
4139.878150366046
 20
921.0612656737147
 30
0.0
 10
4150.374528029081
 20
921.4211116902787
 30
0.0
 10
4159.434590504481
 20
921.6569154166391
 30
0.0
 10
4164.524456540112
 20
921.7767480094606
 30
0.0
  0
SPLINE
  5
13C
330
1F
100
AcDbEntity
  8
MAKE2D VISIBLE LINES
100
AcDbSpline
210
0.0
220
0.0
230
1.0
 70
    24
 71
     2
 72
     6
 73
     3
 74
     0
 42
0.0000000001
 43
0.0000000001
 40
0.0
 40
0.0
 40
0.0
 40
10.00000000000011
 40
10.00000000000011
 40
10.00000000000011
 10
4063.849854460054
 20
784.0
 30
0.0
 10
4058.849854460054
 20
784.0
 30
0.0
 10
4053.849854460054
 20
784.0
 30
0.0
  0
SPLINE
  5
13D
330
1F
100
AcDbEntity
  8
MAKE2D VISIBLE LINES
100
AcDbSpline
210
0.0
220
0.0
230
1.0
 70
    12
 71
     2
 72
     6
 73
     3
 74
     0
 42
0.0000000001
 43
0.0000000001
 40
0.0
 40
0.0
 40
0.0
 40
0.9739794662167003
 40
0.9739794662167003
 40
0.9739794662167003
 10
4137.84985475402
 20
764.6180338353024
 30
0.0
 41
1.0
 10
4137.84995639904
 20
764.0885425870249
 30
0.0
 41
0.8838337617177502
 10
4138.287858783942
 20
763.7908808769738
 30
0.0
 41
1.0
  0
SPLINE
  5
13E
330
1F
100
AcDbEntity
  8
MAKE2D VISIBLE LINES
100
AcDbSpline
210
0.0
220
0.0
230
1.0
 70
    12
 71
     2
 72
     6
 73
     3
 74
     0
 42
0.0000000001
 43
0.0000000001
 40
0.0
 40
0.0
 40
0.0
 40
1.440813434016067
 40
1.440813434016067
 40
1.440813434016067
 10
4091.848872929474
 20
775.0
 30
0.0
 41
1.0
 10
4091.848910311056
 20
775.8777706464315
 30
0.0
 41
0.7515579101094587
 10
4092.719273982148
 20
775.9915616354378
 30
0.0
 41
1.0
  0
SPLINE
  5
13F
330
1F
100
AcDbEntity
  8
MAKE2D VISIBLE LINES
100
AcDbSpline
210
0.0
220
0.0
230
1.0
 70
    24
 71
     2
 72
     6
 73
     3
 74
     0
 42
0.0000000001
 43
0.0000000001
 40
0.0
 40
0.0
 40
0.0
 40
0.1803907884096816
 40
0.1803907884096816
 40
0.1803907884096816
 10
4111.064133062203
 20
776.0
 30
0.0
 10
4110.973937667997
 20
776.0
 30
0.0
 10
4110.883742273792
 20
776.0
 30
0.0
  0
SPLINE
  5
140
330
1F
100
AcDbEntity
  8
MAKE2D VISIBLE LINES
100
AcDbSpline
210
0.0
220
0.0
230
1.0
 70
    24
 71
     2
 72
     6
 73
     3
 74
     0
 42
0.0000000001
 43
0.0000000001
 40
0.0
 40
0.0
 40
0.0
 40
0.3074001654969152
 40
0.3074001654969152
 40
0.3074001654969152
 10
4111.752784608754
 20
776.0
 30
0.0
 10
4111.599084526006
 20
776.0
 30
0.0
 10
4111.445384443257
 20
776.0
 30
0.0
  0
SPLINE
  5
141
330
1F
100
AcDbEntity
  8
MAKE2D VISIBLE LINES
100
AcDbSpline
210
0.0
220
0.0
230
1.0
 70
    24
 71
     2
 72
     6
 73
     3
 74
     0
 42
0.0000000001
 43
0.0000000001
 40
0.0
 40
0.0
 40
0.0
 40
0.9767554173135977
 40
0.9767554173135977
 40
0.9767554173135977
 10
4110.36975511854
 20
776.0
 30
0.0
 10
4109.881377409883
 20
776.0
 30
0.0
 10
4109.392999701226
 20
776.0
 30
0.0
  0
SPLINE
  5
142
330
1F
100
AcDbEntity
  8
MAKE2D VISIBLE LINES
100
AcDbSpline
210
0.0
220
0.0
230
1.0
 70
    24
 71
     2
 72
     6
 73
     3
 74
     0
 42
0.0000000001
 43
0.0000000001
 40
0.0
 40
0.0
 40
0.0
 40
0.3852624351468421
 40
0.3852624351468421
 40
0.3852624351468421
 10
4112.444518080156
 20
776.0
 30
0.0
 10
4112.251886862583
 20
776.0
 30
0.0
 10
4112.059255645009
 20
776.0
 30
0.0
  0
SPLINE
  5
143
330
1F
100
AcDbEntity
  8
MAKE2D VISIBLE LINES
100
AcDbSpline
210
0.0
220
0.0
230
1.0
 70
    24
 71
     2
 72
     6
 73
     3
 74
     0
 42
0.0000000001
 43
0.0000000001
 40
0.0
 40
0.0
 40
0.0
 40
0.3563404536441794
 40
0.3563404536441794
 40
0.3563404536441794
 10
4109.023628289076
 20
776.0
 30
0.0
 10
4108.845458062255
 20
776.0
 30
0.0
 10
4108.667287835432
 20
776.0
 30
0.0
  0
SPLINE
  5
144
330
1F
100
AcDbEntity
  8
MAKE2D VISIBLE LINES
100
AcDbSpline
210
0.0
220
0.0
230
1.0
 70
    24
 71
     2
 72
     6
 73
     3
 74
     0
 42
0.0000000001
 43
0.0000000001
 40
0.0
 40
0.0
 40
0.0
 40
0.5300548043964
 40
0.5300548043964
 40
0.5300548043964
 10
4107.047061275636
 20
776.0
 30
0.0
 10
4106.782033873438
 20
776.0
 30
0.0
 10
4106.517006471239
 20
776.0
 30
0.0
  0
SPLINE
  5
145
330
1F
100
AcDbEntity
  8
MAKE2D VISIBLE LINES
100
AcDbSpline
210
0.0
220
0.0
230
1.0
 70
    24
 71
     2
 72
     6
 73
     3
 74
     0
 42
0.0000000001
 43
0.0000000001
 40
0.0
 40
0.0
 40
0.0
 40
0.4552110179830606
 40
0.4552110179830606
 40
0.4552110179830606
 10
4108.0375873456
 20
776.0
 30
0.0
 10
4107.809981836608
 20
776.0
 30
0.0
 10
4107.582376327617
 20
776.0
 30
0.0
  0
SPLINE
  5
146
330
1F
100
AcDbEntity
  8
MAKE2D VISIBLE LINES
100
AcDbSpline
210
0.0
220
0.0
230
1.0
 70
    24
 71
     2
 72
     6
 73
     3
 74
     0
 42
0.0000000001
 43
0.0000000001
 40
0.0
 40
0.0
 40
0.0
 40
0.3050122422857839
 40
0.3050122422857839
 40
0.3050122422857839
 10
4108.42758901918
 20
776.0
 30
0.0
 10
4108.275082898037
 20
776.0
 30
0.0
 10
4108.122576776894
 20
776.0
 30
0.0
  0
SPLINE
  5
147
330
1F
100
AcDbEntity
  8
MAKE2D VISIBLE LINES
100
AcDbSpline
210
0.0
220
0.0
230
1.0
 70
    12
 71
     2
 72
     8
 73
     5
 74
     0
 42
0.0000000001
 43
0.0000000001
 40
0.0
 40
0.0
 40
0.0
 40
149.0448251589502
 40
149.0448251589502
 40
298.0896503179004
 40
298.0896503179004
 40
298.0896503179004
 10
4552.849854460054
 20
866.0
 30
0.0
 41
1.0
 10
4552.849506345087
 20
958.2714880397172
 30
0.0
 41
0.7349362701636962
 10
4460.87568127408
 20
965.677094496496
 30
0.0
 41
1.0
 10
4368.901856203074
 20
973.082700953275
 30
0.0
 41
0.7349362701636962
 10
4354.13807985359
 20
881.9999999992119
 30
0.0
 41
1.0
  0
SPLINE
  5
148
330
1F
100
AcDbEntity
  8
MAKE2D VISIBLE LINES
100
AcDbSpline
210
0.0
220
0.0
230
1.0
 70
    24
 71
     2
 72
     6
 73
     3
 74
     0
 42
0.0000000001
 43
0.0000000001
 40
0.0
 40
0.0
 40
0.0
 40
0.0134160851300749
 40
0.0134160851300749
 40
0.0134160851300749
 10
4113.847863555674
 20
776.0
 30
0.0
 10
4113.84115551311
 20
776.0
 30
0.0
 10
4113.834447470545
 20
776.0
 30
0.0
  0
SPLINE
  5
149
330
1F
100
AcDbEntity
  8
MAKE2D VISIBLE LINES
100
AcDbSpline
210
0.0
220
0.0
230
1.0
 70
    24
 71
     2
 72
     6
 73
     3
 74
     0
 42
0.0000000001
 43
0.0000000001
 40
0.0
 40
0.0
 40
0.0
 40
19.07692307692275
 40
19.07692307692275
 40
19.07692307692275
 10
4106.388315998516
 20
776.0
 30
0.0
 10
4096.849854460055
 20
776.0
 30
0.0
 10
4087.311392921593
 20
776.0
 30
0.0
  0
SPLINE
  5
14A
330
1F
100
AcDbEntity
  8
MAKE2D VISIBLE LINES
100
AcDbSpline
210
0.0
220
0.0
230
1.0
 70
    24
 71
     2
 72
     6
 73
     3
 74
     0
 42
0.0000000001
 43
0.0000000001
 40
0.0
 40
0.0
 40
0.0
 40
0.1597189823265808
 40
0.1597189823265808
 40
0.1597189823265808
 10
4115.409416145672
 20
726.280963859432
 30
0.0
 10
4115.329556654509
 20
726.2809638594252
 30
0.0
 10
4115.249697163345
 20
726.2809638594185
 30
0.0
  0
SPLINE
  5
14B
330
1F
100
AcDbEntity
  8
MAKE2D VISIBLE LINES
100
AcDbSpline
210
0.0
220
0.0
230
1.0
 70
    24
 71
     2
 72
     6
 73
     3
 74
     0
 42
0.0000000001
 43
0.0000000001
 40
0.0
 40
0.0
 40
0.0
 40
0.3182809376634168
 40
0.3182809376634168
 40
0.3182809376634168
 10
4115.168135397718
 20
726.2809638594051
 30
0.0
 10
4115.008994928887
 20
726.2809638593561
 30
0.0
 10
4114.849854460054
 20
726.2809638593071
 30
0.0
  0
SPLINE
  5
14C
330
1F
100
AcDbEntity
  8
MAKE2D VISIBLE LINES
100
AcDbSpline
210
0.0
220
0.0
230
1.0
 70
    24
 71
     2
 72
     6
 73
     3
 74
     0
 42
0.0000000001
 43
0.0000000001
 40
0.0
 40
0.0
 40
0.0
 40
0.1560499615022763
 40
0.1560499615022763
 40
0.1560499615022763
 10
4114.687639982229
 20
726.2809638594607
 30
0.0
 10
4114.609615001477
 20
726.2809638595147
 30
0.0
 10
4114.531590020726
 20
726.2809638595686
 30
0.0
  0
SPLINE
  5
14D
330
1F
100
AcDbEntity
  8
MAKE2D VISIBLE LINES
100
AcDbSpline
210
0.0
220
0.0
230
1.0
 70
    12
 71
     2
 72
     6
 73
     3
 74
     0
 42
0.0000000001
 43
0.0000000001
 40
0.0
 40
0.0
 40
0.0
 40
0.1151551516243699
 40
0.1151551516243699
 40
0.1151551516243699
 10
4107.236875086052
 20
726.2417143398378
 30
0.0
 41
1.0
 10
4107.177827179653
 20
726.2457408944003
 30
0.0
 41
0.9597536639936732
 10
4107.130264470404
 20
726.2809638568058
 30
0.0
 41
1.0
  0
SPLINE
  5
14E
330
1F
100
AcDbEntity
  8
MAKE2D VISIBLE LINES
100
AcDbSpline
210
0.0
220
0.0
230
1.0
 70
    24
 71
     3
 72
     8
 73
     4
 74
     0
 42
0.0000000001
 43
0.0000000001
 40
0.0
 40
0.0
 40
0.0
 40
0.0
 40
29.2770713365164
 40
29.2770713365164
 40
29.2770713365164
 40
29.2770713365164
 10
4053.849854460054
 20
921.3614967846631
 30
0.0
 10
4053.849854460054
 20
931.120520563502
 30
0.0
 10
4053.849854460055
 20
940.8795443423408
 30
0.0
 10
4053.849854460054
 20
950.6385681211796
 30
0.0
  0
SPLINE
  5
14F
330
1F
100
AcDbEntity
  8
MAKE2D VISIBLE LINES
100
AcDbSpline
210
0.0
220
0.0
230
1.0
 70
    24
 71
     3
 72
     8
 73
     4
 74
     0
 42
0.0000000001
 43
0.0000000001
 40
0.0
 40
0.0
 40
0.0
 40
0.0
 40
64.00256036931881
 40
64.00256036931881
 40
64.00256036931881
 40
64.00256036931881
 10
4028.849854460054
 20
903.9987907606278
 30
0.0
 10
4028.849854460054
 20
925.3329775504006
 30
0.0
 10
4028.849854460054
 20
946.6671643401735
 30
0.0
 10
4028.849854460054
 20
968.0013511299466
 30
0.0
  0
SPLINE
  5
150
330
1F
100
AcDbEntity
  8
MAKE2D VISIBLE LINES
100
AcDbSpline
210
0.0
220
0.0
230
1.0
 70
    24
 71
     2
 72
     6
 73
     3
 74
     0
 42
0.0000000001
 43
0.0000000001
 40
0.0
 40
0.0
 40
0.0
 40
0.1575146229162101
 40
0.1575146229162101
 40
0.1575146229162101
 10
4117.690475388603
 20
956.0
 30
0.0
 10
4117.769232700061
 20
956.0
 30
0.0
 10
4117.84799001152
 20
956.0
 30
0.0
  0
SPLINE
  5
151
330
1F
100
AcDbEntity
  8
MAKE2D VISIBLE LINES
100
AcDbSpline
210
0.0
220
0.0
230
1.0
 70
    24
 71
     2
 72
     6
 73
     3
 74
     0
 42
0.0000000001
 43
0.0000000001
 40
0.0
 40
0.0
 40
0.0
 40
0.9948821748435819
 40
0.9948821748435819
 40
0.9948821748435819
 10
4136.849854460054
 20
850.0000000000006
 30
0.0
 10
4136.849854460054
 20
849.5025589125787
 30
0.0
 10
4136.849854460054
 20
849.005117825157
 30
0.0
  0
SPLINE
  5
152
330
1F
100
AcDbEntity
  8
MAKE2D VISIBLE LINES
100
AcDbSpline
210
0.0
220
0.0
230
1.0
 70
    12
 71
     2
 72
     6
 73
     3
 74
     0
 42
0.0000000001
 43
0.0000000001
 40
0.0
 40
0.0
 40
0.0
 40
0.1151665031833969
 40
0.1151665031833969
 40
0.1151665031833969
 10
4122.569111049238
 20
726.2809638585596
 30
0.0
 41
1.0
 10
4122.521673301374
 20
726.2454681097582
 30
0.0
 41
0.9583886451212639
 10
4122.462544650815
 20
726.241714339838
 30
0.0
 41
1.0
  0
SPLINE
  5
153
330
1F
100
AcDbEntity
  8
MAKE2D VISIBLE LINES
100
AcDbSpline
210
0.0
220
0.0
230
1.0
 70
    12
 71
     2
 72
     6
 73
     3
 74
     0
 42
0.0000000001
 43
0.0000000001
 40
0.0
 40
0.0
 40
0.0
 40
1.570795686629392
 40
1.570795686629392
 40
1.570795686629392
 10
4136.849861126694
 20
776.0
 30
0.0
 41
1.0
 10
4137.849859598056
 20
775.9999984713619
 30
0.0
 41
0.7071078719659741
 10
4137.849861154606
 20
775.0
 30
0.0
 41
1.0
  0
SPLINE
  5
154
330
1F
100
AcDbEntity
  8
MAKE2D VISIBLE LINES
100
AcDbSpline
210
0.0
220
0.0
230
1.0
 70
    24
 71
     2
 72
     6
 73
     3
 74
     0
 42
0.0000000001
 43
0.0000000001
 40
0.0
 40
0.0
 40
0.0
 40
7.800474592523301
 40
7.800474592523301
 40
7.800474592523301
 10
4114.450007944009
 20
726.2809638596106
 30
0.0
 10
4110.549770647747
 20
726.2809638589001
 30
0.0
 10
4106.649533351486
 20
726.2809638581898
 30
0.0
  0
SPLINE
  5
155
330
1F
100
AcDbEntity
  8
MAKE2D VISIBLE LINES
100
AcDbSpline
210
0.0
220
0.0
230
1.0
 70
    24
 71
     2
 72
     6
 73
     3
 74
     0
 42
0.0000000001
 43
0.0000000001
 40
0.0
 40
0.0
 40
0.0
 40
5.793658551008434
 40
5.793658551008434
 40
5.793658551008434
 10
4119.386126163722
 20
956.0
 30
0.0
 10
4122.282955439226
 20
956.0
 30
0.0
 10
4125.17978471473
 20
956.0
 30
0.0
  0
SPLINE
  5
156
330
1F
100
AcDbEntity
  8
MAKE2D VISIBLE LINES
100
AcDbSpline
210
0.0
220
0.0
230
1.0
 70
    12
 71
     2
 72
     6
 73
     3
 74
     0
 42
0.0000000001
 43
0.0000000001
 40
0.0
 40
0.0
 40
0.0
 40
1.350531977076535
 40
1.350531977076535
 40
1.350531977076535
 10
4141.849856373452
 20
729.8750672766638
 30
0.0
 41
1.0
 10
4141.849855303439
 20
729.074206203075
 30
0.0
 41
0.7805412080410928
 10
4141.06834329875
 20
728.8992277880744
 30
0.0
 41
1.0
  0
SPLINE
  5
157
330
1F
100
AcDbEntity
  8
MAKE2D VISIBLE LINES
100
AcDbSpline
210
0.0
220
0.0
230
1.0
 70
    12
 71
     2
 72
     6
 73
     3
 74
     0
 42
0.0000000001
 43
0.0000000001
 40
0.0
 40
0.0
 40
0.0
 40
1.38487492763716
 40
1.38487492763716
 40
1.38487492763716
 10
4092.664130844295
 20
728.068531053671
 30
0.0
 41
1.0
 10
4091.84898771986
 20
728.2218556814439
 30
0.0
 41
0.7696981482168632
 10
4091.84897357514
 20
729.051293294887
 30
0.0
 41
1.0
  0
SPLINE
  5
158
330
1F
100
AcDbEntity
  8
MAKE2D VISIBLE LINES
100
AcDbSpline
210
0.0
220
0.0
230
1.0
 70
    12
 71
     2
 72
     6
 73
     3
 74
     0
 42
0.0000000001
 43
0.0000000001
 40
0.0
 40
0.0
 40
0.0
 40
0.0912179742159589
 40
0.0912179742159589
 40
0.0912179742159589
 10
4138.132545405884
 20
763.8636987835594
 30
0.0
 41
1.0
 10
4138.17122861426
 20
763.839473000514
 30
0.0
 41
0.9988841203798897
 10
4138.212024988292
 20
763.8190050978301
 30
0.0
 41
1.0
  0
SPLINE
  5
159
330
1F
100
AcDbEntity
  8
MAKE2D VISIBLE LINES
100
AcDbSpline
210
0.0
220
0.0
230
1.0
 70
    12
 71
     2
 72
     6
 73
     3
 74
     0
 42
0.0000000001
 43
0.0000000001
 40
0.0
 40
0.0
 40
0.0
 40
1.107127960444168
 40
1.107127960444168
 40
1.107127960444168
 10
4141.297099147911
 20
762.2763776560528
 30
0.0
 41
1.0
 10
4141.849856510611
 20
761.9999772474044
 30
0.0
 41
0.8506729167468738
 10
4141.849889056934
 20
761.3819660121826
 30
0.0
 41
1.0
  0
SPLINE
  5
15A
330
1F
100
AcDbEntity
  8
MAKE2D VISIBLE LINES
100
AcDbSpline
210
0.0
220
0.0
230
1.0
 70
     8
 71
     3
 72
    12
 73
     8
 74
     0
 42
0.0000000001
 43
0.0000000001
 40
0.0
 40
0.0
 40
0.0
 40
0.0
 40
1.030422128953424
 40
2.097779010595926
 40
4.272236061063436
 40
6.634365407080181
 40
9.445528332530142
 40
9.445528332530142
 40
9.445528332530142
 40
9.445528332530142
 10
4091.849854460067
 20
767.3900470252752
 30
0.0
 10
4091.619632189522
 20
767.644926284689
 30
0.0
 10
4091.174310327925
 20
768.1849807082021
 30
0.0
 10
4090.367861998197
 20
769.3603719460646
 30
0.0
 10
4089.522904565766
 20
771.0344487481494
 30
0.0
 10
4088.789780890559
 20
773.3780750271453
 30
0.0
 10
4088.474694438244
 20
775.0751795429186
 30
0.0
 10
4088.324311854093
 20
775.9999999999999
 30
0.0
  0
SPLINE
  5
15B
330
1F
100
AcDbEntity
  8
MAKE2D VISIBLE LINES
100
AcDbSpline
210
0.0
220
0.0
230
1.0
 70
    12
 71
     2
 72
    12
 73
     9
 74
     0
 42
0.0000000001
 43
0.0000000001
 40
0.0
 40
0.0
 40
0.0
 40
12.57092974933201
 40
12.57092974933201
 40
25.14185949866403
 40
25.14185949866403
 40
37.71278924799604
 40
37.71278924799604
 40
50.28371899732806
 40
50.28371899732806
 40
50.28371899732806
 10
4114.849844744418
 20
882.0000030116973
 30
0.0
 41
1.0
 10
4108.219758320437
 20
882.0037770966516
 30
0.0
 41
0.9238250700510192
 10
4103.530244188097
 20
877.3169319492455
 30
0.0
 41
1.0
 10
4098.840730055756
 20
872.6300868018394
 30
0.0
 41
0.9238250700510192
 10
4098.840729626173
 20
865.9999993036854
 30
0.0
 41
1.0
 10
4098.840729196589
 20
859.3699118055314
 30
0.0
 41
0.9238250700510192
 10
4103.530242721577
 20
854.6830660504288
 30
0.0
 41
1.0
 10
4108.219756246566
 20
849.9962202953261
 30
0.0
 41
0.9238250700510192
 10
4114.849842671037
 20
849.9999935211121
 30
0.0
 41
1.0
  0
SPLINE
  5
15C
330
1F
100
AcDbEntity
  8
MAKE2D VISIBLE LINES
100
AcDbSpline
210
0.0
220
0.0
230
1.0
 70
    24
 71
     2
 72
     6
 73
     3
 74
     0
 42
0.0000000001
 43
0.0000000001
 40
0.0
 40
0.0
 40
0.0
 40
0.0249088155018171
 40
0.0249088155018171
 40
0.0249088155018171
 10
4136.254605715974
 20
776.0
 30
0.0
 10
4136.242151308224
 20
776.0
 30
0.0
 10
4136.229696900473
 20
776.0
 30
0.0
  0
SPLINE
  5
15D
330
1F
100
AcDbEntity
  8
MAKE2D VISIBLE LINES
100
AcDbSpline
210
0.0
220
0.0
230
1.0
 70
    24
 71
     2
 72
     6
 73
     3
 74
     0
 42
0.0000000001
 43
0.0000000001
 40
0.0
 40
0.0
 40
0.0
 40
0.0852459207245602
 40
0.0852459207245602
 40
0.0852459207245602
 10
4136.570294608043
 20
776.0
 30
0.0
 10
4136.52767164768
 20
776.0
 30
0.0
 10
4136.485048687318
 20
776.0
 30
0.0
  0
SPLINE
  5
15E
330
1F
100
AcDbEntity
  8
MAKE2D VISIBLE LINES
100
AcDbSpline
210
0.0
220
0.0
230
1.0
 70
    24
 71
     2
 72
     6
 73
     3
 74
     0
 42
0.0000000001
 43
0.0000000001
 40
0.0
 40
0.0
 40
0.0
 40
0.6584786511381253
 40
0.6584786511381253
 40
0.6584786511381253
 10
4134.020840248372
 20
776.0
 30
0.0
 10
4133.691600922803
 20
776.0
 30
0.0
 10
4133.362361597234
 20
776.0
 30
0.0
  0
SPLINE
  5
15F
330
1F
100
AcDbEntity
  8
MAKE2D VISIBLE LINES
100
AcDbSpline
210
0.0
220
0.0
230
1.0
 70
    24
 71
     2
 72
     6
 73
     3
 74
     0
 42
0.0000000001
 43
0.0000000001
 40
0.0
 40
0.0
 40
0.0
 40
0.118364725530455
 40
0.118364725530455
 40
0.118364725530455
 10
4134.530406605657
 20
776.0
 30
0.0
 10
4134.471224242892
 20
776.0
 30
0.0
 10
4134.412041880127
 20
776.0
 30
0.0
  0
SPLINE
  5
160
330
1F
100
AcDbEntity
  8
MAKE2D VISIBLE LINES
100
AcDbSpline
210
0.0
220
0.0
230
1.0
 70
    24
 71
     2
 72
     6
 73
     3
 74
     0
 42
0.0000000001
 43
0.0000000001
 40
0.0
 40
0.0
 40
0.0
 40
0.2951310828701708
 40
0.2951310828701708
 40
0.2951310828701708
 10
4135.404524149333
 20
776.0
 30
0.0
 10
4135.256958607898
 20
776.0
 30
0.0
 10
4135.109393066463
 20
776.0
 30
0.0
  0
SPLINE
  5
161
330
1F
100
AcDbEntity
  8
MAKE2D VISIBLE LINES
100
AcDbSpline
210
0.0
220
0.0
230
1.0
 70
    12
 71
     2
 72
     6
 73
     3
 74
     0
 42
0.0000000001
 43
0.0000000001
 40
0.0
 40
0.0
 40
0.0
 40
0.7694676333805923
 40
0.7694676333805923
 40
0.7694676333805923
 10
4038.487775915989
 20
828.9956609871322
 30
0.0
 41
1.0
 10
4038.890297371104
 20
828.9523792402938
 30
0.0
 41
0.9271354797982049
 10
4039.1497007936
 20
828.6415630633729
 30
0.0
 41
1.0
  0
SPLINE
  5
162
330
1F
100
AcDbEntity
  8
MAKE2D VISIBLE LINES
100
AcDbSpline
210
0.0
220
0.0
230
1.0
 70
    24
 71
     2
 72
     6
 73
     3
 74
     0
 42
0.0000000001
 43
0.0000000001
 40
0.0
 40
0.0
 40
0.0
 40
0.1079540951186573
 40
0.1079540951186573
 40
0.1079540951186573
 10
4132.679041994637
 20
776.0
 30
0.0
 10
4132.625064947078
 20
776.0
 30
0.0
 10
4132.571087899519
 20
776.0
 30
0.0
  0
SPLINE
  5
163
330
1F
100
AcDbEntity
  8
MAKE2D VISIBLE LINES
100
AcDbSpline
210
0.0
220
0.0
230
1.0
 70
    24
 71
     2
 72
     6
 73
     3
 74
     0
 42
0.0000000001
 43
0.0000000001
 40
0.0
 40
0.0
 40
0.0
 40
0.060640856524401
 40
0.060640856524401
 40
0.060640856524401
 10
4135.525150357214
 20
776.0
 30
0.0
 10
4135.494829928952
 20
776.0
 30
0.0
 10
4135.46450950069
 20
776.0
 30
0.0
  0
SPLINE
  5
164
330
1F
100
AcDbEntity
  8
MAKE2D VISIBLE LINES
100
AcDbSpline
210
0.0
220
0.0
230
1.0
 70
    24
 71
     2
 72
     6
 73
     3
 74
     0
 42
0.0000000001
 43
0.0000000001
 40
0.0
 40
0.0
 40
0.0
 40
0.0790221375717692
 40
0.0790221375717692
 40
0.0790221375717692
 10
4133.054822868105
 20
776.0
 30
0.0
 10
4133.015311799319
 20
776.0
 30
0.0
 10
4132.975800730533
 20
776.0
 30
0.0
  0
SPLINE
  5
165
330
1F
100
AcDbEntity
  8
MAKE2D VISIBLE LINES
100
AcDbSpline
210
0.0
220
0.0
230
1.0
 70
    24
 71
     2
 72
     6
 73
     3
 74
     0
 42
0.0000000001
 43
0.0000000001
 40
0.0
 40
0.0
 40
0.0
 40
0.4325066835697271
 40
0.4325066835697271
 40
0.4325066835697271
 10
4136.115929101815
 20
776.0
 30
0.0
 10
4135.89967576003
 20
776.0
 30
0.0
 10
4135.683422418245
 20
776.0
 30
0.0
  0
SPLINE
  5
166
330
1F
100
AcDbEntity
  8
MAKE2D VISIBLE LINES
100
AcDbSpline
210
0.0
220
0.0
230
1.0
 70
    24
 71
     2
 72
     6
 73
     3
 74
     0
 42
0.0000000001
 43
0.0000000001
 40
0.0
 40
0.0
 40
0.0
 40
2.269736439646863
 40
2.269736439646863
 40
2.269736439646863
 10
4127.919186196396
 20
776.0
 30
0.0
 10
4126.784317976573
 20
776.0
 30
0.0
 10
4125.649449756749
 20
776.0
 30
0.0
  0
SPLINE
  5
167
330
1F
100
AcDbEntity
  8
MAKE2D VISIBLE LINES
100
AcDbSpline
210
0.0
220
0.0
230
1.0
 70
    24
 71
     2
 72
     6
 73
     3
 74
     0
 42
0.0000000001
 43
0.0000000001
 40
0.0
 40
0.0
 40
0.0
 40
0.3802836206417624
 40
0.3802836206417624
 40
0.3802836206417624
 10
4125.640883722816
 20
776.0
 30
0.0
 10
4125.450741912496
 20
776.0
 30
0.0
 10
4125.260600102175
 20
776.0
 30
0.0
  0
SPLINE
  5
168
330
1F
100
AcDbEntity
  8
MAKE2D VISIBLE LINES
100
AcDbSpline
210
0.0
220
0.0
230
1.0
 70
    24
 71
     2
 72
     6
 73
     3
 74
     0
 42
0.0000000001
 43
0.0000000001
 40
0.0
 40
0.0
 40
0.0
 40
0.2323042794686216
 40
0.2323042794686216
 40
0.2323042794686216
 10
4128.352142926885
 20
776.0
 30
0.0
 10
4128.235990787151
 20
776.0
 30
0.0
 10
4128.119838647416
 20
776.0
 30
0.0
  0
SPLINE
  5
169
330
1F
100
AcDbEntity
  8
MAKE2D VISIBLE LINES
100
AcDbSpline
210
0.0
220
0.0
230
1.0
 70
    24
 71
     2
 72
     6
 73
     3
 74
     0
 42
0.0000000001
 43
0.0000000001
 40
0.0
 40
0.0
 40
0.0
 40
0.1751891099276008
 40
0.1751891099276008
 40
0.1751891099276008
 10
4123.182804564898
 20
776.0
 30
0.0
 10
4123.095210009935
 20
776.0
 30
0.0
 10
4123.007615454971
 20
776.0
 30
0.0
  0
SPLINE
  5
16A
330
1F
100
AcDbEntity
  8
MAKE2D VISIBLE LINES
100
AcDbSpline
210
0.0
220
0.0
230
1.0
 70
    24
 71
     2
 72
     6
 73
     3
 74
     0
 42
0.0000000001
 43
0.0000000001
 40
0.0
 40
0.0
 40
0.0
 40
0.1415363764399444
 40
0.1415363764399444
 40
0.1415363764399444
 10
4128.776873971691
 20
776.0
 30
0.0
 10
4128.706105783471
 20
776.0
 30
0.0
 10
4128.635337595251
 20
776.0
 30
0.0
  0
SPLINE
  5
16B
330
1F
100
AcDbEntity
  8
MAKE2D VISIBLE LINES
100
AcDbSpline
210
0.0
220
0.0
230
1.0
 70
    24
 71
     2
 72
     6
 73
     3
 74
     0
 42
0.0000000001
 43
0.0000000001
 40
0.0
 40
0.0
 40
0.0
 40
0.3682691731869454
 40
0.3682691731869454
 40
0.3682691731869454
 10
4125.164492982659
 20
776.0
 30
0.0
 10
4124.980358396066
 20
776.0
 30
0.0
 10
4124.796223809472
 20
776.0
 30
0.0
  0
SPLINE
  5
16C
330
1F
100
AcDbEntity
  8
MAKE2D VISIBLE LINES
100
AcDbSpline
210
0.0
220
0.0
230
1.0
 70
    24
 71
     2
 72
     6
 73
     3
 74
     0
 42
0.0000000001
 43
0.0000000001
 40
0.0
 40
0.0
 40
0.0
 40
0.331436588309316
 40
0.331436588309316
 40
0.331436588309316
 10
4129.600531113386
 20
776.0
 30
0.0
 10
4129.434812819231
 20
776.0
 30
0.0
 10
4129.269094525076
 20
776.0
 30
0.0
  0
SPLINE
  5
16D
330
1F
100
AcDbEntity
  8
MAKE2D VISIBLE LINES
100
AcDbSpline
210
0.0
220
0.0
230
1.0
 70
    24
 71
     2
 72
     6
 73
     3
 74
     0
 42
0.0000000001
 43
0.0000000001
 40
0.0
 40
0.0
 40
0.0
 40
0.0780498721671847
 40
0.0780498721671847
 40
0.0780498721671847
 10
4119.329859289342
 20
776.0
 30
0.0
 10
4119.290834353259
 20
776.0
 30
0.0
 10
4119.251809417176
 20
776.0
 30
0.0
  0
SPLINE
  5
16E
330
1F
100
AcDbEntity
  8
MAKE2D VISIBLE LINES
100
AcDbSpline
210
0.0
220
0.0
230
1.0
 70
    24
 71
     2
 72
     6
 73
     3
 74
     0
 42
0.0000000001
 43
0.0000000001
 40
0.0
 40
0.0
 40
0.0
 40
0.2151742429193746
 40
0.2151742429193746
 40
0.2151742429193746
 10
4120.740211431798
 20
776.0
 30
0.0
 10
4120.632624310339
 20
776.0
 30
0.0
 10
4120.52503718888
 20
776.0
 30
0.0
  0
SPLINE
  5
16F
330
1F
100
AcDbEntity
  8
MAKE2D VISIBLE LINES
100
AcDbSpline
210
0.0
220
0.0
230
1.0
 70
    24
 71
     2
 72
     6
 73
     3
 74
     0
 42
0.0000000001
 43
0.0000000001
 40
0.0
 40
0.0
 40
0.0
 40
0.175136483823735
 40
0.175136483823735
 40
0.175136483823735
 10
4120.065760156807
 20
776.0
 30
0.0
 10
4119.978191914895
 20
776.0
 30
0.0
 10
4119.890623672984
 20
776.0
 30
0.0
  0
SPLINE
  5
170
330
1F
100
AcDbEntity
  8
MAKE2D VISIBLE LINES
100
AcDbSpline
210
0.0
220
0.0
230
1.0
 70
    24
 71
     2
 72
     6
 73
     3
 74
     0
 42
0.0000000001
 43
0.0000000001
 40
0.0
 40
0.0
 40
0.0
 40
0.2912027728386875
 40
0.2912027728386875
 40
0.2912027728386875
 10
4118.254395138329
 20
776.0
 30
0.0
 10
4118.10879375191
 20
776.0
 30
0.0
 10
4117.963192365491
 20
776.0
 30
0.0
  0
SPLINE
  5
171
330
1F
100
AcDbEntity
  8
MAKE2D VISIBLE LINES
100
AcDbSpline
210
0.0
220
0.0
230
1.0
 70
    24
 71
     2
 72
     6
 73
     3
 74
     0
 42
0.0000000001
 43
0.0000000001
 40
0.0
 40
0.0
 40
0.0
 40
0.2069039211985455
 40
0.2069039211985455
 40
0.2069039211985455
 10
4118.81605176257
 20
776.0
 30
0.0
 10
4118.712599801971
 20
776.0
 30
0.0
 10
4118.609147841372
 20
776.0
 30
0.0
  0
SPLINE
  5
172
330
1F
100
AcDbEntity
  8
MAKE2D VISIBLE LINES
100
AcDbSpline
210
0.0
220
0.0
230
1.0
 70
    24
 71
     2
 72
     6
 73
     3
 74
     0
 42
0.0000000001
 43
0.0000000001
 40
0.0
 40
0.0
 40
0.0
 40
0.4271889964345519
 40
0.4271889964345519
 40
0.4271889964345519
 10
4116.352249195387
 20
776.0
 30
0.0
 10
4116.13865469717
 20
776.0
 30
0.0
 10
4115.925060198952
 20
776.0
 30
0.0
  0
SPLINE
  5
173
330
1F
100
AcDbEntity
  8
MAKE2D VISIBLE LINES
100
AcDbSpline
210
0.0
220
0.0
230
1.0
 70
    24
 71
     2
 72
     6
 73
     3
 74
     0
 42
0.0000000001
 43
0.0000000001
 40
0.0
 40
0.0
 40
0.0
 40
0.699738952288044
 40
0.699738952288044
 40
0.699738952288044
 10
4117.690475388387
 20
776.0
 30
0.0
 10
4117.340605912243
 20
776.0
 30
0.0
 10
4116.990736436099
 20
776.0
 30
0.0
  0
SPLINE
  5
174
330
1F
100
AcDbEntity
  8
MAKE2D VISIBLE LINES
100
AcDbSpline
210
0.0
220
0.0
230
1.0
 70
    24
 71
     2
 72
     6
 73
     3
 74
     0
 42
0.0000000001
 43
0.0000000001
 40
0.0
 40
0.0
 40
0.0
 40
0.2945923686245351
 40
0.2945923686245351
 40
0.2945923686245351
 10
4116.851939808075
 20
776.0
 30
0.0
 10
4116.704643623763
 20
776.0
 30
0.0
 10
4116.55734743945
 20
776.0
 30
0.0
  0
SPLINE
  5
175
330
1F
100
AcDbEntity
  8
MAKE2D VISIBLE LINES
100
AcDbSpline
210
0.0
220
0.0
230
1.0
 70
    12
 71
     2
 72
     6
 73
     3
 74
     0
 42
0.0000000001
 43
0.0000000001
 40
0.0
 40
0.0
 40
0.0
 40
7.617803462760451
 40
7.617803462760451
 40
7.617803462760451
 10
4122.462542285997
 20
726.2417141371342
 30
0.0
 41
1.0
 10
4118.660035983886
 20
725.999993085081
 30
0.0
 41
0.9994962448516175
 10
4114.849854460054
 20
726.0
 30
0.0
 41
1.0
  0
SPLINE
  5
176
330
1F
100
AcDbEntity
  8
MAKE2D VISIBLE LINES
100
AcDbSpline
210
0.0
220
0.0
230
1.0
 70
    12
 71
     2
 72
     6
 73
     3
 74
     0
 42
0.0000000001
 43
0.0000000001
 40
0.0
 40
0.0
 40
0.0
 40
7.618094008887874
 40
7.618094008887874
 40
7.618094008887874
 10
4114.849854460054
 20
726.0
 30
0.0
 41
1.0
 10
4111.039527846791
 20
726.0000088154435
 30
0.0
 41
0.9994963362975147
 10
4107.236876352407
 20
726.2417328565883
 30
0.0
 41
1.0
  0
SPLINE
  5
177
330
1F
100
AcDbEntity
  8
MAKE2D VISIBLE LINES
100
AcDbSpline
210
0.0
220
0.0
230
1.0
 70
    12
 71
     2
 72
     6
 73
     3
 74
     0
 42
0.0000000001
 43
0.0000000001
 40
0.0
 40
0.0
 40
0.0
 40
1.570798088001854
 40
1.570798088001854
 40
1.570798088001854
 10
4083.849830359189
 20
955.0
 30
0.0
 41
1.0
 10
4083.849835049705
 20
955.9999990838676
 30
0.0
 41
0.7071087634349711
 10
4084.849834133583
 20
955.9999999999994
 30
0.0
 41
1.0
  0
SPLINE
  5
178
330
1F
100
AcDbEntity
  8
MAKE2D VISIBLE LINES
100
AcDbSpline
210
0.0
220
0.0
230
1.0
 70
    12
 71
     2
 72
     6
 73
     3
 74
     0
 42
0.0000000001
 43
0.0000000001
 40
0.0
 40
0.0
 40
0.0
 40
1.438030129253879
 40
1.438030129253879
 40
1.438030129253879
 10
4065.849854460054
 20
845.9991464951477
 30
0.0
 41
1.0
 10
4064.974545102201
 20
845.9991082293742
 30
0.0
 41
0.7524757584595009
 10
4064.858657467314
 20
845.1315043281091
 30
0.0
 41
1.0
  0
SPLINE
  5
179
330
1F
100
AcDbEntity
  8
MAKE2D VISIBLE LINES
100
AcDbSpline
210
0.0
220
0.0
230
1.0
 70
    12
 71
     2
 72
    12
 73
     9
 74
     0
 42
0.0000000001
 43
0.0000000001
 40
0.0
 40
0.0
 40
0.0
 40
12.56752923796036
 40
12.56752923796036
 40
25.13505847592071
 40
25.13505847592071
 40
37.70258771388107
 40
37.70258771388107
 40
50.27011695184142
 40
50.27011695184142
 40
50.27011695184142
 10
4452.8500264388
 20
850.0000084361793
 30
0.0
 41
1.0
 10
4459.478122470907
 20
849.9991101292198
 30
0.0
 41
0.9238655985150622
 10
4464.165188066561
 20
854.6855879025399
 30
0.0
 41
1.0
 10
4468.852253662216
 20
859.37206567586
 30
0.0
 41
0.9238655985150622
 10
4468.852186661571
 20
866.000161768502
 30
0.0
 41
1.0
 10
4468.852119660926
 20
872.6282578611443
 30
0.0
 41
0.9238655985150622
 10
4464.164959318952
 20
877.3146408743445
 30
0.0
 41
1.0
 10
4459.477798976978
 20
882.0010238875448
 30
0.0
 41
0.9238655985150622
 10
4452.849702964387
 20
881.9999915792977
 30
0.0
 41
1.0
  0
SPLINE
  5
17A
330
1F
100
AcDbEntity
  8
MAKE2D VISIBLE LINES
100
AcDbSpline
210
0.0
220
0.0
230
1.0
 70
    12
 71
     2
 72
     6
 73
     3
 74
     0
 42
0.0000000001
 43
0.0000000001
 40
0.0
 40
0.0
 40
0.0
 40
1.570797460304532
 40
1.570797460304532
 40
1.570797460304532
 10
4084.849842585619
 20
776.0000000000001
 30
0.0
 41
1.0
 10
4083.849843070123
 20
776.0000004845073
 30
0.0
 41
0.7071079546886216
 10
4083.849840235463
 20
777.0
 30
0.0
 41
1.0
  0
SPLINE
  5
17B
330
1F
100
AcDbEntity
  8
MAKE2D VISIBLE LINES
100
AcDbSpline
210
0.0
220
0.0
230
1.0
 70
    12
 71
     2
 72
     6
 73
     3
 74
     0
 42
0.0000000001
 43
0.0000000001
 40
0.0
 40
0.0
 40
0.0
 40
1.570866903478306
 40
1.570866903478306
 40
1.570866903478306
 10
4137.851971242239
 20
777.0
 30
0.0
 41
1.0
 10
4137.851922884119
 20
775.9999570277844
 30
0.0
 41
0.7071086853070163
 10
4136.851879911657
 20
776.0000000000002
 30
0.0
 41
1.0
  0
SPLINE
  5
17C
330
1F
100
AcDbEntity
  8
MAKE2D VISIBLE LINES
100
AcDbSpline
210
0.0
220
0.0
230
1.0
 70
    12
 71
     2
 72
     6
 73
     3
 74
     0
 42
0.0000000001
 43
0.0000000001
 40
0.0
 40
0.0
 40
0.0
 40
18.21158112440076
 40
18.21158112440076
 40
18.21158112440076
 10
4123.063544051035
 20
1005.718568666715
 30
0.0
 41
1.0
 10
4132.165455425976
 20
1005.094102001463
 30
0.0
 41
0.9971223702213413
 10
4141.068342096567
 20
1003.100773572958
 30
0.0
 41
1.0
  0
SPLINE
  5
17D
330
1F
100
AcDbEntity
  8
MAKE2D VISIBLE LINES
100
AcDbSpline
210
0.0
220
0.0
230
1.0
 70
    12
 71
     2
 72
     8
 73
     5
 74
     0
 42
0.0000000001
 43
0.0000000001
 40
0.0
 40
0.0
 40
0.0
 40
149.0450777553169
 40
149.0450777553169
 40
298.0901555106338
 40
298.0901555106338
 40
298.0901555106338
 10
4354.138120616088
 20
850.00000000223
 30
0.0
 41
1.0
 10
4368.90164636552
 20
758.9170001244555
 30
0.0
 41
0.7349351798374764
 10
4460.875725468559
 20
766.322628554023
 30
0.0
 41
1.0
 10
4552.849804571597
 20
773.7282569835904
 30
0.0
 41
0.7349351798374764
 10
4552.849854460054
 20
866.0
 30
0.0
 41
1.0
  0
SPLINE
  5
17E
330
1F
100
AcDbEntity
  8
MAKE2D VISIBLE LINES
100
AcDbSpline
210
0.0
220
0.0
230
1.0
 70
    28
 71
     3
 72
     8
 73
     4
 74
     0
 42
0.0000000001
 43
0.0000000001
 40
0.0
 40
0.0
 40
0.0
 40
0.0
 40
5.861232266968687
 40
5.861232266968687
 40
5.861232266968687
 40
5.861232266968687
 10
4136.849854460054
 20
883.0000000000009
 30
0.0
 41
1.0
 10
4136.849854460054
 20
883.0006094827771
 30
0.0
 41
1.0
 10
4136.849854460054
 20
882.6601325856911
 30
0.0
 41
1.0
 10
4136.849854460054
 20
881.9999999998813
 30
0.0
 41
1.0
  0
SPLINE
  5
17F
330
1F
100
AcDbEntity
  8
MAKE2D VISIBLE LINES
100
AcDbSpline
210
0.0
220
0.0
230
1.0
 70
    24
 71
     2
 72
     6
 73
     3
 74
     0
 42
0.0000000001
 43
0.0000000001
 40
0.0
 40
0.0
 40
0.0
 40
31.50689873458919
 40
31.50689873458919
 40
31.50689873458919
 10
4141.849854460054
 20
970.6180339887499
 30
0.0
 10
4141.849854460054
 20
986.3714833560445
 30
0.0
 10
4141.849854460054
 20
1002.124932723339
 30
0.0
  0
SPLINE
  5
180
330
1F
100
AcDbEntity
  8
MAKE2D VISIBLE LINES
100
AcDbSpline
210
0.0
220
0.0
230
1.0
 70
    24
 71
     2
 72
     6
 73
     3
 74
     0
 42
0.0000000001
 43
0.0000000001
 40
0.0
 40
0.0
 40
0.0
 40
31.50689873458919
 40
31.50689873458919
 40
31.50689873458919
 10
4141.849854460054
 20
761.3819660112501
 30
0.0
 10
4141.849854460054
 20
745.6285166439555
 30
0.0
 10
4141.849854460054
 20
729.875067276661
 30
0.0
  0
SPLINE
  5
181
330
1F
100
AcDbEntity
  8
MAKE2D VISIBLE LINES
100
AcDbSpline
210
0.0
220
0.0
230
1.0
 70
    24
 71
     3
 72
     8
 73
     4
 74
     0
 42
0.0000000001
 43
0.0000000001
 40
0.0
 40
0.0
 40
0.0
 40
0.0
 40
29.27707133651635
 40
29.27707133651635
 40
29.27707133651635
 40
29.27707133651635
 10
4053.849854460054
 20
810.6385032153368
 30
0.0
 10
4053.849854460055
 20
800.8794794364981
 30
0.0
 10
4053.849854460054
 20
791.1204556576592
 30
0.0
 10
4053.849854460054
 20
781.3614318788204
 30
0.0
  0
SPLINE
  5
182
330
1F
100
AcDbEntity
  8
MAKE2D VISIBLE LINES
100
AcDbSpline
210
0.0
220
0.0
230
1.0
 70
    24
 71
     3
 72
     8
 73
     4
 74
     0
 42
0.0000000001
 43
0.0000000001
 40
0.0
 40
0.0
 40
0.0
 40
0.0
 40
64.00256036931879
 40
64.00256036931879
 40
64.00256036931879
 40
64.00256036931879
 10
4028.849854460054
 20
828.0012092393722
 30
0.0
 10
4028.849854460054
 20
806.6670224495992
 30
0.0
 10
4028.849854460055
 20
785.3328356598264
 30
0.0
 10
4028.849854460054
 20
763.9986488700534
 30
0.0
  0
SPLINE
  5
183
330
1F
100
AcDbEntity
  8
MAKE2D VISIBLE LINES
100
AcDbSpline
210
0.0
220
0.0
230
1.0
 70
    12
 71
     2
 72
     6
 73
     3
 74
     0
 42
0.0000000001
 43
0.0000000001
 40
0.0
 40
0.0
 40
0.0
 40
1.570785215582482
 40
1.570785215582482
 40
1.570785215582482
 10
4028.849854461008
 20
902.0015642451888
 30
0.0
 41
1.0
 10
4028.84987844401
 20
903.0015402611998
 30
0.0
 41
0.7071232344645396
 10
4029.849854460054
 20
903.0015628145206
 30
0.0
 41
1.0
  0
SPLINE
  5
184
330
1F
100
AcDbEntity
  8
MAKE2D VISIBLE LINES
100
AcDbSpline
210
0.0
220
0.0
230
1.0
 70
    12
 71
     2
 72
     6
 73
     3
 74
     0
 42
0.0000000001
 43
0.0000000001
 40
0.0
 40
0.0
 40
0.0
 40
18.21158112440074
 40
18.21158112440074
 40
18.21158112440074
 10
4141.068342096567
 20
728.8992264270422
 30
0.0
 41
1.0
 10
4132.165455425975
 20
726.9058979985377
 30
0.0
 41
0.9971223702213442
 10
4123.063544051035
 20
726.2814313332854
 30
0.0
 41
1.0
  0
SPLINE
  5
185
330
1F
100
AcDbEntity
  8
MAKE2D VISIBLE LINES
100
AcDbSpline
210
0.0
220
0.0
230
1.0
 70
    24
 71
     2
 72
     6
 73
     3
 74
     0
 42
0.0000000001
 43
0.0000000001
 40
0.0
 40
0.0
 40
0.0
 40
0.0815820767677451
 40
0.0815820767677451
 40
0.0815820767677451
 10
4114.531590020797
 20
726.2809638595646
 30
0.0
 10
4114.490798982413
 20
726.2809638595875
 30
0.0
 10
4114.450007944029
 20
726.2809638596104
 30
0.0
  0
SPLINE
  5
186
330
1F
100
AcDbEntity
  8
MAKE2D VISIBLE LINES
100
AcDbSpline
210
0.0
220
0.0
230
1.0
 70
    24
 71
     2
 72
     6
 73
     3
 74
     0
 42
0.0000000001
 43
0.0000000001
 40
0.0
 40
0.0
 40
0.0
 40
0.1622144778364145
 40
0.1622144778364145
 40
0.1622144778364145
 10
4114.849854460054
 20
726.2809638593071
 30
0.0
 10
4114.768747221136
 20
726.2809638593872
 30
0.0
 10
4114.687639982218
 20
726.2809638594672
 30
0.0
  0
SPLINE
  5
187
330
1F
100
AcDbEntity
  8
MAKE2D VISIBLE LINES
100
AcDbSpline
210
0.0
220
0.0
230
1.0
 70
    12
 71
     2
 72
     6
 73
     3
 74
     0
 42
0.0000000001
 43
0.0000000001
 40
0.0
 40
0.0
 40
0.0
 40
0.0137002021193284
 40
0.0137002021193284
 40
0.0137002021193284
 10
4106.649540434114
 20
726.2809638582412
 30
0.0
 41
1.0
 10
4106.642688133233
 20
726.2809844115976
 30
0.0
 41
0.9995117751270999
 10
4106.635850494667
 20
726.2814329075786
 30
0.0
 41
1.0
  0
SPLINE
  5
188
330
1F
100
AcDbEntity
  8
MAKE2D VISIBLE LINES
100
AcDbSpline
210
0.0
220
0.0
230
1.0
 70
    24
 71
     2
 72
     6
 73
     3
 74
     0
 42
0.0000000001
 43
0.0000000001
 40
0.0
 40
0.0
 40
0.0
 40
72.99999999999993
 40
72.99999999999993
 40
72.99999999999993
 10
4137.849854460054
 20
849.9999999999999
 30
0.0
 10
4137.849854460054
 20
813.5
 30
0.0
 10
4137.849854460054
 20
777.0
 30
0.0
  0
SPLINE
  5
189
330
1F
100
AcDbEntity
  8
MAKE2D VISIBLE LINES
100
AcDbSpline
210
0.0
220
0.0
230
1.0
 70
    12
 71
     2
 72
     6
 73
     3
 74
     0
 42
0.0000000001
 43
0.0000000001
 40
0.0
 40
0.0
 40
0.0
 40
1.570767776208837
 40
1.570767776208837
 40
1.570767776208837
 10
4029.849854460054
 20
828.9986013172722
 30
0.0
 41
1.0
 10
4028.849895106036
 20
828.9986225101183
 30
0.0
 41
0.7071286444847852
 10
4028.849854461693
 20
829.9985818635355
 30
0.0
 41
1.0
  0
SPLINE
  5
18A
330
1F
100
AcDbEntity
  8
MAKE2D VISIBLE LINES
100
AcDbSpline
210
0.0
220
0.0
230
1.0
 70
    12
 71
     2
 72
     6
 73
     3
 74
     0
 42
0.0000000001
 43
0.0000000001
 40
0.0
 40
0.0
 40
0.0
 40
1.438367848630435
 40
1.438367848630435
 40
1.438367848630435
 10
4064.858608943935
 20
886.8679746302201
 30
0.0
 41
1.0
 10
4064.974242749815
 20
886.0000318379114
 30
0.0
 41
0.7523596380315093
 10
4065.849854460054
 20
886.000005821349
 30
0.0
 41
1.0
  0
SPLINE
  5
18B
330
1F
100
AcDbEntity
  8
MAKE2D VISIBLE LINES
100
AcDbSpline
210
0.0
220
0.0
230
1.0
 70
    12
 71
     2
 72
     6
 73
     3
 74
     0
 42
0.0000000001
 43
0.0000000001
 40
0.0
 40
0.0
 40
0.0
 40
1.521913752388194
 40
1.521913752388194
 40
1.521913752388194
 10
4136.851879911657
 20
956.0
 30
0.0
 41
1.0
 10
4137.804124779639
 20
956.0000367715861
 30
0.0
 41
0.7242075371437241
 10
4137.850776858442
 20
955.0489353713701
 30
0.0
 41
1.0
  0
ENDSEC
  0
SECTION
  2
OBJECTS
  0
DICTIONARY
  5
C
330
0
100
AcDbDictionary
281
     1
  3
ACAD_GROUP
350
D
  3
ACAD_LAYOUT
350
1A
  3
ACAD_MLEADERSTYLE
350
18F
  3
ACAD_MLINESTYLE
350
17
  3
ACAD_PLOTSETTINGS
350
19
  3
ACAD_PLOTSTYLENAME
350
E
  3
ACAD_SCALELIST
350
3D
  3
ACAD_TABLESTYLE
350
18E
  3
ACAD_VISUALSTYLE
350
2A
  3
AcDbVariableDictionary
350
18C
  0
DICTIONARY
  5
D
102
{ACAD_REACTORS
330
C
102
}
330
C
100
AcDbDictionary
281
     1
  0
DICTIONARY
  5
1A
102
{ACAD_REACTORS
330
C
102
}
330
C
100
AcDbDictionary
281
     1
  3
Layout1
350
1E
  3
Layout2
350
26
  3
Model
350
22
  0
DICTIONARY
  5
18F
102
{ACAD_REACTORS
330
C
102
}
330
C
100
AcDbDictionary
281
     1
  0
DICTIONARY
  5
17
102
{ACAD_REACTORS
330
C
102
}
330
C
100
AcDbDictionary
281
     1
  3
Standard
350
18
  0
DICTIONARY
  5
19
102
{ACAD_REACTORS
330
C
102
}
330
C
100
AcDbDictionary
281
     1
  0
ACDBDICTIONARYWDFLT
  5
E
102
{ACAD_REACTORS
330
C
102
}
330
C
100
AcDbDictionary
281
     1
  3
Normal
350
F
100
AcDbDictionaryWithDefault
340
F
  0
DICTIONARY
  5
3D
102
{ACAD_REACTORS
330
C
102
}
330
C
100
AcDbDictionary
281
     1
  3
A0
350
3E
  3
A1
350
3F
  3
A2
350
40
  3
A3
350
41
  3
A4
350
42
  3
A5
350
43
  3
A6
350
44
  3
A7
350
45
  3
A8
350
46
  3
A9
350
47
  3
B0
350
48
  3
B1
350
49
  3
B2
350
4A
  3
B3
350
4B
  3
B4
350
4C
  3
B5
350
4D
  3
B6
350
4E
  3
B7
350
4F
  3
B8
350
50
  3
B9
350
51
  3
C0
350
52
  3
C1
350
53
  3
C2
350
54
  3
C3
350
55
  3
C4
350
56
  3
C5
350
57
  3
C6
350
58
  3
C7
350
59
  3
C8
350
5A
  3
C9
350
5B
  3
D0
350
5C
  3
D1
350
5D
  3
D2
350
5E
  0
DICTIONARY
  5
18E
102
{ACAD_REACTORS
330
C
102
}
330
C
100
AcDbDictionary
281
     1
  0
DICTIONARY
  5
2A
102
{ACAD_REACTORS
330
C
102
}
330
C
100
AcDbDictionary
281
     1
  3
2dWireframe
350
2F
  3
3D Hidden
350
31
  3
3dWireframe
350
30
  3
Basic
350
32
  3
Brighten
350
36
  3
ColorChange
350
3A
  3
Conceptual
350
34
  3
Dim
350
35
  3
Facepattern
350
39
  3
Flat
350
2B
  3
FlatWithEdges
350
2C
  3
Gouraud
350
2D
  3
GouraudWithEdges
350
2E
  3
Linepattern
350
38
  3
Realistic
350
33
  3
Thicken
350
37
  0
DICTIONARY
  5
18C
102
{ACAD_REACTORS
330
C
102
}
330
C
100
AcDbDictionary
281
     1
  3
CANNOSCALE
350
18D
  0
LAYOUT
  5
1E
102
{ACAD_REACTORS
330
1A
102
}
330
1A
100
AcDbPlotSettings
  1

  2
none_device
  4

  6

 40
0.0
 41
0.0
 42
0.0
 43
0.0
 44
0.0
 45
0.0
 46
0.0
 47
0.0
 48
0.0
 49
0.0
140
0.0
141
0.0
142
1.0
143
1.0
 70
   688
 72
     0
 73
     0
 74
     5
  7

 75
    16
 76
     0
 77
     2
 78
   300
147
1.0
148
0.0
149
0.0
100
AcDbLayout
  1
Layout1
 70
     1
 71
     1
 10
0.0
 20
0.0
 11
12.0
 21
9.0
 12
0.0
 22
0.0
 32
0.0
 14
1.000000000000000E+20
 24
1.000000000000000E+20
 34
1.000000000000000E+20
 15
-1.000000000000000E+20
 25
-1.000000000000000E+20
 35
-1.000000000000000E+20
146
0.0
 13
0.0
 23
0.0
 33
0.0
 16
1.0
 26
0.0
 36
0.0
 17
0.0
 27
1.0
 37
0.0
 76
     0
330
1B
  0
LAYOUT
  5
26
102
{ACAD_REACTORS
330
1A
102
}
330
1A
100
AcDbPlotSettings
  1

  2
none_device
  4

  6

 40
0.0
 41
0.0
 42
0.0
 43
0.0
 44
0.0
 45
0.0
 46
0.0
 47
0.0
 48
0.0
 49
0.0
140
0.0
141
0.0
142
1.0
143
1.0
 70
   688
 72
     0
 73
     0
 74
     5
  7

 75
    16
 76
     0
 77
     2
 78
   300
147
1.0
148
0.0
149
0.0
100
AcDbLayout
  1
Layout2
 70
     1
 71
     2
 10
0.0
 20
0.0
 11
0.0
 21
0.0
 12
0.0
 22
0.0
 32
0.0
 14
0.0
 24
0.0
 34
0.0
 15
0.0
 25
0.0
 35
0.0
146
0.0
 13
0.0
 23
0.0
 33
0.0
 16
1.0
 26
0.0
 36
0.0
 17
0.0
 27
1.0
 37
0.0
 76
     0
330
23
  0
LAYOUT
  5
22
102
{ACAD_REACTORS
330
1A
102
}
330
1A
100
AcDbPlotSettings
  1

  2
none_device
  4

  6

 40
0.0
 41
0.0
 42
0.0
 43
0.0
 44
0.0
 45
0.0
 46
0.0
 47
0.0
 48
0.0
 49
0.0
140
0.0
141
0.0
142
1.0
143
1.0
 70
  1712
 72
     0
 73
     0
 74
     0
  7

 75
     0
 76
     0
 77
     2
 78
   300
147
1.0
148
0.0
149
0.0
100
AcDbLayout
  1
Model
 70
     1
 71
     0
 10
0.0
 20
0.0
 11
12.0
 21
9.0
 12
0.0
 22
0.0
 32
0.0
 14
3945.299854460054
 24
726.0
 34
0.0
 15
4552.849854460055
 25
1170.550079813448
 35
0.0
146
0.0
 13
0.0
 23
0.0
 33
0.0
 16
1.0
 26
0.0
 36
0.0
 17
0.0
 27
1.0
 37
0.0
 76
     0
330
1F
331
29
  0
MLINESTYLE
  5
18
102
{ACAD_REACTORS
330
17
102
}
330
17
100
AcDbMlineStyle
  2
Standard
 70
     0
  3

 62
   256
 51
90.0
 52
90.0
 71
     2
 49
0.5
 62
   256
  6
BYLAYER
 49
-0.5
 62
   256
  6
BYLAYER
  0
ACDBPLACEHOLDER
  5
F
102
{ACAD_REACTORS
330
E
102
}
330
E
  0
SCALE
  5
3E
102
{ACAD_REACTORS
330
3D
102
}
330
3D
100
AcDbScale
 70
     0
300
1:1
140
1.0
141
1.0
290
     1
  0
SCALE
  5
3F
102
{ACAD_REACTORS
330
3D
102
}
330
3D
100
AcDbScale
 70
     0
300
1:2
140
1.0
141
2.0
290
     0
  0
SCALE
  5
40
102
{ACAD_REACTORS
330
3D
102
}
330
3D
100
AcDbScale
 70
     0
300
1:4
140
1.0
141
4.0
290
     0
  0
SCALE
  5
41
102
{ACAD_REACTORS
330
3D
102
}
330
3D
100
AcDbScale
 70
     0
300
1:5
140
1.0
141
5.0
290
     0
  0
SCALE
  5
42
102
{ACAD_REACTORS
330
3D
102
}
330
3D
100
AcDbScale
 70
     0
300
1:8
140
1.0
141
8.0
290
     0
  0
SCALE
  5
43
102
{ACAD_REACTORS
330
3D
102
}
330
3D
100
AcDbScale
 70
     0
300
1:10
140
1.0
141
10.0
290
     0
  0
SCALE
  5
44
102
{ACAD_REACTORS
330
3D
102
}
330
3D
100
AcDbScale
 70
     0
300
1:16
140
1.0
141
16.0
290
     0
  0
SCALE
  5
45
102
{ACAD_REACTORS
330
3D
102
}
330
3D
100
AcDbScale
 70
     0
300
1:20
140
1.0
141
20.0
290
     0
  0
SCALE
  5
46
102
{ACAD_REACTORS
330
3D
102
}
330
3D
100
AcDbScale
 70
     0
300
1:30
140
1.0
141
30.0
290
     0
  0
SCALE
  5
47
102
{ACAD_REACTORS
330
3D
102
}
330
3D
100
AcDbScale
 70
     0
300
1:40
140
1.0
141
40.0
290
     0
  0
SCALE
  5
48
102
{ACAD_REACTORS
330
3D
102
}
330
3D
100
AcDbScale
 70
     0
300
1:50
140
1.0
141
50.0
290
     0
  0
SCALE
  5
49
102
{ACAD_REACTORS
330
3D
102
}
330
3D
100
AcDbScale
 70
     0
300
1:100
140
1.0
141
100.0
290
     0
  0
SCALE
  5
4A
102
{ACAD_REACTORS
330
3D
102
}
330
3D
100
AcDbScale
 70
     0
300
2:1
140
2.0
141
1.0
290
     0
  0
SCALE
  5
4B
102
{ACAD_REACTORS
330
3D
102
}
330
3D
100
AcDbScale
 70
     0
300
4:1
140
4.0
141
1.0
290
     0
  0
SCALE
  5
4C
102
{ACAD_REACTORS
330
3D
102
}
330
3D
100
AcDbScale
 70
     0
300
8:1
140
8.0
141
1.0
290
     0
  0
SCALE
  5
4D
102
{ACAD_REACTORS
330
3D
102
}
330
3D
100
AcDbScale
 70
     0
300
10:1
140
10.0
141
1.0
290
     0
  0
SCALE
  5
4E
102
{ACAD_REACTORS
330
3D
102
}
330
3D
100
AcDbScale
 70
     0
300
100:1
140
100.0
141
1.0
290
     0
  0
SCALE
  5
4F
102
{ACAD_REACTORS
330
3D
102
}
330
3D
100
AcDbScale
 70
     0
300
1/128" = 1'-0"
140
0.0078125
141
12.0
290
     0
  0
SCALE
  5
50
102
{ACAD_REACTORS
330
3D
102
}
330
3D
100
AcDbScale
 70
     0
300
1/64" = 1'-0"
140
0.015625
141
12.0
290
     0
  0
SCALE
  5
51
102
{ACAD_REACTORS
330
3D
102
}
330
3D
100
AcDbScale
 70
     0
300
1/32" = 1'-0"
140
0.03125
141
12.0
290
     0
  0
SCALE
  5
52
102
{ACAD_REACTORS
330
3D
102
}
330
3D
100
AcDbScale
 70
     0
300
1/16" = 1'-0"
140
0.0625
141
12.0
290
     0
  0
SCALE
  5
53
102
{ACAD_REACTORS
330
3D
102
}
330
3D
100
AcDbScale
 70
     0
300
3/32" = 1'-0"
140
0.09375
141
12.0
290
     0
  0
SCALE
  5
54
102
{ACAD_REACTORS
330
3D
102
}
330
3D
100
AcDbScale
 70
     0
300
1/8" = 1'-0"
140
0.125
141
12.0
290
     0
  0
SCALE
  5
55
102
{ACAD_REACTORS
330
3D
102
}
330
3D
100
AcDbScale
 70
     0
300
3/16" = 1'-0"
140
0.1875
141
12.0
290
     0
  0
SCALE
  5
56
102
{ACAD_REACTORS
330
3D
102
}
330
3D
100
AcDbScale
 70
     0
300
1/4" = 1'-0"
140
0.25
141
12.0
290
     0
  0
SCALE
  5
57
102
{ACAD_REACTORS
330
3D
102
}
330
3D
100
AcDbScale
 70
     0
300
3/8" = 1'-0"
140
0.375
141
12.0
290
     0
  0
SCALE
  5
58
102
{ACAD_REACTORS
330
3D
102
}
330
3D
100
AcDbScale
 70
     0
300
1/2" = 1'-0"
140
0.5
141
12.0
290
     0
  0
SCALE
  5
59
102
{ACAD_REACTORS
330
3D
102
}
330
3D
100
AcDbScale
 70
     0
300
3/4" = 1'-0"
140
0.75
141
12.0
290
     0
  0
SCALE
  5
5A
102
{ACAD_REACTORS
330
3D
102
}
330
3D
100
AcDbScale
 70
     0
300
1" = 1'-0"
140
1.0
141
12.0
290
     0
  0
SCALE
  5
5B
102
{ACAD_REACTORS
330
3D
102
}
330
3D
100
AcDbScale
 70
     0
300
1-1/2" = 1'-0"
140
1.5
141
12.0
290
     0
  0
SCALE
  5
5C
102
{ACAD_REACTORS
330
3D
102
}
330
3D
100
AcDbScale
 70
     0
300
3" = 1'-0"
140
3.0
141
12.0
290
     0
  0
SCALE
  5
5D
102
{ACAD_REACTORS
330
3D
102
}
330
3D
100
AcDbScale
 70
     0
300
6" = 1'-0"
140
6.0
141
12.0
290
     0
  0
SCALE
  5
5E
102
{ACAD_REACTORS
330
3D
102
}
330
3D
100
AcDbScale
 70
     0
300
1'-0" = 1'-0"
140
12.0
141
12.0
290
     0
  0
VISUALSTYLE
  5
2F
102
{ACAD_REACTORS
330
2A
102
}
330
2A
100
AcDbVisualStyle
  2
2dWireframe
 70
     4
 71
     0
 72
     2
 73
     0
 90
        0
 40
-0.6
 41
-30.0
 62
     5
 63
     7
421
 16777215
 74
     1
 91
        4
 64
     7
 65
   257
 75
     1
175
     1
 42
1.0
 92
        0
 66
   257
 43
1.0
 76
     1
 77
     6
 78
     2
 67
     7
 79
     5
170
     0
171
     0
290
     0
174
     0
 93
        1
 44
0.0
173
     0
291
     0
 45
0.0
1001
ACAD
1000
AcDbSavedByObjectVersion
1070
     0
  0
VISUALSTYLE
  5
31
102
{ACAD_REACTORS
330
2A
102
}
330
2A
100
AcDbVisualStyle
  2
3D Hidden
 70
     6
 71
     1
 72
     2
 73
     2
 90
        0
 40
-0.6
 41
-30.0
 62
     5
 63
     7
421
 16777215
 74
     2
 91
        2
 64
     7
 65
   257
 75
     2
175
     1
 42
40.0
 92
        0
 66
   257
 43
1.0
 76
     1
 77
     6
 78
     2
 67
     7
 79
     3
170
     0
171
     0
290
     0
174
     0
 93
        1
 44
0.0
173
     0
291
     0
 45
0.0
1001
ACAD
1000
AcDbSavedByObjectVersion
1070
     0
  0
VISUALSTYLE
  5
30
102
{ACAD_REACTORS
330
2A
102
}
330
2A
100
AcDbVisualStyle
  2
3dWireframe
 70
     5
 71
     0
 72
     2
 73
     0
 90
        0
 40
-0.6
 41
-30.0
 62
     5
 63
     7
421
 16777215
 74
     1
 91
        4
 64
     7
 65
   257
 75
     1
175
     1
 42
1.0
 92
        0
 66
   257
 43
1.0
 76
     1
 77
     6
 78
     2
 67
     7
 79
     5
170
     0
171
     0
290
     0
174
     0
 93
        1
 44
0.0
173
     0
291
     0
 45
0.0
1001
ACAD
1000
AcDbSavedByObjectVersion
1070
     0
  0
VISUALSTYLE
  5
32
102
{ACAD_REACTORS
330
2A
102
}
330
2A
100
AcDbVisualStyle
  2
Basic
 70
     7
 71
     1
 72
     0
 73
     1
 90
        0
 40
-0.6
 41
-30.0
 62
     5
 63
     7
421
 16777215
 74
     0
 91
        4
 64
     7
 65
   257
 75
     1
175
     1
 42
1.0
 92
        8
 66
     7
 43
1.0
 76
     1
 77
     6
 78
     2
 67
     7
 79
     5
170
     0
171
     0
290
     0
174
     0
 93
        1
 44
0.0
173
     0
291
     1
 45
0.0
1001
ACAD
1000
AcDbSavedByObjectVersion
1070
     0
  0
VISUALSTYLE
  5
36
102
{ACAD_REACTORS
330
2A
102
}
330
2A
100
AcDbVisualStyle
  2
Brighten
 70
    12
 71
     2
 72
     2
 73
     0
 90
        0
 40
-0.6
 41
-30.0
 62
     5
 63
     7
421
 16777215
 74
     1
 91
        4
 64
     7
 65
   257
 75
     1
175
     1
 42
1.0
 92
        8
 66
     7
 43
1.0
 76
     1
 77
     6
 78
     2
 67
     7
 79
     5
170
     0
171
     0
290
     0
174
     0
 93
        1
 44
50.0
173
     0
291
     1
 45
0.0
1001
ACAD
1000
AcDbSavedByObjectVersion
1070
     0
  0
VISUALSTYLE
  5
3A
102
{ACAD_REACTORS
330
2A
102
}
330
2A
100
AcDbVisualStyle
  2
ColorChange
 70
    16
 71
     2
 72
     2
 73
     3
 90
        0
 40
-0.6
 41
-30.0
 62
     5
 63
     8
421
  8421504
 74
     1
 91
        4
 64
     7
 65
   257
 75
     1
175
     1
 42
1.0
 92
        8
 66
     8
424
  8421504
 43
1.0
 76
     1
 77
     6
 78
     2
 67
     7
 79
     5
170
     0
171
     0
290
     0
174
     0
 93
        1
 44
0.0
173
     0
291
     1
 45
0.0
1001
ACAD
1000
AcDbSavedByObjectVersion
1070
     0
  0
VISUALSTYLE
  5
34
102
{ACAD_REACTORS
330
2A
102
}
330
2A
100
AcDbVisualStyle
  2
Conceptual
 70
     9
 71
     3
 72
     2
 73
     0
 90
        0
 40
-0.6
 41
-30.0
 62
     5
 63
     7
421
 16777215
 74
     2
 91
        2
 64
     7
 65
   257
 75
     1
175
     1
 42
40.0
 92
        8
 66
     7
 43
1.0
 76
     1
 77
     6
 78
     2
 67
     7
 79
     3
170
     0
171
     0
290
     0
174
     0
 93
        1
 44
0.0
173
     0
291
     0
 45
0.0
1001
ACAD
1000
AcDbSavedByObjectVersion
1070
     0
  0
VISUALSTYLE
  5
35
102
{ACAD_REACTORS
330
2A
102
}
330
2A
100
AcDbVisualStyle
  2
Dim
 70
    11
 71
     2
 72
     2
 73
     0
 90
        0
 40
-0.6
 41
-30.0
 62
     5
 63
     7
421
 16777215
 74
     1
 91
        4
 64
     7
 65
   257
 75
     1
175
     1
 42
1.0
 92
        8
 66
     7
 43
1.0
 76
     1
 77
     6
 78
     2
 67
     7
 79
     5
170
     0
171
     0
290
     0
174
     0
 93
        1
 44
-50.0
173
     0
291
     1
 45
0.0
1001
ACAD
1000
AcDbSavedByObjectVersion
1070
     0
  0
VISUALSTYLE
  5
39
102
{ACAD_REACTORS
330
2A
102
}
330
2A
100
AcDbVisualStyle
  2
Facepattern
 70
    15
 71
     2
 72
     2
 73
     0
 90
        0
 40
-0.6
 41
-30.0
 62
     5
 63
     7
421
 16777215
 74
     1
 91
        4
 64
     7
 65
   257
 75
     1
175
     1
 42
1.0
 92
        8
 66
     7
 43
1.0
 76
     1
 77
     6
 78
     2
 67
     7
 79
     5
170
     0
171
     0
290
     0
174
     0
 93
        1
 44
0.0
173
     0
291
     1
 45
0.0
1001
ACAD
1000
AcDbSavedByObjectVersion
1070
     0
  0
VISUALSTYLE
  5
2B
102
{ACAD_REACTORS
330
2A
102
}
330
2A
100
AcDbVisualStyle
  2
Flat
 70
     0
 71
     2
 72
     1
 73
     1
 90
        2
 40
-0.6
 41
30.0
 62
     5
 63
     7
421
 16777215
 74
     0
 91
        4
 64
     7
 65
   257
 75
     1
175
     1
 42
1.0
 92
        8
 66
     7
 43
1.0
 76
     1
 77
     6
 78
     2
 67
     7
 79
     5
170
     0
171
     0
290
     0
174
     0
 93
       13
 44
0.0
173
     0
291
     1
 45
0.0
1001
ACAD
1000
AcDbSavedByObjectVersion
1070
     0
  0
VISUALSTYLE
  5
2C
102
{ACAD_REACTORS
330
2A
102
}
330
2A
100
AcDbVisualStyle
  2
FlatWithEdges
 70
     1
 71
     2
 72
     1
 73
     1
 90
        2
 40
-0.6
 41
30.0
 62
     5
 63
     7
421
 16777215
 74
     1
 91
        4
 64
     7
 65
   257
 75
     1
175
     1
 42
1.0
 92
        0
 66
   257
 43
1.0
 76
     1
 77
     6
 78
     2
 67
     7
 79
     5
170
     0
171
     0
290
     0
174
     0
 93
       13
 44
0.0
173
     0
291
     1
 45
0.0
1001
ACAD
1000
AcDbSavedByObjectVersion
1070
     0
  0
VISUALSTYLE
  5
2D
102
{ACAD_REACTORS
330
2A
102
}
330
2A
100
AcDbVisualStyle
  2
Gouraud
 70
     2
 71
     2
 72
     2
 73
     1
 90
        2
 40
-0.6
 41
30.0
 62
     5
 63
     7
421
 16777215
 74
     0
 91
        4
 64
     7
 65
   257
 75
     1
175
     1
 42
1.0
 92
        0
 66
     7
 43
1.0
 76
     1
 77
     6
 78
     2
 67
     7
 79
     5
170
     0
171
     0
290
     0
174
     0
 93
       13
 44
0.0
173
     0
291
     1
 45
0.0
1001
ACAD
1000
AcDbSavedByObjectVersion
1070
     0
  0
VISUALSTYLE
  5
2E
102
{ACAD_REACTORS
330
2A
102
}
330
2A
100
AcDbVisualStyle
  2
GouraudWithEdges
 70
     3
 71
     2
 72
     2
 73
     1
 90
        2
 40
-0.6
 41
30.0
 62
     5
 63
     7
421
 16777215
 74
     1
 91
        4
 64
     7
 65
   257
 75
     1
175
     1
 42
1.0
 92
        0
 66
   257
 43
1.0
 76
     1
 77
     6
 78
     2
 67
     7
 79
     5
170
     0
171
     0
290
     0
174
     0
 93
       13
 44
0.0
173
     0
291
     1
 45
0.0
1001
ACAD
1000
AcDbSavedByObjectVersion
1070
     0
  0
VISUALSTYLE
  5
38
102
{ACAD_REACTORS
330
2A
102
}
330
2A
100
AcDbVisualStyle
  2
Linepattern
 70
    14
 71
     2
 72
     2
 73
     0
 90
        0
 40
-0.6
 41
-30.0
 62
     5
 63
     7
421
 16777215
 74
     1
 91
        4
 64
     7
 65
   257
 75
     7
175
     7
 42
1.0
 92
        8
 66
     7
 43
1.0
 76
     1
 77
     6
 78
     2
 67
     7
 79
     5
170
     0
171
     0
290
     0
174
     0
 93
        1
 44
0.0
173
     0
291
     1
 45
0.0
1001
ACAD
1000
AcDbSavedByObjectVersion
1070
     0
  0
VISUALSTYLE
  5
33
102
{ACAD_REACTORS
330
2A
102
}
330
2A
100
AcDbVisualStyle
  2
Realistic
 70
     8
 71
     2
 72
     2
 73
     0
 90
        0
 40
-0.6
 41
-30.0
 62
     5
 63
     7
421
 16777215
 74
     1
 91
        0
 64
     7
 65
   257
 75
     1
175
     1
 42
1.0
 92
        8
 66
     8
424
  7895160
 43
1.0
 76
     1
 77
     6
 78
     2
 67
     7
 79
     5
170
     0
171
     0
290
     0
174
     0
 93
       13
 44
0.0
173
     0
291
     0
 45
0.0
1001
ACAD
1000
AcDbSavedByObjectVersion
1070
     0
  0
VISUALSTYLE
  5
37
102
{ACAD_REACTORS
330
2A
102
}
330
2A
100
AcDbVisualStyle
  2
Thicken
 70
    13
 71
     2
 72
     2
 73
     0
 90
        0
 40
-0.6
 41
-30.0
 62
     5
 63
     7
421
 16777215
 74
     1
 91
        4
 64
     7
 65
   257
 75
     1
175
     1
 42
1.0
 92
       12
 66
     7
 43
1.0
 76
     1
 77
     6
 78
     2
 67
     7
 79
     5
170
     0
171
     0
290
     0
174
     0
 93
        1
 44
0.0
173
     0
291
     1
 45
0.0
1001
ACAD
1000
AcDbSavedByObjectVersion
1070
     0
  0
DICTIONARYVAR
  5
18D
102
{ACAD_REACTORS
330
18C
102
}
330
18C
100
DictionaryVariables
280
     0
  1
1:1
  0
ENDSEC
  0
EOF
