  0
SECTION
  2
HEADER
  9
$ACADVER
  1
AC1018
  9
$ACADMAINTVER
 70
     0
  9
$DWGCODEPAGE
  3
ANSI_936
  9
$INSBASE
 10
0.0
 20
0.0
 30
0.0
  9
$EXTMIN
 10
363.7296074103262
 20
1392.080165688467
 30
0.0
  9
$EXTMAX
 10
520.0769755889759
 20
1764.630165688467
 30
0.0
  9
$LIMMIN
 10
0.0
 20
0.0
  9
$LIMMAX
 10
12.0
 20
9.0
  9
$ORTHOMODE
 70
     0
  9
$REGENMODE
 70
     1
  9
$FILLMODE
 70
     1
  9
$QTEXTMODE
 70
     0
  9
$MIRRTEXT
 70
     1
  9
$LTSCALE
 40
1.0
  9
$ATTMODE
 70
     1
  9
$TEXTSIZE
 40
0.2
  9
$TRACEWID
 40
0.05
  9
$TEXTSTYLE
  7
Standard
  9
$CLAYER
  8
E45716
  9
$CELTYPE
  6
ByLayer
  9
$CECOLOR
 62
   256
  9
$CELTSCALE
 40
1.0
  9
$DISPSILH
 70
     0
  9
$DIMSCALE
 40
1.0
  9
$DIMASZ
 40
0.18
  9
$DIMEXO
 40
0.0625
  9
$DIMDLI
 40
0.38
  9
$DIMRND
 40
0.0
  9
$DIMDLE
 40
0.0
  9
$DIMEXE
 40
0.18
  9
$DIMTP
 40
0.0
  9
$DIMTM
 40
0.0
  9
$DIMTXT
 40
0.18
  9
$DIMCEN
 40
0.09
  9
$DIMTSZ
 40
0.0
  9
$DIMTOL
 70
     0
  9
$DIMLIM
 70
     0
  9
$DIMTIH
 70
     1
  9
$DIMTOH
 70
     1
  9
$DIMSE1
 70
     0
  9
$DIMSE2
 70
     0
  9
$DIMTAD
 70
     0
  9
$DIMZIN
 70
     0
  9
$DIMBLK
  1

  9
$DIMASO
 70
     1
  9
$DIMSHO
 70
     1
  9
$DIMPOST
  1

  9
$DIMAPOST
  1

  9
$DIMALT
 70
     0
  9
$DIMALTD
 70
     2
  9
$DIMALTF
 40
25.4
  9
$DIMLFAC
 40
1.0
  9
$DIMTOFL
 70
     0
  9
$DIMTVP
 40
0.0
  9
$DIMTIX
 70
     0
  9
$DIMSOXD
 70
     0
  9
$DIMSAH
 70
     0
  9
$DIMBLK1
  1

  9
$DIMBLK2
  1

  9
$DIMSTYLE
  2
Standard
  9
$DIMCLRD
 70
     0
  9
$DIMCLRE
 70
     0
  9
$DIMCLRT
 70
     0
  9
$DIMTFAC
 40
1.0
  9
$DIMGAP
 40
0.09
  9
$DIMJUST
 70
     0
  9
$DIMSD1
 70
     0
  9
$DIMSD2
 70
     0
  9
$DIMTOLJ
 70
     1
  9
$DIMTZIN
 70
     0
  9
$DIMALTZ
 70
     0
  9
$DIMALTTZ
 70
     0
  9
$DIMUPT
 70
     0
  9
$DIMDEC
 70
     4
  9
$DIMTDEC
 70
     4
  9
$DIMALTU
 70
     2
  9
$DIMALTTD
 70
     2
  9
$DIMTXSTY
  7
Standard
  9
$DIMAUNIT
 70
     0
  9
$DIMADEC
 70
     0
  9
$DIMALTRND
 40
0.0
  9
$DIMAZIN
 70
     0
  9
$DIMDSEP
 70
    46
  9
$DIMATFIT
 70
     3
  9
$DIMFRAC
 70
     0
  9
$DIMLDRBLK
  1

  9
$DIMLUNIT
 70
     2
  9
$DIMLWD
 70
    -2
  9
$DIMLWE
 70
    -2
  9
$DIMTMOVE
 70
     2
  9
$LUNITS
 70
     2
  9
$LUPREC
 70
     2
  9
$SKETCHINC
 40
0.1
  9
$FILLETRAD
 40
0.5
  9
$AUNITS
 70
     0
  9
$AUPREC
 70
     0
  9
$MENU
  1
.
  9
$ELEVATION
 40
0.0
  9
$PELEVATION
 40
0.0
  9
$THICKNESS
 40
0.0
  9
$LIMCHECK
 70
     0
  9
$CHAMFERA
 40
0.5
  9
$CHAMFERB
 40
0.5
  9
$CHAMFERC
 40
1.0
  9
$CHAMFERD
 40
0.0
  9
$SKPOLY
 70
     0
  9
$TDCREATE
 40
2456450.245548496
  9
$TDUCREATE
 40
2456450.162215162
  9
$TDUPDATE
 40
2456450.245548507
  9
$TDUUPDATE
 40
2456450.162215174
  9
$TDINDWG
 40
0.0000000116
  9
$TDUSRTIMER
 40
0.0000000116
  9
$USRTIMER
 70
     1
  9
$ANGBASE
 50
0.0
  9
$ANGDIR
 70
     0
  9
$PDMODE
 70
     0
  9
$PDSIZE
 40
0.0
  9
$PLINEWID
 40
0.0
  9
$SPLFRAME
 70
     0
  9
$SPLINETYPE
 70
     6
  9
$SPLINESEGS
 70
     8
  9
$HANDSEED
  5
EF
  9
$SURFTAB1
 70
     6
  9
$SURFTAB2
 70
     6
  9
$SURFTYPE
 70
     6
  9
$SURFU
 70
     6
  9
$SURFV
 70
     6
  9
$UCSBASE
  2

  9
$UCSNAME
  2

  9
$UCSORG
 10
0.0
 20
0.0
 30
0.0
  9
$UCSXDIR
 10
1.0
 20
0.0
 30
0.0
  9
$UCSYDIR
 10
0.0
 20
1.0
 30
0.0
  9
$UCSORTHOREF
  2

  9
$UCSORTHOVIEW
 70
     0
  9
$UCSORGTOP
 10
0.0
 20
0.0
 30
0.0
  9
$UCSORGBOTTOM
 10
0.0
 20
0.0
 30
0.0
  9
$UCSORGLEFT
 10
0.0
 20
0.0
 30
0.0
  9
$UCSORGRIGHT
 10
0.0
 20
0.0
 30
0.0
  9
$UCSORGFRONT
 10
0.0
 20
0.0
 30
0.0
  9
$UCSORGBACK
 10
0.0
 20
0.0
 30
0.0
  9
$PUCSBASE
  2

  9
$PUCSNAME
  2

  9
$PUCSORG
 10
0.0
 20
0.0
 30
0.0
  9
$PUCSXDIR
 10
1.0
 20
0.0
 30
0.0
  9
$PUCSYDIR
 10
0.0
 20
1.0
 30
0.0
  9
$PUCSORTHOREF
  2

  9
$PUCSORTHOVIEW
 70
     0
  9
$PUCSORGTOP
 10
0.0
 20
0.0
 30
0.0
  9
$PUCSORGBOTTOM
 10
0.0
 20
0.0
 30
0.0
  9
$PUCSORGLEFT
 10
0.0
 20
0.0
 30
0.0
  9
$PUCSORGRIGHT
 10
0.0
 20
0.0
 30
0.0
  9
$PUCSORGFRONT
 10
0.0
 20
0.0
 30
0.0
  9
$PUCSORGBACK
 10
0.0
 20
0.0
 30
0.0
  9
$USERI1
 70
     0
  9
$USERI2
 70
     0
  9
$USERI3
 70
     0
  9
$USERI4
 70
     0
  9
$USERI5
 70
     0
  9
$USERR1
 40
0.0
  9
$USERR2
 40
0.0
  9
$USERR3
 40
0.0
  9
$USERR4
 40
0.0
  9
$USERR5
 40
0.0
  9
$WORLDVIEW
 70
     1
  9
$SHADEDGE
 70
     3
  9
$SHADEDIF
 70
    70
  9
$TILEMODE
 70
     1
  9
$MAXACTVP
 70
    64
  9
$PINSBASE
 10
0.0
 20
0.0
 30
0.0
  9
$PLIMCHECK
 70
     0
  9
$PEXTMIN
 10
1.000000000000000E+20
 20
1.000000000000000E+20
 30
1.000000000000000E+20
  9
$PEXTMAX
 10
-1.000000000000000E+20
 20
-1.000000000000000E+20
 30
-1.000000000000000E+20
  9
$PLIMMIN
 10
0.0
 20
0.0
  9
$PLIMMAX
 10
12.0
 20
9.0
  9
$UNITMODE
 70
     0
  9
$VISRETAIN
 70
     1
  9
$PLINEGEN
 70
     0
  9
$PSLTSCALE
 70
     1
  9
$TREEDEPTH
 70
  3020
  9
$CMLSTYLE
  2
Standard
  9
$CMLJUST
 70
     0
  9
$CMLSCALE
 40
1.0
  9
$PROXYGRAPHICS
 70
     1
  9
$MEASUREMENT
 70
     0
  9
$CELWEIGHT
370
    -1
  9
$ENDCAPS
280
     0
  9
$JOINSTYLE
280
     0
  9
$LWDISPLAY
290
     0
  9
$INSUNITS
 70
     4
  9
$HYPERLINKBASE
  1

  9
$STYLESHEET
  1

  9
$XEDIT
290
     1
  9
$CEPSNTYPE
380
     0
  9
$PSTYLEMODE
290
     1
  9
$FINGERPRINTGUID
  2
{2EEFB0DE-042C-4AB2-A738-272D46978FB9}
  9
$VERSIONGUID
  2
{FAEB1C32-E019-11D5-929B-00C0DF256EC4}
  9
$EXTNAMES
290
     1
  9
$PSVPSCALE
 40
0.0
  9
$OLESTARTUP
290
     0
  9
$SORTENTS
280
   127
  9
$INDEXCTL
280
     0
  9
$HIDETEXT
280
     1
  9
$XCLIPFRAME
290
     0
  9
$HALOGAP
280
     0
  9
$OBSCOLOR
 70
   257
  9
$OBSLTYPE
280
     0
  9
$INTERSECTIONDISPLAY
280
     0
  9
$INTERSECTIONCOLOR
 70
   257
  9
$DIMASSOC
280
     2
  9
$PROJECTNAME
  1

  0
ENDSEC
  0
SECTION
  2
CLASSES
  0
CLASS
  1
ACDBDICTIONARYWDFLT
  2
AcDbDictionaryWithDefault
  3
ObjectDBX Classes
 90
        0
 91
        4
280
     0
281
     0
  0
CLASS
  1
VISUALSTYLE
  2
AcDbVisualStyle
  3
ObjectDBX Classes
 90
     4095
 91
        4
280
     0
281
     0
  0
CLASS
  1
SCALE
  2
AcDbScale
  3
ObjectDBX Classes
 90
     1153
 91
        4
280
     0
281
     0
  0
CLASS
  1
DICTIONARYVAR
  2
AcDbDictionaryVar
  3
ObjectDBX Classes
 90
        0
 91
        4
280
     0
281
     0
  0
ENDSEC
  0
SECTION
  2
TABLES
  0
TABLE
  2
VPORT
  5
8
330
0
100
AcDbSymbolTable
 70
     1
  0
VPORT
  5
29
330
8
100
AcDbSymbolTableRecord
100
AcDbViewportTableRecord
  2
*Active
 70
     0
 10
0.0
 20
0.0
 11
1.0
 21
1.0
 12
441.903291499651
 22
1578.355165688467
 13
0.0
 23
0.0
 14
0.5
 24
0.5
 15
0.5
 25
0.5
 16
0.0
 26
0.0
 36
1.0
 17
0.0
 27
0.0
 37
0.0
 40
380.0010000000002
 41
0.4196681470370411
 42
50.0
 43
0.0
 44
0.0
 50
0.0
 51
0.0
 71
     0
 72
   100
 73
     1
 74
     3
 75
     0
 76
     0
 77
     0
 78
     0
281
     0
 65
     1
110
0.0
120
0.0
130
0.0
111
1.0
121
0.0
131
0.0
112
0.0
122
1.0
132
0.0
 79
     0
146
0.0
  0
ENDTAB
  0
TABLE
  2
LTYPE
  5
5
330
0
100
AcDbSymbolTable
 70
     1
  0
LTYPE
  5
14
330
5
100
AcDbSymbolTableRecord
100
AcDbLinetypeTableRecord
  2
ByBlock
 70
     0
  3

 72
    65
 73
     0
 40
0.0
  0
LTYPE
  5
15
330
5
100
AcDbSymbolTableRecord
100
AcDbLinetypeTableRecord
  2
ByLayer
 70
     0
  3

 72
    65
 73
     0
 40
0.0
  0
LTYPE
  5
16
330
5
100
AcDbSymbolTableRecord
100
AcDbLinetypeTableRecord
  2
Continuous
 70
     0
  3
Solid line
 72
    65
 73
     0
 40
0.0
  0
ENDTAB
  0
TABLE
  2
LAYER
  5
2
330
0
100
AcDbSymbolTable
 70
     4
  0
LAYER
  5
10
330
2
100
AcDbSymbolTableRecord
100
AcDbLayerTableRecord
  2
0
 70
     0
 62
     7
  6
Continuous
370
    -3
390
F
  0
LAYER
  5
3B
330
2
100
AcDbSymbolTableRecord
100
AcDbLayerTableRecord
  2
MAKE2D VISIBLE LINES
 70
     0
 62
     7
  6
Continuous
370
    -3
390
F
  0
LAYER
  5
AB
330
2
100
AcDbSymbolTableRecord
100
AcDbLayerTableRecord
  2
E45716
 70
     0
 62
     7
  6
Continuous
370
    -3
390
F
  0
LAYER
  5
D1
330
2
100
AcDbSymbolTableRecord
100
AcDbLayerTableRecord
  2
Defpoints
 70
     0
 62
     7
  6
Continuous
290
     0
370
    -3
390
F
  0
ENDTAB
  0
TABLE
  2
STYLE
  5
3
330
0
100
AcDbSymbolTable
 70
     2
  0
STYLE
  5
11
330
3
100
AcDbSymbolTableRecord
100
AcDbTextStyleTableRecord
  2
Standard
 70
     0
 40
0.0
 41
1.0
 50
0.0
 71
     0
 42
0.2
  3
txt
  4

  0
STYLE
  5
CF
330
3
100
AcDbSymbolTableRecord
100
AcDbTextStyleTableRecord
  2
ARIAL
 70
     0
 40
0.0
 41
1.0
 50
0.0
 71
     0
 42
0.0
  3

  4

1001
ACAD
1000
Arial
1071
      256
  0
ENDTAB
  0
TABLE
  2
VIEW
  5
6
330
0
100
AcDbSymbolTable
 70
     0
  0
ENDTAB
  0
TABLE
  2
UCS
  5
7
330
0
100
AcDbSymbolTable
 70
     0
  0
ENDTAB
  0
TABLE
  2
APPID
  5
9
330
0
100
AcDbSymbolTable
 70
     1
  0
APPID
  5
12
330
9
100
AcDbSymbolTableRecord
100
AcDbRegAppTableRecord
  2
ACAD
 70
     0
  0
ENDTAB
  0
TABLE
  2
DIMSTYLE
  5
A
330
0
100
AcDbSymbolTable
 70
     2
100
AcDbDimStyleTable
  0
DIMSTYLE
105
27
330
A
100
AcDbSymbolTableRecord
100
AcDbDimStyleTableRecord
  2
Standard
 70
     0
340
11
  0
DIMSTYLE
105
D0
102
{ACAD_REACTORS
330
AC
330
DE
102
}
330
A
100
AcDbSymbolTableRecord
100
AcDbDimStyleTableRecord
  2
DEFAULT
 70
     0
 41
1.0
 42
0.5
 44
0.5
 73
     0
 77
     1
 78
     1
140
20.0
141
0.5
172
     1
174
     1
179
     2
271
     2
284
     1
340
CF
  0
ENDTAB
  0
TABLE
  2
BLOCK_RECORD
  5
1
330
0
100
AcDbSymbolTable
 70
     3
  0
BLOCK_RECORD
  5
1F
330
1
100
AcDbSymbolTableRecord
100
AcDbBlockTableRecord
  2
*Model_Space
340
22
  0
BLOCK_RECORD
  5
1B
330
1
100
AcDbSymbolTableRecord
100
AcDbBlockTableRecord
  2
*Paper_Space
340
1E
  0
BLOCK_RECORD
  5
23
330
1
100
AcDbSymbolTableRecord
100
AcDbBlockTableRecord
  2
*Paper_Space0
340
26
  0
BLOCK_RECORD
  5
D2
330
1
100
AcDbSymbolTableRecord
100
AcDbBlockTableRecord
  2
*D1
340
0
  0
BLOCK_RECORD
  5
DF
330
1
100
AcDbSymbolTableRecord
100
AcDbBlockTableRecord
  2
*D2
340
0
  0
ENDTAB
  0
ENDSEC
  0
SECTION
  2
BLOCKS
  0
BLOCK
  5
20
330
1F
100
AcDbEntity
  8
0
100
AcDbBlockBegin
  2
*Model_Space
 70
     0
 10
0.0
 20
0.0
 30
0.0
  3
*Model_Space
  1

  0
ENDBLK
  5
21
330
1F
100
AcDbEntity
  8
0
100
AcDbBlockEnd
  0
BLOCK
  5
1C
330
1B
100
AcDbEntity
 67
     1
  8
0
100
AcDbBlockBegin
  2
*Paper_Space
 70
     0
 10
0.0
 20
0.0
 30
0.0
  3
*Paper_Space
  1

  0
ENDBLK
  5
1D
330
1B
100
AcDbEntity
 67
     1
  8
0
100
AcDbBlockEnd
  0
BLOCK
  5
24
330
23
100
AcDbEntity
  8
0
100
AcDbBlockBegin
  2
*Paper_Space0
 70
     0
 10
0.0
 20
0.0
 30
0.0
  3
*Paper_Space0
  1

  0
ENDBLK
  5
25
330
23
100
AcDbEntity
  8
0
100
AcDbBlockEnd
  0
BLOCK
  5
DC
330
D2
100
AcDbEntity
  8
0
100
AcDbBlockBegin
  2
*D1
 70
     1
 10
0.0
 20
0.0
 30
0.0
  3
*D1
  1

  0
LINE
  5
D3
330
D2
100
AcDbEntity
  8
E45716
 62
     0
370
    -2
100
AcDbLine
 10
419.0769743877657
 20
1450.580165688467
 30
0.0
 11
419.0769743877657
 21
1744.580165688467
 31
0.0
  0
LINE
  5
D4
330
D2
100
AcDbEntity
  8
E45716
 62
     0
370
    -2
100
AcDbLine
 10
520.0769743877657
 20
1450.580165688467
 30
0.0
 11
520.0769743877657
 21
1744.580165688467
 31
0.0
  0
LINE
  5
D5
330
D2
100
AcDbEntity
  8
E45716
 62
     0
370
    -2
100
AcDbLine
 10
420.0769743877657
 20
1744.080165688467
 30
0.0
 11
519.0769743877657
 21
1744.080165688467
 31
0.0
  0
SOLID
  5
D6
330
D2
100
AcDbEntity
  8
E45716
 62
     0
100
AcDbTrace
 10
420.0769743877657
 20
1744.246832355134
 30
0.0
 11
420.0769743877657
 21
1743.9134990218
 31
0.0
 12
419.0769743877657
 22
1744.080165688467
 32
0.0
 13
419.0769743877657
 23
1744.080165688467
 33
0.0
  0
SOLID
  5
D7
330
D2
100
AcDbEntity
  8
E45716
 62
     0
100
AcDbTrace
 10
519.0769743877657
 20
1743.9134990218
 30
0.0
 11
519.0769743877657
 21
1744.246832355134
 31
0.0
 12
520.0769743877657
 22
1744.080165688467
 32
0.0
 13
520.0769743877657
 23
1744.080165688467
 33
0.0
  0
MTEXT
  5
D8
330
D2
100
AcDbEntity
  8
E45716
 62
     0
100
AcDbMText
 10
469.5769743877657
 20
1754.380165688467
 30
0.0
 40
20.0
 41
0.0
 71
     5
 72
     1
  1
\A1;100
  7
ARIAL
 73
     1
 44
1.0
  0
POINT
  5
D9
330
D2
100
AcDbEntity
  8
Defpoints
 62
     0
100
AcDbPoint
 10
419.0769743877657
 20
1450.080165688467
 30
0.0
  0
POINT
  5
DA
330
D2
100
AcDbEntity
  8
Defpoints
 62
     0
100
AcDbPoint
 10
520.0769743877657
 20
1450.080165688467
 30
0.0
  0
POINT
  5
DB
330
D2
100
AcDbEntity
  8
Defpoints
 62
     0
100
AcDbPoint
 10
520.0769743877657
 20
1744.080165688467
 30
0.0
  0
ENDBLK
  5
DD
330
D2
100
AcDbEntity
  8
0
100
AcDbBlockEnd
  0
BLOCK
  5
E9
330
DF
100
AcDbEntity
  8
0
100
AcDbBlockBegin
  2
*D2
 70
     1
 10
0.0
 20
0.0
 30
0.0
  3
*D2
  1

  0
LINE
  5
E0
330
DF
100
AcDbEntity
  8
E45716
 62
     0
370
    -2
100
AcDbLine
 10
431.4396074103262
 20
1669.086627735592
 30
0.0
 11
383.4396074103262
 21
1669.086627735592
 31
0.0
  0
LINE
  5
E1
330
DF
100
AcDbEntity
  8
E45716
 62
     0
370
    -2
100
AcDbLine
 10
494.5805869702847
 20
1392.080165688467
 30
0.0
 11
383.4396074103262
 21
1392.080165688467
 31
0.0
  0
LINE
  5
E2
330
DF
100
AcDbEntity
  8
E45716
 62
     0
370
    -2
100
AcDbLine
 10
383.9396074103262
 20
1668.086627735592
 30
0.0
 11
383.9396074103262
 21
1393.080165688467
 31
0.0
  0
SOLID
  5
E3
330
DF
100
AcDbEntity
  8
E45716
 62
     0
100
AcDbTrace
 10
384.1062740769929
 20
1668.086627735592
 30
0.0
 11
383.7729407436595
 21
1668.086627735592
 31
0.0
 12
383.9396074103262
 22
1669.086627735592
 32
0.0
 13
383.9396074103262
 23
1669.086627735592
 33
0.0
  0
SOLID
  5
E4
330
DF
100
AcDbEntity
  8
E45716
 62
     0
100
AcDbTrace
 10
383.7729407436595
 20
1393.080165688467
 30
0.0
 11
384.1062740769929
 21
1393.080165688467
 31
0.0
 12
383.9396074103262
 22
1392.080165688467
 32
0.0
 13
383.9396074103262
 23
1392.080165688467
 33
0.0
  0
MTEXT
  5
E5
330
DF
100
AcDbEntity
  8
E45716
 62
     0
100
AcDbMText
 10
373.8096074103262
 20
1530.58339671203
 30
0.0
 40
20.0
 41
0.0
 71
     5
 72
     1
  1
\A1;277
  7
ARIAL
 11
0.0
 21
1.0
 31
0.0
 73
     1
 44
1.0
  0
POINT
  5
E6
330
DF
100
AcDbEntity
  8
Defpoints
 62
     0
100
AcDbPoint
 10
431.9396074103262
 20
1669.086627735592
 30
0.0
  0
POINT
  5
E7
330
DF
100
AcDbEntity
  8
Defpoints
 62
     0
100
AcDbPoint
 10
495.0805869702847
 20
1392.080165688467
 30
0.0
  0
POINT
  5
E8
330
DF
100
AcDbEntity
  8
Defpoints
 62
     0
100
AcDbPoint
 10
383.9396074103262
 20
1392.080165688467
 30
0.0
  0
ENDBLK
  5
EA
330
DF
100
AcDbEntity
  8
0
100
AcDbBlockEnd
  0
ENDSEC
  0
SECTION
  2
ENTITIES
  0
SPLINE
  5
3C
330
1F
100
AcDbEntity
  8
MAKE2D VISIBLE LINES
100
AcDbSpline
210
0.0
220
0.0
230
1.0
 70
    24
 71
     2
 72
     6
 73
     3
 74
     0
 42
0.0000000001
 43
0.0000000001
 40
0.0
 40
0.0
 40
0.0
 40
20.00000000000006
 40
20.00000000000006
 40
20.00000000000006
 10
470.0769743877657
 20
1393.080165688467
 30
0.0
 10
470.0769743877657
 20
1403.080165688467
 30
0.0
 10
470.0769743877657
 20
1413.080165688467
 30
0.0
  0
SPLINE
  5
3D
330
1F
100
AcDbEntity
  8
MAKE2D VISIBLE LINES
100
AcDbSpline
210
0.0
220
0.0
230
1.0
 70
    12
 71
     2
 72
     6
 73
     3
 74
     0
 42
0.0000000001
 43
0.0000000001
 40
0.0
 40
0.0
 40
0.0
 40
17.27906724454338
 40
17.27906724454338
 40
17.27906724454338
 10
430.0768900104504
 20
1418.08016568847
 30
0.0
 41
1.0
 10
419.0767231543735
 20
1418.07999883389
 30
0.0
 41
0.7071093460952681
 10
419.0764764972072
 20
1429.080165688467
 30
0.0
 41
1.0
  0
SPLINE
  5
3E
330
1F
100
AcDbEntity
  8
MAKE2D VISIBLE LINES
100
AcDbSpline
210
0.0
220
0.0
230
1.0
 70
    24
 71
     2
 72
     6
 73
     3
 74
     0
 42
0.0000000001
 43
0.0000000001
 40
0.0
 40
0.0
 40
0.0
 40
0.0556161853446611
 40
0.0556161853446611
 40
0.0556161853446611
 10
420.3341730698108
 20
1472.080165688467
 30
0.0
 10
420.3063649771385
 20
1472.080165688467
 30
0.0
 10
420.2785568844662
 20
1472.080165688467
 30
0.0
  0
SPLINE
  5
3F
330
1F
100
AcDbEntity
  8
MAKE2D VISIBLE LINES
100
AcDbSpline
210
0.0
220
0.0
230
1.0
 70
    24
 71
     2
 72
     6
 73
     3
 74
     0
 42
0.0000000001
 43
0.0000000001
 40
0.0
 40
0.0
 40
0.0
 40
0.0826442572388828
 40
0.0826442572388828
 40
0.0826442572388828
 10
420.6896443354934
 20
1472.080165688467
 30
0.0
 10
420.648322206874
 20
1472.080165688467
 30
0.0
 10
420.6070000782545
 20
1472.080165688467
 30
0.0
  0
SPLINE
  5
40
330
1F
100
AcDbEntity
  8
MAKE2D VISIBLE LINES
100
AcDbSpline
210
0.0
220
0.0
230
1.0
 70
    24
 71
     2
 72
     6
 73
     3
 74
     0
 42
0.0000000001
 43
0.0000000001
 40
0.0
 40
0.0
 40
0.0
 40
42.0
 40
42.0
 40
42.0
 10
419.0769743877657
 20
1429.080165688467
 30
0.0
 10
419.0769743877657
 20
1450.080165688467
 30
0.0
 10
419.0769743877657
 20
1471.080165688467
 30
0.0
  0
SPLINE
  5
41
330
1F
100
AcDbEntity
  8
MAKE2D VISIBLE LINES
100
AcDbSpline
210
0.0
220
0.0
230
1.0
 70
     8
 71
     3
 72
    15
 73
    11
 74
     0
 42
0.0000000001
 43
0.0000000001
 40
0.0
 40
0.0
 40
0.0
 40
0.0
 40
3.339853065259577
 40
7.557501836301261
 40
12.74191089254756
 40
18.97112631129135
 40
25.20272186266968
 40
30.38962015420364
 40
34.70759285049594
 40
37.94799320417965
 40
37.94799320417965
 40
37.94799320417965
 40
37.94799320417965
 10
476.2380484413601
 20
1499.596533160022
 30
0.0
 10
477.3049459599802
 20
1499.91629988774
 30
0.0
 10
479.7722552053517
 20
1500.442842135792
 30
0.0
 10
483.9912849761781
 20
1500.953579052773
 30
0.0
 10
489.1930845195085
 20
1501.279120187046
 30
0.0
 10
495.0748825294169
 20
1501.389877290265
 30
0.0
 10
500.9576074696154
 20
1501.279351582597
 30
0.0
 10
506.1943012294407
 20
1500.951364488542
 30
0.0
 10
510.4143955233945
 20
1500.438467651548
 30
0.0
 10
512.8809444203018
 20
1499.907143887434
 30
0.0
 10
513.9159111714202
 20
1499.596453864603
 30
0.0
  0
SPLINE
  5
42
330
1F
100
AcDbEntity
  8
MAKE2D VISIBLE LINES
100
AcDbSpline
210
0.0
220
0.0
230
1.0
 70
    12
 71
     2
 72
     6
 73
     3
 74
     0
 42
0.0000000001
 43
0.0000000001
 40
0.0
 40
0.0
 40
0.0
 40
12.56746631305047
 40
12.56746631305047
 40
12.56746631305047
 10
519.558169990778
 20
1500.512699375417
 30
0.0
 41
1.0
 10
519.5581704840157
 20
1506.796432531942
 30
0.0
 41
0.999999999999993
 10
519.5581694946409
 20
1513.080165688467
 30
0.0
 41
1.0
  0
SPLINE
  5
43
330
1F
100
AcDbEntity
  8
MAKE2D VISIBLE LINES
100
AcDbSpline
210
0.0
220
0.0
230
1.0
 70
    24
 71
     2
 72
     6
 73
     3
 74
     0
 42
0.0000000001
 43
0.0000000001
 40
0.0
 40
0.0
 40
0.0
 40
0.198516004927626
 40
0.198516004927626
 40
0.198516004927626
 10
423.3926503244069
 20
1472.080165688467
 30
0.0
 10
423.2933923219431
 20
1472.080165688467
 30
0.0
 10
423.1941343194793
 20
1472.080165688467
 30
0.0
  0
SPLINE
  5
44
330
1F
100
AcDbEntity
  8
MAKE2D VISIBLE LINES
100
AcDbSpline
210
0.0
220
0.0
230
1.0
 70
    24
 71
     2
 72
     6
 73
     3
 74
     0
 42
0.0000000001
 43
0.0000000001
 40
0.0
 40
0.0
 40
0.0
 40
0.0706788294496619
 40
0.0706788294496619
 40
0.0706788294496619
 10
424.7122164575811
 20
1472.080165688467
 30
0.0
 10
424.6768770428562
 20
1472.080165688467
 30
0.0
 10
424.6415376281314
 20
1472.080165688467
 30
0.0
  0
SPLINE
  5
45
330
1F
100
AcDbEntity
  8
MAKE2D VISIBLE LINES
100
AcDbSpline
210
0.0
220
0.0
230
1.0
 70
    24
 71
     2
 72
     6
 73
     3
 74
     0
 42
0.0000000001
 43
0.0000000001
 40
0.0
 40
0.0
 40
0.0
 40
0.2156014933768233
 40
0.2156014933768233
 40
0.2156014933768233
 10
425.7739931236989
 20
1472.080165688467
 30
0.0
 10
425.6661923770105
 20
1472.080165688467
 30
0.0
 10
425.558391630322
 20
1472.080165688467
 30
0.0
  0
SPLINE
  5
46
330
1F
100
AcDbEntity
  8
MAKE2D VISIBLE LINES
100
AcDbSpline
210
0.0
220
0.0
230
1.0
 70
    24
 71
     2
 72
     6
 73
     3
 74
     0
 42
0.0000000001
 43
0.0000000001
 40
0.0
 40
0.0
 40
0.0
 40
0.2490810877008585
 40
0.2490810877008585
 40
0.2490810877008585
 10
426.714087760304
 20
1472.080165688467
 30
0.0
 10
426.5895472164535
 20
1472.080165688467
 30
0.0
 10
426.4650066726031
 20
1472.080165688467
 30
0.0
  0
SPLINE
  5
47
330
1F
100
AcDbEntity
  8
MAKE2D VISIBLE LINES
100
AcDbSpline
210
0.0
220
0.0
230
1.0
 70
    24
 71
     2
 72
     6
 73
     3
 74
     0
 42
0.0000000001
 43
0.0000000001
 40
0.0
 40
0.0
 40
0.0
 40
0.1877815022230038
 40
0.1877815022230038
 40
0.1877815022230038
 10
422.9927853574732
 20
1472.080165688467
 30
0.0
 10
422.8988946063618
 20
1472.080165688467
 30
0.0
 10
422.8050038552502
 20
1472.080165688467
 30
0.0
  0
SPLINE
  5
48
330
1F
100
AcDbEntity
  8
MAKE2D VISIBLE LINES
100
AcDbSpline
210
0.0
220
0.0
230
1.0
 70
    24
 71
     2
 72
     6
 73
     3
 74
     0
 42
0.0000000001
 43
0.0000000001
 40
0.0
 40
0.0
 40
0.0
 40
0.0800489168140643
 40
0.0800489168140643
 40
0.0800489168140643
 10
424.3134425120201
 20
1472.080165688467
 30
0.0
 10
424.273418053613
 20
1472.080165688467
 30
0.0
 10
424.233393595206
 20
1472.080165688467
 30
0.0
  0
SPLINE
  5
49
330
1F
100
AcDbEntity
  8
MAKE2D VISIBLE LINES
100
AcDbSpline
210
0.0
220
0.0
230
1.0
 70
    24
 71
     2
 72
     6
 73
     3
 74
     0
 42
0.0000000001
 43
0.0000000001
 40
0.0
 40
0.0
 40
0.0
 40
0.0579728012846203
 40
0.0579728012846203
 40
0.0579728012846203
 10
421.9304230796579
 20
1472.080165688467
 30
0.0
 10
421.9014366790157
 20
1472.080165688467
 30
0.0
 10
421.8724502783733
 20
1472.080165688467
 30
0.0
  0
SPLINE
  5
4A
330
1F
100
AcDbEntity
  8
MAKE2D VISIBLE LINES
100
AcDbSpline
210
0.0
220
0.0
230
1.0
 70
    24
 71
     2
 72
     6
 73
     3
 74
     0
 42
0.0000000001
 43
0.0000000001
 40
0.0
 40
0.0
 40
0.0
 40
0.0168942587616243
 40
0.0168942587616243
 40
0.0168942587616243
 10
422.2608149586324
 20
1472.080165688467
 30
0.0
 10
422.2523678292516
 20
1472.080165688467
 30
0.0
 10
422.2439206998708
 20
1472.080165688467
 30
0.0
  0
SPLINE
  5
4B
330
1F
100
AcDbEntity
  8
MAKE2D VISIBLE LINES
100
AcDbSpline
210
0.0
220
0.0
230
1.0
 70
    24
 71
     2
 72
     6
 73
     3
 74
     0
 42
0.0000000001
 43
0.0000000001
 40
0.0
 40
0.0
 40
0.0
 40
0.1429691888421303
 40
0.1429691888421303
 40
0.1429691888421303
 10
422.6087233984668
 20
1472.080165688467
 30
0.0
 10
422.5372388040457
 20
1472.080165688467
 30
0.0
 10
422.4657542096247
 20
1472.080165688467
 30
0.0
  0
SPLINE
  5
4C
330
1F
100
AcDbEntity
  8
MAKE2D VISIBLE LINES
100
AcDbSpline
210
0.0
220
0.0
230
1.0
 70
    24
 71
     2
 72
     6
 73
     3
 74
     0
 42
0.0000000001
 43
0.0000000001
 40
0.0
 40
0.0
 40
0.0
 40
0.2896188672061157
 40
0.2896188672061157
 40
0.2896188672061157
 10
423.8139594343936
 20
1472.080165688467
 30
0.0
 10
423.6691500007905
 20
1472.080165688467
 30
0.0
 10
423.5243405671875
 20
1472.080165688467
 30
0.0
  0
SPLINE
  5
4D
330
1F
100
AcDbEntity
  8
MAKE2D VISIBLE LINES
100
AcDbSpline
210
0.0
220
0.0
230
1.0
 70
    24
 71
     2
 72
     6
 73
     3
 74
     0
 42
0.0000000001
 43
0.0000000001
 40
0.0
 40
0.0
 40
0.0
 40
0.065446015553448
 40
0.065446015553448
 40
0.065446015553448
 10
425.18885223148
 20
1472.080165688467
 30
0.0
 10
425.1561292237033
 20
1472.080165688467
 30
0.0
 10
425.1234062159266
 20
1472.080165688467
 30
0.0
  0
SPLINE
  5
4E
330
1F
100
AcDbEntity
  8
MAKE2D VISIBLE LINES
100
AcDbSpline
210
0.0
220
0.0
230
1.0
 70
    24
 71
     2
 72
     6
 73
     3
 74
     0
 42
0.0000000001
 43
0.0000000001
 40
0.0
 40
0.0
 40
0.0
 40
0.2332196733256069
 40
0.2332196733256069
 40
0.2332196733256069
 10
426.182462692454
 20
1472.080165688467
 30
0.0
 10
426.0658528557912
 20
1472.080165688467
 30
0.0
 10
425.9492430191284
 20
1472.080165688467
 30
0.0
  0
SPLINE
  5
4F
330
1F
100
AcDbEntity
  8
MAKE2D VISIBLE LINES
100
AcDbSpline
210
0.0
220
0.0
230
1.0
 70
    12
 71
     2
 72
     6
 73
     3
 74
     0
 42
0.0000000001
 43
0.0000000001
 40
0.0
 40
0.0
 40
0.0
 40
0.0462526841360073
 40
0.0462526841360073
 40
0.0462526841360073
 10
445.0766057466712
 20
1656.036883432816
 30
0.0
 41
1.0
 10
445.0766972034004
 20
1656.06000971835
 30
0.0
 41
0.9999919374233761
 10
445.0769743877657
 20
1656.083134523556
 30
0.0
 41
1.0
  0
SPLINE
  5
50
330
1F
100
AcDbEntity
  8
MAKE2D VISIBLE LINES
100
AcDbSpline
210
0.0
220
0.0
230
1.0
 70
    12
 71
     2
 72
     6
 73
     3
 74
     0
 42
0.0000000001
 43
0.0000000001
 40
0.0
 40
0.0
 40
0.0
 40
0.1570143368993103
 40
0.1570143368993103
 40
0.1570143368993103
 10
419.0859105259416
 20
1655.602950120436
 30
0.0
 41
1.0
 10
419.0827775609159
 20
1655.681395987771
 30
0.0
 41
0.9999763845491144
 10
419.0807230944039
 20
1655.759877506227
 30
0.0
 41
1.0
  0
SPLINE
  5
51
330
1F
100
AcDbEntity
  8
MAKE2D VISIBLE LINES
100
AcDbSpline
210
0.0
220
0.0
230
1.0
 70
    12
 71
     2
 72
     6
 73
     3
 74
     0
 42
0.0000000001
 43
0.0000000001
 40
0.0
 40
0.0
 40
0.0
 40
0.1279874184536451
 40
0.1279874184536451
 40
0.1279874184536451
 10
419.0973846354173
 20
1655.354806519005
 30
0.0
 41
1.0
 10
419.1009712715146
 20
1655.290912881203
 30
0.0
 41
0.9999878964459304
 10
419.1051864470487
 20
1655.227057629223
 30
0.0
 41
1.0
  0
SPLINE
  5
52
330
1F
100
AcDbEntity
  8
MAKE2D VISIBLE LINES
100
AcDbSpline
210
0.0
220
0.0
230
1.0
 70
    12
 71
     2
 72
     6
 73
     3
 74
     0
 42
0.0000000001
 43
0.0000000001
 40
0.0
 40
0.0
 40
0.0
 40
0.1557898672402622
 40
0.1557898672402622
 40
0.1557898672402622
 10
419.0972230318023
 20
1655.354797422706
 30
0.0
 41
1.0
 10
419.101571592772
 20
1655.277023031111
 30
0.0
 41
0.9999820419743403
 10
419.1068520243402
 20
1655.199306346848
 30
0.0
 41
1.0
  0
SPLINE
  5
53
330
1F
100
AcDbEntity
  8
MAKE2D VISIBLE LINES
100
AcDbSpline
210
0.0
220
0.0
230
1.0
 70
    12
 71
     2
 72
     6
 73
     3
 74
     0
 42
0.0000000001
 43
0.0000000001
 40
0.0
 40
0.0
 40
0.0
 40
2.002765177042007
 40
2.002765177042007
 40
2.002765177042007
 10
473.0769714570767
 20
1472.080165688467
 30
0.0
 41
1.0
 10
473.0769793524305
 20
1473.082240251483
 30
0.0
 41
0.9989645088687735
 10
473.1680740950246
 20
1474.080165688467
 30
0.0
 41
1.0
  0
SPLINE
  5
54
330
1F
100
AcDbEntity
  8
MAKE2D VISIBLE LINES
100
AcDbSpline
210
0.0
220
0.0
230
1.0
 70
    24
 71
     2
 72
     6
 73
     3
 74
     0
 42
0.0000000001
 43
0.0000000001
 40
0.0
 40
0.0
 40
0.0
 40
0.1387966663019142
 40
0.1387966663019142
 40
0.1387966663019142
 10
427.7981009161153
 20
1472.080165688467
 30
0.0
 10
427.8674992492663
 20
1472.080165688467
 30
0.0
 10
427.9368975824173
 20
1472.080165688467
 30
0.0
  0
SPLINE
  5
55
330
1F
100
AcDbEntity
  8
MAKE2D VISIBLE LINES
100
AcDbSpline
210
0.0
220
0.0
230
1.0
 70
    24
 71
     2
 72
     6
 73
     3
 74
     0
 42
0.0000000001
 43
0.0000000001
 40
0.0
 40
0.0
 40
0.0
 40
0.2338363619150527
 40
0.2338363619150527
 40
0.2338363619150527
 10
427.2501920952905
 20
1472.080165688467
 30
0.0
 10
427.367110276248
 20
1472.080165688467
 30
0.0
 10
427.4840284572055
 20
1472.080165688467
 30
0.0
  0
SPLINE
  5
56
330
1F
100
AcDbEntity
  8
MAKE2D VISIBLE LINES
100
AcDbSpline
210
0.0
220
0.0
230
1.0
 70
    24
 71
     2
 72
     6
 73
     3
 74
     0
 42
0.0000000001
 43
0.0000000001
 40
0.0
 40
0.0
 40
0.0
 40
0.3252841842700036
 40
0.3252841842700036
 40
0.3252841842700036
 10
426.7140877603041
 20
1472.080165688467
 30
0.0
 10
426.8767298524391
 20
1472.080165688467
 30
0.0
 10
427.0393719445741
 20
1472.080165688467
 30
0.0
  0
SPLINE
  5
57
330
1F
100
AcDbEntity
  8
MAKE2D VISIBLE LINES
100
AcDbSpline
210
0.0
220
0.0
230
1.0
 70
    24
 71
     2
 72
     6
 73
     3
 74
     0
 42
0.0000000001
 43
0.0000000001
 40
0.0
 40
0.0
 40
0.0
 40
0.2825439841851676
 40
0.2825439841851676
 40
0.2825439841851676
 10
426.1824626925378
 20
1472.080165688467
 30
0.0
 10
426.3237346846304
 20
1472.080165688467
 30
0.0
 10
426.465006676723
 20
1472.080165688467
 30
0.0
  0
SPLINE
  5
58
330
1F
100
AcDbEntity
  8
MAKE2D VISIBLE LINES
100
AcDbSpline
210
0.0
220
0.0
230
1.0
 70
    24
 71
     2
 72
     6
 73
     3
 74
     0
 42
0.0000000001
 43
0.0000000001
 40
0.0
 40
0.0
 40
0.0
 40
0.1752499027145404
 40
0.1752499027145404
 40
0.1752499027145404
 10
425.7739931237732
 20
1472.080165688467
 30
0.0
 10
425.8616180751305
 20
1472.080165688467
 30
0.0
 10
425.9492430264877
 20
1472.080165688467
 30
0.0
  0
SPLINE
  5
59
330
1F
100
AcDbEntity
  8
MAKE2D VISIBLE LINES
100
AcDbSpline
210
0.0
220
0.0
230
1.0
 70
    24
 71
     2
 72
     6
 73
     3
 74
     0
 42
0.0000000001
 43
0.0000000001
 40
0.0
 40
0.0
 40
0.0
 40
0.3695393988414253
 40
0.3695393988414253
 40
0.3695393988414253
 10
425.1888522314808
 20
1472.080165688467
 30
0.0
 10
425.3736219309015
 20
1472.080165688467
 30
0.0
 10
425.5583916303223
 20
1472.080165688467
 30
0.0
  0
SPLINE
  5
5A
330
1F
100
AcDbEntity
  8
MAKE2D VISIBLE LINES
100
AcDbSpline
210
0.0
220
0.0
230
1.0
 70
    24
 71
     2
 72
     6
 73
     3
 74
     0
 42
0.0000000001
 43
0.0000000001
 40
0.0
 40
0.0
 40
0.0
 40
0.4111897705935235
 40
0.4111897705935235
 40
0.4111897705935235
 10
424.7122164575823
 20
1472.080165688467
 30
0.0
 10
424.917811342879
 20
1472.080165688467
 30
0.0
 10
425.1234062281758
 20
1472.080165688467
 30
0.0
  0
SPLINE
  5
5B
330
1F
100
AcDbEntity
  8
MAKE2D VISIBLE LINES
100
AcDbSpline
210
0.0
220
0.0
230
1.0
 70
    24
 71
     2
 72
     6
 73
     3
 74
     0
 42
0.0000000001
 43
0.0000000001
 40
0.0
 40
0.0
 40
0.0
 40
0.3280951108321801
 40
0.3280951108321801
 40
0.3280951108321801
 10
424.3134425120192
 20
1472.080165688467
 30
0.0
 10
424.4774900674353
 20
1472.080165688467
 30
0.0
 10
424.6415376228513
 20
1472.080165688467
 30
0.0
  0
SPLINE
  5
5C
330
1F
100
AcDbEntity
  8
MAKE2D VISIBLE LINES
100
AcDbSpline
210
0.0
220
0.0
230
1.0
 70
    24
 71
     2
 72
     6
 73
     3
 74
     0
 42
0.0000000001
 43
0.0000000001
 40
0.0
 40
0.0
 40
0.0
 40
0.4194341640117614
 40
0.4194341640117614
 40
0.4194341640117614
 10
423.8139594320402
 20
1472.080165688467
 30
0.0
 10
424.0236765140461
 20
1472.080165688467
 30
0.0
 10
424.2333935960519
 20
1472.080165688467
 30
0.0
  0
SPLINE
  5
5D
330
1F
100
AcDbEntity
  8
MAKE2D VISIBLE LINES
100
AcDbSpline
210
0.0
220
0.0
230
1.0
 70
    24
 71
     2
 72
     6
 73
     3
 74
     0
 42
0.0000000001
 43
0.0000000001
 40
0.0
 40
0.0
 40
0.0
 40
0.1316902427703894
 40
0.1316902427703894
 40
0.1316902427703894
 10
423.3926503244068
 20
1472.080165688467
 30
0.0
 10
423.458495445792
 20
1472.080165688467
 30
0.0
 10
423.5243405671772
 20
1472.080165688467
 30
0.0
  0
SPLINE
  5
5E
330
1F
100
AcDbEntity
  8
MAKE2D VISIBLE LINES
100
AcDbSpline
210
0.0
220
0.0
230
1.0
 70
    24
 71
     2
 72
     6
 73
     3
 74
     0
 42
0.0000000001
 43
0.0000000001
 40
0.0
 40
0.0
 40
0.0
 40
0.2013489620031805
 40
0.2013489620031805
 40
0.2013489620031805
 10
422.9927853574746
 20
1472.080165688467
 30
0.0
 10
423.0934598384762
 20
1472.080165688467
 30
0.0
 10
423.1941343194778
 20
1472.080165688467
 30
0.0
  0
SPLINE
  5
5F
330
1F
100
AcDbEntity
  8
MAKE2D VISIBLE LINES
100
AcDbSpline
210
0.0
220
0.0
230
1.0
 70
    24
 71
     2
 72
     6
 73
     3
 74
     0
 42
0.0000000001
 43
0.0000000001
 40
0.0
 40
0.0
 40
0.0
 40
0.1962804565417287
 40
0.1962804565417287
 40
0.1962804565417287
 10
422.6087233993576
 20
1472.080165688467
 30
0.0
 10
422.7068636276284
 20
1472.080165688467
 30
0.0
 10
422.8050038558993
 20
1472.080165688467
 30
0.0
  0
SPLINE
  5
60
330
1F
100
AcDbEntity
  8
MAKE2D VISIBLE LINES
100
AcDbSpline
210
0.0
220
0.0
230
1.0
 70
    24
 71
     2
 72
     6
 73
     3
 74
     0
 42
0.0000000001
 43
0.0000000001
 40
0.0
 40
0.0
 40
0.0
 40
0.2049392594935284
 40
0.2049392594935284
 40
0.2049392594935284
 10
422.2608149579752
 20
1472.080165688467
 30
0.0
 10
422.363284587722
 20
1472.080165688467
 30
0.0
 10
422.4657542174687
 20
1472.080165688467
 30
0.0
  0
SPLINE
  5
61
330
1F
100
AcDbEntity
  8
MAKE2D VISIBLE LINES
100
AcDbSpline
210
0.0
220
0.0
230
1.0
 70
    24
 71
     2
 72
     6
 73
     3
 74
     0
 42
0.0000000001
 43
0.0000000001
 40
0.0
 40
0.0
 40
0.0
 40
0.3134976215541769
 40
0.3134976215541769
 40
0.3134976215541769
 10
421.9304230796677
 20
1472.080165688467
 30
0.0
 10
422.0871718904448
 20
1472.080165688467
 30
0.0
 10
422.2439207012219
 20
1472.080165688467
 30
0.0
  0
SPLINE
  5
62
330
1F
100
AcDbEntity
  8
MAKE2D VISIBLE LINES
100
AcDbSpline
210
0.0
220
0.0
230
1.0
 70
    24
 71
     2
 72
     6
 73
     3
 74
     0
 42
0.0000000001
 43
0.0000000001
 40
0.0
 40
0.0
 40
0.0
 40
0.2475478287586839
 40
0.2475478287586839
 40
0.2475478287586839
 10
421.6249024496128
 20
1472.080165688467
 30
0.0
 10
421.7486763639922
 20
1472.080165688467
 30
0.0
 10
421.8724502783715
 20
1472.080165688467
 30
0.0
  0
SPLINE
  5
63
330
1F
100
AcDbEntity
  8
MAKE2D VISIBLE LINES
100
AcDbSpline
210
0.0
220
0.0
230
1.0
 70
    24
 71
     2
 72
     6
 73
     3
 74
     0
 42
0.0000000001
 43
0.0000000001
 40
0.0
 40
0.0
 40
0.0
 40
0.2676372789816241
 40
0.2676372789816241
 40
0.2676372789816241
 10
421.345109844932
 20
1472.080165688467
 30
0.0
 10
421.4789284844229
 20
1472.080165688467
 30
0.0
 10
421.6127471239137
 20
1472.080165688467
 30
0.0
  0
SPLINE
  5
64
330
1F
100
AcDbEntity
  8
MAKE2D VISIBLE LINES
100
AcDbSpline
210
0.0
220
0.0
230
1.0
 70
    24
 71
     2
 72
     6
 73
     3
 74
     0
 42
0.0000000001
 43
0.0000000001
 40
0.0
 40
0.0
 40
0.0
 40
0.0739289009962363
 40
0.0739289009962363
 40
0.0739289009962363
 10
420.8750159565205
 20
1472.080165688467
 30
0.0
 10
420.9119804070186
 20
1472.080165688467
 30
0.0
 10
420.9489448575168
 20
1472.080165688467
 30
0.0
  0
SPLINE
  5
65
330
1F
100
AcDbEntity
  8
MAKE2D VISIBLE LINES
100
AcDbSpline
210
0.0
220
0.0
230
1.0
 70
    24
 71
     2
 72
     6
 73
     3
 74
     0
 42
0.0000000001
 43
0.0000000001
 40
0.0
 40
0.0
 40
0.0
 40
0.0779815840707556
 40
0.0779815840707556
 40
0.0779815840707556
 10
420.6896443320718
 20
1472.080165688467
 30
0.0
 10
420.7286351241072
 20
1472.080165688467
 30
0.0
 10
420.7676259161425
 20
1472.080165688467
 30
0.0
  0
SPLINE
  5
66
330
1F
100
AcDbEntity
  8
MAKE2D VISIBLE LINES
100
AcDbSpline
210
0.0
220
0.0
230
1.0
 70
    24
 71
     2
 72
     6
 73
     3
 74
     0
 42
0.0000000001
 43
0.0000000001
 40
0.0
 40
0.0
 40
0.0
 40
0.1294302564677423
 40
0.1294302564677423
 40
0.1294302564677423
 10
420.4775698215284
 20
1472.080165688467
 30
0.0
 10
420.5422849497622
 20
1472.080165688467
 30
0.0
 10
420.6070000779961
 20
1472.080165688467
 30
0.0
  0
SPLINE
  5
67
330
1F
100
AcDbEntity
  8
MAKE2D VISIBLE LINES
100
AcDbSpline
210
0.0
220
0.0
230
1.0
 70
    24
 71
     2
 72
     6
 73
     3
 74
     0
 42
0.0000000001
 43
0.0000000001
 40
0.0
 40
0.0
 40
0.0
 40
0.1330916134164113
 40
0.1330916134164113
 40
0.1330916134164113
 10
420.3341730698426
 20
1472.080165688467
 30
0.0
 10
420.4007188765509
 20
1472.080165688467
 30
0.0
 10
420.467264683259
 20
1472.080165688467
 30
0.0
  0
SPLINE
  5
68
330
1F
100
AcDbEntity
  8
MAKE2D VISIBLE LINES
100
AcDbSpline
210
0.0
220
0.0
230
1.0
 70
    24
 71
     2
 72
     6
 73
     3
 74
     0
 42
0.0000000001
 43
0.0000000001
 40
0.0
 40
0.0
 40
0.0
 40
0.0565261370613257
 40
0.0565261370613257
 40
0.0565261370613257
 10
420.2220307474063
 20
1472.080165688467
 30
0.0
 10
420.250293815937
 20
1472.080165688467
 30
0.0
 10
420.2785568844677
 20
1472.080165688467
 30
0.0
  0
SPLINE
  5
69
330
1F
100
AcDbEntity
  8
MAKE2D VISIBLE LINES
100
AcDbSpline
210
0.0
220
0.0
230
1.0
 70
    24
 71
     2
 72
     6
 73
     3
 74
     0
 42
0.0000000001
 43
0.0000000001
 40
0.0
 40
0.0
 40
0.0
 40
0.0490883720075885
 40
0.0490883720075885
 40
0.0490883720075885
 10
420.141481311863
 20
1472.080165688467
 30
0.0
 10
420.1660254978668
 20
1472.080165688467
 30
0.0
 10
420.1905696838706
 20
1472.080165688467
 30
0.0
  0
SPLINE
  5
6A
330
1F
100
AcDbEntity
  8
MAKE2D VISIBLE LINES
100
AcDbSpline
210
0.0
220
0.0
230
1.0
 70
    12
 71
     2
 72
     6
 73
     3
 74
     0
 42
0.0000000001
 43
0.0000000001
 40
0.0
 40
0.0
 40
0.0
 40
1.565736657489215
 40
1.565736657489215
 40
1.565736657489215
 10
470.5957792800052
 20
1513.080165688467
 30
0.0
 41
1.0
 10
470.5925613523587
 20
1514.076934641254
 30
0.0
 41
0.7071114346740685
 10
471.5893302627051
 20
1514.080165688467
 30
0.0
 41
1.0
  0
SPLINE
  5
6B
330
1F
100
AcDbEntity
  8
MAKE2D VISIBLE LINES
100
AcDbSpline
210
0.0
220
0.0
230
1.0
 70
    28
 71
     3
 72
     8
 73
     4
 74
     0
 42
0.0000000001
 43
0.0000000001
 40
37.69818173359452
 40
37.69818173359452
 40
37.69818173359452
 40
37.69818173359452
 40
38.08788839156811
 40
38.08788839156811
 40
38.08788839156811
 40
38.08788839156811
 10
420.0766716991544
 20
1472.080165688467
 30
0.0
 41
1.0
 10
420.0766677934309
 20
1472.080165688467
 30
0.0
 41
1.0
 10
420.0787960565926
 20
1472.080165688467
 30
0.0
 41
1.0
 10
420.0830444775288
 20
1472.080165688467
 30
0.0
 41
1.0
  0
SPLINE
  5
6C
330
1F
100
AcDbEntity
  8
MAKE2D VISIBLE LINES
100
AcDbSpline
210
0.0
220
0.0
230
1.0
 70
    24
 71
     2
 72
     6
 73
     3
 74
     0
 42
0.0000000001
 43
0.0000000001
 40
0.0
 40
0.0
 40
0.0
 40
46.97537470893622
 40
46.97537470893622
 40
46.97537470893622
 10
471.5893302627051
 20
1514.080165688467
 30
0.0
 10
495.0770176171732
 20
1514.080165688467
 30
0.0
 10
518.5647049716413
 20
1514.080165688467
 30
0.0
  0
SPLINE
  5
6D
330
1F
100
AcDbEntity
  8
MAKE2D VISIBLE LINES
100
AcDbSpline
210
0.0
220
0.0
230
1.0
 70
    24
 71
     2
 72
     6
 73
     3
 74
     0
 42
0.0000000001
 43
0.0000000001
 40
0.0
 40
0.0
 40
0.0
 40
0.3845985742199218
 40
0.3845985742199218
 40
0.3845985742199218
 10
519.0690213290089
 20
1514.080165688467
 30
0.0
 10
518.876722041899
 20
1514.080165688467
 30
0.0
 10
518.684422754789
 20
1514.080165688467
 30
0.0
  0
SPLINE
  5
6E
330
1F
100
AcDbEntity
  8
MAKE2D VISIBLE LINES
100
AcDbSpline
210
0.0
220
0.0
230
1.0
 70
    24
 71
     2
 72
     6
 73
     3
 74
     0
 42
0.0000000001
 43
0.0000000001
 40
0.0
 40
0.0
 40
0.0
 40
0.4284315800959462
 40
0.4284315800959462
 40
0.4284315800959462
 10
471.5065314204122
 20
1514.080165688467
 30
0.0
 10
471.2923156303642
 20
1514.080165688467
 30
0.0
 10
471.0780998403163
 20
1514.080165688467
 30
0.0
  0
SPLINE
  5
6F
330
1F
100
AcDbEntity
  8
MAKE2D VISIBLE LINES
100
AcDbSpline
210
0.0
220
0.0
230
1.0
 70
    24
 71
     2
 72
     6
 73
     3
 74
     0
 42
0.0000000001
 43
0.0000000001
 40
0.0
 40
0.0
 40
0.0
 40
44.34958216488599
 40
44.34958216488599
 40
44.34958216488599
 10
517.2517654702087
 20
1474.080165688467
 30
0.0
 10
495.0769743877657
 20
1474.080165688467
 30
0.0
 10
472.9021833053228
 20
1474.080165688467
 30
0.0
  0
SPLINE
  5
70
330
1F
100
AcDbEntity
  8
MAKE2D VISIBLE LINES
100
AcDbSpline
210
0.0
220
0.0
230
1.0
 70
    24
 71
     2
 72
     6
 73
     3
 74
     0
 42
0.0000000001
 43
0.0000000001
 40
0.0
 40
0.0
 40
0.0
 40
33.88196601126788
 40
33.88196601126788
 40
33.88196601126788
 10
520.0769743877657
 20
1513.080165688467
 30
0.0
 10
520.0769743877657
 20
1496.139182682833
 30
0.0
 10
520.0769743877657
 20
1479.198199677199
 30
0.0
  0
SPLINE
  5
71
330
1F
100
AcDbEntity
  8
MAKE2D VISIBLE LINES
100
AcDbSpline
210
0.0
220
0.0
230
1.0
 70
     8
 71
     3
 72
    15
 73
    11
 74
     0
 42
0.0000000001
 43
0.0000000001
 40
0.0
 40
0.0
 40
0.0
 40
0.0
 40
1.109404664787184
 40
2.280802583475637
 40
3.442082814185756
 40
4.528122221704769
 40
5.144703438901407
 40
5.541278150480604
 40
5.94862684102621
 40
6.502522507293643
 40
6.502522507293643
 40
6.502522507293643
 40
6.502522507293643
 10
513.9159111714202
 20
1499.596453864603
 30
0.0
 10
514.2700236712371
 20
1499.48956874858
 30
0.0
 10
515.0101272357618
 20
1499.311576839623
 30
0.0
 10
516.1503605228878
 20
1499.166899833501
 30
0.0
 10
517.2902777242365
 20
1499.137290389344
 30
0.0
 10
518.2447114015553
 20
1499.208211808369
 30
0.0
 10
518.9317703905253
 20
1499.340905387654
 30
0.0
 10
519.3620586360731
 20
1499.57139984893
 30
0.0
 10
519.552569252044
 20
1500.009758889604
 30
0.0
 10
519.5525642728103
 20
1500.325941655877
 30
0.0
 10
519.5581699918122
 20
1500.512699375417
 30
0.0
  0
SPLINE
  5
72
330
1F
100
AcDbEntity
  8
MAKE2D VISIBLE LINES
100
AcDbSpline
210
0.0
220
0.0
230
1.0
 70
    12
 71
     2
 72
     8
 73
     5
 74
     0
 42
0.0000000001
 43
0.0000000001
 40
0.0
 40
0.0
 40
0.0
 40
0.7828376238367507
 40
0.7828376238367507
 40
1.565675247673501
 40
1.565675247673501
 40
1.565675247673501
 10
518.5647049716413
 20
1514.080165688467
 30
0.0
 41
1.0
 10
518.9775663857478
 20
1514.078815479495
 30
0.0
 41
0.92387798597075
 10
519.2685463821042
 20
1513.785921280094
 30
0.0
 41
1.0
 10
519.5595263784604
 20
1513.493027080693
 30
0.0
 41
0.92387798597075
 10
519.5581694955256
 20
1513.080165688467
 30
0.0
 41
1.0
  0
SPLINE
  5
73
330
1F
100
AcDbEntity
  8
MAKE2D VISIBLE LINES
100
AcDbSpline
210
0.0
220
0.0
230
1.0
 70
    24
 71
     2
 72
     6
 73
     3
 74
     0
 42
0.0000000001
 43
0.0000000001
 40
0.0
 40
0.0
 40
0.0
 40
121.9999995035121
 40
121.9999995035121
 40
121.9999995035121
 10
419.0769743877657
 20
1595.080165689061
 30
0.0
 10
419.0769743877657
 20
1534.080165937305
 30
0.0
 10
419.0769743877657
 20
1473.080166185549
 30
0.0
  0
SPLINE
  5
74
330
1F
100
AcDbEntity
  8
MAKE2D VISIBLE LINES
100
AcDbSpline
210
0.0
220
0.0
230
1.0
 70
    24
 71
     2
 72
     6
 73
     3
 74
     0
 42
0.0000000001
 43
0.0000000001
 40
0.0
 40
0.0
 40
0.0
 40
60.99693140176464
 40
60.99693140176464
 40
60.99693140176464
 10
419.0769743877657
 20
1595.080165689312
 30
0.0
 10
419.0769743877658
 20
1625.578631390195
 30
0.0
 10
419.0769743877659
 20
1656.077097091077
 30
0.0
  0
SPLINE
  5
75
330
1F
100
AcDbEntity
  8
MAKE2D VISIBLE LINES
100
AcDbSpline
210
0.0
220
0.0
230
1.0
 70
     8
 71
     3
 72
    11
 73
     7
 74
     0
 42
0.0000000001
 43
0.0000000001
 40
0.0
 40
0.0
 40
0.0
 40
0.0
 40
0.2487119547405393
 40
0.4845746573078176
 40
0.9324457693605701
 40
1.808439851190841
 40
1.808439851190841
 40
1.808439851190841
 40
1.808439851190841
 10
518.74785352823
 20
1474.955913669656
 30
0.0
 10
518.702718397337
 20
1474.886478228804
 30
0.0
 10
518.6081414306778
 20
1474.754932213609
 30
0.0
 10
518.3988688214591
 20
1474.52497195359
 30
0.0
 10
517.9856816551767
 20
1474.202299291196
 30
0.0
 10
517.5460846665092
 20
1474.079077725751
 30
0.0
 10
517.2537476885851
 20
1474.080163021671
 30
0.0
  0
SPLINE
  5
76
330
1F
100
AcDbEntity
  8
MAKE2D VISIBLE LINES
100
AcDbSpline
210
0.0
220
0.0
230
1.0
 70
     8
 71
     3
 72
    11
 73
     7
 74
     0
 42
0.0000000001
 43
0.0000000001
 40
0.0
 40
0.0
 40
0.0
 40
0.0
 40
0.5159936169602963
 40
1.098364110400689
 40
2.19409527459764
 40
4.491660753435832
 40
4.491660753435832
 40
4.491660753435832
 40
4.491660753435832
 10
520.0769745103952
 20
1479.197219694981
 30
0.0
 10
520.0769902526151
 20
1479.025262565223
 30
0.0
 10
520.0634063129537
 20
1478.658993529656
 30
0.0
 10
519.9793019960507
 20
1477.932131381437
 30
0.0
 10
519.6731182901285
 20
1476.638263805618
 30
0.0
 10
519.1717098504338
 20
1475.612016230897
 30
0.0
 10
518.7561309334372
 20
1474.969384799232
 30
0.0
  0
SPLINE
  5
77
330
1F
100
AcDbEntity
  8
MAKE2D VISIBLE LINES
100
AcDbSpline
210
0.0
220
0.0
230
1.0
 70
    24
 71
     3
 72
     8
 73
     4
 74
     0
 42
0.0000000001
 43
0.0000000001
 40
0.0
 40
0.0
 40
0.0
 40
0.0
 40
47.99277483518233
 40
47.99277483518233
 40
47.99277483518233
 40
47.99277483518233
 10
519.0769743878759
 20
1392.080165688467
 30
0.0
 10
503.0793827761483
 20
1392.080165688467
 30
0.0
 10
487.0817911644212
 20
1392.080165688467
 30
0.0
 10
471.0841995526936
 20
1392.080165688467
 30
0.0
  0
SPLINE
  5
78
330
1F
100
AcDbEntity
  8
MAKE2D VISIBLE LINES
100
AcDbSpline
210
0.0
220
0.0
230
1.0
 70
    12
 71
     2
 72
    12
 73
     9
 74
     0
 42
0.0000000001
 43
0.0000000001
 40
0.0
 40
0.0
 40
0.0
 40
10.21076717736259
 40
10.21076717736259
 40
20.42153435472519
 40
20.42153435472519
 40
30.63230153208779
 40
30.63230153208779
 40
40.84306870945038
 40
40.84306870945038
 40
40.84306870945038
 10
419.0769743877657
 20
1656.083134514791
 30
0.0
 41
1.0
 10
419.0764362218083
 20
1661.468257056665
 30
0.0
 41
0.9238708268253345
 10
422.8840856067769
 20
1665.2763210322
 30
0.0
 41
1.0
 10
426.6917349917455
 20
1669.084385007735
 30
0.0
 41
0.9238708268253345
 10
432.0768575602952
 20
1669.084433161379
 30
0.0
 41
1.0
 10
437.4619801288447
 20
1669.084481315023
 30
0.0
 41
0.9238708268253345
 10
441.2696976164482
 20
1665.276485435926
 30
0.0
 41
1.0
 10
445.0774151040515
 20
1661.468489556829
 30
0.0
 41
0.9238708268253345
 10
445.0769732453817
 20
1656.083367006192
 30
0.0
 41
1.0
  0
SPLINE
  5
79
330
1F
100
AcDbEntity
  8
MAKE2D VISIBLE LINES
100
AcDbSpline
210
0.0
220
0.0
230
1.0
 70
     8
 71
     3
 72
    11
 73
     7
 74
     0
 42
0.0000000001
 43
0.0000000001
 40
0.0
 40
0.0
 40
0.0
 40
0.0
 40
0.2215002714149919
 40
0.4380760686635887
 40
0.8788791710722231
 40
1.806001573219083
 40
1.806001573219083
 40
1.806001573219083
 40
1.806001573219083
 10
472.9012427419325
 20
1474.080165416858
 30
0.0
 10
472.8276370797225
 20
1474.080157751471
 30
0.0
 10
472.6809944540242
 20
1474.089981217348
 30
0.0
 10
472.3941497793858
 20
1474.148172433786
 30
0.0
 10
471.901787252014
 20
1474.356653910308
 30
0.0
 10
471.5756128074589
 20
1474.694174850214
 30
0.0
 10
471.4080219253277
 20
1474.9529582018
 30
0.0
  0
SPLINE
  5
7A
330
1F
100
AcDbEntity
  8
MAKE2D VISIBLE LINES
100
AcDbSpline
210
0.0
220
0.0
230
1.0
 70
    12
 71
     3
 72
    10
 73
     6
 74
     0
 42
0.0000000001
 43
0.0000000001
 40
-2.137407655874932
 40
-2.137407655874932
 40
-2.137407655874932
 40
-2.137407655874932
 40
-1.853632950268135
 40
-1.55717605992226
 40
-1.36293105973129
 40
-1.36293105973129
 40
-1.36293105973129
 40
-1.36293105973129
 10
471.2920774883734
 20
1475.502402206741
 30
0.0
 41
1.0
 10
471.3126164282534
 20
1475.434378520616
 30
0.0
 41
1.0
 10
471.3893303540519
 20
1475.165511261817
 30
0.0
 41
1.0
 10
471.2721070184564
 20
1475.256200804545
 30
0.0
 41
1.0
 10
471.3342620718789
 20
1475.089176065911
 30
0.0
 41
1.0
 10
471.3647672376899
 20
1475.029193433192
 30
0.0
 41
1.0
  0
SPLINE
  5
7B
330
1F
100
AcDbEntity
  8
MAKE2D VISIBLE LINES
100
AcDbSpline
210
0.0
220
0.0
230
1.0
 70
    12
 71
     2
 72
     6
 73
     3
 74
     0
 42
0.0000000001
 43
0.0000000001
 40
0.0
 40
0.0
 40
0.0
 40
12.56746533837831
 40
12.56746533837831
 40
12.56746533837831
 10
470.5957792773843
 20
1513.080165688467
 30
0.0
 41
1.0
 10
470.5957782856897
 20
1506.796433019278
 30
0.0
 41
0.999999999999993
 10
470.5957787805835
 20
1500.512700350089
 30
0.0
 41
1.0
  0
SPLINE
  5
7C
330
1F
100
AcDbEntity
  8
MAKE2D VISIBLE LINES
100
AcDbSpline
210
0.0
220
0.0
230
1.0
 70
     8
 71
     3
 72
    14
 73
    10
 74
     0
 42
0.0000000001
 43
0.0000000001
 40
0.0
 40
0.0
 40
0.0
 40
0.0
 40
0.5539579196632683
 40
0.9613096489967619
 40
1.35788455157293
 40
1.974387547093361
 40
3.060338256745886
 40
4.220677341275342
 40
6.502525270154528
 40
6.502525270154528
 40
6.502525270154528
 40
6.502525270154528
 10
470.5957787828515
 20
1500.512700350089
 30
0.0
 10
470.6013915377387
 20
1500.325919613279
 30
0.0
 10
470.6013688445466
 20
1500.009719395572
 30
0.0
 10
470.7919471283353
 20
1499.571344181527
 30
0.0
 10
471.2222282693774
 20
1499.340936567404
 30
0.0
 10
471.9092295246866
 20
1499.208142887576
 30
0.0
 10
472.8632779069914
 20
1499.137383989375
 30
0.0
 10
474.3731596189988
 20
1499.176365398698
 30
0.0
 10
475.5097642405777
 20
1499.376291782475
 30
0.0
 10
476.2380484413601
 20
1499.596533160022
 30
0.0
  0
SPLINE
  5
7D
330
1F
100
AcDbEntity
  8
MAKE2D VISIBLE LINES
100
AcDbSpline
210
0.0
220
0.0
230
1.0
 70
    12
 71
     2
 72
     6
 73
     3
 74
     0
 42
0.0000000001
 43
0.0000000001
 40
0.0
 40
0.0
 40
0.0
 40
7.787170492160072
 40
7.787170492160072
 40
7.787170492160072
 10
470.0770736668615
 20
1413.080165688467
 30
0.0
 41
1.0
 10
470.0770779695615
 20
1418.013798983771
 30
0.0
 41
0.711814826397041
 10
465.1438850982694
 20
1418.07972005163
 30
0.0
 41
1.0
  0
SPLINE
  5
7E
330
1F
100
AcDbEntity
  8
MAKE2D VISIBLE LINES
100
AcDbSpline
210
0.0
220
0.0
230
1.0
 70
    12
 71
     2
 72
     6
 73
     3
 74
     0
 42
0.0000000001
 43
0.0000000001
 40
0.0
 40
0.0
 40
0.0
 40
0.2701701814172314
 40
0.2701701814172314
 40
0.2701701814172314
 10
432.9671855758532
 20
1669.056835853532
 30
0.0
 41
1.0
 10
433.1019579228084
 20
1669.047578225844
 30
0.0
 41
0.9999462672984947
 10
433.2365093773444
 20
1669.035528526409
 30
0.0
 41
1.0
  0
SPLINE
  5
7F
330
1F
100
AcDbEntity
  8
MAKE2D VISIBLE LINES
100
AcDbSpline
210
0.0
220
0.0
230
1.0
 70
    12
 71
     2
 72
     6
 73
     3
 74
     0
 42
0.0000000001
 43
0.0000000001
 40
0.0
 40
0.0
 40
0.0
 40
0.4711152865516433
 40
0.4711152865516433
 40
0.4711152865516433
 10
431.9396074103262
 20
1669.086627735592
 30
0.0
 41
1.0
 10
432.1751776789837
 20
1669.089125106293
 30
0.0
 41
0.9998353353052337
 10
432.4106834230779
 20
1669.083072599837
 30
0.0
 41
1.0
  0
SPLINE
  5
80
330
1F
100
AcDbEntity
  8
MAKE2D VISIBLE LINES
100
AcDbSpline
210
0.0
220
0.0
230
1.0
 70
    12
 71
     2
 72
     6
 73
     3
 74
     0
 42
0.0000000001
 43
0.0000000001
 40
0.0
 40
0.0
 40
0.0
 40
0.2734050218231757
 40
0.2734050218231757
 40
0.2734050218231757
 10
430.3213151005212
 20
1668.968239637525
 30
0.0
 41
1.0
 10
430.4567691480249
 20
1668.986710217191
 30
0.0
 41
0.9999444266314713
 10
430.5925825151917
 20
1669.002320809658
 30
0.0
 41
1.0
  0
SPLINE
  5
81
330
1F
100
AcDbEntity
  8
MAKE2D VISIBLE LINES
100
AcDbSpline
210
0.0
220
0.0
230
1.0
 70
    12
 71
     2
 72
     6
 73
     3
 74
     0
 42
0.0000000001
 43
0.0000000001
 40
0.0
 40
0.0
 40
0.0
 40
0.2664625581934028
 40
0.2664625581934028
 40
0.2664625581934028
 10
429.718162285546
 20
1668.871532170644
 30
0.0
 41
1.0
 10
429.8491875788214
 20
1668.895702006
 30
0.0
 41
0.9999478352533767
 10
429.9806792511553
 20
1668.917190340647
 30
0.0
 41
1.0
  0
SPLINE
  5
82
330
1F
100
AcDbEntity
  8
MAKE2D VISIBLE LINES
100
AcDbSpline
210
0.0
220
0.0
230
1.0
 70
    12
 71
     2
 72
     6
 73
     3
 74
     0
 42
0.0000000001
 43
0.0000000001
 40
0.0
 40
0.0
 40
0.0
 40
1.570353823899596
 40
1.570353823899596
 40
1.570353823899596
 10
520.0769755889759
 20
1393.080165688467
 30
0.0
 41
1.0
 10
520.0769733505092
 20
1392.080609370759
 30
0.0
 41
0.7072644558965414
 10
519.0774171312263
 20
1392.080165785968
 30
0.0
 41
1.0
  0
SPLINE
  5
83
330
1F
100
AcDbEntity
  8
MAKE2D VISIBLE LINES
100
AcDbSpline
210
0.0
220
0.0
230
1.0
 70
    12
 71
     2
 72
     6
 73
     3
 74
     0
 42
0.0000000001
 43
0.0000000001
 40
0.0
 40
0.0
 40
0.0
 40
0.4095810904832939
 40
0.4095810904832939
 40
0.4095810904832939
 10
433.0240270169807
 20
1669.041126530826
 30
0.0
 41
1.0
 10
433.2282896429684
 20
1669.026198535925
 30
0.0
 41
0.9998766627733366
 10
433.4319826603287
 20
1669.004862648649
 30
0.0
 41
1.0
  0
SPLINE
  5
84
330
1F
100
AcDbEntity
  8
MAKE2D VISIBLE LINES
100
AcDbSpline
210
0.0
220
0.0
230
1.0
 70
    12
 71
     2
 72
     6
 73
     3
 74
     0
 42
0.0000000001
 43
0.0000000001
 40
0.0
 40
0.0
 40
0.0
 40
0.061834105822326
 40
0.061834105822326
 40
0.061834105822326
 10
427.5595867305806
 20
1668.277107695706
 30
0.0
 41
1.0
 10
427.588576508726
 20
1668.287852952216
 30
0.0
 41
0.9999971646133397
 10
427.6176171340888
 20
1668.298460018395
 30
0.0
 41
1.0
  0
SPLINE
  5
85
330
1F
100
AcDbEntity
  8
MAKE2D VISIBLE LINES
100
AcDbSpline
210
0.0
220
0.0
230
1.0
 70
    12
 71
     2
 72
     6
 73
     3
 74
     0
 42
0.0000000001
 43
0.0000000001
 40
0.0
 40
0.0
 40
0.0
 40
1.570825064978298
 40
1.570825064978298
 40
1.570825064978298
 10
419.0764764962908
 20
1471.080165688467
 30
0.0
 41
1.0
 10
419.0764979487141
 20
1472.08018218133
 30
0.0
 41
0.7071085346248099
 10
420.0765144416711
 20
1472.080165688467
 30
0.0
 41
1.0
  0
SPLINE
  5
86
330
1F
100
AcDbEntity
  8
MAKE2D VISIBLE LINES
100
AcDbSpline
210
0.0
220
0.0
230
1.0
 70
    12
 71
     2
 72
     6
 73
     3
 74
     0
 42
0.0000000001
 43
0.0000000001
 40
0.0
 40
0.0
 40
0.0
 40
1.570794661143062
 40
1.570794661143062
 40
1.570794661143062
 10
519.076976263663
 20
1472.080165688466
 30
0.0
 41
1.0
 10
520.0769737832646
 20
1472.080163208071
 30
0.0
 41
0.7071081627979873
 10
520.0769752106504
 20
1471.080165688467
 30
0.0
 41
1.0
  0
SPLINE
  5
87
330
1F
100
AcDbEntity
  8
MAKE2D VISIBLE LINES
100
AcDbSpline
210
0.0
220
0.0
230
1.0
 70
    12
 71
     2
 72
     6
 73
     3
 74
     0
 42
0.0000000001
 43
0.0000000001
 40
0.0
 40
0.0
 40
0.0
 40
1.570808647482729
 40
1.570808647482729
 40
1.570808647482729
 10
471.0759296009231
 20
1392.080165688679
 30
0.0
 41
1.0
 10
470.0759302778109
 20
1392.080166365614
 30
0.0
 41
0.7071150712796462
 10
470.0759075067003
 20
1393.080165688467
 30
0.0
 41
1.0
  0
SPLINE
  5
88
330
1F
100
AcDbEntity
  8
MAKE2D VISIBLE LINES
100
AcDbSpline
210
0.0
220
0.0
230
1.0
 70
    12
 71
     2
 72
     6
 73
     3
 74
     0
 42
0.0000000001
 43
0.0000000001
 40
0.0
 40
0.0
 40
0.0
 40
1.636900997510973
 40
1.636900997510973
 40
1.636900997510973
 10
434.9902977416835
 20
1668.756655966287
 30
0.0
 41
1.0
 10
435.7889805820294
 20
1668.572967514369
 30
0.0
 41
0.9980183166971631
 10
436.558267707034
 20
1668.290420091566
 30
0.0
 41
1.0
  0
SPLINE
  5
89
330
1F
100
AcDbEntity
  8
MAKE2D VISIBLE LINES
100
AcDbSpline
210
0.0
220
0.0
230
1.0
 70
    12
 71
     2
 72
     6
 73
     3
 74
     0
 42
0.0000000001
 43
0.0000000001
 40
0.0
 40
0.0
 40
0.0
 40
0.2705995817303842
 40
0.2705995817303842
 40
0.2705995817303842
 10
434.5899716541363
 20
1668.842112543241
 30
0.0
 41
1.0
 10
434.7227225402099
 20
1668.81594858673
 30
0.0
 41
0.999946047578689
 10
434.8549012467873
 20
1668.78703250295
 30
0.0
 41
1.0
  0
SPLINE
  5
8A
330
1F
100
AcDbEntity
  8
MAKE2D VISIBLE LINES
100
AcDbSpline
210
0.0
220
0.0
230
1.0
 70
    12
 71
     2
 72
     6
 73
     3
 74
     0
 42
0.0000000001
 43
0.0000000001
 40
0.0
 40
0.0
 40
0.0
 40
1.089539648327285
 40
1.089539648327285
 40
1.089539648327285
 10
433.3753034539937
 20
1669.022350256378
 30
0.0
 41
1.0
 10
433.9176657239403
 20
1668.967897371931
 30
0.0
 41
0.9991220842916246
 10
434.4535658041631
 20
1668.868232671543
 30
0.0
 41
1.0
  0
SPLINE
  5
8B
330
1F
100
AcDbEntity
  8
MAKE2D VISIBLE LINES
100
AcDbSpline
210
0.0
220
0.0
230
1.0
 70
    12
 71
     2
 72
     6
 73
     3
 74
     0
 42
0.0000000001
 43
0.0000000001
 40
0.0
 40
0.0
 40
0.0
 40
0.4072712769466855
 40
0.4072712769466855
 40
0.4072712769466855
 10
430.5795917961577
 20
1668.989149691015
 30
0.0
 41
1.0
 10
430.7818879864508
 20
1669.012613387709
 30
0.0
 41
0.9998766626158025
 10
430.9848213027003
 20
1669.029712008282
 30
0.0
 41
1.0
  0
SPLINE
  5
8C
330
1F
100
AcDbEntity
  8
MAKE2D VISIBLE LINES
100
AcDbSpline
210
0.0
220
0.0
230
1.0
 70
    12
 71
     2
 72
     6
 73
     3
 74
     0
 42
0.0000000001
 43
0.0000000001
 40
0.0
 40
0.0
 40
0.0
 40
0.5739147831134922
 40
0.5739147831134922
 40
0.5739147831134922
 10
426.5195699257715
 20
1667.828042041082
 30
0.0
 41
1.0
 10
426.7790284472549
 20
1667.950731278982
 30
0.0
 41
0.9997557180819245
 10
427.043655537805
 20
1668.061834278102
 30
0.0
 41
1.0
  0
SPLINE
  5
8D
330
1F
100
AcDbEntity
  8
MAKE2D VISIBLE LINES
100
AcDbSpline
210
0.0
220
0.0
230
1.0
 70
    12
 71
     2
 72
     6
 73
     3
 74
     0
 42
0.0000000001
 43
0.0000000001
 40
0.0
 40
0.0
 40
0.0
 40
0.1765022031289545
 40
0.1765022031289545
 40
0.1765022031289545
 10
419.1080562838856
 20
1655.178630383563
 30
0.0
 41
1.0
 10
419.1019566503102
 20
1655.266671805728
 30
0.0
 41
0.9999768293446523
 10
419.0970562216614
 20
1655.354788111516
 30
0.0
 41
1.0
  0
SPLINE
  5
8E
330
1F
100
AcDbEntity
  8
MAKE2D VISIBLE LINES
100
AcDbSpline
210
0.0
220
0.0
230
1.0
 70
    12
 71
     2
 72
     6
 73
     3
 74
     0
 42
0.0000000001
 43
0.0000000001
 40
0.0
 40
0.0
 40
0.0
 40
1.570802914114084
 40
1.570802914114084
 40
1.570802914114084
 10
470.0767226770396
 20
1513.080165688467
 30
0.0
 41
1.0
 10
470.0767299946647
 20
1514.080168098876
 30
0.0
 41
0.7071085161430829
 10
471.0767324050975
 20
1514.080165688467
 30
0.0
 41
1.0
  0
SPLINE
  5
8F
330
1F
100
AcDbEntity
  8
MAKE2D VISIBLE LINES
100
AcDbSpline
210
0.0
220
0.0
230
1.0
 70
     8
 71
     3
 72
    11
 73
     7
 74
     0
 42
0.0000000001
 43
0.0000000001
 40
0.0
 40
0.0
 40
0.0
 40
0.0
 40
0.5951653065177535
 40
1.13900645740187
 40
2.245186171780372
 40
4.371572452859265
 40
4.371572452859265
 40
4.371572452859265
 40
4.371572452859265
 10
471.3624871612753
 20
1475.02774555287
 30
0.0
 10
471.2562277376393
 20
1475.195245822375
 30
0.0
 10
471.0622496188343
 20
1475.521916145053
 30
0.0
 10
470.7218673953581
 20
1476.18875170976
 30
0.0
 10
470.2588446725518
 20
1477.362477483054
 30
0.0
 10
470.0828181216003
 20
1478.437020566233
 30
0.0
 10
470.0775380271101
 20
1479.146095085016
 30
0.0
  0
SPLINE
  5
90
330
1F
100
AcDbEntity
  8
MAKE2D VISIBLE LINES
100
AcDbSpline
210
0.0
220
0.0
230
1.0
 70
    24
 71
     2
 72
     6
 73
     3
 74
     0
 42
0.0000000001
 43
0.0000000001
 40
0.0
 40
0.0
 40
0.0
 40
33.88141834245528
 40
33.88141834245528
 40
33.88141834245528
 10
470.0769743877657
 20
1479.198747346012
 30
0.0
 10
470.0769743877657
 20
1496.13945651724
 30
0.0
 10
470.0769743877657
 20
1513.080165688467
 30
0.0
  0
SPLINE
  5
91
330
1F
100
AcDbEntity
  8
MAKE2D VISIBLE LINES
100
AcDbSpline
210
0.0
220
0.0
230
1.0
 70
    24
 71
     2
 72
     6
 73
     3
 74
     0
 42
0.0000000001
 43
0.0000000001
 40
0.0
 40
0.0
 40
0.0
 40
0.058436835874204
 40
0.058436835874204
 40
0.058436835874204
 10
420.1414813133797
 20
1472.080165688467
 30
0.0
 10
420.1122628954426
 20
1472.080165688467
 30
0.0
 10
420.0830444775055
 20
1472.080165688467
 30
0.0
  0
SPLINE
  5
92
330
1F
100
AcDbEntity
  8
MAKE2D VISIBLE LINES
100
AcDbSpline
210
0.0
220
0.0
230
1.0
 70
    24
 71
     2
 72
     6
 73
     3
 74
     0
 42
0.0000000001
 43
0.0000000001
 40
0.0
 40
0.0
 40
0.0
 40
0.0314610635254553
 40
0.0314610635254553
 40
0.0314610635254553
 10
420.2220307474069
 20
1472.080165688467
 30
0.0
 10
420.2063002156442
 20
1472.080165688467
 30
0.0
 10
420.1905696838814
 20
1472.080165688467
 30
0.0
  0
SPLINE
  5
93
330
1F
100
AcDbEntity
  8
MAKE2D VISIBLE LINES
100
AcDbSpline
210
0.0
220
0.0
230
1.0
 70
    12
 71
     2
 72
     6
 73
     3
 74
     0
 42
0.0000000001
 43
0.0000000001
 40
0.0
 40
0.0
 40
0.0
 40
2.002765116797907
 40
2.002765116797907
 40
2.002765116797907
 10
517.0769743877656
 20
1472.080165688467
 30
0.0
 41
1.0
 10
517.0769743877659
 20
1473.082240386181
 30
0.0
 41
0.9989642624899063
 10
516.9858766879746
 20
1474.080165688442
 30
0.0
 41
1.0
  0
SPLINE
  5
94
330
1F
100
AcDbEntity
  8
MAKE2D VISIBLE LINES
100
AcDbSpline
210
0.0
220
0.0
230
1.0
 70
    12
 71
     2
 72
     6
 73
     3
 74
     0
 42
0.0000000001
 43
0.0000000001
 40
0.0
 40
0.0
 40
0.0
 40
1.570816128070438
 40
1.570816128070438
 40
1.570816128070438
 10
419.0766464775877
 20
1595.080165689312
 30
0.0
 41
1.0
 10
419.0766591125941
 20
1594.08015310066
 30
0.0
 41
0.7071067978737715
 10
420.0766717012472
 20
1594.080165688467
 30
0.0
 41
1.0
  0
SPLINE
  5
95
330
1F
100
AcDbEntity
  8
MAKE2D VISIBLE LINES
100
AcDbSpline
210
0.0
220
0.0
230
1.0
 70
    24
 71
     2
 72
     6
 73
     3
 74
     0
 42
0.0000000001
 43
0.0000000001
 40
0.0
 40
0.0
 40
0.0
 40
61.00302314660803
 40
61.00302314660803
 40
61.00302314660803
 10
445.0769743877657
 20
1656.083239363301
 30
0.0
 10
445.0769743877657
 20
1625.581727789997
 30
0.0
 10
445.0769743877657
 20
1595.080216216693
 30
0.0
  0
SPLINE
  5
96
330
1F
100
AcDbEntity
  8
MAKE2D VISIBLE LINES
100
AcDbSpline
210
0.0
220
0.0
230
1.0
 70
    24
 71
     2
 72
     6
 73
     3
 74
     0
 42
0.0000000001
 43
0.0000000001
 40
0.0
 40
0.0
 40
0.0
 40
122.0000571030407
 40
122.0000571030407
 40
122.0000571030407
 10
445.0769743877657
 20
1473.080159107336
 30
0.0
 10
445.0769743877657
 20
1534.080187658857
 30
0.0
 10
445.0769743877657
 20
1595.080216210377
 30
0.0
  0
SPLINE
  5
97
330
1F
100
AcDbEntity
  8
MAKE2D VISIBLE LINES
100
AcDbSpline
210
0.0
220
0.0
230
1.0
 70
    12
 71
     2
 72
     6
 73
     3
 74
     0
 42
0.0000000001
 43
0.0000000001
 40
0.0
 40
0.0
 40
0.0
 40
1.570816141349793
 40
1.570816141349793
 40
1.570816141349793
 10
419.0766464750602
 20
1473.080165688149
 30
0.0
 41
1.0
 10
419.0766590785934
 20
1472.080153067588
 30
0.0
 41
0.7071067750538085
 10
420.0766716991544
 20
1472.080165688467
 30
0.0
 41
1.0
  0
SPLINE
  5
98
330
1F
100
AcDbEntity
  8
MAKE2D VISIBLE LINES
100
AcDbSpline
210
0.0
220
0.0
230
1.0
 70
    24
 71
     2
 72
     6
 73
     3
 74
     0
 42
0.0000000001
 43
0.0000000001
 40
0.0
 40
0.0
 40
0.0
 40
1.01977655147482
 40
1.01977655147482
 40
1.01977655147482
 10
429.9294446553739
 20
1472.080165688467
 30
0.0
 10
430.4393329311113
 20
1472.080165688467
 30
0.0
 10
430.9492212068487
 20
1472.080165688467
 30
0.0
  0
SPLINE
  5
99
330
1F
100
AcDbEntity
  8
MAKE2D VISIBLE LINES
100
AcDbSpline
210
0.0
220
0.0
230
1.0
 70
    24
 71
     2
 72
     6
 73
     3
 74
     0
 42
0.0000000001
 43
0.0000000001
 40
0.0
 40
0.0
 40
0.0
 40
0.0873288971056354
 40
0.0873288971056354
 40
0.0873288971056354
 10
428.3132938567176
 20
1472.080165688467
 30
0.0
 10
428.3569583052704
 20
1472.080165688467
 30
0.0
 10
428.4006227538232
 20
1472.080165688467
 30
0.0
  0
SPLINE
  5
9A
330
1F
100
AcDbEntity
  8
MAKE2D VISIBLE LINES
100
AcDbSpline
210
0.0
220
0.0
230
1.0
 70
    24
 71
     2
 72
     6
 73
     3
 74
     0
 42
0.0000000001
 43
0.0000000001
 40
0.0
 40
0.0
 40
0.0
 40
4.799982277247295
 40
4.799982277247295
 40
4.799982277247295
 10
471.0769743877657
 20
1472.080165688467
 30
0.0
 10
473.4769655263894
 20
1472.080165688467
 30
0.0
 10
475.876956665013
 20
1472.080165688467
 30
0.0
  0
SPLINE
  5
9B
330
1F
100
AcDbEntity
  8
MAKE2D VISIBLE LINES
100
AcDbSpline
210
0.0
220
0.0
230
1.0
 70
    24
 71
     2
 72
     6
 73
     3
 74
     0
 42
0.0000000001
 43
0.0000000001
 40
0.0
 40
0.0
 40
0.0
 40
35.06665442379705
 40
35.06665442379705
 40
35.06665442379705
 10
465.1435522837746
 20
1418.080165688467
 30
0.0
 10
447.6102250718761
 20
1418.080165688467
 30
0.0
 10
430.0768978599776
 20
1418.080165688467
 30
0.0
  0
SPLINE
  5
9C
330
1F
100
AcDbEntity
  8
MAKE2D VISIBLE LINES
100
AcDbSpline
210
0.0
220
0.0
230
1.0
 70
    12
 71
     2
 72
     6
 73
     3
 74
     0
 42
0.0000000001
 43
0.0000000001
 40
0.0
 40
0.0
 40
0.0
 40
1.571135853484369
 40
1.571135853484369
 40
1.571135853484369
 10
444.0764826964926
 20
1594.080165688467
 30
0.0
 41
1.0
 10
445.0765526250362
 20
1594.080146376898
 30
0.0
 41
0.7072490448991186
 10
445.0769743877658
 20
1595.080216216693
 30
0.0
 41
1.0
  0
SPLINE
  5
9D
330
1F
100
AcDbEntity
  8
MAKE2D VISIBLE LINES
100
AcDbSpline
210
0.0
220
0.0
230
1.0
 70
    24
 71
     2
 72
     6
 73
     3
 74
     0
 42
0.0000000001
 43
0.0000000001
 40
0.0
 40
0.0
 40
0.0
 40
0.2237724928556304
 40
0.2237724928556304
 40
0.2237724928556304
 10
431.8289047154205
 20
1472.080165688467
 30
0.0
 10
431.9407909618483
 20
1472.080165688467
 30
0.0
 10
432.0526772082761
 20
1472.080165688467
 30
0.0
  0
SPLINE
  5
9E
330
1F
100
AcDbEntity
  8
MAKE2D VISIBLE LINES
100
AcDbSpline
210
0.0
220
0.0
230
1.0
 70
    24
 71
     2
 72
     6
 73
     3
 74
     0
 42
0.0000000001
 43
0.0000000001
 40
0.0
 40
0.0
 40
0.0
 40
0.2108201604651185
 40
0.2108201604651185
 40
0.2108201604651185
 10
427.2501921050391
 20
1472.080165688467
 30
0.0
 10
427.1447820248065
 20
1472.080165688467
 30
0.0
 10
427.039371944574
 20
1472.080165688467
 30
0.0
  0
SPLINE
  5
9F
330
1F
100
AcDbEntity
  8
MAKE2D VISIBLE LINES
100
AcDbSpline
210
0.0
220
0.0
230
1.0
 70
    24
 71
     2
 72
     6
 73
     3
 74
     0
 42
0.0000000001
 43
0.0000000001
 40
0.0
 40
0.0
 40
0.0
 40
0.3140724598422935
 40
0.3140724598422935
 40
0.3140724598422935
 10
427.7981009170478
 20
1472.080165688467
 30
0.0
 10
427.6410646871267
 20
1472.080165688467
 30
0.0
 10
427.4840284572055
 20
1472.080165688467
 30
0.0
  0
SPLINE
  5
A0
330
1F
100
AcDbEntity
  8
MAKE2D VISIBLE LINES
100
AcDbSpline
210
0.0
220
0.0
230
1.0
 70
    24
 71
     2
 72
     6
 73
     3
 74
     0
 42
0.0000000001
 43
0.0000000001
 40
0.0
 40
0.0
 40
0.0
 40
0.3763962745378535
 40
0.3763962745378535
 40
0.3763962745378535
 10
428.313293856955
 20
1472.080165688467
 30
0.0
 10
428.1250957196861
 20
1472.080165688467
 30
0.0
 10
427.9368975824171
 20
1472.080165688467
 30
0.0
  0
SPLINE
  5
A1
330
1F
100
AcDbEntity
  8
MAKE2D VISIBLE LINES
100
AcDbSpline
210
0.0
220
0.0
230
1.0
 70
    24
 71
     2
 72
     6
 73
     3
 74
     0
 42
0.0000000001
 43
0.0000000001
 40
0.0
 40
0.0
 40
0.0
 40
0.4615492805775716
 40
0.4615492805775716
 40
0.4615492805775716
 10
428.8621720284662
 20
1472.080165688467
 30
0.0
 10
428.6313973881774
 20
1472.080165688467
 30
0.0
 10
428.4006227478886
 20
1472.080165688467
 30
0.0
  0
SPLINE
  5
A2
330
1F
100
AcDbEntity
  8
MAKE2D VISIBLE LINES
100
AcDbSpline
210
0.0
220
0.0
230
1.0
 70
    24
 71
     2
 72
     6
 73
     3
 74
     0
 42
0.0000000001
 43
0.0000000001
 40
0.0
 40
0.0
 40
0.0
 40
0.1375218977983081
 40
0.1375218977983081
 40
0.1375218977983081
 10
429.9294446587953
 20
1472.080165688467
 30
0.0
 10
429.8606837098961
 20
1472.080165688467
 30
0.0
 10
429.791922760997
 20
1472.080165688467
 30
0.0
  0
SPLINE
  5
A3
330
1F
100
AcDbEntity
  8
MAKE2D VISIBLE LINES
100
AcDbSpline
210
0.0
220
0.0
230
1.0
 70
    24
 71
     2
 72
     6
 73
     3
 74
     0
 42
0.0000000001
 43
0.0000000001
 40
0.0
 40
0.0
 40
0.0
 40
0.531813583872804
 40
0.531813583872804
 40
0.531813583872804
 10
431.481034790442
 20
1472.080165688467
 30
0.0
 10
431.2151279985056
 20
1472.080165688467
 30
0.0
 10
430.9492212065692
 20
1472.080165688467
 30
0.0
  0
SPLINE
  5
A4
330
1F
100
AcDbEntity
  8
MAKE2D VISIBLE LINES
100
AcDbSpline
210
0.0
220
0.0
230
1.0
 70
    24
 71
     2
 72
     6
 73
     3
 74
     0
 42
0.0000000001
 43
0.0000000001
 40
0.0
 40
0.0
 40
0.0
 40
0.3124180787282285
 40
0.3124180787282285
 40
0.3124180787282285
 10
431.8289047156684
 20
1472.080165688467
 30
0.0
 10
431.6726956763043
 20
1472.080165688467
 30
0.0
 10
431.5164866369402
 20
1472.080165688467
 30
0.0
  0
SPLINE
  5
A5
330
1F
100
AcDbEntity
  8
MAKE2D VISIBLE LINES
100
AcDbSpline
210
0.0
220
0.0
230
1.0
 70
    24
 71
     2
 72
     6
 73
     3
 74
     0
 42
0.0000000001
 43
0.0000000001
 40
0.0
 40
0.0
 40
0.0
 40
39.02429717943363
 40
39.02429717943363
 40
39.02429717943363
 10
471.0769743877657
 20
1472.080165688467
 30
0.0
 10
451.5648257980489
 20
1472.080165688467
 30
0.0
 10
432.0526772083321
 20
1472.080165688467
 30
0.0
  0
SPLINE
  5
A6
330
1F
100
AcDbEntity
  8
MAKE2D VISIBLE LINES
100
AcDbSpline
210
0.0
220
0.0
230
1.0
 70
    24
 71
     2
 72
     6
 73
     3
 74
     0
 42
0.0000000001
 43
0.0000000001
 40
0.0
 40
0.0
 40
0.0
 40
43.19501484805699
 40
43.19501484805699
 40
43.19501484805699
 10
519.0720230954345
 20
1472.080165688467
 30
0.0
 10
497.474515671406
 20
1472.080165688467
 30
0.0
 10
475.8770082473775
 20
1472.080165688467
 30
0.0
  0
SPLINE
  5
A7
330
1F
100
AcDbEntity
  8
MAKE2D VISIBLE LINES
100
AcDbSpline
210
0.0
220
0.0
230
1.0
 70
    24
 71
     2
 72
     6
 73
     3
 74
     0
 42
0.0000000001
 43
0.0000000001
 40
0.0
 40
0.0
 40
0.0
 40
78.0
 40
78.0
 40
78.0
 10
520.0769743877657
 20
1471.080165688467
 30
0.0
 10
520.0769743877657
 20
1432.080165688467
 30
0.0
 10
520.0769743877657
 20
1393.080165688467
 30
0.0
  0
SPLINE
  5
A8
330
1F
100
AcDbEntity
  8
MAKE2D VISIBLE LINES
100
AcDbSpline
210
0.0
220
0.0
230
1.0
 70
    24
 71
     2
 72
     6
 73
     3
 74
     0
 42
0.0000000001
 43
0.0000000001
 40
0.0
 40
0.0
 40
0.0
 40
23.99981099524541
 40
23.99981099524541
 40
23.99981099524541
 10
444.0764826964926
 20
1594.080165688467
 30
0.0
 10
432.0765771988699
 20
1594.080165688467
 30
0.0
 10
420.0766717012472
 20
1594.080165688467
 30
0.0
  0
SPLINE
  5
A9
330
1F
100
AcDbEntity
  8
MAKE2D VISIBLE LINES
100
AcDbSpline
210
0.0
220
0.0
230
1.0
 70
    24
 71
     2
 72
     6
 73
     3
 74
     0
 42
0.0000000001
 43
0.0000000001
 40
0.0
 40
0.0
 40
0.0
 40
0.0354518490258897
 40
0.0354518490258897
 40
0.0354518490258897
 10
431.4810347904426
 20
1472.080165688467
 30
0.0
 10
431.4987607149556
 20
1472.080165688467
 30
0.0
 10
431.5164866394685
 20
1472.080165688467
 30
0.0
  0
SPLINE
  5
AA
330
1F
100
AcDbEntity
  8
MAKE2D VISIBLE LINES
100
AcDbSpline
210
0.0
220
0.0
230
1.0
 70
    24
 71
     2
 72
     6
 73
     3
 74
     0
 42
0.0000000001
 43
0.0000000001
 40
0.0
 40
0.0
 40
0.0
 40
0.9297507346624343
 40
0.9297507346624343
 40
0.9297507346624343
 10
428.8621720284662
 20
1472.080165688467
 30
0.0
 10
429.3270473957974
 20
1472.080165688467
 30
0.0
 10
429.7919227631286
 20
1472.080165688467
 30
0.0
  0
DIMENSION
  5
AC
330
1F
100
AcDbEntity
  8
E45716
100
AcDbDimension
  2
*D1
 10
520.0769743877657
 20
1744.080165688467
 30
0.0
 11
469.5769743877657
 21
1754.380165688467
 31
0.0
 70
    32
  1
100
 71
     5
 42
101.0
  3
DEFAULT
100
AcDbAlignedDimension
 13
419.0769743877657
 23
1450.080165688467
 33
0.0
 14
520.0769743877657
 24
1450.080165688467
 34
0.0
100
AcDbRotatedDimension
1001
ACAD
1000
DSTYLE
1002
{
1070
   279
1070
     1
1002
}
  0
DIMENSION
  5
DE
330
1F
100
AcDbEntity
  8
E45716
100
AcDbDimension
  2
*D2
 10
383.9396074103262
 20
1392.080165688467
 30
0.0
 11
373.8096074103262
 21
1530.58339671203
 31
0.0
 70
    32
  1
277
 71
     5
 42
277.0064620471253
  3
DEFAULT
100
AcDbAlignedDimension
 13
431.9396074103262
 23
1669.086627735592
 33
0.0
 14
495.0805869702847
 24
1392.080165688467
 34
0.0
 50
90.0
100
AcDbRotatedDimension
1001
ACAD
1000
DSTYLE
1002
{
1070
   279
1070
     1
1002
}
  0
ENDSEC
  0
SECTION
  2
OBJECTS
  0
DICTIONARY
  5
C
330
0
100
AcDbDictionary
281
     1
  3
ACAD_GROUP
350
D
  3
ACAD_LAYOUT
350
1A
  3
ACAD_MLEADERSTYLE
350
EE
  3
ACAD_MLINESTYLE
350
17
  3
ACAD_PLOTSETTINGS
350
19
  3
ACAD_PLOTSTYLENAME
350
E
  3
ACAD_SCALELIST
350
AD
  3
ACAD_TABLESTYLE
350
ED
  3
ACAD_VISUALSTYLE
350
2A
  3
AcDbVariableDictionary
350
EB
  0
DICTIONARY
  5
D
102
{ACAD_REACTORS
330
C
102
}
330
C
100
AcDbDictionary
281
     1
  0
DICTIONARY
  5
1A
102
{ACAD_REACTORS
330
C
102
}
330
C
100
AcDbDictionary
281
     1
  3
Layout1
350
1E
  3
Layout2
350
26
  3
Model
350
22
  0
DICTIONARY
  5
EE
102
{ACAD_REACTORS
330
C
102
}
330
C
100
AcDbDictionary
281
     1
  0
DICTIONARY
  5
17
102
{ACAD_REACTORS
330
C
102
}
330
C
100
AcDbDictionary
281
     1
  3
Standard
350
18
  0
DICTIONARY
  5
19
102
{ACAD_REACTORS
330
C
102
}
330
C
100
AcDbDictionary
281
     1
  0
ACDBDICTIONARYWDFLT
  5
E
102
{ACAD_REACTORS
330
C
102
}
330
C
100
AcDbDictionary
281
     1
  3
Normal
350
F
100
AcDbDictionaryWithDefault
340
F
  0
DICTIONARY
  5
AD
102
{ACAD_REACTORS
330
C
102
}
330
C
100
AcDbDictionary
281
     1
  3
A0
350
AE
  3
A1
350
AF
  3
A2
350
B0
  3
A3
350
B1
  3
A4
350
B2
  3
A5
350
B3
  3
A6
350
B4
  3
A7
350
B5
  3
A8
350
B6
  3
A9
350
B7
  3
B0
350
B8
  3
B1
350
B9
  3
B2
350
BA
  3
B3
350
BB
  3
B4
350
BC
  3
B5
350
BD
  3
B6
350
BE
  3
B7
350
BF
  3
B8
350
C0
  3
B9
350
C1
  3
C0
350
C2
  3
C1
350
C3
  3
C2
350
C4
  3
C3
350
C5
  3
C4
350
C6
  3
C5
350
C7
  3
C6
350
C8
  3
C7
350
C9
  3
C8
350
CA
  3
C9
350
CB
  3
D0
350
CC
  3
D1
350
CD
  3
D2
350
CE
  0
DICTIONARY
  5
ED
102
{ACAD_REACTORS
330
C
102
}
330
C
100
AcDbDictionary
281
     1
  0
DICTIONARY
  5
2A
102
{ACAD_REACTORS
330
C
102
}
330
C
100
AcDbDictionary
281
     1
  3
2dWireframe
350
2F
  3
3D Hidden
350
31
  3
3dWireframe
350
30
  3
Basic
350
32
  3
Brighten
350
36
  3
ColorChange
350
3A
  3
Conceptual
350
34
  3
Dim
350
35
  3
Facepattern
350
39
  3
Flat
350
2B
  3
FlatWithEdges
350
2C
  3
Gouraud
350
2D
  3
GouraudWithEdges
350
2E
  3
Linepattern
350
38
  3
Realistic
350
33
  3
Thicken
350
37
  0
DICTIONARY
  5
EB
102
{ACAD_REACTORS
330
C
102
}
330
C
100
AcDbDictionary
281
     1
  3
CANNOSCALE
350
EC
  0
LAYOUT
  5
1E
102
{ACAD_REACTORS
330
1A
102
}
330
1A
100
AcDbPlotSettings
  1

  2
none_device
  4

  6

 40
0.0
 41
0.0
 42
0.0
 43
0.0
 44
0.0
 45
0.0
 46
0.0
 47
0.0
 48
0.0
 49
0.0
140
0.0
141
0.0
142
1.0
143
1.0
 70
   688
 72
     0
 73
     0
 74
     5
  7

 75
    16
 76
     0
 77
     2
 78
   300
147
1.0
148
0.0
149
0.0
100
AcDbLayout
  1
Layout1
 70
     1
 71
     1
 10
0.0
 20
0.0
 11
12.0
 21
9.0
 12
0.0
 22
0.0
 32
0.0
 14
1.000000000000000E+20
 24
1.000000000000000E+20
 34
1.000000000000000E+20
 15
-1.000000000000000E+20
 25
-1.000000000000000E+20
 35
-1.000000000000000E+20
146
0.0
 13
0.0
 23
0.0
 33
0.0
 16
1.0
 26
0.0
 36
0.0
 17
0.0
 27
1.0
 37
0.0
 76
     0
330
1B
  0
LAYOUT
  5
26
102
{ACAD_REACTORS
330
1A
102
}
330
1A
100
AcDbPlotSettings
  1

  2
none_device
  4

  6

 40
0.0
 41
0.0
 42
0.0
 43
0.0
 44
0.0
 45
0.0
 46
0.0
 47
0.0
 48
0.0
 49
0.0
140
0.0
141
0.0
142
1.0
143
1.0
 70
   688
 72
     0
 73
     0
 74
     5
  7

 75
    16
 76
     0
 77
     2
 78
   300
147
1.0
148
0.0
149
0.0
100
AcDbLayout
  1
Layout2
 70
     1
 71
     2
 10
0.0
 20
0.0
 11
0.0
 21
0.0
 12
0.0
 22
0.0
 32
0.0
 14
0.0
 24
0.0
 34
0.0
 15
0.0
 25
0.0
 35
0.0
146
0.0
 13
0.0
 23
0.0
 33
0.0
 16
1.0
 26
0.0
 36
0.0
 17
0.0
 27
1.0
 37
0.0
 76
     0
330
23
  0
LAYOUT
  5
22
102
{ACAD_REACTORS
330
1A
102
}
330
1A
100
AcDbPlotSettings
  1

  2
none_device
  4

  6

 40
0.0
 41
0.0
 42
0.0
 43
0.0
 44
0.0
 45
0.0
 46
0.0
 47
0.0
 48
0.0
 49
0.0
140
0.0
141
0.0
142
1.0
143
1.0
 70
  1712
 72
     0
 73
     0
 74
     0
  7

 75
     0
 76
     0
 77
     2
 78
   300
147
1.0
148
0.0
149
0.0
100
AcDbLayout
  1
Model
 70
     1
 71
     0
 10
0.0
 20
0.0
 11
12.0
 21
9.0
 12
0.0
 22
0.0
 32
0.0
 14
363.7296074103262
 24
1392.080165688467
 34
0.0
 15
520.0769755889759
 25
1764.630165688467
 35
0.0
146
0.0
 13
0.0
 23
0.0
 33
0.0
 16
1.0
 26
0.0
 36
0.0
 17
0.0
 27
1.0
 37
0.0
 76
     0
330
1F
331
29
  0
MLINESTYLE
  5
18
102
{ACAD_REACTORS
330
17
102
}
330
17
100
AcDbMlineStyle
  2
Standard
 70
     0
  3

 62
   256
 51
90.0
 52
90.0
 71
     2
 49
0.5
 62
   256
  6
BYLAYER
 49
-0.5
 62
   256
  6
BYLAYER
  0
ACDBPLACEHOLDER
  5
F
102
{ACAD_REACTORS
330
E
102
}
330
E
  0
SCALE
  5
AE
102
{ACAD_REACTORS
330
AD
102
}
330
AD
100
AcDbScale
 70
     0
300
1:1
140
1.0
141
1.0
290
     1
  0
SCALE
  5
AF
102
{ACAD_REACTORS
330
AD
102
}
330
AD
100
AcDbScale
 70
     0
300
1:2
140
1.0
141
2.0
290
     0
  0
SCALE
  5
B0
102
{ACAD_REACTORS
330
AD
102
}
330
AD
100
AcDbScale
 70
     0
300
1:4
140
1.0
141
4.0
290
     0
  0
SCALE
  5
B1
102
{ACAD_REACTORS
330
AD
102
}
330
AD
100
AcDbScale
 70
     0
300
1:5
140
1.0
141
5.0
290
     0
  0
SCALE
  5
B2
102
{ACAD_REACTORS
330
AD
102
}
330
AD
100
AcDbScale
 70
     0
300
1:8
140
1.0
141
8.0
290
     0
  0
SCALE
  5
B3
102
{ACAD_REACTORS
330
AD
102
}
330
AD
100
AcDbScale
 70
     0
300
1:10
140
1.0
141
10.0
290
     0
  0
SCALE
  5
B4
102
{ACAD_REACTORS
330
AD
102
}
330
AD
100
AcDbScale
 70
     0
300
1:16
140
1.0
141
16.0
290
     0
  0
SCALE
  5
B5
102
{ACAD_REACTORS
330
AD
102
}
330
AD
100
AcDbScale
 70
     0
300
1:20
140
1.0
141
20.0
290
     0
  0
SCALE
  5
B6
102
{ACAD_REACTORS
330
AD
102
}
330
AD
100
AcDbScale
 70
     0
300
1:30
140
1.0
141
30.0
290
     0
  0
SCALE
  5
B7
102
{ACAD_REACTORS
330
AD
102
}
330
AD
100
AcDbScale
 70
     0
300
1:40
140
1.0
141
40.0
290
     0
  0
SCALE
  5
B8
102
{ACAD_REACTORS
330
AD
102
}
330
AD
100
AcDbScale
 70
     0
300
1:50
140
1.0
141
50.0
290
     0
  0
SCALE
  5
B9
102
{ACAD_REACTORS
330
AD
102
}
330
AD
100
AcDbScale
 70
     0
300
1:100
140
1.0
141
100.0
290
     0
  0
SCALE
  5
BA
102
{ACAD_REACTORS
330
AD
102
}
330
AD
100
AcDbScale
 70
     0
300
2:1
140
2.0
141
1.0
290
     0
  0
SCALE
  5
BB
102
{ACAD_REACTORS
330
AD
102
}
330
AD
100
AcDbScale
 70
     0
300
4:1
140
4.0
141
1.0
290
     0
  0
SCALE
  5
BC
102
{ACAD_REACTORS
330
AD
102
}
330
AD
100
AcDbScale
 70
     0
300
8:1
140
8.0
141
1.0
290
     0
  0
SCALE
  5
BD
102
{ACAD_REACTORS
330
AD
102
}
330
AD
100
AcDbScale
 70
     0
300
10:1
140
10.0
141
1.0
290
     0
  0
SCALE
  5
BE
102
{ACAD_REACTORS
330
AD
102
}
330
AD
100
AcDbScale
 70
     0
300
100:1
140
100.0
141
1.0
290
     0
  0
SCALE
  5
BF
102
{ACAD_REACTORS
330
AD
102
}
330
AD
100
AcDbScale
 70
     0
300
1/128" = 1'-0"
140
0.0078125
141
12.0
290
     0
  0
SCALE
  5
C0
102
{ACAD_REACTORS
330
AD
102
}
330
AD
100
AcDbScale
 70
     0
300
1/64" = 1'-0"
140
0.015625
141
12.0
290
     0
  0
SCALE
  5
C1
102
{ACAD_REACTORS
330
AD
102
}
330
AD
100
AcDbScale
 70
     0
300
1/32" = 1'-0"
140
0.03125
141
12.0
290
     0
  0
SCALE
  5
C2
102
{ACAD_REACTORS
330
AD
102
}
330
AD
100
AcDbScale
 70
     0
300
1/16" = 1'-0"
140
0.0625
141
12.0
290
     0
  0
SCALE
  5
C3
102
{ACAD_REACTORS
330
AD
102
}
330
AD
100
AcDbScale
 70
     0
300
3/32" = 1'-0"
140
0.09375
141
12.0
290
     0
  0
SCALE
  5
C4
102
{ACAD_REACTORS
330
AD
102
}
330
AD
100
AcDbScale
 70
     0
300
1/8" = 1'-0"
140
0.125
141
12.0
290
     0
  0
SCALE
  5
C5
102
{ACAD_REACTORS
330
AD
102
}
330
AD
100
AcDbScale
 70
     0
300
3/16" = 1'-0"
140
0.1875
141
12.0
290
     0
  0
SCALE
  5
C6
102
{ACAD_REACTORS
330
AD
102
}
330
AD
100
AcDbScale
 70
     0
300
1/4" = 1'-0"
140
0.25
141
12.0
290
     0
  0
SCALE
  5
C7
102
{ACAD_REACTORS
330
AD
102
}
330
AD
100
AcDbScale
 70
     0
300
3/8" = 1'-0"
140
0.375
141
12.0
290
     0
  0
SCALE
  5
C8
102
{ACAD_REACTORS
330
AD
102
}
330
AD
100
AcDbScale
 70
     0
300
1/2" = 1'-0"
140
0.5
141
12.0
290
     0
  0
SCALE
  5
C9
102
{ACAD_REACTORS
330
AD
102
}
330
AD
100
AcDbScale
 70
     0
300
3/4" = 1'-0"
140
0.75
141
12.0
290
     0
  0
SCALE
  5
CA
102
{ACAD_REACTORS
330
AD
102
}
330
AD
100
AcDbScale
 70
     0
300
1" = 1'-0"
140
1.0
141
12.0
290
     0
  0
SCALE
  5
CB
102
{ACAD_REACTORS
330
AD
102
}
330
AD
100
AcDbScale
 70
     0
300
1-1/2" = 1'-0"
140
1.5
141
12.0
290
     0
  0
SCALE
  5
CC
102
{ACAD_REACTORS
330
AD
102
}
330
AD
100
AcDbScale
 70
     0
300
3" = 1'-0"
140
3.0
141
12.0
290
     0
  0
SCALE
  5
CD
102
{ACAD_REACTORS
330
AD
102
}
330
AD
100
AcDbScale
 70
     0
300
6" = 1'-0"
140
6.0
141
12.0
290
     0
  0
SCALE
  5
CE
102
{ACAD_REACTORS
330
AD
102
}
330
AD
100
AcDbScale
 70
     0
300
1'-0" = 1'-0"
140
12.0
141
12.0
290
     0
  0
VISUALSTYLE
  5
2F
102
{ACAD_REACTORS
330
2A
102
}
330
2A
100
AcDbVisualStyle
  2
2dWireframe
 70
     4
 71
     0
 72
     2
 73
     0
 90
        0
 40
-0.6
 41
-30.0
 62
     5
 63
     7
421
 16777215
 74
     1
 91
        4
 64
     7
 65
   257
 75
     1
175
     1
 42
1.0
 92
        0
 66
   257
 43
1.0
 76
     1
 77
     6
 78
     2
 67
     7
 79
     5
170
     0
171
     0
290
     0
174
     0
 93
        1
 44
0.0
173
     0
291
     0
 45
0.0
1001
ACAD
1000
AcDbSavedByObjectVersion
1070
     0
  0
VISUALSTYLE
  5
31
102
{ACAD_REACTORS
330
2A
102
}
330
2A
100
AcDbVisualStyle
  2
3D Hidden
 70
     6
 71
     1
 72
     2
 73
     2
 90
        0
 40
-0.6
 41
-30.0
 62
     5
 63
     7
421
 16777215
 74
     2
 91
        2
 64
     7
 65
   257
 75
     2
175
     1
 42
40.0
 92
        0
 66
   257
 43
1.0
 76
     1
 77
     6
 78
     2
 67
     7
 79
     3
170
     0
171
     0
290
     0
174
     0
 93
        1
 44
0.0
173
     0
291
     0
 45
0.0
1001
ACAD
1000
AcDbSavedByObjectVersion
1070
     0
  0
VISUALSTYLE
  5
30
102
{ACAD_REACTORS
330
2A
102
}
330
2A
100
AcDbVisualStyle
  2
3dWireframe
 70
     5
 71
     0
 72
     2
 73
     0
 90
        0
 40
-0.6
 41
-30.0
 62
     5
 63
     7
421
 16777215
 74
     1
 91
        4
 64
     7
 65
   257
 75
     1
175
     1
 42
1.0
 92
        0
 66
   257
 43
1.0
 76
     1
 77
     6
 78
     2
 67
     7
 79
     5
170
     0
171
     0
290
     0
174
     0
 93
        1
 44
0.0
173
     0
291
     0
 45
0.0
1001
ACAD
1000
AcDbSavedByObjectVersion
1070
     0
  0
VISUALSTYLE
  5
32
102
{ACAD_REACTORS
330
2A
102
}
330
2A
100
AcDbVisualStyle
  2
Basic
 70
     7
 71
     1
 72
     0
 73
     1
 90
        0
 40
-0.6
 41
-30.0
 62
     5
 63
     7
421
 16777215
 74
     0
 91
        4
 64
     7
 65
   257
 75
     1
175
     1
 42
1.0
 92
        8
 66
     7
 43
1.0
 76
     1
 77
     6
 78
     2
 67
     7
 79
     5
170
     0
171
     0
290
     0
174
     0
 93
        1
 44
0.0
173
     0
291
     1
 45
0.0
1001
ACAD
1000
AcDbSavedByObjectVersion
1070
     0
  0
VISUALSTYLE
  5
36
102
{ACAD_REACTORS
330
2A
102
}
330
2A
100
AcDbVisualStyle
  2
Brighten
 70
    12
 71
     2
 72
     2
 73
     0
 90
        0
 40
-0.6
 41
-30.0
 62
     5
 63
     7
421
 16777215
 74
     1
 91
        4
 64
     7
 65
   257
 75
     1
175
     1
 42
1.0
 92
        8
 66
     7
 43
1.0
 76
     1
 77
     6
 78
     2
 67
     7
 79
     5
170
     0
171
     0
290
     0
174
     0
 93
        1
 44
50.0
173
     0
291
     1
 45
0.0
1001
ACAD
1000
AcDbSavedByObjectVersion
1070
     0
  0
VISUALSTYLE
  5
3A
102
{ACAD_REACTORS
330
2A
102
}
330
2A
100
AcDbVisualStyle
  2
ColorChange
 70
    16
 71
     2
 72
     2
 73
     3
 90
        0
 40
-0.6
 41
-30.0
 62
     5
 63
     8
421
  8421504
 74
     1
 91
        4
 64
     7
 65
   257
 75
     1
175
     1
 42
1.0
 92
        8
 66
     8
424
  8421504
 43
1.0
 76
     1
 77
     6
 78
     2
 67
     7
 79
     5
170
     0
171
     0
290
     0
174
     0
 93
        1
 44
0.0
173
     0
291
     1
 45
0.0
1001
ACAD
1000
AcDbSavedByObjectVersion
1070
     0
  0
VISUALSTYLE
  5
34
102
{ACAD_REACTORS
330
2A
102
}
330
2A
100
AcDbVisualStyle
  2
Conceptual
 70
     9
 71
     3
 72
     2
 73
     0
 90
        0
 40
-0.6
 41
-30.0
 62
     5
 63
     7
421
 16777215
 74
     2
 91
        2
 64
     7
 65
   257
 75
     1
175
     1
 42
40.0
 92
        8
 66
     7
 43
1.0
 76
     1
 77
     6
 78
     2
 67
     7
 79
     3
170
     0
171
     0
290
     0
174
     0
 93
        1
 44
0.0
173
     0
291
     0
 45
0.0
1001
ACAD
1000
AcDbSavedByObjectVersion
1070
     0
  0
VISUALSTYLE
  5
35
102
{ACAD_REACTORS
330
2A
102
}
330
2A
100
AcDbVisualStyle
  2
Dim
 70
    11
 71
     2
 72
     2
 73
     0
 90
        0
 40
-0.6
 41
-30.0
 62
     5
 63
     7
421
 16777215
 74
     1
 91
        4
 64
     7
 65
   257
 75
     1
175
     1
 42
1.0
 92
        8
 66
     7
 43
1.0
 76
     1
 77
     6
 78
     2
 67
     7
 79
     5
170
     0
171
     0
290
     0
174
     0
 93
        1
 44
-50.0
173
     0
291
     1
 45
0.0
1001
ACAD
1000
AcDbSavedByObjectVersion
1070
     0
  0
VISUALSTYLE
  5
39
102
{ACAD_REACTORS
330
2A
102
}
330
2A
100
AcDbVisualStyle
  2
Facepattern
 70
    15
 71
     2
 72
     2
 73
     0
 90
        0
 40
-0.6
 41
-30.0
 62
     5
 63
     7
421
 16777215
 74
     1
 91
        4
 64
     7
 65
   257
 75
     1
175
     1
 42
1.0
 92
        8
 66
     7
 43
1.0
 76
     1
 77
     6
 78
     2
 67
     7
 79
     5
170
     0
171
     0
290
     0
174
     0
 93
        1
 44
0.0
173
     0
291
     1
 45
0.0
1001
ACAD
1000
AcDbSavedByObjectVersion
1070
     0
  0
VISUALSTYLE
  5
2B
102
{ACAD_REACTORS
330
2A
102
}
330
2A
100
AcDbVisualStyle
  2
Flat
 70
     0
 71
     2
 72
     1
 73
     1
 90
        2
 40
-0.6
 41
30.0
 62
     5
 63
     7
421
 16777215
 74
     0
 91
        4
 64
     7
 65
   257
 75
     1
175
     1
 42
1.0
 92
        8
 66
     7
 43
1.0
 76
     1
 77
     6
 78
     2
 67
     7
 79
     5
170
     0
171
     0
290
     0
174
     0
 93
       13
 44
0.0
173
     0
291
     1
 45
0.0
1001
ACAD
1000
AcDbSavedByObjectVersion
1070
     0
  0
VISUALSTYLE
  5
2C
102
{ACAD_REACTORS
330
2A
102
}
330
2A
100
AcDbVisualStyle
  2
FlatWithEdges
 70
     1
 71
     2
 72
     1
 73
     1
 90
        2
 40
-0.6
 41
30.0
 62
     5
 63
     7
421
 16777215
 74
     1
 91
        4
 64
     7
 65
   257
 75
     1
175
     1
 42
1.0
 92
        0
 66
   257
 43
1.0
 76
     1
 77
     6
 78
     2
 67
     7
 79
     5
170
     0
171
     0
290
     0
174
     0
 93
       13
 44
0.0
173
     0
291
     1
 45
0.0
1001
ACAD
1000
AcDbSavedByObjectVersion
1070
     0
  0
VISUALSTYLE
  5
2D
102
{ACAD_REACTORS
330
2A
102
}
330
2A
100
AcDbVisualStyle
  2
Gouraud
 70
     2
 71
     2
 72
     2
 73
     1
 90
        2
 40
-0.6
 41
30.0
 62
     5
 63
     7
421
 16777215
 74
     0
 91
        4
 64
     7
 65
   257
 75
     1
175
     1
 42
1.0
 92
        0
 66
     7
 43
1.0
 76
     1
 77
     6
 78
     2
 67
     7
 79
     5
170
     0
171
     0
290
     0
174
     0
 93
       13
 44
0.0
173
     0
291
     1
 45
0.0
1001
ACAD
1000
AcDbSavedByObjectVersion
1070
     0
  0
VISUALSTYLE
  5
2E
102
{ACAD_REACTORS
330
2A
102
}
330
2A
100
AcDbVisualStyle
  2
GouraudWithEdges
 70
     3
 71
     2
 72
     2
 73
     1
 90
        2
 40
-0.6
 41
30.0
 62
     5
 63
     7
421
 16777215
 74
     1
 91
        4
 64
     7
 65
   257
 75
     1
175
     1
 42
1.0
 92
        0
 66
   257
 43
1.0
 76
     1
 77
     6
 78
     2
 67
     7
 79
     5
170
     0
171
     0
290
     0
174
     0
 93
       13
 44
0.0
173
     0
291
     1
 45
0.0
1001
ACAD
1000
AcDbSavedByObjectVersion
1070
     0
  0
VISUALSTYLE
  5
38
102
{ACAD_REACTORS
330
2A
102
}
330
2A
100
AcDbVisualStyle
  2
Linepattern
 70
    14
 71
     2
 72
     2
 73
     0
 90
        0
 40
-0.6
 41
-30.0
 62
     5
 63
     7
421
 16777215
 74
     1
 91
        4
 64
     7
 65
   257
 75
     7
175
     7
 42
1.0
 92
        8
 66
     7
 43
1.0
 76
     1
 77
     6
 78
     2
 67
     7
 79
     5
170
     0
171
     0
290
     0
174
     0
 93
        1
 44
0.0
173
     0
291
     1
 45
0.0
1001
ACAD
1000
AcDbSavedByObjectVersion
1070
     0
  0
VISUALSTYLE
  5
33
102
{ACAD_REACTORS
330
2A
102
}
330
2A
100
AcDbVisualStyle
  2
Realistic
 70
     8
 71
     2
 72
     2
 73
     0
 90
        0
 40
-0.6
 41
-30.0
 62
     5
 63
     7
421
 16777215
 74
     1
 91
        0
 64
     7
 65
   257
 75
     1
175
     1
 42
1.0
 92
        8
 66
     8
424
  7895160
 43
1.0
 76
     1
 77
     6
 78
     2
 67
     7
 79
     5
170
     0
171
     0
290
     0
174
     0
 93
       13
 44
0.0
173
     0
291
     0
 45
0.0
1001
ACAD
1000
AcDbSavedByObjectVersion
1070
     0
  0
VISUALSTYLE
  5
37
102
{ACAD_REACTORS
330
2A
102
}
330
2A
100
AcDbVisualStyle
  2
Thicken
 70
    13
 71
     2
 72
     2
 73
     0
 90
        0
 40
-0.6
 41
-30.0
 62
     5
 63
     7
421
 16777215
 74
     1
 91
        4
 64
     7
 65
   257
 75
     1
175
     1
 42
1.0
 92
       12
 66
     7
 43
1.0
 76
     1
 77
     6
 78
     2
 67
     7
 79
     5
170
     0
171
     0
290
     0
174
     0
 93
        1
 44
0.0
173
     0
291
     1
 45
0.0
1001
ACAD
1000
AcDbSavedByObjectVersion
1070
     0
  0
DICTIONARYVAR
  5
EC
102
{ACAD_REACTORS
330
EB
102
}
330
EB
100
DictionaryVariables
280
     0
  1
1:1
  0
ENDSEC
  0
EOF
