  0
SECTION
  2
HEADER
  9
$ACADVER
  1
AC1018
  9
$ACADMAINTVER
 70
     0
  9
$DWGCODEPAGE
  3
ANSI_936
  9
$INSBASE
 10
0.0
 20
0.0
 30
0.0
  9
$EXTMIN
 10
0.0012746352986102
 20
1392.080165688467
 30
0.0
  9
$EXTMAX
 10
305.1666480136038
 20
1749.711758995644
 30
0.0
  9
$LIMMIN
 10
0.0
 20
0.0
  9
$LIMMAX
 10
12.0
 20
9.0
  9
$ORTHOMODE
 70
     0
  9
$REGENMODE
 70
     1
  9
$FILLMODE
 70
     1
  9
$QTEXTMODE
 70
     0
  9
$MIRRTEXT
 70
     1
  9
$LTSCALE
 40
1.0
  9
$ATTMODE
 70
     1
  9
$TEXTSIZE
 40
0.2
  9
$TRACEWID
 40
0.05
  9
$TEXTSTYLE
  7
Standard
  9
$CLAYER
  8
E45716
  9
$CELTYPE
  6
ByLayer
  9
$CECOLOR
 62
   256
  9
$CELTSCALE
 40
1.0
  9
$DISPSILH
 70
     0
  9
$DIMSCALE
 40
1.0
  9
$DIMASZ
 40
0.18
  9
$DIMEXO
 40
0.0625
  9
$DIMDLI
 40
0.38
  9
$DIMRND
 40
0.0
  9
$DIMDLE
 40
0.0
  9
$DIMEXE
 40
0.18
  9
$DIMTP
 40
0.0
  9
$DIMTM
 40
0.0
  9
$DIMTXT
 40
0.18
  9
$DIMCEN
 40
0.09
  9
$DIMTSZ
 40
0.0
  9
$DIMTOL
 70
     0
  9
$DIMLIM
 70
     0
  9
$DIMTIH
 70
     1
  9
$DIMTOH
 70
     1
  9
$DIMSE1
 70
     0
  9
$DIMSE2
 70
     0
  9
$DIMTAD
 70
     0
  9
$DIMZIN
 70
     0
  9
$DIMBLK
  1

  9
$DIMASO
 70
     1
  9
$DIMSHO
 70
     1
  9
$DIMPOST
  1

  9
$DIMAPOST
  1

  9
$DIMALT
 70
     0
  9
$DIMALTD
 70
     2
  9
$DIMALTF
 40
25.4
  9
$DIMLFAC
 40
1.0
  9
$DIMTOFL
 70
     0
  9
$DIMTVP
 40
0.0
  9
$DIMTIX
 70
     0
  9
$DIMSOXD
 70
     0
  9
$DIMSAH
 70
     0
  9
$DIMBLK1
  1

  9
$DIMBLK2
  1

  9
$DIMSTYLE
  2
Standard
  9
$DIMCLRD
 70
     0
  9
$DIMCLRE
 70
     0
  9
$DIMCLRT
 70
     0
  9
$DIMTFAC
 40
1.0
  9
$DIMGAP
 40
0.09
  9
$DIMJUST
 70
     0
  9
$DIMSD1
 70
     0
  9
$DIMSD2
 70
     0
  9
$DIMTOLJ
 70
     1
  9
$DIMTZIN
 70
     0
  9
$DIMALTZ
 70
     0
  9
$DIMALTTZ
 70
     0
  9
$DIMUPT
 70
     0
  9
$DIMDEC
 70
     4
  9
$DIMTDEC
 70
     4
  9
$DIMALTU
 70
     2
  9
$DIMALTTD
 70
     2
  9
$DIMTXSTY
  7
Standard
  9
$DIMAUNIT
 70
     0
  9
$DIMADEC
 70
     0
  9
$DIMALTRND
 40
0.0
  9
$DIMAZIN
 70
     0
  9
$DIMDSEP
 70
    46
  9
$DIMATFIT
 70
     3
  9
$DIMFRAC
 70
     0
  9
$DIMLDRBLK
  1

  9
$DIMLUNIT
 70
     2
  9
$DIMLWD
 70
    -2
  9
$DIMLWE
 70
    -2
  9
$DIMTMOVE
 70
     2
  9
$LUNITS
 70
     2
  9
$LUPREC
 70
     2
  9
$SKETCHINC
 40
0.1
  9
$FILLETRAD
 40
0.5
  9
$AUNITS
 70
     0
  9
$AUPREC
 70
     0
  9
$MENU
  1
.
  9
$ELEVATION
 40
0.0
  9
$PELEVATION
 40
0.0
  9
$THICKNESS
 40
0.0
  9
$LIMCHECK
 70
     0
  9
$CHAMFERA
 40
0.5
  9
$CHAMFERB
 40
0.5
  9
$CHAMFERC
 40
1.0
  9
$CHAMFERD
 40
0.0
  9
$SKPOLY
 70
     0
  9
$TDCREATE
 40
2456450.24520037
  9
$TDUCREATE
 40
2456450.161867037
  9
$TDUPDATE
 40
2456450.245200382
  9
$TDUUPDATE
 40
2456450.161867049
  9
$TDINDWG
 40
0.0000000116
  9
$TDUSRTIMER
 40
0.0000000116
  9
$USRTIMER
 70
     1
  9
$ANGBASE
 50
0.0
  9
$ANGDIR
 70
     0
  9
$PDMODE
 70
     0
  9
$PDSIZE
 40
0.0
  9
$PLINEWID
 40
0.0
  9
$SPLFRAME
 70
     0
  9
$SPLINETYPE
 70
     6
  9
$SPLINESEGS
 70
     8
  9
$HANDSEED
  5
AA
  9
$SURFTAB1
 70
     6
  9
$SURFTAB2
 70
     6
  9
$SURFTYPE
 70
     6
  9
$SURFU
 70
     6
  9
$SURFV
 70
     6
  9
$UCSBASE
  2

  9
$UCSNAME
  2

  9
$UCSORG
 10
0.0
 20
0.0
 30
0.0
  9
$UCSXDIR
 10
1.0
 20
0.0
 30
0.0
  9
$UCSYDIR
 10
0.0
 20
1.0
 30
0.0
  9
$UCSORTHOREF
  2

  9
$UCSORTHOVIEW
 70
     0
  9
$UCSORGTOP
 10
0.0
 20
0.0
 30
0.0
  9
$UCSORGBOTTOM
 10
0.0
 20
0.0
 30
0.0
  9
$UCSORGLEFT
 10
0.0
 20
0.0
 30
0.0
  9
$UCSORGRIGHT
 10
0.0
 20
0.0
 30
0.0
  9
$UCSORGFRONT
 10
0.0
 20
0.0
 30
0.0
  9
$UCSORGBACK
 10
0.0
 20
0.0
 30
0.0
  9
$PUCSBASE
  2

  9
$PUCSNAME
  2

  9
$PUCSORG
 10
0.0
 20
0.0
 30
0.0
  9
$PUCSXDIR
 10
1.0
 20
0.0
 30
0.0
  9
$PUCSYDIR
 10
0.0
 20
1.0
 30
0.0
  9
$PUCSORTHOREF
  2

  9
$PUCSORTHOVIEW
 70
     0
  9
$PUCSORGTOP
 10
0.0
 20
0.0
 30
0.0
  9
$PUCSORGBOTTOM
 10
0.0
 20
0.0
 30
0.0
  9
$PUCSORGLEFT
 10
0.0
 20
0.0
 30
0.0
  9
$PUCSORGRIGHT
 10
0.0
 20
0.0
 30
0.0
  9
$PUCSORGFRONT
 10
0.0
 20
0.0
 30
0.0
  9
$PUCSORGBACK
 10
0.0
 20
0.0
 30
0.0
  9
$USERI1
 70
     0
  9
$USERI2
 70
     0
  9
$USERI3
 70
     0
  9
$USERI4
 70
     0
  9
$USERI5
 70
     0
  9
$USERR1
 40
0.0
  9
$USERR2
 40
0.0
  9
$USERR3
 40
0.0
  9
$USERR4
 40
0.0
  9
$USERR5
 40
0.0
  9
$WORLDVIEW
 70
     1
  9
$SHADEDGE
 70
     3
  9
$SHADEDIF
 70
    70
  9
$TILEMODE
 70
     1
  9
$MAXACTVP
 70
    64
  9
$PINSBASE
 10
0.0
 20
0.0
 30
0.0
  9
$PLIMCHECK
 70
     0
  9
$PEXTMIN
 10
1.000000000000000E+20
 20
1.000000000000000E+20
 30
1.000000000000000E+20
  9
$PEXTMAX
 10
-1.000000000000000E+20
 20
-1.000000000000000E+20
 30
-1.000000000000000E+20
  9
$PLIMMIN
 10
0.0
 20
0.0
  9
$PLIMMAX
 10
12.0
 20
9.0
  9
$UNITMODE
 70
     0
  9
$VISRETAIN
 70
     1
  9
$PLINEGEN
 70
     0
  9
$PSLTSCALE
 70
     1
  9
$TREEDEPTH
 70
  3020
  9
$CMLSTYLE
  2
Standard
  9
$CMLJUST
 70
     0
  9
$CMLSCALE
 40
1.0
  9
$PROXYGRAPHICS
 70
     1
  9
$MEASUREMENT
 70
     0
  9
$CELWEIGHT
370
    -1
  9
$ENDCAPS
280
     0
  9
$JOINSTYLE
280
     0
  9
$LWDISPLAY
290
     0
  9
$INSUNITS
 70
     4
  9
$HYPERLINKBASE
  1

  9
$STYLESHEET
  1

  9
$XEDIT
290
     1
  9
$CEPSNTYPE
380
     0
  9
$PSTYLEMODE
290
     1
  9
$FINGERPRINTGUID
  2
{1CEF05C6-988C-4409-B83A-76C67309BF2C}
  9
$VERSIONGUID
  2
{FAEB1C32-E019-11D5-929B-00C0DF256EC4}
  9
$EXTNAMES
290
     1
  9
$PSVPSCALE
 40
0.0
  9
$OLESTARTUP
290
     0
  9
$SORTENTS
280
   127
  9
$INDEXCTL
280
     0
  9
$HIDETEXT
280
     1
  9
$XCLIPFRAME
290
     0
  9
$HALOGAP
280
     0
  9
$OBSCOLOR
 70
   257
  9
$OBSLTYPE
280
     0
  9
$INTERSECTIONDISPLAY
280
     0
  9
$INTERSECTIONCOLOR
 70
   257
  9
$DIMASSOC
280
     2
  9
$PROJECTNAME
  1

  0
ENDSEC
  0
SECTION
  2
CLASSES
  0
CLASS
  1
ACDBDICTIONARYWDFLT
  2
AcDbDictionaryWithDefault
  3
ObjectDBX Classes
 90
        0
 91
        4
280
     0
281
     0
  0
CLASS
  1
VISUALSTYLE
  2
AcDbVisualStyle
  3
ObjectDBX Classes
 90
     4095
 91
        4
280
     0
281
     0
  0
CLASS
  1
SCALE
  2
AcDbScale
  3
ObjectDBX Classes
 90
     1153
 91
        4
280
     0
281
     0
  0
CLASS
  1
DICTIONARYVAR
  2
AcDbDictionaryVar
  3
ObjectDBX Classes
 90
        0
 91
        4
280
     0
281
     0
  0
ENDSEC
  0
SECTION
  2
TABLES
  0
TABLE
  2
VPORT
  5
8
330
0
100
AcDbSymbolTable
 70
     1
  0
VPORT
  5
29
330
8
100
AcDbSymbolTableRecord
100
AcDbViewportTableRecord
  2
*Active
 70
     0
 10
0.0
 20
0.0
 11
1.0
 21
1.0
 12
152.5839613244512
 22
1570.895962342056
 13
0.0
 23
0.0
 14
0.5
 24
0.5
 15
0.5
 25
0.5
 16
0.0
 26
0.0
 36
1.0
 17
0.0
 27
0.0
 37
0.0
 40
364.7842251733209
 41
0.8532953438377915
 42
50.0
 43
0.0
 44
0.0
 50
0.0
 51
0.0
 71
     0
 72
   100
 73
     1
 74
     3
 75
     0
 76
     0
 77
     0
 78
     0
281
     0
 65
     1
110
0.0
120
0.0
130
0.0
111
1.0
121
0.0
131
0.0
112
0.0
122
1.0
132
0.0
 79
     0
146
0.0
  0
ENDTAB
  0
TABLE
  2
LTYPE
  5
5
330
0
100
AcDbSymbolTable
 70
     1
  0
LTYPE
  5
14
330
5
100
AcDbSymbolTableRecord
100
AcDbLinetypeTableRecord
  2
ByBlock
 70
     0
  3

 72
    65
 73
     0
 40
0.0
  0
LTYPE
  5
15
330
5
100
AcDbSymbolTableRecord
100
AcDbLinetypeTableRecord
  2
ByLayer
 70
     0
  3

 72
    65
 73
     0
 40
0.0
  0
LTYPE
  5
16
330
5
100
AcDbSymbolTableRecord
100
AcDbLinetypeTableRecord
  2
Continuous
 70
     0
  3
Solid line
 72
    65
 73
     0
 40
0.0
  0
ENDTAB
  0
TABLE
  2
LAYER
  5
2
330
0
100
AcDbSymbolTable
 70
     4
  0
LAYER
  5
10
330
2
100
AcDbSymbolTableRecord
100
AcDbLayerTableRecord
  2
0
 70
     0
 62
     7
  6
Continuous
370
    -3
390
F
  0
LAYER
  5
3B
330
2
100
AcDbSymbolTableRecord
100
AcDbLayerTableRecord
  2
MAKE2D VISIBLE LINES
 70
     0
 62
     7
  6
Continuous
370
    -3
390
F
  0
LAYER
  5
66
330
2
100
AcDbSymbolTableRecord
100
AcDbLayerTableRecord
  2
E45716
 70
     0
 62
     7
  6
Continuous
370
    -3
390
F
  0
LAYER
  5
8C
330
2
100
AcDbSymbolTableRecord
100
AcDbLayerTableRecord
  2
Defpoints
 70
     0
 62
     7
  6
Continuous
290
     0
370
    -3
390
F
  0
ENDTAB
  0
TABLE
  2
STYLE
  5
3
330
0
100
AcDbSymbolTable
 70
     2
  0
STYLE
  5
11
330
3
100
AcDbSymbolTableRecord
100
AcDbTextStyleTableRecord
  2
Standard
 70
     0
 40
0.0
 41
1.0
 50
0.0
 71
     0
 42
0.2
  3
txt
  4

  0
STYLE
  5
8A
330
3
100
AcDbSymbolTableRecord
100
AcDbTextStyleTableRecord
  2
ARIAL
 70
     0
 40
0.0
 41
1.0
 50
0.0
 71
     0
 42
0.0
  3
ARIAL.TTF
  4

1001
ACAD
1000
Arial
1071
      256
  0
ENDTAB
  0
TABLE
  2
VIEW
  5
6
330
0
100
AcDbSymbolTable
 70
     0
  0
ENDTAB
  0
TABLE
  2
UCS
  5
7
330
0
100
AcDbSymbolTable
 70
     0
  0
ENDTAB
  0
TABLE
  2
APPID
  5
9
330
0
100
AcDbSymbolTable
 70
     1
  0
APPID
  5
12
330
9
100
AcDbSymbolTableRecord
100
AcDbRegAppTableRecord
  2
ACAD
 70
     0
  0
ENDTAB
  0
TABLE
  2
DIMSTYLE
  5
A
330
0
100
AcDbSymbolTable
 70
     2
100
AcDbDimStyleTable
  0
DIMSTYLE
105
27
330
A
100
AcDbSymbolTableRecord
100
AcDbDimStyleTableRecord
  2
Standard
 70
     0
340
11
  0
DIMSTYLE
105
8B
102
{ACAD_REACTORS
330
67
330
99
102
}
330
A
100
AcDbSymbolTableRecord
100
AcDbDimStyleTableRecord
  2
DEFAULT
 70
     0
 41
1.0
 42
0.5
 44
0.5
 73
     0
 77
     1
 78
     1
140
20.0
141
0.5
172
     1
174
     1
179
     2
271
     2
284
     1
340
8A
  0
ENDTAB
  0
TABLE
  2
BLOCK_RECORD
  5
1
330
0
100
AcDbSymbolTable
 70
     3
  0
BLOCK_RECORD
  5
1F
330
1
100
AcDbSymbolTableRecord
100
AcDbBlockTableRecord
  2
*Model_Space
340
22
  0
BLOCK_RECORD
  5
1B
330
1
100
AcDbSymbolTableRecord
100
AcDbBlockTableRecord
  2
*Paper_Space
340
1E
  0
BLOCK_RECORD
  5
23
330
1
100
AcDbSymbolTableRecord
100
AcDbBlockTableRecord
  2
*Paper_Space0
340
26
  0
BLOCK_RECORD
  5
8D
330
1
100
AcDbSymbolTableRecord
100
AcDbBlockTableRecord
  2
*D1
340
0
  0
BLOCK_RECORD
  5
9A
330
1
100
AcDbSymbolTableRecord
100
AcDbBlockTableRecord
  2
*D2
340
0
  0
ENDTAB
  0
ENDSEC
  0
SECTION
  2
BLOCKS
  0
BLOCK
  5
20
330
1F
100
AcDbEntity
  8
0
100
AcDbBlockBegin
  2
*Model_Space
 70
     0
 10
0.0
 20
0.0
 30
0.0
  3
*Model_Space
  1

  0
ENDBLK
  5
21
330
1F
100
AcDbEntity
  8
0
100
AcDbBlockEnd
  0
BLOCK
  5
1C
330
1B
100
AcDbEntity
 67
     1
  8
0
100
AcDbBlockBegin
  2
*Paper_Space
 70
     0
 10
0.0
 20
0.0
 30
0.0
  3
*Paper_Space
  1

  0
ENDBLK
  5
1D
330
1B
100
AcDbEntity
 67
     1
  8
0
100
AcDbBlockEnd
  0
BLOCK
  5
24
330
23
100
AcDbEntity
  8
0
100
AcDbBlockBegin
  2
*Paper_Space0
 70
     0
 10
0.0
 20
0.0
 30
0.0
  3
*Paper_Space0
  1

  0
ENDBLK
  5
25
330
23
100
AcDbEntity
  8
0
100
AcDbBlockEnd
  0
BLOCK
  5
97
330
8D
100
AcDbEntity
  8
0
100
AcDbBlockBegin
  2
*D1
 70
     1
 10
0.0
 20
0.0
 30
0.0
  3
*D1
  1

  0
LINE
  5
8E
330
8D
100
AcDbEntity
  8
E45716
 62
     0
370
    -2
100
AcDbLine
 10
0.003663374158742
 20
1621.661758995644
 30
0.0
 11
0.003663374158748
 21
1729.661758995644
 31
0.0
  0
LINE
  5
8F
330
8D
100
AcDbEntity
  8
E45716
 62
     0
370
    -2
100
AcDbLine
 10
259.0024504044978
 20
1432.580165688467
 30
0.0
 11
259.0024504044978
 21
1729.661758995644
 31
0.0
  0
LINE
  5
90
330
8D
100
AcDbEntity
  8
E45716
 62
     0
370
    -2
100
AcDbLine
 10
1.003663374158748
 20
1729.161758995644
 30
0.0
 11
258.0024504044978
 21
1729.161758995644
 31
0.0
  0
SOLID
  5
91
330
8D
100
AcDbEntity
  8
E45716
 62
     0
100
AcDbTrace
 10
1.003663374158748
 20
1729.328425662311
 30
0.0
 11
1.003663374158748
 21
1728.995092328977
 31
0.0
 12
0.003663374158748
 22
1729.161758995644
 32
0.0
 13
0.003663374158748
 23
1729.161758995644
 33
0.0
  0
SOLID
  5
92
330
8D
100
AcDbEntity
  8
E45716
 62
     0
100
AcDbTrace
 10
258.0024504044978
 20
1728.995092328977
 30
0.0
 11
258.0024504044978
 21
1729.328425662311
 31
0.0
 12
259.0024504044978
 22
1729.161758995644
 32
0.0
 13
259.0024504044978
 23
1729.161758995644
 33
0.0
  0
MTEXT
  5
93
330
8D
100
AcDbEntity
  8
E45716
 62
     0
100
AcDbMText
 10
129.5030568893283
 20
1739.461758995644
 30
0.0
 40
20.0
 41
0.0
 71
     5
 72
     1
  1
\A1;260
  7
ARIAL
 73
     1
 44
1.0
  0
POINT
  5
94
330
8D
100
AcDbEntity
  8
Defpoints
 62
     0
100
AcDbPoint
 10
0.003663374158742
 20
1621.161758995644
 30
0.0
  0
POINT
  5
95
330
8D
100
AcDbEntity
  8
Defpoints
 62
     0
100
AcDbPoint
 10
259.0024504044978
 20
1432.080165688467
 30
0.0
  0
POINT
  5
96
330
8D
100
AcDbEntity
  8
Defpoints
 62
     0
100
AcDbPoint
 10
259.0024504044978
 20
1729.161758995644
 30
0.0
  0
ENDBLK
  5
98
330
8D
100
AcDbEntity
  8
0
100
AcDbBlockEnd
  0
BLOCK
  5
A4
330
9A
100
AcDbEntity
  8
0
100
AcDbBlockBegin
  2
*D2
 70
     1
 10
0.0
 20
0.0
 30
0.0
  3
*D2
  1

  0
LINE
  5
9B
330
9A
100
AcDbEntity
  8
E45716
 62
     0
370
    -2
100
AcDbLine
 10
143.1666480136038
 20
1669.080250391217
 30
0.0
 11
305.1666480136038
 21
1669.080250391217
 31
0.0
  0
LINE
  5
9C
330
9A
100
AcDbEntity
  8
E45716
 62
     0
370
    -2
100
AcDbLine
 10
234.5024504045688
 20
1392.080165688467
 30
0.0
 11
305.1666480136038
 21
1392.080165688467
 31
0.0
  0
LINE
  5
9D
330
9A
100
AcDbEntity
  8
E45716
 62
     0
370
    -2
100
AcDbLine
 10
304.6666480136038
 20
1668.080250391217
 30
0.0
 11
304.6666480136038
 21
1393.080165688467
 31
0.0
  0
SOLID
  5
9E
330
9A
100
AcDbEntity
  8
E45716
 62
     0
100
AcDbTrace
 10
304.8333146802705
 20
1668.080250391217
 30
0.0
 11
304.4999813469371
 21
1668.080250391217
 31
0.0
 12
304.6666480136038
 22
1669.080250391217
 32
0.0
 13
304.6666480136038
 23
1669.080250391217
 33
0.0
  0
SOLID
  5
9F
330
9A
100
AcDbEntity
  8
E45716
 62
     0
100
AcDbTrace
 10
304.4999813469371
 20
1393.080165688467
 30
0.0
 11
304.8333146802705
 21
1393.080165688467
 31
0.0
 12
304.6666480136038
 22
1392.080165688467
 32
0.0
 13
304.6666480136038
 23
1392.080165688467
 33
0.0
  0
MTEXT
  5
A0
330
9A
100
AcDbEntity
  8
E45716
 62
     0
100
AcDbMText
 10
294.5366480136038
 20
1530.580208039842
 30
0.0
 40
20.0
 41
0.0
 71
     5
 72
     1
  1
\A1;277^M^J
  7
ARIAL
 11
0.0
 21
1.0
 31
0.0
 73
     1
 44
1.0
  0
POINT
  5
A1
330
9A
100
AcDbEntity
  8
Defpoints
 62
     0
100
AcDbPoint
 10
142.6666480136038
 20
1669.080250391217
 30
0.0
  0
POINT
  5
A2
330
9A
100
AcDbEntity
  8
Defpoints
 62
     0
100
AcDbPoint
 10
234.0024504045688
 20
1392.080165688467
 30
0.0
  0
POINT
  5
A3
330
9A
100
AcDbEntity
  8
Defpoints
 62
     0
100
AcDbPoint
 10
304.6666480136038
 20
1392.080165688467
 30
0.0
  0
ENDBLK
  5
A5
330
9A
100
AcDbEntity
  8
0
100
AcDbBlockEnd
  0
ENDSEC
  0
SECTION
  2
ENTITIES
  0
SPLINE
  5
3C
330
1F
100
AcDbEntity
  8
MAKE2D VISIBLE LINES
100
AcDbSpline
210
0.0
220
0.0
230
1.0
 70
    24
 71
     2
 72
     6
 73
     3
 74
     0
 42
0.0000000001
 43
0.0000000001
 40
0.0
 40
0.0
 40
0.0
 40
3.999811338748714
 40
3.999811338748714
 40
3.999811338748714
 10
209.0024504044978
 20
1475.080165688467
 30
0.0
 10
209.0024504044978
 20
1477.080071357841
 30
0.0
 10
209.0024504044978
 20
1479.079977027216
 30
0.0
  0
SPLINE
  5
3D
330
1F
100
AcDbEntity
  8
MAKE2D VISIBLE LINES
100
AcDbSpline
210
0.0
220
0.0
230
1.0
 70
    28
 71
     3
 72
    12
 73
     8
 74
     0
 42
0.0000000001
 43
0.0000000001
 40
22.03306331774091
 40
22.03306331774091
 40
22.03306331774091
 40
22.03306331774091
 40
25.52153337792087
 40
33.70738496168575
 40
42.34624418568726
 40
50.90618879963465
 40
59.95272573199237
 40
59.95272573199237
 40
59.95272573199237
 40
59.95272573199237
 10
258.0003470146008
 20
1472.080165688467
 30
0.0
 41
1.0
 10
258.0119624472054
 20
1472.080165688467
 30
0.0
 41
1.0
 10
257.7698726488744
 20
1472.080165688467
 30
0.0
 41
1.0
 10
255.6904645735734
 20
1472.080165688467
 30
0.0
 41
1.0
 10
250.4415161491921
 20
1472.080165688467
 30
0.0
 41
1.0
 10
242.8846752784346
 20
1472.080165688467
 30
0.0
 41
1.0
 10
237.0190989363268
 20
1472.080165688467
 30
0.0
 41
1.0
 10
234.0024504582834
 20
1472.080165688467
 30
0.0
 41
1.0
  0
SPLINE
  5
3E
330
1F
100
AcDbEntity
  8
MAKE2D VISIBLE LINES
100
AcDbSpline
210
0.0
220
0.0
230
1.0
 70
    24
 71
     2
 72
     6
 73
     3
 74
     0
 42
0.0000000001
 43
0.0000000001
 40
0.0
 40
0.0
 40
0.0
 40
12.26936801835666
 40
12.26936801835666
 40
12.26936801835666
 10
209.0024504044978
 20
1489.080165688474
 30
0.0
 10
209.0024504044978
 20
1495.214849697652
 30
0.0
 10
209.0024504044978
 20
1501.349533706831
 30
0.0
  0
SPLINE
  5
3F
330
1F
100
AcDbEntity
  8
MAKE2D VISIBLE LINES
100
AcDbSpline
210
0.0
220
0.0
230
1.0
 70
    24
 71
     2
 72
     6
 73
     3
 74
     0
 42
0.0000000001
 43
0.0000000001
 40
0.0
 40
0.0
 40
0.0
 40
23.99266658801153
 40
23.99266658801153
 40
23.99266658801153
 10
234.0024504045688
 20
1392.080165688467
 30
0.0
 10
222.006117110563
 20
1392.080165688467
 30
0.0
 10
210.0097838165572
 20
1392.080165688467
 30
0.0
  0
SPLINE
  5
40
330
1F
100
AcDbEntity
  8
MAKE2D VISIBLE LINES
100
AcDbSpline
210
0.0
220
0.0
230
1.0
 70
    24
 71
     2
 72
     6
 73
     3
 74
     0
 42
0.0000000001
 43
0.0000000001
 40
0.0
 40
0.0
 40
0.0
 40
10.86165076380133
 40
10.86165076380133
 40
10.86165076380133
 10
23.8641011140652
 20
1594.080165688467
 30
0.0
 10
18.43327573216454
 20
1594.080165688467
 30
0.0
 10
13.00245035026387
 20
1594.080165688467
 30
0.0
  0
SPLINE
  5
41
330
1F
100
AcDbEntity
  8
MAKE2D VISIBLE LINES
100
AcDbSpline
210
0.0
220
0.0
230
1.0
 70
     8
 71
     3
 72
    11
 73
     7
 74
     0
 42
0.0000000001
 43
0.0000000001
 40
0.0
 40
0.0
 40
0.0
 40
0.0
 40
0.034580080608916
 40
0.0961198239953374
 40
0.3164915975569143
 40
1.025204627406663
 40
1.025204627406663
 40
1.025204627406663
 40
1.025204627406663
 10
229.0700543239663
 20
1514.080104387645
 30
0.0
 10
229.0580150123184
 20
1514.078225876982
 30
0.0
 10
229.0365130428231
 20
1514.052817119104
 30
0.0
 10
229.0006348929909
 20
1513.953106672992
 30
0.0
 10
228.9474335798301
 20
1513.626462324123
 30
0.0
 10
228.9369838024014
 20
1513.31632156518
 30
0.0
 10
228.9357862064478
 20
1513.080165688467
 30
0.0
  0
SPLINE
  5
42
330
1F
100
AcDbEntity
  8
MAKE2D VISIBLE LINES
100
AcDbSpline
210
0.0
220
0.0
230
1.0
 70
    24
 71
     2
 72
     6
 73
     3
 74
     0
 42
0.0000000001
 43
0.0000000001
 40
0.0
 40
0.0
 40
0.0
 40
21.8819775262308
 40
21.8819775262308
 40
21.8819775262308
 10
259.0024504044978
 20
1513.080165688467
 30
0.0
 10
259.0024504044978
 20
1502.139176925352
 30
0.0
 10
259.0024504044978
 20
1491.198188162236
 30
0.0
  0
SPLINE
  5
43
330
1F
100
AcDbEntity
  8
MAKE2D VISIBLE LINES
100
AcDbSpline
210
0.0
220
0.0
230
1.0
 70
    28
 71
     3
 72
    12
 73
     8
 74
     0
 42
0.0000000001
 43
0.0000000001
 40
112.4721775525769
 40
112.4721775525769
 40
112.4721775525769
 40
112.4721775525769
 40
113.0936694011858
 40
121.8433794933149
 40
131.3214807976629
 40
140.8476896239287
 40
150.7915592016711
 40
150.7915592016711
 40
150.7915592016711
 40
150.7915592016711
 10
257.9952131727798
 20
1392.080165688467
 30
0.0
 41
1.0
 10
258.0006721827501
 20
1392.080165688467
 30
0.0
 41
1.0
 10
258.0422127989679
 20
1392.080165688467
 30
0.0
 41
1.0
 10
256.8826259615946
 20
1392.080165688467
 30
0.0
 41
1.0
 10
251.8579669389151
 20
1392.080165688467
 30
0.0
 41
1.0
 10
243.8050355355239
 20
1392.080165688467
 30
0.0
 41
1.0
 10
237.3178432610717
 20
1392.080165688467
 30
0.0
 41
1.0
 10
234.0024504045688
 20
1392.080165688467
 30
0.0
 41
1.0
  0
SPLINE
  5
44
330
1F
100
AcDbEntity
  8
MAKE2D VISIBLE LINES
100
AcDbSpline
210
0.0
220
0.0
230
1.0
 70
    24
 71
     2
 72
     6
 73
     3
 74
     0
 42
0.0000000001
 43
0.0000000001
 40
0.0
 40
0.0
 40
0.0
 40
23.99814073309642
 40
23.99814073309642
 40
23.99814073309642
 10
234.0024504043809
 20
1472.080165688467
 30
0.0
 10
222.0033800378326
 20
1472.080165688467
 30
0.0
 10
210.0043096712844
 20
1472.080165688467
 30
0.0
  0
SPLINE
  5
45
330
1F
100
AcDbEntity
  8
MAKE2D VISIBLE LINES
100
AcDbSpline
210
0.0
220
0.0
230
1.0
 70
    28
 71
     3
 72
    12
 73
     8
 74
     0
 42
0.0000000001
 43
0.0000000001
 40
3.040084159491983
 40
3.040084159491983
 40
3.040084159491983
 40
3.040084159491983
 40
3.141490818231436
 40
3.900982962797757
 40
4.712236226899026
 40
5.471728371465349
 40
6.282981635117188
 40
6.282981635117188
 40
6.282981635117188
 40
6.282981635117188
 10
207.0024504044978
 20
1483.084969386095
 30
0.0
 41
1.0
 10
207.0024504044978
 20
1483.081410046782
 30
0.0
 41
1.0
 10
207.0024504044978
 20
1483.065918636316
 30
0.0
 41
1.0
 10
207.0024504044978
 20
1483.288316455209
 30
0.0
 41
1.0
 10
207.0024504044978
 20
1484.062538215463
 30
0.0
 41
1.0
 10
207.0024504044978
 20
1484.855910379886
 30
0.0
 41
1.0
 10
207.0024504044978
 20
1485.081763511772
 30
0.0
 41
1.0
 10
207.0024504044978
 20
1485.080165688497
 30
0.0
 41
1.0
  0
SPLINE
  5
46
330
1F
100
AcDbEntity
  8
MAKE2D VISIBLE LINES
100
AcDbSpline
210
0.0
220
0.0
230
1.0
 70
    24
 71
     2
 72
     6
 73
     3
 74
     0
 42
0.0000000001
 43
0.0000000001
 40
0.0
 40
0.0
 40
0.0
 40
10.83136442764918
 40
10.83136442764918
 40
10.83136442764918
 10
13.00245035026387
 20
1594.080165688467
 30
0.0
 10
7.58676813643928
 20
1594.080165688467
 30
0.0
 10
2.171085922614688
 20
1594.080165688467
 30
0.0
  0
SPLINE
  5
47
330
1F
100
AcDbEntity
  8
MAKE2D VISIBLE LINES
100
AcDbSpline
210
0.0
220
0.0
230
1.0
 70
    12
 71
     2
 72
     6
 73
     3
 74
     0
 42
0.0000000001
 43
0.0000000001
 40
0.0
 40
0.0
 40
0.0
 40
1.570436477019448
 40
1.570436477019448
 40
1.570436477019448
 10
1.002378916796488
 20
1594.080165729376
 30
0.0
 41
1.0
 10
0.0027341549615819
 20
1594.080462495426
 30
0.0
 41
0.707229526500352
 10
0.0026838380268579
 20
1595.080107300045
 30
0.0
 41
1.0
  0
SPLINE
  5
48
330
1F
100
AcDbEntity
  8
MAKE2D VISIBLE LINES
100
AcDbSpline
210
0.0
220
0.0
230
1.0
 70
    12
 71
     2
 72
     6
 73
     3
 74
     0
 42
0.0000000001
 43
0.0000000001
 40
0.0
 40
0.0
 40
0.0
 40
1.107688236255466
 40
1.107688236255466
 40
1.107688236255466
 10
259.0024632674679
 20
1491.198188221116
 30
0.0
 41
1.0
 10
259.0041062295579
 20
1490.57914534934
 30
0.0
 41
0.8492481733105116
 10
258.4496781761862
 20
1490.303779574314
 30
0.0
 41
1.0
  0
SPLINE
  5
49
330
1F
100
AcDbEntity
  8
MAKE2D VISIBLE LINES
100
AcDbSpline
210
0.0
220
0.0
230
1.0
 70
    24
 71
     2
 72
     6
 73
     3
 74
     0
 42
0.0000000001
 43
0.0000000001
 40
0.0
 40
0.0
 40
0.0
 40
4.001427782558153
 40
4.001427782558153
 40
4.001427782558153
 10
138.0024504044978
 20
1509.078737906197
 30
0.0
 10
138.0024504044978
 20
1511.079451797476
 30
0.0
 10
138.0024504044978
 20
1513.080165688755
 30
0.0
  0
SPLINE
  5
4A
330
1F
100
AcDbEntity
  8
MAKE2D VISIBLE LINES
100
AcDbSpline
210
0.0
220
0.0
230
1.0
 70
    12
 71
     2
 72
     6
 73
     3
 74
     0
 42
0.0000000001
 43
0.0000000001
 40
0.0
 40
0.0
 40
0.0
 40
12.56746631305765
 40
12.56746631305765
 40
12.56746631305765
 10
228.9357886044309
 20
1500.512699375417
 30
0.0
 41
1.0
 10
228.9357988808411
 20
1506.796432531944
 30
0.0
 41
0.9999999999983324
 10
228.9357862068451
 20
1513.080165688467
 30
0.0
 41
1.0
  0
SPLINE
  5
4B
330
1F
100
AcDbEntity
  8
MAKE2D VISIBLE LINES
100
AcDbSpline
210
0.0
220
0.0
230
1.0
 70
    12
 71
     2
 72
     6
 73
     3
 74
     0
 42
0.0000000001
 43
0.0000000001
 40
0.0
 40
0.0
 40
0.0
 40
1.570766113691391
 40
1.570766113691391
 40
1.570766113691391
 10
258.0015521143272
 20
1472.080165688467
 30
0.0
 41
1.0
 10
259.0015317903348
 20
1472.080145364531
 30
0.0
 41
0.7071078412713413
 10
259.0015144647128
 20
1471.080165688467
 30
0.0
 41
1.0
  0
SPLINE
  5
4C
330
1F
100
AcDbEntity
  8
MAKE2D VISIBLE LINES
100
AcDbSpline
210
0.0
220
0.0
230
1.0
 70
    12
 71
     2
 72
     6
 73
     3
 74
     0
 42
0.0000000001
 43
0.0000000001
 40
0.0
 40
0.0
 40
0.0
 40
1.570704687893934
 40
1.570704687893934
 40
1.570704687893934
 10
209.004371182508
 20
1471.080165688467
 30
0.0
 41
1.0
 10
209.0044030037426
 20
1472.080055889632
 30
0.0
 41
0.7071568551674161
 10
210.004293199385
 20
1472.080165688466
 30
0.0
 41
1.0
  0
SPLINE
  5
4D
330
1F
100
AcDbEntity
  8
MAKE2D VISIBLE LINES
100
AcDbSpline
210
0.0
220
0.0
230
1.0
 70
    12
 71
     2
 72
     6
 73
     3
 74
     0
 42
0.0000000001
 43
0.0000000001
 40
0.0
 40
0.0
 40
0.0
 40
1.570828511384453
 40
1.570828511384453
 40
1.570828511384453
 10
259.0035063602542
 20
1393.080165688467
 30
0.0
 41
1.0
 10
259.0034829355928
 20
1392.080146875014
 30
0.0
 41
0.7071084114624997
 10
258.0034641220429
 20
1392.080165688467
 30
0.0
 41
1.0
  0
SPLINE
  5
4E
330
1F
100
AcDbEntity
  8
MAKE2D VISIBLE LINES
100
AcDbSpline
210
0.0
220
0.0
230
1.0
 70
    12
 71
     2
 72
     6
 73
     3
 74
     0
 42
0.0000000001
 43
0.0000000001
 40
0.0
 40
0.0
 40
0.0
 40
1.570822483537783
 40
1.570822483537783
 40
1.570822483537783
 10
210.0015402314231
 20
1392.080165688471
 30
0.0
 41
1.0
 10
209.0015256799592
 20
1392.080151137104
 30
0.0
 41
0.7071088246893402
 10
209.0015053486007
 20
1393.080165688467
 30
0.0
 41
1.0
  0
SPLINE
  5
4F
330
1F
100
AcDbEntity
  8
MAKE2D VISIBLE LINES
100
AcDbSpline
210
0.0
220
0.0
230
1.0
 70
    24
 71
     2
 72
     6
 73
     3
 74
     0
 42
0.0000000001
 43
0.0000000001
 40
0.0
 40
0.0
 40
0.0
 40
78.00000000000006
 40
78.00000000000006
 40
78.00000000000006
 10
209.0024504044978
 20
1393.080165688467
 30
0.0
 10
209.0024504044978
 20
1432.080165688467
 30
0.0
 10
209.0024504044978
 20
1471.080165688467
 30
0.0
  0
SPLINE
  5
50
330
1F
100
AcDbEntity
  8
MAKE2D VISIBLE LINES
100
AcDbSpline
210
0.0
220
0.0
230
1.0
 70
    24
 71
     2
 72
     6
 73
     3
 74
     0
 42
0.0000000001
 43
0.0000000001
 40
0.0
 40
0.0
 40
0.0
 40
78.00000000000006
 40
78.00000000000006
 40
78.00000000000006
 10
259.0024504044978
 20
1471.080165688467
 30
0.0
 10
259.0024504044978
 20
1432.080165688467
 30
0.0
 10
259.0024504044978
 20
1393.080165688467
 30
0.0
  0
SPLINE
  5
51
330
1F
100
AcDbEntity
  8
MAKE2D VISIBLE LINES
100
AcDbSpline
210
0.0
220
0.0
230
1.0
 70
    12
 71
     2
 72
     6
 73
     3
 74
     0
 42
0.0000000001
 43
0.0000000001
 40
0.0
 40
0.0
 40
0.0
 40
1.570358295357312
 40
1.570358295357312
 40
1.570358295357312
 10
26.00215518747609
 20
1595.080169486189
 30
0.0
 41
1.0
 10
26.00210273083566
 20
1594.080639525523
 30
0.0
 41
0.7072928894707354
 10
25.00257288106968
 20
1594.080165766622
 30
0.0
 41
1.0
  0
SPLINE
  5
52
330
1F
100
AcDbEntity
  8
MAKE2D VISIBLE LINES
100
AcDbSpline
210
0.0
220
0.0
230
1.0
 70
     8
 71
     3
 72
    38
 73
    34
 74
     0
 42
0.0000000001
 43
0.0000000001
 40
0.0
 40
0.0
 40
0.0
 40
0.0
 40
102.3093478565592
 40
107.513878687449
 40
111.1712663388335
 40
113.3253233383109
 40
115.7023131677827
 40
116.2954923034845
 40
117.9910314113553
 40
119.8491244649518
 40
122.6056442831086
 40
132.0196311253167
 40
133.794961155321
 40
135.6575122324535
 40
137.2320130638365
 40
139.1123334502414
 40
139.6586524461352
 40
142.2533380094858
 40
147.1553352736224
 40
295.1312980707167
 40
297.6422484909582
 40
299.4125631441789
 40
301.7106754739434
 40
303.7908211369045
 40
308.3098387794104
 40
312.7619440650524
 40
317.29516245943
 40
321.9101806587161
 40
326.0793882413463
 40
326.9868705859691
 40
328.7649032770674
 40
332.7639352551707
 40
357.4075996378519
 40
357.4075996378519
 40
357.4075996378519
 40
357.4075996378519
 10
221.0024561432575
 20
1514.080165688547
 30
0.0
 10
221.0020353280229
 20
1548.183281693322
 30
0.0
 10
221.0027783631099
 20
1584.021241133132
 30
0.0
 10
221.0021386392906
 20
1621.078355699922
 30
0.0
 10
221.0044731013556
 20
1624.749719990786
 30
0.0
 10
221.008083690755
 20
1627.481231756597
 30
0.0
 10
220.731702350836
 20
1629.175752585254
 30
0.0
 10
220.3904813494184
 20
1630.689321533636
 30
0.0
 10
219.9652837784278
 20
1632.010109629884
 30
0.0
 10
219.1332273605337
 20
1633.94098746232
 30
0.0
 10
216.71594160658
 20
1637.968994643467
 30
0.0
 10
212.9358374309832
 20
1640.963728083855
 30
0.0
 10
208.824457034046
 20
1642.416841914587
 30
0.0
 10
207.1311409549391
 20
1642.812001148471
 30
0.0
 10
205.3754369733436
 20
1643.071324603808
 30
0.0
 10
204.0377767045605
 20
1643.078105785505
 30
0.0
 10
202.3657937817762
 20
1643.084200224051
 30
0.0
 10
199.6841190819536
 20
1643.078836312642
 30
0.0
 10
147.8602422406832
 20
1643.083189279731
 30
0.0
 10
96.06352442010693
 20
1643.077985341009
 30
0.0
 10
45.3112628883795
 20
1643.077881398912
 30
0.0
 10
43.11851197611576
 20
1643.091558577909
 30
0.0
 10
41.06670310178816
 20
1643.033901578239
 30
0.0
 10
38.14448758400243
 20
1642.478555466878
 30
0.0
 10
34.68448602454122
 20
1641.133430780555
 30
0.0
 10
31.03116497660808
 20
1638.43337579099
 30
0.0
 10
28.19777868684139
 20
1634.843040075823
 30
0.0
 10
26.4474871222178
 20
1630.719335781101
 30
0.0
 10
25.9913212123999
 20
1627.49581083998
 30
0.0
 10
26.0045163712569
 20
1625.210734649964
 30
0.0
 10
26.00210819856151
 20
1622.982583148807
 30
0.0
 10
26.0020254874764
 20
1612.842334134212
 30
0.0
 10
26.00276713263363
 20
1603.294768771445
 30
0.0
 10
26.00244561783097
 20
1595.080213940961
 30
0.0
  0
SPLINE
  5
53
330
1F
100
AcDbEntity
  8
MAKE2D VISIBLE LINES
100
AcDbSpline
210
0.0
220
0.0
230
1.0
 70
    12
 71
     2
 72
     6
 73
     3
 74
     0
 42
0.0000000001
 43
0.0000000001
 40
0.0
 40
0.0
 40
0.0
 40
1.57048001778619
 40
1.57048001778619
 40
1.57048001778619
 10
210.0015017118509
 20
1474.080165744826
 30
0.0
 41
1.0
 10
209.0018261301148
 20
1474.080490054227
 30
0.0
 41
0.7072264960198708
 10
209.0018119160106
 20
1475.080165688467
 30
0.0
 41
1.0
  0
SPLINE
  5
54
330
1F
100
AcDbEntity
  8
MAKE2D VISIBLE LINES
100
AcDbSpline
210
0.0
220
0.0
230
1.0
 70
    12
 71
     2
 72
     6
 73
     3
 74
     0
 42
0.0000000001
 43
0.0000000001
 40
0.0
 40
0.0
 40
0.0
 40
1.570821374603488
 40
1.570821374603488
 40
1.570821374603488
 10
138.0017800591834
 20
1513.080165688467
 30
0.0
 41
1.0
 10
138.0017991172815
 20
1514.080179857703
 30
0.0
 41
0.7071085096337343
 10
139.0018132865988
 20
1514.080165688467
 30
0.0
 41
1.0
  0
SPLINE
  5
55
330
1F
100
AcDbEntity
  8
MAKE2D VISIBLE LINES
100
AcDbSpline
210
0.0
220
0.0
230
1.0
 70
    12
 71
     2
 72
     6
 73
     3
 74
     0
 42
0.0000000001
 43
0.0000000001
 40
0.0
 40
0.0
 40
0.0
 40
1.570737023783934
 40
1.570737023783934
 40
1.570737023783934
 10
258.0008388999078
 20
1514.080165688466
 30
0.0
 41
1.0
 10
259.0007917282501
 20
1514.080118517696
 30
0.0
 41
0.7071159440598539
 10
259.0007704729446
 20
1513.080165688467
 30
0.0
 41
1.0
  0
SPLINE
  5
56
330
1F
100
AcDbEntity
  8
MAKE2D VISIBLE LINES
100
AcDbSpline
210
0.0
220
0.0
230
1.0
 70
    12
 71
     2
 72
     6
 73
     3
 74
     0
 42
0.0000000001
 43
0.0000000001
 40
0.0
 40
0.0
 40
0.0
 40
7.851304384445033
 40
7.851304384445033
 40
7.851304384445033
 10
142.999391828281
 20
1504.078738660669
 30
0.0
 41
1.0
 10
138.0021109887351
 20
1504.081456321824
 30
0.0
 41
0.707304224253413
 10
138.0020375117349
 20
1509.0787378998
 30
0.0
 41
1.0
  0
SPLINE
  5
57
330
1F
100
AcDbEntity
  8
MAKE2D VISIBLE LINES
100
AcDbSpline
210
0.0
220
0.0
230
1.0
 70
    12
 71
     2
 72
     6
 73
     3
 74
     0
 42
0.0000000001
 43
0.0000000001
 40
0.0
 40
0.0
 40
0.0
 40
3.896103499095865
 40
3.896103499095865
 40
3.896103499095865
 10
209.1949197112515
 20
1480.188559171859
 30
0.0
 41
1.0
 10
207.0021943365366
 20
1480.802509069726
 30
0.0
 41
0.7967170935748731
 10
207.0024504044979
 20
1483.079563961563
 30
0.0
 41
1.0
  0
SPLINE
  5
58
330
1F
100
AcDbEntity
  8
MAKE2D VISIBLE LINES
100
AcDbSpline
210
0.0
220
0.0
230
1.0
 70
    12
 71
     2
 72
     6
 73
     3
 74
     0
 42
0.0000000001
 43
0.0000000001
 40
0.0
 40
0.0
 40
0.0
 40
3.895286395502622
 40
3.895286395502622
 40
3.895286395502622
 10
207.0024504044978
 20
1485.080182378347
 30
0.0
 41
1.0
 10
207.0024427144084
 20
1487.35706663725
 30
0.0
 41
0.7965650950338019
 10
209.1953790650057
 20
1487.96962854492
 30
0.0
 41
1.0
  0
SPLINE
  5
59
330
1F
100
AcDbEntity
  8
MAKE2D VISIBLE LINES
100
AcDbSpline
210
0.0
220
0.0
230
1.0
 70
     8
 71
     3
 72
    15
 73
    11
 74
     0
 42
0.0000000001
 43
0.0000000001
 40
0.0
 40
0.0
 40
0.0
 40
0.0
 40
1.601426397909018
 40
3.420325461564171
 40
5.746177602934317
 40
8.352215876968197
 40
9.817930634567727
 40
10.76924423616468
 40
11.38213176996063
 40
11.89531671262119
 40
11.89531671262119
 40
11.89531671262119
 40
11.89531671262119
 10
217.5678995782216
 20
1499.596453864603
 30
0.0
 10
218.0842518244523
 20
1499.460081015765
 30
0.0
 10
219.2097362908464
 20
1499.264241345912
 30
0.0
 10
221.1227373212515
 20
1499.13945433295
 30
0.0
 10
223.3740854185754
 20
1499.157292417391
 30
0.0
 10
225.5037695349428
 20
1499.262138158343
 30
0.0
 10
227.1717626353526
 20
1499.428652321501
 30
0.0
 10
228.1607771061273
 20
1499.636545072726
 30
0.0
 10
228.7918979517914
 20
1499.962612550798
 30
0.0
 10
228.9451379300136
 20
1500.342507052979
 30
0.0
 10
228.9357886044162
 20
1500.512699375417
 30
0.0
  0
SPLINE
  5
5A
330
1F
100
AcDbEntity
  8
MAKE2D VISIBLE LINES
100
AcDbSpline
210
0.0
220
0.0
230
1.0
 70
    12
 71
     3
 72
    15
 73
    11
 74
     0
 42
0.0000000001
 43
0.0000000001
 40
0.0
 40
0.0
 40
0.0
 40
0.0
 40
4.796953914410792
 40
10.38786439354941
 40
23.50914877624889
 40
39.15768998340263
 40
60.82612347382202
 40
60.82612347382202
 40
60.82612347382202
 40
74.86618326583402
 40
74.86618326583402
 40
74.86618326583402
 40
74.86618326583402
 10
217.5678995782216
 20
1499.596453864603
 30
0.0
 41
1.0
 10
216.0208788367858
 20
1500.001721819404
 30
0.0
 41
1.0
 10
212.6410609882968
 20
1500.759208875233
 30
0.0
 41
1.0
 10
204.9078370428279
 20
1502.047702949009
 30
0.0
 41
1.0
 10
193.502051778539
 20
1503.168159662956
 30
0.0
 41
1.0
 10
176.7014568534332
 20
1503.884208340062
 30
0.0
 41
1.0
 10
164.2619719254204
 20
1504.006566602483
 30
0.0
 41
1.0
 10
157.0394038491562
 20
1504.045510433308
 30
0.0
 41
1.0
 10
152.3594264493896
 20
1504.06622322944
 30
0.0
 41
0.999998587804898
 10
147.6794163301275
 20
1504.077303204757
 30
0.0
 41
0.9999985878048973
 10
142.9993933186316
 20
1504.078750312318
 30
0.0
 41
1.0
  0
SPLINE
  5
5B
330
1F
100
AcDbEntity
  8
MAKE2D VISIBLE LINES
100
AcDbSpline
210
0.0
220
0.0
230
1.0
 70
    12
 71
     2
 72
     6
 73
     3
 74
     0
 42
0.0000000001
 43
0.0000000001
 40
0.0
 40
0.0
 40
0.0
 40
2.318218556522239
 40
2.318218556522239
 40
2.318218556522239
 10
224.8221105169988
 20
1474.080165688467
 30
0.0
 41
1.0
 10
226.0024201939091
 20
1474.080293662574
 30
0.0
 41
0.973273894518608
 10
227.0581784944986
 20
1474.608029733467
 30
0.0
 41
1.0
  0
SPLINE
  5
5C
330
1F
100
AcDbEntity
  8
MAKE2D VISIBLE LINES
100
AcDbSpline
210
0.0
220
0.0
230
1.0
 70
    28
 71
     3
 72
    15
 73
    11
 74
     0
 42
0.0000000001
 43
0.0000000001
 40
100.5068986313404
 40
100.5068986313404
 40
100.5068986313404
 40
100.5068986313404
 40
100.9807290158678
 40
107.6551459436664
 40
114.8385949947156
 40
122.0554386165259
 40
129.6367247689633
 40
129.6367247689633
 40
129.6367247689633
 40
202.0317033854419
 40
202.0317033854419
 40
202.0317033854419
 40
202.0317033854419
 10
139.0078524397076
 20
1514.080165688467
 30
0.0
 41
1.0
 10
139.0038525224303
 20
1514.080165688467
 30
0.0
 41
1.0
 10
138.9734374811857
 20
1514.080165688467
 30
0.0
 41
1.0
 10
139.8220680236609
 20
1514.080165688467
 30
0.0
 41
1.0
 10
143.4994339139181
 20
1514.080165688467
 30
0.0
 41
1.0
 10
149.4334013742954
 20
1514.080165688467
 30
0.0
 41
1.0
 10
154.2921584592031
 20
1514.080165688467
 30
0.0
 41
1.0
 10
156.8149504044978
 20
1514.080165688467
 30
0.0
 41
1.0
 10
180.8994316781805
 20
1514.080165688467
 30
0.0
 41
1.0
 10
204.9839129518677
 20
1514.080165688467
 30
0.0
 41
1.0
 10
229.0700493460581
 20
1514.080165688467
 30
0.0
 41
1.0
  0
SPLINE
  5
5D
330
1F
100
AcDbEntity
  8
MAKE2D VISIBLE LINES
100
AcDbSpline
210
0.0
220
0.0
230
1.0
 70
    28
 71
     3
 72
    11
 73
     7
 74
     0
 42
0.0000000001
 43
0.0000000001
 40
42.42617314771547
 40
42.42617314771547
 40
42.42617314771547
 40
42.42617314771547
 40
47.27161592297748
 40
58.03360935257404
 40
69.14413910490065
 40
80.29370246834853
 40
80.29370246834853
 40
80.29370246834853
 40
80.29370246834853
 10
258.0001877323035
 20
1514.080165688467
 30
0.0
 41
1.0
 10
258.0120217190173
 20
1514.080165688467
 30
0.0
 41
1.0
 10
257.5296505713506
 20
1514.080165688467
 30
0.0
 41
1.0
 10
253.8132988450213
 20
1514.080165688467
 30
0.0
 41
1.0
 10
245.1374881220377
 20
1514.080165688467
 30
0.0
 41
1.0
 10
237.7187953609042
 20
1514.080165688467
 30
0.0
 41
1.0
 10
234.0024504045743
 20
1514.080165688467
 30
0.0
 41
1.0
  0
SPLINE
  5
5E
330
1F
100
AcDbEntity
  8
MAKE2D VISIBLE LINES
100
AcDbSpline
210
0.0
220
0.0
230
1.0
 70
    24
 71
     2
 72
     6
 73
     3
 74
     0
 42
0.0000000001
 43
0.0000000001
 40
0.0
 40
0.0
 40
0.0
 40
14.81301864073794
 40
14.81301864073794
 40
14.81301864073794
 10
224.8221105169988
 20
1474.080165688467
 30
0.0
 10
217.4156011966298
 20
1474.080165688467
 30
0.0
 10
210.0090918762609
 20
1474.080165688467
 30
0.0
  0
SPLINE
  5
5F
330
1F
100
AcDbEntity
  8
MAKE2D VISIBLE LINES
100
AcDbSpline
210
0.0
220
0.0
230
1.0
 70
    24
 71
     2
 72
     6
 73
     3
 74
     0
 42
0.0000000001
 43
0.0000000001
 40
0.0
 40
0.0
 40
0.0
 40
26.82528200380788
 40
26.82528200380788
 40
26.82528200380788
 10
234.4496639999886
 20
1478.303772486212
 30
0.0
 10
246.4462948152118
 20
1484.302087893824
 30
0.0
 10
258.4429256304351
 20
1490.300403301436
 30
0.0
  0
SPLINE
  5
60
330
1F
100
AcDbEntity
  8
MAKE2D VISIBLE LINES
100
AcDbSpline
210
0.0
220
0.0
230
1.0
 70
    24
 71
     2
 72
     6
 73
     3
 74
     0
 42
0.0000000001
 43
0.0000000001
 40
0.0
 40
0.0
 40
0.0
 40
4.93102043087265
 40
4.93102043087265
 40
4.93102043087265
 10
234.0024504045743
 20
1514.080165688467
 30
0.0
 10
231.536940189138
 20
1514.080165688467
 30
0.0
 10
229.0714299737017
 20
1514.080165688467
 30
0.0
  0
SPLINE
  5
61
330
1F
100
AcDbEntity
  8
MAKE2D VISIBLE LINES
100
AcDbSpline
210
0.0
220
0.0
230
1.0
 70
    24
 71
     2
 72
     6
 73
     3
 74
     0
 42
0.0000000001
 43
0.0000000001
 40
0.0
 40
0.0
 40
0.0
 40
8.263932022489998
 40
8.263932022489998
 40
8.263932022489998
 10
227.0581784944986
 20
1474.608029733467
 30
0.0
 10
230.7539212472436
 20
1476.45590110984
 30
0.0
 10
234.4496639999886
 20
1478.303772486212
 30
0.0
  0
SPLINE
  5
62
330
1F
100
AcDbEntity
  8
MAKE2D VISIBLE LINES
100
AcDbSpline
210
0.0
220
0.0
230
1.0
 70
     8
 71
     3
 72
    49
 73
    45
 74
     0
 42
0.0000000001
 43
0.0000000001
 40
0.0
 40
0.0
 40
0.0
 40
0.0
 40
24.65207499742545
 40
28.70119339898122
 40
30.54689067145655
 40
34.01952421360354
 40
36.75186207911172
 40
47.82153971772235
 40
52.51800289850536
 40
57.33702543794029
 40
61.58443641671464
 40
66.3628133821692
 40
75.59241947420007
 40
84.76161640692442
 40
91.72607720742995
 40
95.00648240131225
 40
98.67092093379297
 40
99.66014845833676
 40
100.6326625371892
 40
101.3904875886482
 40
103.2136435438624
 40
106.2038549843322
 40
244.0811432624315
 40
247.843731841919
 40
250.9406042033945
 40
253.7032387588722
 40
255.9159418789409
 40
258.3754805255232
 40
259.8810244894061
 40
264.5440453600304
 40
273.158287754795
 40
278.4474674450913
 40
296.1518629396598
 40
301.0322611725947
 40
307.4442777089192
 40
313.26422708636
 40
318.9393824897829
 40
323.070849932242
 40
327.6965672729908
 40
328.3884530874418
 40
329.3019677280002
 40
331.5293055878853
 40
336.9607644538847
 40
439.0881280138103
 40
439.0881280138103
 40
439.0881280138103
 40
439.0881280138103
 10
0.0024383053745257
 20
1595.080107285521
 30
0.0
 10
0.0033852064466041
 20
1603.297466142667
 30
0.0
 10
0.0011637867857244
 20
1612.864529283144
 30
0.0
 10
0.0043614914502824
 20
1623.046842677811
 30
0.0
 10
-0.0049345417316743
 20
1626.1691648309
 30
0.0
 10
0.0448243404837807
 20
1628.853804810467
 30
0.0
 10
0.6483670901967596
 20
1634.584756276116
 30
0.0
 10
2.248687829372051
 20
1640.58873018602
 30
0.0
 10
5.21969479961315
 20
1646.789561402868
 30
0.0
 10
7.643128475136802
 20
1650.690642962456
 30
0.0
 10
10.4849815797673
 20
1654.335763785386
 30
0.0
 10
14.71188588424912
 20
1658.72600179513
 30
0.0
 10
20.94445279327084
 20
1663.364714149313
 30
0.0
 10
28.67306628527695
 20
1666.909979008937
 30
0.0
 10
34.9892420471626
 20
1668.421703148488
 30
0.0
 10
39.59222595041302
 20
1668.990497372323
 30
0.0
 10
42.23772565667909
 20
1669.103961225797
 30
0.0
 10
44.11284273088951
 20
1669.076460442468
 30
0.0
 10
45.0194565940742
 20
1669.079614181033
 30
0.0
 10
46.20389875267085
 20
1669.078612250326
 30
0.0
 10
48.06098752161795
 20
1669.080372216025
 30
0.0
 10
95.62453205173357
 20
1669.079553656255
 30
0.0
 10
143.8345696278576
 20
1669.080933216195
 30
0.0
 10
192.0801495192412
 20
1669.079681334259
 30
0.0
 10
195.2875143889041
 20
1669.081954271995
 30
0.0
 10
197.9782512395934
 20
1669.080416249538
 30
0.0
 10
200.4565414518978
 20
1669.072655777073
 30
0.0
 10
202.5157308724365
 20
1669.08308339871
 30
0.0
 10
205.3920564817444
 20
1669.097258886883
 30
0.0
 10
210.3166951254599
 20
1668.786118967422
 30
0.0
 10
216.3931132434906
 20
1667.463033760112
 30
0.0
 10
226.2014994956826
 20
1663.551150373529
 30
0.0
 10
233.7907864514061
 20
1657.868958241085
 30
0.0
 10
239.7324274984121
 20
1650.213399238774
 30
0.0
 10
242.6362590083945
 20
1645.2917532863
 30
0.0
 10
244.9077566793705
 20
1639.753163683413
 30
0.0
 10
246.2210327361017
 20
1634.70264515616
 30
0.0
 10
246.9158695654989
 20
1629.935895755344
 30
0.0
 10
247.001293887139
 20
1626.781438486765
 30
0.0
 10
247.0135084042914
 20
1624.706228651408
 30
0.0
 10
247.0001274698102
 20
1623.428225234657
 30
0.0
 10
247.0031649079483
 20
1620.570965053364
 30
0.0
 10
247.0017441585504
 20
1583.975561760669
 30
0.0
 10
247.0024893843748
 20
1548.122619791668
 30
0.0
 10
247.0024690328899
 20
1514.080165688467
 30
0.0
  0
SPLINE
  5
63
330
1F
100
AcDbEntity
  8
MAKE2D VISIBLE LINES
100
AcDbSpline
210
0.0
220
0.0
230
1.0
 70
     8
 71
     3
 72
    15
 73
    11
 74
     0
 42
0.0000000001
 43
0.0000000001
 40
0.0
 40
0.0
 40
0.0
 40
0.0
 40
0.1700740788491961
 40
1.55067532667867
 40
2.654101201356597
 40
5.012390331507622
 40
7.407420227147281
 40
8.531888322703617
 40
9.904054481228762
 40
10.07337402707522
 40
10.07337402707522
 40
10.07337402707522
 40
10.07337402707522
 10
209.0023084474702
 20
1479.079987675746
 30
0.0
 10
208.9951843537573
 20
1479.137980757813
 30
0.0
 10
209.0970863867019
 20
1479.644527190399
 30
0.0
 10
209.2613456799761
 20
1480.514358430686
 30
0.0
 10
209.4642020286505
 20
1482.116047027082
 30
0.0
 10
209.5727401958498
 20
1484.067965805072
 30
0.0
 10
209.4671559060667
 20
1486.027211618993
 30
0.0
 10
209.2610673602812
 20
1487.645084410025
 30
0.0
 10
209.0958371621948
 20
1488.518712026569
 30
0.0
 10
208.9954730608179
 20
1489.022446927302
 30
0.0
 10
209.002444324339
 20
1489.080153303587
 30
0.0
  0
SPLINE
  5
64
330
1F
100
AcDbEntity
  8
MAKE2D VISIBLE LINES
100
AcDbSpline
210
0.0
220
0.0
230
1.0
 70
    12
 71
     2
 72
     6
 73
     3
 74
     0
 42
0.0000000001
 43
0.0000000001
 40
0.0
 40
0.0
 40
0.0
 40
2.00276517657186
 40
2.00276517657186
 40
2.00276517657186
 10
212.0024474738088
 20
1472.080165689201
 30
0.0
 41
1.0
 10
212.0024553691962
 20
1473.082240251982
 30
0.0
 41
0.9989645088692672
 10
212.0935501117806
 20
1474.08016568873
 30
0.0
 41
1.0
  0
SPLINE
  5
65
330
1F
100
AcDbEntity
  8
MAKE2D VISIBLE LINES
100
AcDbSpline
210
0.0
220
0.0
230
1.0
 70
    12
 71
     2
 72
     6
 73
     3
 74
     0
 42
0.0000000001
 43
0.0000000001
 40
0.0
 40
0.0
 40
0.0
 40
15.62151296483982
 40
15.62151296483982
 40
15.62151296483982
 10
250.685396431549
 20
1486.421638701993
 30
0.0
 41
1.0
 10
256.0024668265555
 20
1480.236548424117
 30
0.0
 41
0.9376329451360538
 10
256.0024440008713
 20
1472.080165688467
 30
0.0
 41
1.0
  0
DIMENSION
  5
67
330
1F
100
AcDbEntity
  8
E45716
100
AcDbDimension
  2
*D1
 10
259.0024504044978
 20
1729.161758995644
 30
0.0
 11
129.5030568893283
 21
1739.461758995644
 31
0.0
 70
    32
  1
260
 71
     5
 42
258.9987870303391
  3
DEFAULT
100
AcDbAlignedDimension
 13
0.003663374158742
 23
1621.161758995644
 33
0.0
 14
259.0024504044978
 24
1432.080165688467
 34
0.0
100
AcDbRotatedDimension
1001
ACAD
1000
DSTYLE
1002
{
1070
   279
1070
     1
1002
}
  0
DIMENSION
  5
99
330
1F
100
AcDbEntity
  8
E45716
100
AcDbDimension
  2
*D2
 10
304.6666480136038
 20
1392.080165688467
 30
0.0
 11
294.5366480136038
 21
1530.580208039842
 31
0.0
 70
    32
  1
277^M^J
 71
     5
 42
277.0000847027497
  3
DEFAULT
100
AcDbAlignedDimension
 13
142.6666480136038
 23
1669.080250391217
 33
0.0
 14
234.0024504045688
 24
1392.080165688467
 34
0.0
 50
90.0
100
AcDbRotatedDimension
1001
ACAD
1000
DSTYLE
1002
{
1070
   279
1070
     1
1002
}
  0
ENDSEC
  0
SECTION
  2
OBJECTS
  0
DICTIONARY
  5
C
330
0
100
AcDbDictionary
281
     1
  3
ACAD_GROUP
350
D
  3
ACAD_LAYOUT
350
1A
  3
ACAD_MLEADERSTYLE
350
A9
  3
ACAD_MLINESTYLE
350
17
  3
ACAD_PLOTSETTINGS
350
19
  3
ACAD_PLOTSTYLENAME
350
E
  3
ACAD_SCALELIST
350
68
  3
ACAD_TABLESTYLE
350
A8
  3
ACAD_VISUALSTYLE
350
2A
  3
AcDbVariableDictionary
350
A6
  0
DICTIONARY
  5
D
102
{ACAD_REACTORS
330
C
102
}
330
C
100
AcDbDictionary
281
     1
  0
DICTIONARY
  5
1A
102
{ACAD_REACTORS
330
C
102
}
330
C
100
AcDbDictionary
281
     1
  3
Layout1
350
1E
  3
Layout2
350
26
  3
Model
350
22
  0
DICTIONARY
  5
A9
102
{ACAD_REACTORS
330
C
102
}
330
C
100
AcDbDictionary
281
     1
  0
DICTIONARY
  5
17
102
{ACAD_REACTORS
330
C
102
}
330
C
100
AcDbDictionary
281
     1
  3
Standard
350
18
  0
DICTIONARY
  5
19
102
{ACAD_REACTORS
330
C
102
}
330
C
100
AcDbDictionary
281
     1
  0
ACDBDICTIONARYWDFLT
  5
E
102
{ACAD_REACTORS
330
C
102
}
330
C
100
AcDbDictionary
281
     1
  3
Normal
350
F
100
AcDbDictionaryWithDefault
340
F
  0
DICTIONARY
  5
68
102
{ACAD_REACTORS
330
C
102
}
330
C
100
AcDbDictionary
281
     1
  3
A0
350
69
  3
A1
350
6A
  3
A2
350
6B
  3
A3
350
6C
  3
A4
350
6D
  3
A5
350
6E
  3
A6
350
6F
  3
A7
350
70
  3
A8
350
71
  3
A9
350
72
  3
B0
350
73
  3
B1
350
74
  3
B2
350
75
  3
B3
350
76
  3
B4
350
77
  3
B5
350
78
  3
B6
350
79
  3
B7
350
7A
  3
B8
350
7B
  3
B9
350
7C
  3
C0
350
7D
  3
C1
350
7E
  3
C2
350
7F
  3
C3
350
80
  3
C4
350
81
  3
C5
350
82
  3
C6
350
83
  3
C7
350
84
  3
C8
350
85
  3
C9
350
86
  3
D0
350
87
  3
D1
350
88
  3
D2
350
89
  0
DICTIONARY
  5
A8
102
{ACAD_REACTORS
330
C
102
}
330
C
100
AcDbDictionary
281
     1
  0
DICTIONARY
  5
2A
102
{ACAD_REACTORS
330
C
102
}
330
C
100
AcDbDictionary
281
     1
  3
2dWireframe
350
2F
  3
3D Hidden
350
31
  3
3dWireframe
350
30
  3
Basic
350
32
  3
Brighten
350
36
  3
ColorChange
350
3A
  3
Conceptual
350
34
  3
Dim
350
35
  3
Facepattern
350
39
  3
Flat
350
2B
  3
FlatWithEdges
350
2C
  3
Gouraud
350
2D
  3
GouraudWithEdges
350
2E
  3
Linepattern
350
38
  3
Realistic
350
33
  3
Thicken
350
37
  0
DICTIONARY
  5
A6
102
{ACAD_REACTORS
330
C
102
}
330
C
100
AcDbDictionary
281
     1
  3
CANNOSCALE
350
A7
  0
LAYOUT
  5
1E
102
{ACAD_REACTORS
330
1A
102
}
330
1A
100
AcDbPlotSettings
  1

  2
none_device
  4

  6

 40
0.0
 41
0.0
 42
0.0
 43
0.0
 44
0.0
 45
0.0
 46
0.0
 47
0.0
 48
0.0
 49
0.0
140
0.0
141
0.0
142
1.0
143
1.0
 70
   688
 72
     0
 73
     0
 74
     5
  7

 75
    16
 76
     0
 77
     2
 78
   300
147
1.0
148
0.0
149
0.0
100
AcDbLayout
  1
Layout1
 70
     1
 71
     1
 10
0.0
 20
0.0
 11
12.0
 21
9.0
 12
0.0
 22
0.0
 32
0.0
 14
1.000000000000000E+20
 24
1.000000000000000E+20
 34
1.000000000000000E+20
 15
-1.000000000000000E+20
 25
-1.000000000000000E+20
 35
-1.000000000000000E+20
146
0.0
 13
0.0
 23
0.0
 33
0.0
 16
1.0
 26
0.0
 36
0.0
 17
0.0
 27
1.0
 37
0.0
 76
     0
330
1B
  0
LAYOUT
  5
26
102
{ACAD_REACTORS
330
1A
102
}
330
1A
100
AcDbPlotSettings
  1

  2
none_device
  4

  6

 40
0.0
 41
0.0
 42
0.0
 43
0.0
 44
0.0
 45
0.0
 46
0.0
 47
0.0
 48
0.0
 49
0.0
140
0.0
141
0.0
142
1.0
143
1.0
 70
   688
 72
     0
 73
     0
 74
     5
  7

 75
    16
 76
     0
 77
     2
 78
   300
147
1.0
148
0.0
149
0.0
100
AcDbLayout
  1
Layout2
 70
     1
 71
     2
 10
0.0
 20
0.0
 11
0.0
 21
0.0
 12
0.0
 22
0.0
 32
0.0
 14
0.0
 24
0.0
 34
0.0
 15
0.0
 25
0.0
 35
0.0
146
0.0
 13
0.0
 23
0.0
 33
0.0
 16
1.0
 26
0.0
 36
0.0
 17
0.0
 27
1.0
 37
0.0
 76
     0
330
23
  0
LAYOUT
  5
22
102
{ACAD_REACTORS
330
1A
102
}
330
1A
100
AcDbPlotSettings
  1

  2
none_device
  4

  6

 40
0.0
 41
0.0
 42
0.0
 43
0.0
 44
0.0
 45
0.0
 46
0.0
 47
0.0
 48
0.0
 49
0.0
140
0.0
141
0.0
142
1.0
143
1.0
 70
  1712
 72
     0
 73
     0
 74
     0
  7

 75
     0
 76
     0
 77
     2
 78
   300
147
1.0
148
0.0
149
0.0
100
AcDbLayout
  1
Model
 70
     1
 71
     0
 10
0.0
 20
0.0
 11
12.0
 21
9.0
 12
0.0
 22
0.0
 32
0.0
 14
0.0012746352986102
 24
1392.080165688467
 34
0.0
 15
305.1666480136038
 25
1749.711758995644
 35
0.0
146
0.0
 13
0.0
 23
0.0
 33
0.0
 16
1.0
 26
0.0
 36
0.0
 17
0.0
 27
1.0
 37
0.0
 76
     0
330
1F
331
29
  0
MLINESTYLE
  5
18
102
{ACAD_REACTORS
330
17
102
}
330
17
100
AcDbMlineStyle
  2
Standard
 70
     0
  3

 62
   256
 51
90.0
 52
90.0
 71
     2
 49
0.5
 62
   256
  6
BYLAYER
 49
-0.5
 62
   256
  6
BYLAYER
  0
ACDBPLACEHOLDER
  5
F
102
{ACAD_REACTORS
330
E
102
}
330
E
  0
SCALE
  5
69
102
{ACAD_REACTORS
330
68
102
}
330
68
100
AcDbScale
 70
     0
300
1:1
140
1.0
141
1.0
290
     1
  0
SCALE
  5
6A
102
{ACAD_REACTORS
330
68
102
}
330
68
100
AcDbScale
 70
     0
300
1:2
140
1.0
141
2.0
290
     0
  0
SCALE
  5
6B
102
{ACAD_REACTORS
330
68
102
}
330
68
100
AcDbScale
 70
     0
300
1:4
140
1.0
141
4.0
290
     0
  0
SCALE
  5
6C
102
{ACAD_REACTORS
330
68
102
}
330
68
100
AcDbScale
 70
     0
300
1:5
140
1.0
141
5.0
290
     0
  0
SCALE
  5
6D
102
{ACAD_REACTORS
330
68
102
}
330
68
100
AcDbScale
 70
     0
300
1:8
140
1.0
141
8.0
290
     0
  0
SCALE
  5
6E
102
{ACAD_REACTORS
330
68
102
}
330
68
100
AcDbScale
 70
     0
300
1:10
140
1.0
141
10.0
290
     0
  0
SCALE
  5
6F
102
{ACAD_REACTORS
330
68
102
}
330
68
100
AcDbScale
 70
     0
300
1:16
140
1.0
141
16.0
290
     0
  0
SCALE
  5
70
102
{ACAD_REACTORS
330
68
102
}
330
68
100
AcDbScale
 70
     0
300
1:20
140
1.0
141
20.0
290
     0
  0
SCALE
  5
71
102
{ACAD_REACTORS
330
68
102
}
330
68
100
AcDbScale
 70
     0
300
1:30
140
1.0
141
30.0
290
     0
  0
SCALE
  5
72
102
{ACAD_REACTORS
330
68
102
}
330
68
100
AcDbScale
 70
     0
300
1:40
140
1.0
141
40.0
290
     0
  0
SCALE
  5
73
102
{ACAD_REACTORS
330
68
102
}
330
68
100
AcDbScale
 70
     0
300
1:50
140
1.0
141
50.0
290
     0
  0
SCALE
  5
74
102
{ACAD_REACTORS
330
68
102
}
330
68
100
AcDbScale
 70
     0
300
1:100
140
1.0
141
100.0
290
     0
  0
SCALE
  5
75
102
{ACAD_REACTORS
330
68
102
}
330
68
100
AcDbScale
 70
     0
300
2:1
140
2.0
141
1.0
290
     0
  0
SCALE
  5
76
102
{ACAD_REACTORS
330
68
102
}
330
68
100
AcDbScale
 70
     0
300
4:1
140
4.0
141
1.0
290
     0
  0
SCALE
  5
77
102
{ACAD_REACTORS
330
68
102
}
330
68
100
AcDbScale
 70
     0
300
8:1
140
8.0
141
1.0
290
     0
  0
SCALE
  5
78
102
{ACAD_REACTORS
330
68
102
}
330
68
100
AcDbScale
 70
     0
300
10:1
140
10.0
141
1.0
290
     0
  0
SCALE
  5
79
102
{ACAD_REACTORS
330
68
102
}
330
68
100
AcDbScale
 70
     0
300
100:1
140
100.0
141
1.0
290
     0
  0
SCALE
  5
7A
102
{ACAD_REACTORS
330
68
102
}
330
68
100
AcDbScale
 70
     0
300
1/128" = 1'-0"
140
0.0078125
141
12.0
290
     0
  0
SCALE
  5
7B
102
{ACAD_REACTORS
330
68
102
}
330
68
100
AcDbScale
 70
     0
300
1/64" = 1'-0"
140
0.015625
141
12.0
290
     0
  0
SCALE
  5
7C
102
{ACAD_REACTORS
330
68
102
}
330
68
100
AcDbScale
 70
     0
300
1/32" = 1'-0"
140
0.03125
141
12.0
290
     0
  0
SCALE
  5
7D
102
{ACAD_REACTORS
330
68
102
}
330
68
100
AcDbScale
 70
     0
300
1/16" = 1'-0"
140
0.0625
141
12.0
290
     0
  0
SCALE
  5
7E
102
{ACAD_REACTORS
330
68
102
}
330
68
100
AcDbScale
 70
     0
300
3/32" = 1'-0"
140
0.09375
141
12.0
290
     0
  0
SCALE
  5
7F
102
{ACAD_REACTORS
330
68
102
}
330
68
100
AcDbScale
 70
     0
300
1/8" = 1'-0"
140
0.125
141
12.0
290
     0
  0
SCALE
  5
80
102
{ACAD_REACTORS
330
68
102
}
330
68
100
AcDbScale
 70
     0
300
3/16" = 1'-0"
140
0.1875
141
12.0
290
     0
  0
SCALE
  5
81
102
{ACAD_REACTORS
330
68
102
}
330
68
100
AcDbScale
 70
     0
300
1/4" = 1'-0"
140
0.25
141
12.0
290
     0
  0
SCALE
  5
82
102
{ACAD_REACTORS
330
68
102
}
330
68
100
AcDbScale
 70
     0
300
3/8" = 1'-0"
140
0.375
141
12.0
290
     0
  0
SCALE
  5
83
102
{ACAD_REACTORS
330
68
102
}
330
68
100
AcDbScale
 70
     0
300
1/2" = 1'-0"
140
0.5
141
12.0
290
     0
  0
SCALE
  5
84
102
{ACAD_REACTORS
330
68
102
}
330
68
100
AcDbScale
 70
     0
300
3/4" = 1'-0"
140
0.75
141
12.0
290
     0
  0
SCALE
  5
85
102
{ACAD_REACTORS
330
68
102
}
330
68
100
AcDbScale
 70
     0
300
1" = 1'-0"
140
1.0
141
12.0
290
     0
  0
SCALE
  5
86
102
{ACAD_REACTORS
330
68
102
}
330
68
100
AcDbScale
 70
     0
300
1-1/2" = 1'-0"
140
1.5
141
12.0
290
     0
  0
SCALE
  5
87
102
{ACAD_REACTORS
330
68
102
}
330
68
100
AcDbScale
 70
     0
300
3" = 1'-0"
140
3.0
141
12.0
290
     0
  0
SCALE
  5
88
102
{ACAD_REACTORS
330
68
102
}
330
68
100
AcDbScale
 70
     0
300
6" = 1'-0"
140
6.0
141
12.0
290
     0
  0
SCALE
  5
89
102
{ACAD_REACTORS
330
68
102
}
330
68
100
AcDbScale
 70
     0
300
1'-0" = 1'-0"
140
12.0
141
12.0
290
     0
  0
VISUALSTYLE
  5
2F
102
{ACAD_REACTORS
330
2A
102
}
330
2A
100
AcDbVisualStyle
  2
2dWireframe
 70
     4
 71
     0
 72
     2
 73
     0
 90
        0
 40
-0.6
 41
-30.0
 62
     5
 63
     7
421
 16777215
 74
     1
 91
        4
 64
     7
 65
   257
 75
     1
175
     1
 42
1.0
 92
        0
 66
   257
 43
1.0
 76
     1
 77
     6
 78
     2
 67
     7
 79
     5
170
     0
171
     0
290
     0
174
     0
 93
        1
 44
0.0
173
     0
291
     0
 45
0.0
1001
ACAD
1000
AcDbSavedByObjectVersion
1070
     0
  0
VISUALSTYLE
  5
31
102
{ACAD_REACTORS
330
2A
102
}
330
2A
100
AcDbVisualStyle
  2
3D Hidden
 70
     6
 71
     1
 72
     2
 73
     2
 90
        0
 40
-0.6
 41
-30.0
 62
     5
 63
     7
421
 16777215
 74
     2
 91
        2
 64
     7
 65
   257
 75
     2
175
     1
 42
40.0
 92
        0
 66
   257
 43
1.0
 76
     1
 77
     6
 78
     2
 67
     7
 79
     3
170
     0
171
     0
290
     0
174
     0
 93
        1
 44
0.0
173
     0
291
     0
 45
0.0
1001
ACAD
1000
AcDbSavedByObjectVersion
1070
     0
  0
VISUALSTYLE
  5
30
102
{ACAD_REACTORS
330
2A
102
}
330
2A
100
AcDbVisualStyle
  2
3dWireframe
 70
     5
 71
     0
 72
     2
 73
     0
 90
        0
 40
-0.6
 41
-30.0
 62
     5
 63
     7
421
 16777215
 74
     1
 91
        4
 64
     7
 65
   257
 75
     1
175
     1
 42
1.0
 92
        0
 66
   257
 43
1.0
 76
     1
 77
     6
 78
     2
 67
     7
 79
     5
170
     0
171
     0
290
     0
174
     0
 93
        1
 44
0.0
173
     0
291
     0
 45
0.0
1001
ACAD
1000
AcDbSavedByObjectVersion
1070
     0
  0
VISUALSTYLE
  5
32
102
{ACAD_REACTORS
330
2A
102
}
330
2A
100
AcDbVisualStyle
  2
Basic
 70
     7
 71
     1
 72
     0
 73
     1
 90
        0
 40
-0.6
 41
-30.0
 62
     5
 63
     7
421
 16777215
 74
     0
 91
        4
 64
     7
 65
   257
 75
     1
175
     1
 42
1.0
 92
        8
 66
     7
 43
1.0
 76
     1
 77
     6
 78
     2
 67
     7
 79
     5
170
     0
171
     0
290
     0
174
     0
 93
        1
 44
0.0
173
     0
291
     1
 45
0.0
1001
ACAD
1000
AcDbSavedByObjectVersion
1070
     0
  0
VISUALSTYLE
  5
36
102
{ACAD_REACTORS
330
2A
102
}
330
2A
100
AcDbVisualStyle
  2
Brighten
 70
    12
 71
     2
 72
     2
 73
     0
 90
        0
 40
-0.6
 41
-30.0
 62
     5
 63
     7
421
 16777215
 74
     1
 91
        4
 64
     7
 65
   257
 75
     1
175
     1
 42
1.0
 92
        8
 66
     7
 43
1.0
 76
     1
 77
     6
 78
     2
 67
     7
 79
     5
170
     0
171
     0
290
     0
174
     0
 93
        1
 44
50.0
173
     0
291
     1
 45
0.0
1001
ACAD
1000
AcDbSavedByObjectVersion
1070
     0
  0
VISUALSTYLE
  5
3A
102
{ACAD_REACTORS
330
2A
102
}
330
2A
100
AcDbVisualStyle
  2
ColorChange
 70
    16
 71
     2
 72
     2
 73
     3
 90
        0
 40
-0.6
 41
-30.0
 62
     5
 63
     8
421
  8421504
 74
     1
 91
        4
 64
     7
 65
   257
 75
     1
175
     1
 42
1.0
 92
        8
 66
     8
424
  8421504
 43
1.0
 76
     1
 77
     6
 78
     2
 67
     7
 79
     5
170
     0
171
     0
290
     0
174
     0
 93
        1
 44
0.0
173
     0
291
     1
 45
0.0
1001
ACAD
1000
AcDbSavedByObjectVersion
1070
     0
  0
VISUALSTYLE
  5
34
102
{ACAD_REACTORS
330
2A
102
}
330
2A
100
AcDbVisualStyle
  2
Conceptual
 70
     9
 71
     3
 72
     2
 73
     0
 90
        0
 40
-0.6
 41
-30.0
 62
     5
 63
     7
421
 16777215
 74
     2
 91
        2
 64
     7
 65
   257
 75
     1
175
     1
 42
40.0
 92
        8
 66
     7
 43
1.0
 76
     1
 77
     6
 78
     2
 67
     7
 79
     3
170
     0
171
     0
290
     0
174
     0
 93
        1
 44
0.0
173
     0
291
     0
 45
0.0
1001
ACAD
1000
AcDbSavedByObjectVersion
1070
     0
  0
VISUALSTYLE
  5
35
102
{ACAD_REACTORS
330
2A
102
}
330
2A
100
AcDbVisualStyle
  2
Dim
 70
    11
 71
     2
 72
     2
 73
     0
 90
        0
 40
-0.6
 41
-30.0
 62
     5
 63
     7
421
 16777215
 74
     1
 91
        4
 64
     7
 65
   257
 75
     1
175
     1
 42
1.0
 92
        8
 66
     7
 43
1.0
 76
     1
 77
     6
 78
     2
 67
     7
 79
     5
170
     0
171
     0
290
     0
174
     0
 93
        1
 44
-50.0
173
     0
291
     1
 45
0.0
1001
ACAD
1000
AcDbSavedByObjectVersion
1070
     0
  0
VISUALSTYLE
  5
39
102
{ACAD_REACTORS
330
2A
102
}
330
2A
100
AcDbVisualStyle
  2
Facepattern
 70
    15
 71
     2
 72
     2
 73
     0
 90
        0
 40
-0.6
 41
-30.0
 62
     5
 63
     7
421
 16777215
 74
     1
 91
        4
 64
     7
 65
   257
 75
     1
175
     1
 42
1.0
 92
        8
 66
     7
 43
1.0
 76
     1
 77
     6
 78
     2
 67
     7
 79
     5
170
     0
171
     0
290
     0
174
     0
 93
        1
 44
0.0
173
     0
291
     1
 45
0.0
1001
ACAD
1000
AcDbSavedByObjectVersion
1070
     0
  0
VISUALSTYLE
  5
2B
102
{ACAD_REACTORS
330
2A
102
}
330
2A
100
AcDbVisualStyle
  2
Flat
 70
     0
 71
     2
 72
     1
 73
     1
 90
        2
 40
-0.6
 41
30.0
 62
     5
 63
     7
421
 16777215
 74
     0
 91
        4
 64
     7
 65
   257
 75
     1
175
     1
 42
1.0
 92
        8
 66
     7
 43
1.0
 76
     1
 77
     6
 78
     2
 67
     7
 79
     5
170
     0
171
     0
290
     0
174
     0
 93
       13
 44
0.0
173
     0
291
     1
 45
0.0
1001
ACAD
1000
AcDbSavedByObjectVersion
1070
     0
  0
VISUALSTYLE
  5
2C
102
{ACAD_REACTORS
330
2A
102
}
330
2A
100
AcDbVisualStyle
  2
FlatWithEdges
 70
     1
 71
     2
 72
     1
 73
     1
 90
        2
 40
-0.6
 41
30.0
 62
     5
 63
     7
421
 16777215
 74
     1
 91
        4
 64
     7
 65
   257
 75
     1
175
     1
 42
1.0
 92
        0
 66
   257
 43
1.0
 76
     1
 77
     6
 78
     2
 67
     7
 79
     5
170
     0
171
     0
290
     0
174
     0
 93
       13
 44
0.0
173
     0
291
     1
 45
0.0
1001
ACAD
1000
AcDbSavedByObjectVersion
1070
     0
  0
VISUALSTYLE
  5
2D
102
{ACAD_REACTORS
330
2A
102
}
330
2A
100
AcDbVisualStyle
  2
Gouraud
 70
     2
 71
     2
 72
     2
 73
     1
 90
        2
 40
-0.6
 41
30.0
 62
     5
 63
     7
421
 16777215
 74
     0
 91
        4
 64
     7
 65
   257
 75
     1
175
     1
 42
1.0
 92
        0
 66
     7
 43
1.0
 76
     1
 77
     6
 78
     2
 67
     7
 79
     5
170
     0
171
     0
290
     0
174
     0
 93
       13
 44
0.0
173
     0
291
     1
 45
0.0
1001
ACAD
1000
AcDbSavedByObjectVersion
1070
     0
  0
VISUALSTYLE
  5
2E
102
{ACAD_REACTORS
330
2A
102
}
330
2A
100
AcDbVisualStyle
  2
GouraudWithEdges
 70
     3
 71
     2
 72
     2
 73
     1
 90
        2
 40
-0.6
 41
30.0
 62
     5
 63
     7
421
 16777215
 74
     1
 91
        4
 64
     7
 65
   257
 75
     1
175
     1
 42
1.0
 92
        0
 66
   257
 43
1.0
 76
     1
 77
     6
 78
     2
 67
     7
 79
     5
170
     0
171
     0
290
     0
174
     0
 93
       13
 44
0.0
173
     0
291
     1
 45
0.0
1001
ACAD
1000
AcDbSavedByObjectVersion
1070
     0
  0
VISUALSTYLE
  5
38
102
{ACAD_REACTORS
330
2A
102
}
330
2A
100
AcDbVisualStyle
  2
Linepattern
 70
    14
 71
     2
 72
     2
 73
     0
 90
        0
 40
-0.6
 41
-30.0
 62
     5
 63
     7
421
 16777215
 74
     1
 91
        4
 64
     7
 65
   257
 75
     7
175
     7
 42
1.0
 92
        8
 66
     7
 43
1.0
 76
     1
 77
     6
 78
     2
 67
     7
 79
     5
170
     0
171
     0
290
     0
174
     0
 93
        1
 44
0.0
173
     0
291
     1
 45
0.0
1001
ACAD
1000
AcDbSavedByObjectVersion
1070
     0
  0
VISUALSTYLE
  5
33
102
{ACAD_REACTORS
330
2A
102
}
330
2A
100
AcDbVisualStyle
  2
Realistic
 70
     8
 71
     2
 72
     2
 73
     0
 90
        0
 40
-0.6
 41
-30.0
 62
     5
 63
     7
421
 16777215
 74
     1
 91
        0
 64
     7
 65
   257
 75
     1
175
     1
 42
1.0
 92
        8
 66
     8
424
  7895160
 43
1.0
 76
     1
 77
     6
 78
     2
 67
     7
 79
     5
170
     0
171
     0
290
     0
174
     0
 93
       13
 44
0.0
173
     0
291
     0
 45
0.0
1001
ACAD
1000
AcDbSavedByObjectVersion
1070
     0
  0
VISUALSTYLE
  5
37
102
{ACAD_REACTORS
330
2A
102
}
330
2A
100
AcDbVisualStyle
  2
Thicken
 70
    13
 71
     2
 72
     2
 73
     0
 90
        0
 40
-0.6
 41
-30.0
 62
     5
 63
     7
421
 16777215
 74
     1
 91
        4
 64
     7
 65
   257
 75
     1
175
     1
 42
1.0
 92
       12
 66
     7
 43
1.0
 76
     1
 77
     6
 78
     2
 67
     7
 79
     5
170
     0
171
     0
290
     0
174
     0
 93
        1
 44
0.0
173
     0
291
     1
 45
0.0
1001
ACAD
1000
AcDbSavedByObjectVersion
1070
     0
  0
DICTIONARYVAR
  5
A7
102
{ACAD_REACTORS
330
A6
102
}
330
A6
100
DictionaryVariables
280
     0
  1
1:1
  0
ENDSEC
  0
EOF
