  0
SECTION
  2
HEADER
  9
$ACADVER
  1
AC1018
  9
$ACADMAINTVER
 70
     0
  9
$DWGCODEPAGE
  3
ANSI_936
  9
$INSBASE
 10
0.0
 20
0.0
 30
0.0
  9
$EXTMIN
 10
1401.04951684997
 20
436.0
 30
0.0
  9
$EXTMAX
 10
1672.949359553261
 20
777.3213511299467
 30
0.0
  9
$LIMMIN
 10
0.0
 20
0.0
  9
$LIMMAX
 10
12.0
 20
9.0
  9
$ORTHOMODE
 70
     0
  9
$REGENMODE
 70
     1
  9
$FILLMODE
 70
     1
  9
$QTEXTMODE
 70
     0
  9
$MIRRTEXT
 70
     1
  9
$LTSCALE
 40
1.0
  9
$ATTMODE
 70
     1
  9
$TEXTSIZE
 40
0.2
  9
$TRACEWID
 40
0.05
  9
$TEXTSTYLE
  7
Standard
  9
$CLAYER
  8
E45714
  9
$CELTYPE
  6
ByLayer
  9
$CECOLOR
 62
   256
  9
$CELTSCALE
 40
1.0
  9
$DISPSILH
 70
     0
  9
$DIMSCALE
 40
1.0
  9
$DIMASZ
 40
0.18
  9
$DIMEXO
 40
0.0625
  9
$DIMDLI
 40
0.38
  9
$DIMRND
 40
0.0
  9
$DIMDLE
 40
0.0
  9
$DIMEXE
 40
0.18
  9
$DIMTP
 40
0.0
  9
$DIMTM
 40
0.0
  9
$DIMTXT
 40
0.18
  9
$DIMCEN
 40
0.09
  9
$DIMTSZ
 40
0.0
  9
$DIMTOL
 70
     0
  9
$DIMLIM
 70
     0
  9
$DIMTIH
 70
     1
  9
$DIMTOH
 70
     1
  9
$DIMSE1
 70
     0
  9
$DIMSE2
 70
     0
  9
$DIMTAD
 70
     0
  9
$DIMZIN
 70
     0
  9
$DIMBLK
  1

  9
$DIMASO
 70
     1
  9
$DIMSHO
 70
     1
  9
$DIMPOST
  1

  9
$DIMAPOST
  1

  9
$DIMALT
 70
     0
  9
$DIMALTD
 70
     2
  9
$DIMALTF
 40
25.4
  9
$DIMLFAC
 40
1.0
  9
$DIMTOFL
 70
     0
  9
$DIMTVP
 40
0.0
  9
$DIMTIX
 70
     0
  9
$DIMSOXD
 70
     0
  9
$DIMSAH
 70
     0
  9
$DIMBLK1
  1

  9
$DIMBLK2
  1

  9
$DIMSTYLE
  2
Standard
  9
$DIMCLRD
 70
     0
  9
$DIMCLRE
 70
     0
  9
$DIMCLRT
 70
     0
  9
$DIMTFAC
 40
1.0
  9
$DIMGAP
 40
0.09
  9
$DIMJUST
 70
     0
  9
$DIMSD1
 70
     0
  9
$DIMSD2
 70
     0
  9
$DIMTOLJ
 70
     1
  9
$DIMTZIN
 70
     0
  9
$DIMALTZ
 70
     0
  9
$DIMALTTZ
 70
     0
  9
$DIMUPT
 70
     0
  9
$DIMDEC
 70
     4
  9
$DIMTDEC
 70
     4
  9
$DIMALTU
 70
     2
  9
$DIMALTTD
 70
     2
  9
$DIMTXSTY
  7
Standard
  9
$DIMAUNIT
 70
     0
  9
$DIMADEC
 70
     0
  9
$DIMALTRND
 40
0.0
  9
$DIMAZIN
 70
     0
  9
$DIMDSEP
 70
    46
  9
$DIMATFIT
 70
     3
  9
$DIMFRAC
 70
     0
  9
$DIMLDRBLK
  1

  9
$DIMLUNIT
 70
     2
  9
$DIMLWD
 70
    -2
  9
$DIMLWE
 70
    -2
  9
$DIMTMOVE
 70
     2
  9
$LUNITS
 70
     2
  9
$LUPREC
 70
     2
  9
$SKETCHINC
 40
0.1
  9
$FILLETRAD
 40
0.5
  9
$AUNITS
 70
     0
  9
$AUPREC
 70
     0
  9
$MENU
  1
.
  9
$ELEVATION
 40
0.0
  9
$PELEVATION
 40
0.0
  9
$THICKNESS
 40
0.0
  9
$LIMCHECK
 70
     0
  9
$CHAMFERA
 40
0.5
  9
$CHAMFERB
 40
0.5
  9
$CHAMFERC
 40
1.0
  9
$CHAMFERD
 40
0.0
  9
$SKPOLY
 70
     0
  9
$TDCREATE
 40
2456449.704940139
  9
$TDUCREATE
 40
2456449.621606805
  9
$TDUPDATE
 40
2456449.70494015
  9
$TDUUPDATE
 40
2456449.621606817
  9
$TDINDWG
 40
0.0000000116
  9
$TDUSRTIMER
 40
0.0000000116
  9
$USRTIMER
 70
     1
  9
$ANGBASE
 50
0.0
  9
$ANGDIR
 70
     0
  9
$PDMODE
 70
     0
  9
$PDSIZE
 40
0.0
  9
$PLINEWID
 40
0.0
  9
$SPLFRAME
 70
     0
  9
$SPLINETYPE
 70
     6
  9
$SPLINESEGS
 70
     8
  9
$HANDSEED
  5
10E
  9
$SURFTAB1
 70
     6
  9
$SURFTAB2
 70
     6
  9
$SURFTYPE
 70
     6
  9
$SURFU
 70
     6
  9
$SURFV
 70
     6
  9
$UCSBASE
  2

  9
$UCSNAME
  2

  9
$UCSORG
 10
0.0
 20
0.0
 30
0.0
  9
$UCSXDIR
 10
1.0
 20
0.0
 30
0.0
  9
$UCSYDIR
 10
0.0
 20
1.0
 30
0.0
  9
$UCSORTHOREF
  2

  9
$UCSORTHOVIEW
 70
     0
  9
$UCSORGTOP
 10
0.0
 20
0.0
 30
0.0
  9
$UCSORGBOTTOM
 10
0.0
 20
0.0
 30
0.0
  9
$UCSORGLEFT
 10
0.0
 20
0.0
 30
0.0
  9
$UCSORGRIGHT
 10
0.0
 20
0.0
 30
0.0
  9
$UCSORGFRONT
 10
0.0
 20
0.0
 30
0.0
  9
$UCSORGBACK
 10
0.0
 20
0.0
 30
0.0
  9
$PUCSBASE
  2

  9
$PUCSNAME
  2

  9
$PUCSORG
 10
0.0
 20
0.0
 30
0.0
  9
$PUCSXDIR
 10
1.0
 20
0.0
 30
0.0
  9
$PUCSYDIR
 10
0.0
 20
1.0
 30
0.0
  9
$PUCSORTHOREF
  2

  9
$PUCSORTHOVIEW
 70
     0
  9
$PUCSORGTOP
 10
0.0
 20
0.0
 30
0.0
  9
$PUCSORGBOTTOM
 10
0.0
 20
0.0
 30
0.0
  9
$PUCSORGLEFT
 10
0.0
 20
0.0
 30
0.0
  9
$PUCSORGRIGHT
 10
0.0
 20
0.0
 30
0.0
  9
$PUCSORGFRONT
 10
0.0
 20
0.0
 30
0.0
  9
$PUCSORGBACK
 10
0.0
 20
0.0
 30
0.0
  9
$USERI1
 70
     0
  9
$USERI2
 70
     0
  9
$USERI3
 70
     0
  9
$USERI4
 70
     0
  9
$USERI5
 70
     0
  9
$USERR1
 40
0.0
  9
$USERR2
 40
0.0
  9
$USERR3
 40
0.0
  9
$USERR4
 40
0.0
  9
$USERR5
 40
0.0
  9
$WORLDVIEW
 70
     1
  9
$SHADEDGE
 70
     3
  9
$SHADEDIF
 70
    70
  9
$TILEMODE
 70
     1
  9
$MAXACTVP
 70
    64
  9
$PINSBASE
 10
0.0
 20
0.0
 30
0.0
  9
$PLIMCHECK
 70
     0
  9
$PEXTMIN
 10
1.000000000000000E+20
 20
1.000000000000000E+20
 30
1.000000000000000E+20
  9
$PEXTMAX
 10
-1.000000000000000E+20
 20
-1.000000000000000E+20
 30
-1.000000000000000E+20
  9
$PLIMMIN
 10
0.0
 20
0.0
  9
$PLIMMAX
 10
12.0
 20
9.0
  9
$UNITMODE
 70
     0
  9
$VISRETAIN
 70
     1
  9
$PLINEGEN
 70
     0
  9
$PSLTSCALE
 70
     1
  9
$TREEDEPTH
 70
  3020
  9
$CMLSTYLE
  2
Standard
  9
$CMLJUST
 70
     0
  9
$CMLSCALE
 40
1.0
  9
$PROXYGRAPHICS
 70
     1
  9
$MEASUREMENT
 70
     0
  9
$CELWEIGHT
370
    -1
  9
$ENDCAPS
280
     0
  9
$JOINSTYLE
280
     0
  9
$LWDISPLAY
290
     0
  9
$INSUNITS
 70
     4
  9
$HYPERLINKBASE
  1

  9
$STYLESHEET
  1

  9
$XEDIT
290
     1
  9
$CEPSNTYPE
380
     0
  9
$PSTYLEMODE
290
     1
  9
$FINGERPRINTGUID
  2
{BAF7C232-972B-41FB-8CDE-478373A8869B}
  9
$VERSIONGUID
  2
{FAEB1C32-E019-11D5-929B-00C0DF256EC4}
  9
$EXTNAMES
290
     1
  9
$PSVPSCALE
 40
0.0
  9
$OLESTARTUP
290
     0
  9
$SORTENTS
280
   127
  9
$INDEXCTL
280
     0
  9
$HIDETEXT
280
     1
  9
$XCLIPFRAME
290
     0
  9
$HALOGAP
280
     0
  9
$OBSCOLOR
 70
   257
  9
$OBSLTYPE
280
     0
  9
$INTERSECTIONDISPLAY
280
     0
  9
$INTERSECTIONCOLOR
 70
   257
  9
$DIMASSOC
280
     2
  9
$PROJECTNAME
  1

  0
ENDSEC
  0
SECTION
  2
CLASSES
  0
CLASS
  1
ACDBDICTIONARYWDFLT
  2
AcDbDictionaryWithDefault
  3
ObjectDBX Classes
 90
        0
 91
        4
280
     0
281
     0
  0
CLASS
  1
VISUALSTYLE
  2
AcDbVisualStyle
  3
ObjectDBX Classes
 90
     4095
 91
        4
280
     0
281
     0
  0
CLASS
  1
SCALE
  2
AcDbScale
  3
ObjectDBX Classes
 90
     1153
 91
        4
280
     0
281
     0
  0
CLASS
  1
DICTIONARYVAR
  2
AcDbDictionaryVar
  3
ObjectDBX Classes
 90
        0
 91
        4
280
     0
281
     0
  0
ENDSEC
  0
SECTION
  2
TABLES
  0
TABLE
  2
VPORT
  5
8
330
0
100
AcDbSymbolTable
 70
     1
  0
VPORT
  5
29
330
8
100
AcDbSymbolTableRecord
100
AcDbViewportTableRecord
  2
*Active
 70
     0
 10
0.0
 20
0.0
 11
1.0
 21
1.0
 12
1536.999438201616
 22
606.6606755649734
 13
0.0
 23
0.0
 14
0.5
 24
0.5
 15
0.5
 25
0.5
 16
0.0
 26
0.0
 36
1.0
 17
0.0
 27
0.0
 37
0.0
 40
348.1477781525457
 41
0.7966095346897107
 42
50.0
 43
0.0
 44
0.0
 50
0.0
 51
0.0
 71
     0
 72
   100
 73
     1
 74
     3
 75
     0
 76
     0
 77
     0
 78
     0
281
     0
 65
     1
110
0.0
120
0.0
130
0.0
111
1.0
121
0.0
131
0.0
112
0.0
122
1.0
132
0.0
 79
     0
146
0.0
  0
ENDTAB
  0
TABLE
  2
LTYPE
  5
5
330
0
100
AcDbSymbolTable
 70
     1
  0
LTYPE
  5
14
330
5
100
AcDbSymbolTableRecord
100
AcDbLinetypeTableRecord
  2
ByBlock
 70
     0
  3

 72
    65
 73
     0
 40
0.0
  0
LTYPE
  5
15
330
5
100
AcDbSymbolTableRecord
100
AcDbLinetypeTableRecord
  2
ByLayer
 70
     0
  3

 72
    65
 73
     0
 40
0.0
  0
LTYPE
  5
16
330
5
100
AcDbSymbolTableRecord
100
AcDbLinetypeTableRecord
  2
Continuous
 70
     0
  3
Solid line
 72
    65
 73
     0
 40
0.0
  0
ENDTAB
  0
TABLE
  2
LAYER
  5
2
330
0
100
AcDbSymbolTable
 70
     4
  0
LAYER
  5
10
330
2
100
AcDbSymbolTableRecord
100
AcDbLayerTableRecord
  2
0
 70
     0
 62
     7
  6
Continuous
370
    -3
390
F
  0
LAYER
  5
3B
330
2
100
AcDbSymbolTableRecord
100
AcDbLayerTableRecord
  2
E45714
 70
     0
 62
     7
  6
Continuous
370
    -3
390
F
  0
LAYER
  5
61
330
2
100
AcDbSymbolTableRecord
100
AcDbLayerTableRecord
  2
Defpoints
 70
     0
 62
     7
  6
Continuous
290
     0
370
    -3
390
F
  0
LAYER
  5
7B
330
2
100
AcDbSymbolTableRecord
100
AcDbLayerTableRecord
  2
MAKE2D VISIBLE LINES
 70
     0
 62
     7
  6
Continuous
370
    -3
390
F
  0
ENDTAB
  0
TABLE
  2
STYLE
  5
3
330
0
100
AcDbSymbolTable
 70
     2
  0
STYLE
  5
11
330
3
100
AcDbSymbolTableRecord
100
AcDbTextStyleTableRecord
  2
Standard
 70
     0
 40
0.0
 41
1.0
 50
0.0
 71
     0
 42
0.2
  3
txt
  4

  0
STYLE
  5
5F
330
3
100
AcDbSymbolTableRecord
100
AcDbTextStyleTableRecord
  2
ARIAL
 70
     0
 40
0.0
 41
1.0
 50
0.0
 71
     0
 42
0.0
  3

  4

1001
ACAD
1000
Arial
1071
      256
  0
ENDTAB
  0
TABLE
  2
VIEW
  5
6
330
0
100
AcDbSymbolTable
 70
     0
  0
ENDTAB
  0
TABLE
  2
UCS
  5
7
330
0
100
AcDbSymbolTable
 70
     0
  0
ENDTAB
  0
TABLE
  2
APPID
  5
9
330
0
100
AcDbSymbolTable
 70
     1
  0
APPID
  5
12
330
9
100
AcDbSymbolTableRecord
100
AcDbRegAppTableRecord
  2
ACAD
 70
     0
  0
ENDTAB
  0
TABLE
  2
DIMSTYLE
  5
A
330
0
100
AcDbSymbolTable
 70
     2
100
AcDbDimStyleTable
  0
DIMSTYLE
105
27
330
A
100
AcDbSymbolTableRecord
100
AcDbDimStyleTableRecord
  2
Standard
 70
     0
340
11
  0
DIMSTYLE
105
60
102
{ACAD_REACTORS
330
3C
330
6E
102
}
330
A
100
AcDbSymbolTableRecord
100
AcDbDimStyleTableRecord
  2
DEFAULT
 70
     0
 41
1.0
 42
0.5
 44
0.5
 73
     0
 77
     1
 78
     1
140
10.0
141
0.5
172
     1
174
     1
179
     2
271
     2
284
     1
340
5F
  0
ENDTAB
  0
TABLE
  2
BLOCK_RECORD
  5
1
330
0
100
AcDbSymbolTable
 70
     3
  0
BLOCK_RECORD
  5
1F
330
1
100
AcDbSymbolTableRecord
100
AcDbBlockTableRecord
  2
*Model_Space
340
22
  0
BLOCK_RECORD
  5
1B
330
1
100
AcDbSymbolTableRecord
100
AcDbBlockTableRecord
  2
*Paper_Space
340
1E
  0
BLOCK_RECORD
  5
23
330
1
100
AcDbSymbolTableRecord
100
AcDbBlockTableRecord
  2
*Paper_Space0
340
26
  0
BLOCK_RECORD
  5
62
330
1
100
AcDbSymbolTableRecord
100
AcDbBlockTableRecord
  2
*D1
340
0
  0
BLOCK_RECORD
  5
6F
330
1
100
AcDbSymbolTableRecord
100
AcDbBlockTableRecord
  2
*D2
340
0
  0
ENDTAB
  0
ENDSEC
  0
SECTION
  2
BLOCKS
  0
BLOCK
  5
20
330
1F
100
AcDbEntity
  8
0
100
AcDbBlockBegin
  2
*Model_Space
 70
     0
 10
0.0
 20
0.0
 30
0.0
  3
*Model_Space
  1

  0
ENDBLK
  5
21
330
1F
100
AcDbEntity
  8
0
100
AcDbBlockEnd
  0
BLOCK
  5
1C
330
1B
100
AcDbEntity
 67
     1
  8
0
100
AcDbBlockBegin
  2
*Paper_Space
 70
     0
 10
0.0
 20
0.0
 30
0.0
  3
*Paper_Space
  1

  0
ENDBLK
  5
1D
330
1B
100
AcDbEntity
 67
     1
  8
0
100
AcDbBlockEnd
  0
BLOCK
  5
24
330
23
100
AcDbEntity
  8
0
100
AcDbBlockBegin
  2
*Paper_Space0
 70
     0
 10
0.0
 20
0.0
 30
0.0
  3
*Paper_Space0
  1

  0
ENDBLK
  5
25
330
23
100
AcDbEntity
  8
0
100
AcDbBlockEnd
  0
BLOCK
  5
6C
330
62
100
AcDbEntity
  8
0
100
AcDbBlockBegin
  2
*D1
 70
     1
 10
0.0
 20
0.0
 30
0.0
  3
*D1
  1

  0
LINE
  5
63
330
62
100
AcDbEntity
  8
E45714
 62
     0
370
    -2
100
AcDbLine
 10
1401.049516849971
 20
706.5013511299466
 30
0.0
 11
1401.049516849971
 21
767.5013511299466
 31
0.0
  0
LINE
  5
64
330
62
100
AcDbEntity
  8
E45714
 62
     0
370
    -2
100
AcDbLine
 10
1597.049516849971
 20
604.5
 30
0.0
 11
1597.049516849971
 21
767.5013511299466
 31
0.0
  0
LINE
  5
65
330
62
100
AcDbEntity
  8
E45714
 62
     0
370
    -2
100
AcDbLine
 10
1402.049516849971
 20
767.0013511299466
 30
0.0
 11
1596.049516849971
 21
767.0013511299466
 31
0.0
  0
SOLID
  5
66
330
62
100
AcDbEntity
  8
E45714
 62
     0
100
AcDbTrace
 10
1402.049516849971
 20
767.1680177966132
 30
0.0
 11
1402.049516849971
 21
766.8346844632799
 31
0.0
 12
1401.049516849971
 22
767.0013511299466
 32
0.0
 13
1401.049516849971
 23
767.0013511299466
 33
0.0
  0
SOLID
  5
67
330
62
100
AcDbEntity
  8
E45714
 62
     0
100
AcDbTrace
 10
1596.049516849971
 20
766.8346844632799
 30
0.0
 11
1596.049516849971
 21
767.1680177966132
 31
0.0
 12
1597.049516849971
 22
767.0013511299466
 32
0.0
 13
1597.049516849971
 23
767.0013511299466
 33
0.0
  0
MTEXT
  5
68
330
62
100
AcDbEntity
  8
E45714
 62
     0
100
AcDbMText
 10
1499.049516849971
 20
772.1963511299466
 30
0.0
 40
10.0
 41
0.0
 71
     5
 72
     1
  1
\A1;196.00
  7
ARIAL
 73
     1
 44
1.0
  0
POINT
  5
69
330
62
100
AcDbEntity
  8
Defpoints
 62
     0
100
AcDbPoint
 10
1401.049516849971
 20
706.0013511299466
 30
0.0
  0
POINT
  5
6A
330
62
100
AcDbEntity
  8
Defpoints
 62
     0
100
AcDbPoint
 10
1597.049516849971
 20
604.0
 30
0.0
  0
POINT
  5
6B
330
62
100
AcDbEntity
  8
Defpoints
 62
     0
100
AcDbPoint
 10
1597.049516849971
 20
767.0013511299466
 30
0.0
  0
ENDBLK
  5
6D
330
62
100
AcDbEntity
  8
0
100
AcDbBlockEnd
  0
BLOCK
  5
79
330
6F
100
AcDbEntity
  8
0
100
AcDbBlockBegin
  2
*D2
 70
     1
 10
0.0
 20
0.0
 30
0.0
  3
*D2
  1

  0
LINE
  5
70
330
6F
100
AcDbEntity
  8
E45714
 62
     0
370
    -2
100
AcDbLine
 10
1536.949359553261
 20
436.2809638594164
 30
0.0
 11
1672.949359553261
 21
436.2809638594164
 31
0.0
  0
LINE
  5
71
330
6F
100
AcDbEntity
  8
E45714
 62
     0
370
    -2
100
AcDbLine
 10
1536.949359553261
 20
715.9993345438473
 30
0.0
 11
1672.949359553261
 21
715.9993345438473
 31
0.0
  0
LINE
  5
72
330
6F
100
AcDbEntity
  8
E45714
 62
     0
370
    -2
100
AcDbLine
 10
1672.449359553261
 20
437.2809638594164
 30
0.0
 11
1672.449359553261
 21
714.9993345438473
 31
0.0
  0
SOLID
  5
73
330
6F
100
AcDbEntity
  8
E45714
 62
     0
100
AcDbTrace
 10
1672.282692886594
 20
437.2809638594164
 30
0.0
 11
1672.616026219928
 21
437.2809638594164
 31
0.0
 12
1672.449359553261
 22
436.2809638594164
 32
0.0
 13
1672.449359553261
 23
436.2809638594164
 33
0.0
  0
SOLID
  5
74
330
6F
100
AcDbEntity
  8
E45714
 62
     0
100
AcDbTrace
 10
1672.616026219928
 20
714.9993345438473
 30
0.0
 11
1672.282692886594
 21
714.9993345438473
 31
0.0
 12
1672.449359553261
 22
715.9993345438473
 32
0.0
 13
1672.449359553261
 23
715.9993345438473
 33
0.0
  0
MTEXT
  5
75
330
6F
100
AcDbEntity
  8
E45714
 62
     0
100
AcDbMText
 10
1667.254359553261
 20
576.1401492016319
 30
0.0
 40
10.0
 41
0.0
 71
     5
 72
     1
  1
\A1;280
  7
ARIAL
 11
0.0
 21
1.0
 31
0.0
 73
     1
 44
1.0
  0
POINT
  5
76
330
6F
100
AcDbEntity
  8
Defpoints
 62
     0
100
AcDbPoint
 10
1536.449359553261
 20
436.2809638594164
 30
0.0
  0
POINT
  5
77
330
6F
100
AcDbEntity
  8
Defpoints
 62
     0
100
AcDbPoint
 10
1536.449359553261
 20
715.9993345438473
 30
0.0
  0
POINT
  5
78
330
6F
100
AcDbEntity
  8
Defpoints
 62
     0
100
AcDbPoint
 10
1672.449359553261
 20
715.9993345438473
 30
0.0
  0
ENDBLK
  5
7A
330
6F
100
AcDbEntity
  8
0
100
AcDbBlockEnd
  0
ENDSEC
  0
SECTION
  2
ENTITIES
  0
DIMENSION
  5
3C
330
1F
100
AcDbEntity
  8
E45714
100
AcDbDimension
  2
*D1
 10
1597.049516849971
 20
767.0013511299466
 30
0.0
 11
1499.049516849971
 21
772.1963511299466
 31
0.0
 70
    32
  1
<>
 71
     5
 42
196.0
  3
DEFAULT
100
AcDbAlignedDimension
 13
1401.049516849971
 23
706.0013511299466
 33
0.0
 14
1597.049516849971
 24
604.0
 34
0.0
100
AcDbRotatedDimension
1001
ACAD
1000
DSTYLE
1002
{
1070
   279
1070
     1
1002
}
  0
DIMENSION
  5
6E
330
1F
100
AcDbEntity
  8
E45714
100
AcDbDimension
  2
*D2
 10
1672.449359553261
 20
715.9993345438473
 30
0.0
 11
1667.254359553261
 21
576.1401492016319
 31
0.0
 70
    32
  1
280
 71
     5
 42
279.7183706844309
  3
DEFAULT
100
AcDbAlignedDimension
 13
1536.449359553261
 23
436.2809638594164
 33
0.0
 14
1536.449359553261
 24
715.9993345438473
 34
0.0
 50
90.0
100
AcDbRotatedDimension
1001
ACAD
1000
DSTYLE
1002
{
1070
   279
1070
     1
1002
}
  0
SPLINE
  5
7C
330
1F
100
AcDbEntity
  8
MAKE2D VISIBLE LINES
100
AcDbSpline
210
0.0
220
0.0
230
1.0
 70
    12
 71
     2
 72
     6
 73
     3
 74
     0
 42
0.0000000001
 43
0.0000000001
 40
0.0
 40
0.0
 40
0.0
 40
1.570795314926377
 40
1.570795314926377
 40
1.570795314926377
 10
1510.049523544521
 20
667.0
 30
0.0
 41
1.0
 10
1510.049521121943
 20
666.000002394667
 30
0.0
 41
0.7071084843420186
 10
1509.04952351661
 20
666.0
 30
0.0
 41
1.0
  0
SPLINE
  5
7D
330
1F
100
AcDbEntity
  8
MAKE2D VISIBLE LINES
100
AcDbSpline
210
0.0
220
0.0
230
1.0
 70
    24
 71
     2
 72
     6
 73
     3
 74
     0
 42
0.0000000001
 43
0.0000000001
 40
0.0
 40
0.0
 40
0.0
 40
8.20000194647207
 40
8.20000194647207
 40
8.20000194647207
 10
1487.04951684997
 20
715.7190361406928
 30
0.0
 10
1491.149517823206
 20
715.7190361406874
 30
0.0
 10
1495.249518796442
 20
715.7190361406821
 30
0.0
  0
SPLINE
  5
7E
330
1F
100
AcDbEntity
  8
MAKE2D VISIBLE LINES
100
AcDbSpline
210
0.0
220
0.0
230
1.0
 70
    12
 71
     2
 72
     6
 73
     3
 74
     0
 42
0.0000000001
 43
0.0000000001
 40
0.0
 40
0.0
 40
0.0
 40
2.389791868081782
 40
2.389791868081782
 40
2.389791868081782
 10
1592.612275131901
 20
594.2823699274754
 30
0.0
 41
1.0
 10
1593.970319703369
 20
594.1959394649949
 30
0.0
 41
0.8267752293426799
 10
1594.388482119229
 20
592.9009894748797
 30
0.0
 41
1.0
  0
SPLINE
  5
7F
330
1F
100
AcDbEntity
  8
MAKE2D VISIBLE LINES
100
AcDbSpline
210
0.0
220
0.0
230
1.0
 70
    12
 71
     2
 72
     6
 73
     3
 74
     0
 42
0.0000000001
 43
0.0000000001
 40
0.0
 40
0.0
 40
0.0
 40
0.7854628264343807
 40
0.7854628264343807
 40
0.7854628264343807
 10
1436.049516849971
 20
523.0757483696327
 30
0.0
 41
1.0
 10
1436.049477980408
 20
523.5757872397253
 30
0.0
 41
0.7071112450940276
 10
1436.54951684997
 20
523.5758324227171
 30
0.0
 41
1.0
  0
SPLINE
  5
80
330
1F
100
AcDbEntity
  8
MAKE2D VISIBLE LINES
100
AcDbSpline
210
0.0
220
0.0
230
1.0
 70
    12
 71
     2
 72
     6
 73
     3
 74
     0
 42
0.0000000001
 43
0.0000000001
 40
0.0
 40
0.0
 40
0.0
 40
0.0135501600304321
 40
0.0135501600304321
 40
0.0135501600304321
 10
1495.249666434925
 20
715.7190352329935
 30
0.0
 41
1.0
 10
1495.256443643666
 20
715.7190111330266
 30
0.0
 41
0.9995194372464977
 10
1495.263206334644
 20
715.7185671173984
 30
0.0
 41
1.0
  0
SPLINE
  5
81
330
1F
100
AcDbEntity
  8
MAKE2D VISIBLE LINES
100
AcDbSpline
210
0.0
220
0.0
230
1.0
 70
    24
 71
     2
 72
     6
 73
     3
 74
     0
 42
0.0000000001
 43
0.0000000001
 40
0.0
 40
0.0
 40
0.0
 40
0.9051150784005131
 40
0.9051150784005131
 40
0.9051150784005131
 10
1456.049516849971
 20
634.0
 30
0.0
 10
1455.59695931077
 20
634.0
 30
0.0
 10
1455.14440177157
 20
634.0
 30
0.0
  0
SPLINE
  5
82
330
1F
100
AcDbEntity
  8
MAKE2D VISIBLE LINES
100
AcDbSpline
210
0.0
220
0.0
230
1.0
 70
    12
 71
     2
 72
     6
 73
     3
 74
     0
 42
0.0000000001
 43
0.0000000001
 40
0.0001015393855949
 40
0.0001015393855949
 40
0.0001015393855949
 40
0.9994284978775626
 40
0.9994284978775626
 40
0.9994284978775626
 10
1510.532215478883
 20
438.3586323257309
 30
0.0
 41
0.9999436389052853
 10
1510.643835980089
 20
438.4065122880327
 30
0.0
 41
0.7226254267222333
 10
1510.432300451325
 20
439.3405991993482
 30
0.0
 41
0.9996829275083875
  0
SPLINE
  5
83
330
1F
100
AcDbEntity
  8
MAKE2D VISIBLE LINES
100
AcDbSpline
210
0.0
220
0.0
230
1.0
 70
    24
 71
     2
 72
     6
 73
     3
 74
     0
 42
0.0000000001
 43
0.0000000001
 40
0.0
 40
0.0
 40
0.0
 40
9.999999999999943
 40
9.999999999999943
 40
9.999999999999943
 10
1426.04951684997
 20
658.0
 30
0.0
 10
1431.04951684997
 20
658.0
 30
0.0
 10
1436.04951684997
 20
658.0
 30
0.0
  0
SPLINE
  5
84
330
1F
100
AcDbEntity
  8
MAKE2D VISIBLE LINES
100
AcDbSpline
210
0.0
220
0.0
230
1.0
 70
    24
 71
     2
 72
     6
 73
     3
 74
     0
 42
0.0000000001
 43
0.0000000001
 40
0.0
 40
0.0
 40
0.0
 40
8.531625054015592
 40
8.531625054015592
 40
8.531625054015592
 10
1410.581141903986
 20
613.0
 30
0.0
 10
1406.315329376978
 20
613.0
 30
0.0
 10
1402.04951684997
 20
613.0
 30
0.0
  0
SPLINE
  5
85
330
1F
100
AcDbEntity
  8
MAKE2D VISIBLE LINES
100
AcDbSpline
210
0.0
220
0.0
230
1.0
 70
    24
 71
     2
 72
     6
 73
     3
 74
     0
 42
0.0000000001
 43
0.0000000001
 40
0.0
 40
0.0
 40
0.0
 40
22.60032414724197
 40
22.60032414724197
 40
22.60032414724197
 10
1411.349363183143
 20
678.640184400193
 30
0.0
 10
1418.583550656355
 20
669.9591594323381
 30
0.0
 10
1425.817738129568
 20
661.2781344644833
 30
0.0
  0
SPLINE
  5
86
330
1F
100
AcDbEntity
  8
MAKE2D VISIBLE LINES
100
AcDbSpline
210
0.0
220
0.0
230
1.0
 70
    12
 71
     2
 72
     6
 73
     3
 74
     0
 42
0.0000000001
 43
0.0000000001
 40
0.0
 40
0.0
 40
0.0
 40
0.0205395696440915
 40
0.0205395696440915
 40
0.0205395696440915
 10
1592.567631525678
 20
594.2852123866029
 30
0.0
 41
1.0
 10
1592.577880568829
 20
594.2845586283759
 30
0.0
 41
0.9999871643298622
 10
1592.588122461097
 20
594.2838010479464
 30
0.0
 41
1.0
  0
SPLINE
  5
87
330
1F
100
AcDbEntity
  8
MAKE2D VISIBLE LINES
100
AcDbSpline
210
0.0
220
0.0
230
1.0
 70
    12
 71
     2
 72
     6
 73
     3
 74
     0
 42
0.0000000001
 43
0.0000000001
 40
0.0
 40
0.0
 40
0.0
 40
1.440794422624341
 40
1.440794422624341
 40
1.440794422624341
 10
1464.918918902994
 20
666.0084406439619
 30
0.0
 41
1.0
 10
1464.048576119114
 20
666.122247949286
 30
0.0
 41
0.7515662917320445
 10
1464.04853531939
 20
667.0
 30
0.0
 41
1.0
  0
SPLINE
  5
88
330
1F
100
AcDbEntity
  8
MAKE2D VISIBLE LINES
100
AcDbSpline
210
0.0
220
0.0
230
1.0
 70
    12
 71
     2
 72
     6
 73
     3
 74
     0
 42
0.0000000001
 43
0.0000000001
 40
0.0
 40
0.0
 40
0.0
 40
1.38487395665228
 40
1.38487395665228
 40
1.38487395665228
 10
1464.048635965055
 20
712.948706705113
 30
0.0
 41
1.0
 10
1464.048652547682
 20
713.778142296422
 30
0.0
 41
0.7697000246712549
 10
1464.863793234211
 20
713.931468946329
 30
0.0
 41
1.0
  0
SPLINE
  5
89
330
1F
100
AcDbEntity
  8
MAKE2D VISIBLE LINES
100
AcDbSpline
210
0.0
220
0.0
230
1.0
 70
    12
 71
     2
 72
     6
 73
     3
 74
     0
 42
0.0000000001
 43
0.0000000001
 40
0.0
 40
0.0
 40
0.0
 40
1.350531638502637
 40
1.350531638502637
 40
1.350531638502637
 10
1513.268005688665
 20
713.1007722119255
 30
0.0
 41
1.0
 10
1514.049516828804
 20
712.925793104513
 30
0.0
 41
0.7805418828689976
 10
1514.049518763368
 20
712.1249327233057
 30
0.0
 41
1.0
  0
SPLINE
  5
8A
330
1F
100
AcDbEntity
  8
MAKE2D VISIBLE LINES
100
AcDbSpline
210
0.0
220
0.0
230
1.0
 70
    12
 71
     2
 72
     6
 73
     3
 74
     0
 42
0.0000000001
 43
0.0000000001
 40
0.0
 40
0.0
 40
0.0
 40
7.618094011403173
 40
7.618094011403173
 40
7.618094011403173
 10
1479.436538727205
 20
715.758267381223
 30
0.0
 41
1.0
 10
1483.239190240503
 20
715.9999910650163
 30
0.0
 41
0.999496338285415
 10
1487.04951684997
 20
716.0
 30
0.0
 41
1.0
  0
SPLINE
  5
8B
330
1F
100
AcDbEntity
  8
MAKE2D VISIBLE LINES
100
AcDbSpline
210
0.0
220
0.0
230
1.0
 70
    24
 71
     2
 72
     6
 73
     3
 74
     0
 42
0.0000000001
 43
0.0000000001
 40
0.0
 40
0.0
 40
0.0
 40
10.00000000000011
 40
10.00000000000011
 40
10.00000000000011
 10
1436.049516849971
 20
634.0
 30
0.0
 10
1431.049516849971
 20
634.0
 30
0.0
 10
1426.04951684997
 20
634.0
 30
0.0
  0
SPLINE
  5
8C
330
1F
100
AcDbEntity
  8
MAKE2D VISIBLE LINES
100
AcDbSpline
210
0.0
220
0.0
230
1.0
 70
    12
 71
     2
 72
     6
 73
     3
 74
     0
 42
0.0000000001
 43
0.0000000001
 40
0.0
 40
0.0
 40
0.0
 40
0.9739994304383567
 40
0.9739994304383567
 40
0.9739994304383567
 10
1510.487524051916
 20
678.2091153931094
 30
0.0
 41
1.0
 10
1510.04954871901
 20
677.911494699096
 30
0.0
 41
0.8837697016020715
 10
1510.049517143936
 20
677.3819661646975
 30
0.0
 41
1.0
  0
SPLINE
  5
8D
330
1F
100
AcDbEntity
  8
MAKE2D VISIBLE LINES
100
AcDbSpline
210
0.0
220
0.0
230
1.0
 70
    12
 71
     2
 72
     6
 73
     3
 74
     0
 42
0.0000000001
 43
0.0000000001
 40
0.0
 40
0.0
 40
0.0
 40
0.024928340034125
 40
0.024928340034125
 40
0.024928340034125
 10
1510.508334574461
 20
678.222847265132
 30
0.0
 41
1.0
 10
1510.497857742059
 20
678.2160939082612
 30
0.0
 41
0.9999212596044394
 10
1510.487553690218
 20
678.2090797538651
 30
0.0
 41
1.0
  0
SPLINE
  5
8E
330
1F
100
AcDbEntity
  8
MAKE2D VISIBLE LINES
100
AcDbSpline
210
0.0
220
0.0
230
1.0
 70
    12
 71
     2
 72
     6
 73
     3
 74
     0
 42
0.0000000001
 43
0.0000000001
 40
0.0
 40
0.0
 40
0.0
 40
1.10707601940826
 40
1.10707601940826
 40
1.10707601940826
 10
1514.049551446848
 20
680.6180339886166
 30
0.0
 41
1.0
 10
1514.049364985599
 20
680.0001178800368
 30
0.0
 41
0.8508038387358845
 10
1513.496761537796
 20
679.7236223439313
 30
0.0
 41
1.0
  0
SPLINE
  5
8F
330
1F
100
AcDbEntity
  8
MAKE2D VISIBLE LINES
100
AcDbSpline
210
0.0
220
0.0
230
1.0
 70
    12
 71
     2
 72
     6
 73
     3
 74
     0
 42
0.0000000001
 43
0.0000000001
 40
0.0
 40
0.0
 40
0.0
 40
0.0912179742155569
 40
0.0912179742155569
 40
0.0912179742155569
 10
1510.411687378208
 20
678.1809949021699
 30
0.0
 41
1.0
 10
1510.370891004176
 20
678.1605269994861
 30
0.0
 41
0.998884120379674
 10
1510.332207795801
 20
678.1363012164409
 30
0.0
 41
1.0
  0
SPLINE
  5
90
330
1F
100
AcDbEntity
  8
MAKE2D VISIBLE LINES
100
AcDbSpline
210
0.0
220
0.0
230
1.0
 70
    12
 71
     2
 72
     6
 73
     3
 74
     0
 42
0.0000000001
 43
0.0000000001
 40
0.0
 40
0.0
 40
0.0
 40
14.09363537277759
 40
14.09363537277759
 40
14.09363537277759
 10
1464.863822832205
 20
713.931312995888
 30
0.0
 41
1.0
 10
1471.797134664554
 20
715.2356133230929
 30
0.0
 41
0.9982764499855906
 10
1478.835514370434
 20
715.7185454342514
 30
0.0
 41
1.0
  0
SPLINE
  5
91
330
1F
100
AcDbEntity
  8
MAKE2D VISIBLE LINES
100
AcDbSpline
210
0.0
220
0.0
230
1.0
 70
    12
 71
     2
 72
     6
 73
     3
 74
     0
 42
0.0000000001
 43
0.0000000001
 40
0.0
 40
0.0
 40
0.0
 40
0.1151513545965875
 40
0.1151513545965875
 40
0.1151513545965875
 10
1494.662207040731
 20
715.7582856601618
 30
0.0
 41
1.0
 10
1494.721253067398
 20
715.7542589410164
 30
0.0
 41
0.9597515624767682
 10
1494.768813577587
 20
715.719036141543
 30
0.0
 41
1.0
  0
SPLINE
  5
92
330
1F
100
AcDbEntity
  8
MAKE2D VISIBLE LINES
100
AcDbSpline
210
0.0
220
0.0
230
1.0
 70
    24
 71
     2
 72
     6
 73
     3
 74
     0
 42
0.0000000001
 43
0.0000000001
 40
0.0
 40
0.0
 40
0.0
 40
0.9051205144020287
 40
0.9051205144020287
 40
0.9051205144020287
 10
1455.144396335568
 20
658.0
 30
0.0
 10
1455.596956592769
 20
658.0
 30
0.0
 10
1456.04951684997
 20
658.0
 30
0.0
  0
SPLINE
  5
93
330
1F
100
AcDbEntity
  8
MAKE2D VISIBLE LINES
100
AcDbSpline
210
0.0
220
0.0
230
1.0
 70
    24
 71
     2
 72
     6
 73
     3
 74
     0
 42
0.0000000001
 43
0.0000000001
 40
0.0
 40
0.0
 40
0.0
 40
8.531625054015592
 40
8.531625054015592
 40
8.531625054015592
 10
1402.04951684997
 20
679.0
 30
0.0
 10
1406.315329376978
 20
679.0
 30
0.0
 10
1410.581141903986
 20
679.0
 30
0.0
  0
SPLINE
  5
94
330
1F
100
AcDbEntity
  8
MAKE2D VISIBLE LINES
100
AcDbSpline
210
0.0
220
0.0
230
1.0
 70
    24
 71
     2
 72
     6
 73
     3
 74
     0
 42
0.0000000001
 43
0.0000000001
 40
0.0
 40
0.0
 40
0.0
 40
22.60032414724197
 40
22.60032414724197
 40
22.60032414724197
 10
1425.817738129568
 20
630.7218655355167
 30
0.0
 10
1418.583550656355
 20
622.0408405676619
 30
0.0
 10
1411.349363183143
 20
613.359815599807
 30
0.0
  0
SPLINE
  5
95
330
1F
100
AcDbEntity
  8
MAKE2D VISIBLE LINES
100
AcDbSpline
210
0.0
220
0.0
230
1.0
 70
    12
 71
     2
 72
     6
 73
     3
 74
     0
 42
0.0000000001
 43
0.0000000001
 40
0.0
 40
0.0
 40
0.0
 40
0.7854602530941514
 40
0.7854602530941514
 40
0.7854602530941514
 10
1436.549516849971
 20
488.4241675774106
 30
0.0
 41
1.0
 10
1436.049483976581
 20
488.424218755626
 30
0.0
 41
0.707119723683356
 10
1436.049516849971
 20
488.9242516305538
 30
0.0
 41
1.0
  0
SPLINE
  5
96
330
1F
100
AcDbEntity
  8
MAKE2D VISIBLE LINES
100
AcDbSpline
210
0.0
220
0.0
230
1.0
 70
    12
 71
     2
 72
     6
 73
     3
 74
     0
 42
0.0000000001
 43
0.0000000001
 40
0.0
 40
0.0
 40
0.0
 40
17.17878341138905
 40
17.17878341138905
 40
17.17878341138905
 10
1594.388435046925
 20
592.9008233938961
 30
0.0
 41
1.0
 10
1597.049523223528
 20
584.6599100781386
 30
0.0
 41
0.9878300140916088
 10
1597.049516849971
 20
576.0
 30
0.0
 41
1.0
  0
SPLINE
  5
97
330
1F
100
AcDbEntity
  8
MAKE2D VISIBLE LINES
100
AcDbSpline
210
0.0
220
0.0
230
1.0
 70
    12
 71
     2
 72
     6
 73
     3
 74
     0
 42
0.0000000001
 43
0.0000000001
 40
0.0
 40
0.0
 40
0.0
 40
5.272645634414202
 40
5.272645634414202
 40
5.272645634414202
 10
1455.14439633554
 20
493.999999999509
 30
0.0
 41
1.0
 10
1454.748799364007
 20
491.3925615396417
 30
0.0
 41
0.9994571302177857
 10
1454.182344655051
 20
488.8168361372391
 30
0.0
 41
1.0
  0
SPLINE
  5
98
330
1F
100
AcDbEntity
  8
MAKE2D VISIBLE LINES
100
AcDbSpline
210
0.0
220
0.0
230
1.0
 70
    24
 71
     2
 72
     6
 73
     3
 74
     0
 42
0.0000000001
 43
0.0000000001
 40
0.0
 40
0.0
 40
0.0
 40
17.14456406482032
 40
17.14456406482032
 40
17.14456406482032
 10
1436.54951684997
 20
523.5751542412212
 30
0.0
 10
1445.121798882381
 20
523.5751542412212
 30
0.0
 10
1453.694080914791
 20
523.5751542412212
 30
0.0
  0
SPLINE
  5
99
330
1F
100
AcDbEntity
  8
MAKE2D VISIBLE LINES
100
AcDbSpline
210
0.0
220
0.0
230
1.0
 70
    24
 71
     2
 72
     6
 73
     3
 74
     0
 42
0.0000000001
 43
0.0000000001
 40
0.0
 40
0.0
 40
0.0
 40
17.14452311893871
 40
17.14452311893871
 40
17.14452311893871
 10
1453.694039968909
 20
488.4248457587815
 30
0.0
 10
1445.12177840944
 20
488.4248457587815
 30
0.0
 10
1436.54951684997
 20
488.4248457587815
 30
0.0
  0
SPLINE
  5
9A
330
1F
100
AcDbEntity
  8
MAKE2D VISIBLE LINES
100
AcDbSpline
210
0.0
220
0.0
230
1.0
 70
    24
 71
     2
 72
     6
 73
     3
 74
     0
 42
0.0000000001
 43
0.0000000001
 40
0.0
 40
0.0
 40
0.0
 40
54.00000000000006
 40
54.00000000000006
 40
54.00000000000006
 10
1510.049516849971
 20
486.0
 30
0.0
 10
1483.049516849971
 20
486.0
 30
0.0
 10
1456.04951684997
 20
486.0
 30
0.0
  0
SPLINE
  5
9B
330
1F
100
AcDbEntity
  8
MAKE2D VISIBLE LINES
100
AcDbSpline
210
0.0
220
0.0
230
1.0
 70
    24
 71
     2
 72
     6
 73
     3
 74
     0
 42
0.0000000001
 43
0.0000000001
 40
0.0
 40
0.0
 40
0.0
 40
31.84615384615392
 40
31.84615384615392
 40
31.84615384615392
 10
1478.203363003817
 20
666.0
 30
0.0
 10
1494.126439926893
 20
666.0
 30
0.0
 10
1510.049516849971
 20
666.0
 30
0.0
  0
SPLINE
  5
9C
330
1F
100
AcDbEntity
  8
MAKE2D VISIBLE LINES
100
AcDbSpline
210
0.0
220
0.0
230
1.0
 70
    24
 71
     2
 72
     6
 73
     3
 74
     0
 42
0.0000000001
 43
0.0000000001
 40
0.0
 40
0.0
 40
0.0
 40
78.21500779975474
 40
78.21500779975474
 40
78.21500779975474
 10
1514.510513487214
 20
552.7475179678246
 30
0.0
 10
1553.53907246175
 20
555.2311535389315
 30
0.0
 10
1592.567631436286
 20
557.7147891100383
 30
0.0
  0
SPLINE
  5
9D
330
1F
100
AcDbEntity
  8
MAKE2D VISIBLE LINES
100
AcDbSpline
210
0.0
220
0.0
230
1.0
 70
    12
 71
     2
 72
     6
 73
     3
 74
     0
 42
0.0000000001
 43
0.0000000001
 40
0.0
 40
0.0
 40
0.0
 40
0.9847488654216855
 40
0.9847488654216855
 40
0.9847488654216855
 10
1543.545542212859
 20
581.2742348291624
 30
0.0
 41
1.0
 10
1543.805370777457
 20
580.8555333790604
 30
0.0
 41
0.9987978190890178
 10
1544.022950881879
 20
580.4134014016395
 30
0.0
 41
1.0
  0
SPLINE
  5
9E
330
1F
100
AcDbEntity
  8
MAKE2D VISIBLE LINES
100
AcDbSpline
210
0.0
220
0.0
230
1.0
 70
    12
 71
     2
 72
     6
 73
     3
 74
     0
 42
0.0000000001
 43
0.0000000001
 40
0.0
 40
0.0
 40
0.0
 40
0.0187567513236445
 40
0.0187567513236445
 40
0.0187567513236445
 10
1544.954472288218
 20
577.3755474758391
 30
0.0
 41
1.0
 10
1544.95576518079
 20
577.3662586432783
 30
0.0
 41
0.9999995609242373
 10
1544.957040662018
 20
577.3569674039002
 30
0.0
 41
1.0
  0
SPLINE
  5
9F
330
1F
100
AcDbEntity
  8
MAKE2D VISIBLE LINES
100
AcDbSpline
210
0.0
220
0.0
230
1.0
 70
    12
 71
     2
 72
     6
 73
     3
 74
     0
 42
0.0000000001
 43
0.0000000001
 40
0.0
 40
0.0
 40
0.0
 40
0.0201751468569389
 40
0.0201751468569389
 40
0.0201751468569389
 10
1545.007379860685
 20
576.9186577947489
 30
0.0
 41
1.0
 10
1545.008308965933
 20
576.9086130961109
 30
0.0
 41
0.9999994868957416
 10
1545.009217718336
 20
576.8985665356863
 30
0.0
 41
1.0
  0
SPLINE
  5
A0
330
1F
100
AcDbEntity
  8
MAKE2D VISIBLE LINES
100
AcDbSpline
210
0.0
220
0.0
230
1.0
 70
    12
 71
     2
 72
     6
 73
     3
 74
     0
 42
0.0000000001
 43
0.0000000001
 40
0.0
 40
0.0
 40
0.0
 40
0.4599833403257836
 40
0.4599833403257836
 40
0.4599833403257836
 10
1545.039132268707
 20
576.4598242970949
 30
0.0
 41
1.0
 10
1545.049693905013
 20
576.2300334087915
 30
0.0
 41
0.9997274091412066
 10
1545.049516849971
 20
576.0
 30
0.0
 41
1.0
  0
SPLINE
  5
A1
330
1F
100
AcDbEntity
  8
MAKE2D VISIBLE LINES
100
AcDbSpline
210
0.0
220
0.0
230
1.0
 70
    28
 71
     3
 72
    16
 73
    12
 74
     0
 42
0.0000000001
 43
0.0000000001
 40
84.02684076120204
 40
84.02684076120204
 40
84.02684076120204
 40
84.02684076120204
 40
86.54264364451242
 40
86.54264364451242
 40
86.54264364451242
 40
92.56708690481994
 40
98.9782726676382
 40
98.9782726676382
 40
98.9782726676382
 40
101.3353694901131
 40
103.8511723734252
 40
103.8511723734252
 40
103.8511723734252
 40
103.8511723734252
 10
1436.04951684997
 20
628.9251183503117
 30
0.0
 41
1.0
 10
1436.049516849971
 20
628.9062139920837
 30
0.0
 41
1.0
 10
1436.04951684997
 20
629.1974202058991
 30
0.0
 41
1.0
 10
1436.04951684997
 20
629.7392291997089
 30
0.0
 41
1.0
 10
1436.049516849971
 20
631.0272250245769
 30
0.0
 41
1.0
 10
1436.049516849971
 20
633.4250363995802
 30
0.0
 41
1.0
 10
1436.049516849971
 20
635.1916608323554
 30
0.0
 41
1.0
 10
1436.04951684997
 20
635.9258816518322
 30
0.0
 41
1.0
 10
1436.04951684997
 20
636.1930792450135
 30
0.0
 41
1.0
 10
1436.04951684997
 20
637.2883592795777
 30
0.0
 41
1.0
 10
1436.04951684997
 20
638.9870059054024
 30
0.0
 41
1.0
 10
1436.04951684997
 20
639.8133475478819
 30
0.0
 41
1.0
  0
SPLINE
  5
A2
330
1F
100
AcDbEntity
  8
MAKE2D VISIBLE LINES
100
AcDbSpline
210
0.0
220
0.0
230
1.0
 70
    24
 71
     2
 72
     6
 73
     3
 74
     0
 42
0.0000000001
 43
0.0000000001
 40
0.0
 40
0.0
 40
0.0
 40
22.15091369714395
 40
22.15091369714395
 40
22.15091369714395
 10
1456.04951684997
 20
666.0
 30
0.0
 10
1467.124973698542
 20
666.0
 30
0.0
 10
1478.200430547114
 20
666.0
 30
0.0
  0
SPLINE
  5
A3
330
1F
100
AcDbEntity
  8
MAKE2D VISIBLE LINES
100
AcDbSpline
210
0.0
220
0.0
230
1.0
 70
    24
 71
     2
 72
     6
 73
     3
 74
     0
 42
0.0000000001
 43
0.0000000001
 40
0.0
 40
0.0
 40
0.0
 40
78.21500775648504
 40
78.21500775648504
 40
78.21500775648504
 10
1592.567631430243
 20
594.2852108903463
 30
0.0
 10
1553.539072477298
 20
596.7688464600792
 30
0.0
 10
1514.510513524353
 20
599.2524820298121
 30
0.0
  0
SPLINE
  5
A4
330
1F
100
AcDbEntity
  8
MAKE2D VISIBLE LINES
100
AcDbSpline
210
0.0
220
0.0
230
1.0
 70
    12
 71
     2
 72
     6
 73
     3
 74
     0
 42
0.0000000001
 43
0.0000000001
 40
0.0
 40
0.0
 40
0.0
 40
0.5228281198895158
 40
0.5228281198895158
 40
0.5228281198895158
 10
1527.290573319332
 20
569.6913713623039
 30
0.0
 41
1.0
 10
1527.125729583657
 20
569.8943352010652
 30
0.0
 41
0.9996657785272308
 10
1526.971596765296
 20
570.1055480116139
 30
0.0
 41
1.0
  0
SPLINE
  5
A5
330
1F
100
AcDbEntity
  8
MAKE2D VISIBLE LINES
100
AcDbSpline
210
0.0
220
0.0
230
1.0
 70
    12
 71
     2
 72
     6
 73
     3
 74
     0
 42
0.0000000001
 43
0.0000000001
 40
0.0
 40
0.0
 40
0.0
 40
10.24404329327409
 40
10.24404329327409
 40
10.24404329327409
 10
1526.355602681305
 20
571.0586496373861
 30
0.0
 41
1.0
 10
1523.576399345103
 20
575.9466402665804
 30
0.0
 41
0.8715969676368982
 10
1526.310037176996
 20
580.8602588699205
 30
0.0
 41
1.0
  0
SPLINE
  5
A6
330
1F
100
AcDbEntity
  8
MAKE2D VISIBLE LINES
100
AcDbSpline
210
0.0
220
0.0
230
1.0
 70
    24
 71
     2
 72
     6
 73
     3
 74
     0
 42
0.0000000001
 43
0.0000000001
 40
0.0
 40
0.0
 40
0.0
 40
0.0241418274399946
 40
0.0241418274399946
 40
0.0241418274399946
 10
1592.588129713296
 20
594.283906454152
 30
0.0
 10
1592.600176259892
 20
594.2831398557322
 30
0.0
 10
1592.612222806489
 20
594.2823732573124
 30
0.0
  0
SPLINE
  5
A7
330
1F
100
AcDbEntity
  8
MAKE2D VISIBLE LINES
100
AcDbSpline
210
0.0
220
0.0
230
1.0
 70
    12
 71
     2
 72
     6
 73
     3
 74
     0
 42
0.0000000001
 43
0.0000000001
 40
0.0
 40
0.0
 40
0.0
 40
0.1104642619795109
 40
0.1104642619795109
 40
0.1104642619795109
 10
1526.355942220656
 20
580.9418511873426
 30
0.0
 41
1.0
 10
1526.383249382888
 20
580.9898612788361
 30
0.0
 41
0.9999848309202156
 10
1526.411083758207
 20
581.037567646807
 30
0.0
 41
1.0
  0
SPLINE
  5
A8
330
1F
100
AcDbEntity
  8
MAKE2D VISIBLE LINES
100
AcDbSpline
210
0.0
220
0.0
230
1.0
 70
    12
 71
     2
 72
     6
 73
     3
 74
     0
 42
0.0000000001
 43
0.0000000001
 40
0.0
 40
0.0
 40
0.0
 40
0.403021314754386
 40
0.403021314754386
 40
0.403021314754386
 10
1527.04286748649
 20
581.9910141891515
 30
0.0
 41
1.0
 10
1527.163602786486
 20
582.1523845614425
 30
0.0
 41
0.9997993824327427
 10
1527.290704361501
 20
582.3087898022341
 30
0.0
 41
1.0
  0
SPLINE
  5
A9
330
1F
100
AcDbEntity
  8
MAKE2D VISIBLE LINES
100
AcDbSpline
210
0.0
220
0.0
230
1.0
 70
    12
 71
     2
 72
     6
 73
     3
 74
     0
 42
0.0000000001
 43
0.0000000001
 40
0.0
 40
0.0
 40
0.0
 40
5.43947286674467
 40
5.43947286674467
 40
5.43947286674467
 10
1527.290704361501
 20
582.3087898022341
 30
0.0
 41
1.0
 10
1529.049946482104
 20
584.4727974980088
 30
0.0
 41
0.9632216911797409
 10
1531.675340141341
 20
585.4136323827344
 30
0.0
 41
1.0
  0
SPLINE
  5
AA
330
1F
100
AcDbEntity
  8
MAKE2D VISIBLE LINES
100
AcDbSpline
210
0.0
220
0.0
230
1.0
 70
    24
 71
     2
 72
     6
 73
     3
 74
     0
 42
0.0000000001
 43
0.0000000001
 40
0.0
 40
0.0
 40
0.0
 40
180.0
 40
180.0
 40
180.0
 10
1456.04951684997
 20
486.0
 30
0.0
 10
1456.04951684997
 20
576.0
 30
0.0
 10
1456.04951684997
 20
666.0
 30
0.0
  0
SPLINE
  5
AB
330
1F
100
AcDbEntity
  8
MAKE2D VISIBLE LINES
100
AcDbSpline
210
0.0
220
0.0
230
1.0
 70
    24
 71
     2
 72
     6
 73
     3
 74
     0
 42
0.0000000001
 43
0.0000000001
 40
0.0
 40
0.0
 40
0.0
 40
0.0241862203865155
 40
0.0241862203865155
 40
0.0241862203865155
 10
1592.588085409964
 20
557.7160907265451
 30
0.0
 10
1592.600154108226
 20
557.7168587346164
 30
0.0
 10
1592.612222806489
 20
557.7176267426876
 30
0.0
  0
SPLINE
  5
AC
330
1F
100
AcDbEntity
  8
MAKE2D VISIBLE LINES
100
AcDbSpline
210
0.0
220
0.0
230
1.0
 70
    12
 71
     2
 72
     6
 73
     3
 74
     0
 42
0.0000000001
 43
0.0000000001
 40
0.0
 40
0.0
 40
0.0
 40
0.8799622023981339
 40
0.8799622023981339
 40
0.8799622023981339
 10
1545.049516849971
 20
576.0
 30
0.0
 41
1.0
 10
1545.049788036603
 20
575.5597288051353
 30
0.0
 41
0.9990116622830828
 10
1545.010957753982
 20
575.1211732126256
 30
0.0
 41
1.0
  0
SPLINE
  5
AD
330
1F
100
AcDbEntity
  8
MAKE2D VISIBLE LINES
100
AcDbSpline
210
0.0
220
0.0
230
1.0
 70
    12
 71
     2
 72
     6
 73
     3
 74
     0
 42
0.0000000001
 43
0.0000000001
 40
0.0
 40
0.0
 40
0.0
 40
1.059771048484383
 40
1.059771048484383
 40
1.059771048484383
 10
1544.05578653303
 20
571.654011199701
 30
0.0
 41
1.0
 10
1543.825200541301
 20
571.1763793805029
 30
0.0
 41
0.9986044984812594
 10
1543.545522270007
 20
570.7257330459373
 30
0.0
 41
1.0
  0
SPLINE
  5
AE
330
1F
100
AcDbEntity
  8
MAKE2D VISIBLE LINES
100
AcDbSpline
210
0.0
220
0.0
230
1.0
 70
    12
 71
     2
 72
     6
 73
     3
 74
     0
 42
0.0000000001
 43
0.0000000001
 40
0.0
 40
0.0
 40
0.0
 40
5.441751006617169
 40
5.441751006617169
 40
5.441751006617169
 10
1527.290573319332
 20
569.6913713623039
 30
0.0
 41
1.0
 10
1529.050547436525
 20
567.5263769659834
 30
0.0
 41
0.9631912661213854
 10
1531.677291203504
 20
566.5856714796971
 30
0.0
 41
1.0
  0
SPLINE
  5
AF
330
1F
100
AcDbEntity
  8
MAKE2D VISIBLE LINES
100
AcDbSpline
210
0.0
220
0.0
230
1.0
 70
    24
 71
     2
 72
     6
 73
     3
 74
     0
 42
0.0000000001
 43
0.0000000001
 40
0.0
 40
0.0
 40
0.0
 40
31.50689873458919
 40
31.50689873458919
 40
31.50689873458919
 10
1514.049516849971
 20
471.3819660112501
 30
0.0
 10
1514.049516849971
 20
455.6285166439555
 30
0.0
 10
1514.049516849971
 20
439.875067276661
 30
0.0
  0
SPLINE
  5
B0
330
1F
100
AcDbEntity
  8
MAKE2D VISIBLE LINES
100
AcDbSpline
210
0.0
220
0.0
230
1.0
 70
    24
 71
     2
 72
     6
 73
     3
 74
     0
 42
0.0000000001
 43
0.0000000001
 40
0.0
 40
0.0
 40
0.0
 40
3.446317519362183
 40
3.446317519362183
 40
3.446317519362183
 10
1510.414250347334
 20
473.8176332513182
 30
0.0
 10
1511.955490396403
 20
473.0470132267839
 30
0.0
 10
1513.496730445471
 20
472.2763932022497
 30
0.0
  0
SPLINE
  5
B1
330
1F
100
AcDbEntity
  8
MAKE2D VISIBLE LINES
100
AcDbSpline
210
0.0
220
0.0
230
1.0
 70
    24
 71
     2
 72
     6
 73
     3
 74
     0
 42
0.0000000001
 43
0.0000000001
 40
0.0
 40
0.0
 40
0.0
 40
10.38196601125014
 40
10.38196601125014
 40
10.38196601125014
 10
1510.049516849971
 20
474.6180339887499
 30
0.0
 10
1510.049516849971
 20
479.8090169943749
 30
0.0
 10
1510.049516849971
 20
485.0
 30
0.0
  0
SPLINE
  5
B2
330
1F
100
AcDbEntity
  8
MAKE2D VISIBLE LINES
100
AcDbSpline
210
0.0
220
0.0
230
1.0
 70
    12
 71
     2
 72
     6
 73
     3
 74
     0
 42
0.0000000001
 43
0.0000000001
 40
0.0
 40
0.0
 40
0.0
 40
2.389780948457641
 40
2.389780948457641
 40
2.389780948457641
 10
1594.388482119227
 20
559.0990105251203
 30
0.0
 41
1.0
 10
1593.97029707694
 20
557.8040896284485
 30
0.0
 41
0.82678782595921
 10
1592.612275131824
 20
557.7176300725197
 30
0.0
 41
1.0
  0
SPLINE
  5
B3
330
1F
100
AcDbEntity
  8
MAKE2D VISIBLE LINES
100
AcDbSpline
210
0.0
220
0.0
230
1.0
 70
    12
 71
     2
 72
     6
 73
     3
 74
     0
 42
0.0000000001
 43
0.0000000001
 40
0.0
 40
0.0
 40
0.0
 40
0.0204951723535624
 40
0.0204951723535624
 40
0.0204951723535624
 10
1592.588078190815
 20
557.7161956776639
 30
0.0
 41
1.0
 10
1592.577858420528
 20
557.7154399612963
 30
0.0
 41
0.9999872197414237
 10
1592.567631531393
 20
557.7147876189341
 30
0.0
 41
1.0
  0
SPLINE
  5
B4
330
1F
100
AcDbEntity
  8
MAKE2D VISIBLE LINES
100
AcDbSpline
210
0.0
220
0.0
230
1.0
 70
    12
 71
     2
 72
     6
 73
     3
 74
     0
 42
0.0000000001
 43
0.0000000001
 40
0.0
 40
0.0
 40
0.0
 40
0.6777026221012643
 40
0.6777026221012643
 40
0.6777026221012643
 10
1454.182370121134
 20
488.8168295115881
 30
0.0
 41
1.0
 10
1454.097051268772
 20
488.4229509152218
 30
0.0
 41
0.777440881939661
 10
1453.694039790151
 20
488.4241355430225
 30
0.0
 41
1.0
  0
SPLINE
  5
B5
330
1F
100
AcDbEntity
  8
MAKE2D VISIBLE LINES
100
AcDbSpline
210
0.0
220
0.0
230
1.0
 70
    24
 71
     3
 72
     8
 73
     4
 74
     0
 42
0.0000000001
 43
0.0000000001
 40
0.0
 40
0.0
 40
0.0
 40
0.0
 40
64.00256036931877
 40
64.00256036931877
 40
64.00256036931877
 40
64.00256036931877
 10
1401.04951684997
 20
538.0012092393722
 30
0.0
 10
1401.04951684997
 20
516.6670224495992
 30
0.0
 10
1401.04951684997
 20
495.3328356598263
 30
0.0
 10
1401.049516849971
 20
473.9986488700534
 30
0.0
  0
SPLINE
  5
B6
330
1F
100
AcDbEntity
  8
MAKE2D VISIBLE LINES
100
AcDbSpline
210
0.0
220
0.0
230
1.0
 70
    24
 71
     2
 72
     6
 73
     3
 74
     0
 42
0.0000000001
 43
0.0000000001
 40
0.0
 40
0.0
 40
0.0
 40
23.26153410145119
 40
23.26153410145119
 40
23.26153410145119
 10
1436.04951684997
 20
639.8133475478819
 30
0.0
 10
1436.04951684997
 20
651.4441145986075
 30
0.0
 10
1436.04951684997
 20
663.0748816493331
 30
0.0
  0
SPLINE
  5
B7
330
1F
100
AcDbEntity
  8
MAKE2D VISIBLE LINES
100
AcDbSpline
210
0.0
220
0.0
230
1.0
 70
    12
 71
     2
 72
     6
 73
     3
 74
     0
 42
0.0000000001
 43
0.0000000001
 40
0.0
 40
0.0
 40
0.0
 40
5.272737226395608
 40
5.272737226395608
 40
5.272737226395608
 10
1454.182327191596
 20
523.183252534922
 30
0.0
 41
1.0
 10
1454.748803795535
 20
520.607484834813
 30
0.0
 41
0.9994570161249307
 10
1455.144401770376
 20
517.999999987295
 30
0.0
 41
1.0
  0
SPLINE
  5
B8
330
1F
100
AcDbEntity
  8
MAKE2D VISIBLE LINES
100
AcDbSpline
210
0.0
220
0.0
230
1.0
 70
    12
 71
     2
 72
     6
 73
     3
 74
     0
 42
0.0000000001
 43
0.0000000001
 40
0.0
 40
0.0
 40
0.0
 40
1.570823840986802
 40
1.570823840986802
 40
1.570823840986802
 10
1402.04951684997
 20
612.9987525262156
 30
0.0
 41
1.0
 10
1401.049501438929
 20
612.9987737295849
 30
0.0
 41
0.7071088290489942
 10
1401.049516849971
 20
613.998789140732
 30
0.0
 41
1.0
  0
SPLINE
  5
B9
330
1F
100
AcDbEntity
  8
MAKE2D VISIBLE LINES
100
AcDbSpline
210
0.0
220
0.0
230
1.0
 70
    12
 71
     2
 72
     6
 73
     3
 74
     0
 42
0.0000000001
 43
0.0000000001
 40
0.0
 40
0.0
 40
0.0
 40
0.8760085448586362
 40
0.8760085448586362
 40
0.8760085448586362
 10
1411.349363183515
 20
613.3584369366271
 30
0.0
 41
1.0
 10
1411.049425291172
 20
612.9988168094146
 30
0.0
 41
0.9057732733251862
 10
1410.581141903918
 20
612.9986061383995
 30
0.0
 41
1.0
  0
SPLINE
  5
BA
330
1F
100
AcDbEntity
  8
MAKE2D VISIBLE LINES
100
AcDbSpline
210
0.0
220
0.0
230
1.0
 70
    12
 71
     2
 72
     6
 73
     3
 74
     0
 42
0.0000000001
 43
0.0000000001
 40
0.0
 40
0.0
 40
0.0
 40
3.615950177460334
 40
3.615950177460334
 40
3.615950177460334
 10
1544.055788067076
 20
571.6540143805164
 30
0.0
 41
1.0
 10
1544.849929268327
 20
573.3003854931326
 30
0.0
 41
0.9837337271507245
 10
1545.010956487474
 20
575.1211733233519
 30
0.0
 41
1.0
  0
SPLINE
  5
BB
330
1F
100
AcDbEntity
  8
MAKE2D VISIBLE LINES
100
AcDbSpline
210
0.0
220
0.0
230
1.0
 70
    12
 71
     2
 72
     6
 73
     3
 74
     0
 42
0.0000000001
 43
0.0000000001
 40
0.0
 40
0.0
 40
0.0
 40
3.190970167265993
 40
3.190970167265993
 40
3.190970167265993
 10
1544.954477738516
 20
577.3755482320738
 30
0.0
 41
1.0
 10
1544.733016007159
 20
578.9693850931958
 30
0.0
 41
0.9873112359843393
 10
1544.02295284774
 20
580.4133974019946
 30
0.0
 41
1.0
  0
SPLINE
  5
BC
330
1F
100
AcDbEntity
  8
MAKE2D VISIBLE LINES
100
AcDbSpline
210
0.0
220
0.0
230
1.0
 70
    12
 71
     2
 72
     6
 73
     3
 74
     0
 42
0.0000000001
 43
0.0000000001
 40
0.0
 40
0.0
 40
0.0
 40
0.4412268718920722
 40
0.4412268718920722
 40
0.4412268718920722
 10
1545.007381650375
 20
576.9186579593392
 30
0.0
 41
1.0
 10
1544.987056201404
 20
577.1383691444396
 30
0.0
 41
0.9997559765445064
 10
1544.957045926546
 20
577.356968120048
 30
0.0
 41
1.0
  0
SPLINE
  5
BD
330
1F
100
AcDbEntity
  8
MAKE2D VISIBLE LINES
100
AcDbSpline
210
0.0
220
0.0
230
1.0
 70
    12
 71
     2
 72
     6
 73
     3
 74
     0
 42
0.0000000001
 43
0.0000000001
 40
0.0
 40
0.0
 40
0.0
 40
0.4397968901225833
 40
0.4397968901225833
 40
0.4397968901225833
 10
1545.039132454389
 20
576.4598243056087
 30
0.0
 41
1.0
 10
1545.029036453895
 20
576.6795268813031
 30
0.0
 41
0.9997546319202104
 10
1545.009219395092
 20
576.8985666840176
 30
0.0
 41
1.0
  0
SPLINE
  5
BE
330
1F
100
AcDbEntity
  8
MAKE2D VISIBLE LINES
100
AcDbSpline
210
0.0
220
0.0
230
1.0
 70
    24
 71
     2
 72
     6
 73
     3
 74
     0
 42
0.0000000001
 43
0.0000000001
 40
0.0
 40
0.0
 40
0.0
 40
23.2615341014512
 40
23.2615341014512
 40
23.2615341014512
 10
1436.04951684997
 20
512.1866524521181
 30
0.0
 10
1436.04951684997
 20
500.5558854013925
 30
0.0
 10
1436.04951684997
 20
488.9251183506669
 30
0.0
  0
SPLINE
  5
BF
330
1F
100
AcDbEntity
  8
MAKE2D VISIBLE LINES
100
AcDbSpline
210
0.0
220
0.0
230
1.0
 70
    12
 71
     2
 72
     6
 73
     3
 74
     0
 42
0.0000000001
 43
0.0000000001
 40
0.0
 40
0.0
 40
0.0
 40
17.1787824153093
 40
17.1787824153093
 40
17.1787824153093
 10
1597.049516849971
 20
576.0
 30
0.0
 41
1.0
 10
1597.049517014118
 20
567.3400908992451
 30
0.0
 41
0.9878300951455171
 10
1594.38843181793
 20
559.0991776481562
 30
0.0
 41
1.0
  0
SPLINE
  5
C0
330
1F
100
AcDbEntity
  8
MAKE2D VISIBLE LINES
100
AcDbSpline
210
0.0
220
0.0
230
1.0
 70
    12
 71
     2
 72
     6
 73
     3
 74
     0
 42
0.0000000001
 43
0.0000000001
 40
0.0
 40
0.0
 40
0.0
 40
0.6775771141409986
 40
0.6775771141409986
 40
0.6775771141409986
 10
1453.694077740508
 20
523.5758646279097
 30
0.0
 41
1.0
 10
1454.096987882934
 20
523.5770230080632
 30
0.0
 41
0.7775135805161881
 10
1454.182350940817
 20
523.1832577568492
 30
0.0
 41
1.0
  0
SPLINE
  5
C1
330
1F
100
AcDbEntity
  8
MAKE2D VISIBLE LINES
100
AcDbSpline
210
0.0
220
0.0
230
1.0
 70
    24
 71
     2
 72
     6
 73
     3
 74
     0
 42
0.0000000001
 43
0.0000000001
 40
0.0
 40
0.0
 40
0.0
 40
0.1622144778360735
 40
0.1622144778360735
 40
0.1622144778360735
 10
1487.04951684997
 20
436.2809638593072
 30
0.0
 10
1486.968409611052
 20
436.2809638593872
 30
0.0
 10
1486.887302372134
 20
436.2809638594672
 30
0.0
  0
SPLINE
  5
C2
330
1F
100
AcDbEntity
  8
MAKE2D VISIBLE LINES
100
AcDbSpline
210
0.0
220
0.0
230
1.0
 70
    24
 71
     2
 72
     6
 73
     3
 74
     0
 42
0.0000000001
 43
0.0000000001
 40
0.0
 40
0.0
 40
0.0
 40
0.0815820767676314
 40
0.0815820767676314
 40
0.0815820767676314
 10
1486.731252410713
 20
436.2809638595646
 30
0.0
 10
1486.690461372329
 20
436.2809638595875
 30
0.0
 10
1486.649670333945
 20
436.2809638596104
 30
0.0
  0
SPLINE
  5
C3
330
1F
100
AcDbEntity
  8
MAKE2D VISIBLE LINES
100
AcDbSpline
210
0.0
220
0.0
230
1.0
 70
    12
 71
     2
 72
     6
 73
     3
 74
     0
 42
0.0000000001
 43
0.0000000001
 40
0.0
 40
0.0
 40
0.0
 40
0.0137002021195571
 40
0.0137002021195571
 40
0.0137002021195571
 10
1478.84920282403
 20
436.2809638582413
 30
0.0
 41
1.0
 10
1478.842350523149
 20
436.2809844115976
 30
0.0
 41
0.9995117751266802
 10
1478.835512884583
 20
436.2814329075787
 30
0.0
 41
1.0
  0
SPLINE
  5
C4
330
1F
100
AcDbEntity
  8
MAKE2D VISIBLE LINES
100
AcDbSpline
210
0.0
220
0.0
230
1.0
 70
    12
 71
     2
 72
     6
 73
     3
 74
     0
 42
0.0000000001
 43
0.0000000001
 40
0.0
 40
0.0
 40
0.0
 40
0.1151665031812845
 40
0.1151665031812845
 40
0.1151665031812845
 10
1494.768773439152
 20
436.2809638585608
 30
0.0
 41
1.0
 10
1494.721335691288
 20
436.2454681097587
 30
0.0
 41
0.9583886451179284
 10
1494.662207040731
 20
436.2417143398382
 30
0.0
 41
1.0
  0
SPLINE
  5
C5
330
1F
100
AcDbEntity
  8
MAKE2D VISIBLE LINES
100
AcDbSpline
210
0.0
220
0.0
230
1.0
 70
    24
 71
     2
 72
     6
 73
     3
 74
     0
 42
0.0000000001
 43
0.0000000001
 40
0.0
 40
0.0
 40
0.0
 40
0.0815617657548273
 40
0.0815617657548273
 40
0.0815617657548273
 10
1487.449359553261
 20
436.2809638594164
 30
0.0
 10
1487.408578670383
 20
436.2809638594108
 30
0.0
 10
1487.367797787506
 20
436.2809638594051
 30
0.0
  0
SPLINE
  5
C6
330
1F
100
AcDbEntity
  8
MAKE2D VISIBLE LINES
100
AcDbSpline
210
0.0
220
0.0
230
1.0
 70
    12
 71
     2
 72
     6
 73
     3
 74
     0
 42
0.0000000001
 43
0.0000000001
 40
0.0
 40
0.0
 40
0.0
 40
0.0135501600304292
 40
0.0135501600304292
 40
0.0135501600304292
 10
1495.263206334644
 20
436.2814328826016
 30
0.0
 41
1.0
 10
1495.256443643666
 20
436.2809888669734
 30
0.0
 41
0.9995194372468587
 10
1495.249666434925
 20
436.2809647670064
 30
0.0
 41
1.0
  0
SPLINE
  5
C7
330
1F
100
AcDbEntity
  8
MAKE2D VISIBLE LINES
100
AcDbSpline
210
0.0
220
0.0
230
1.0
 70
    24
 71
     2
 72
     6
 73
     3
 74
     0
 42
0.0000000001
 43
0.0000000001
 40
0.0
 40
0.0
 40
0.0
 40
7.638870163324327
 40
7.638870163324327
 40
7.638870163324327
 10
1495.247948698988
 20
436.2809638594324
 30
0.0
 10
1491.428513617326
 20
436.2809638594322
 30
0.0
 10
1487.609078535664
 20
436.2809638594321
 30
0.0
  0
SPLINE
  5
C8
330
1F
100
AcDbEntity
  8
MAKE2D VISIBLE LINES
100
AcDbSpline
210
0.0
220
0.0
230
1.0
 70
    24
 71
     2
 72
     6
 73
     3
 74
     0
 42
0.0000000001
 43
0.0000000001
 40
0.0
 40
0.0
 40
0.0
 40
10.00000000000011
 40
10.00000000000011
 40
10.00000000000011
 10
1426.04951684997
 20
518.0
 30
0.0
 10
1431.049516849971
 20
518.0
 30
0.0
 10
1436.049516849971
 20
518.0
 30
0.0
  0
SPLINE
  5
C9
330
1F
100
AcDbEntity
  8
MAKE2D VISIBLE LINES
100
AcDbSpline
210
0.0
220
0.0
230
1.0
 70
    24
 71
     2
 72
     6
 73
     3
 74
     0
 42
0.0000000001
 43
0.0000000001
 40
0.0
 40
0.0
 40
0.0
 40
0.9051205144020287
 40
0.9051205144020287
 40
0.9051205144020287
 10
1456.04951684997
 20
494.0
 30
0.0
 10
1455.596956592769
 20
494.0
 30
0.0
 10
1455.144396335568
 20
494.0
 30
0.0
  0
SPLINE
  5
CA
330
1F
100
AcDbEntity
  8
MAKE2D VISIBLE LINES
100
AcDbSpline
210
0.0
220
0.0
230
1.0
 70
    24
 71
     2
 72
     6
 73
     3
 74
     0
 42
0.0000000001
 43
0.0000000001
 40
0.0
 40
0.0
 40
0.0
 40
0.9051150784005131
 40
0.9051150784005131
 40
0.9051150784005131
 10
1455.14440177157
 20
518.0
 30
0.0
 10
1455.59695931077
 20
518.0
 30
0.0
 10
1456.04951684997
 20
518.0
 30
0.0
  0
SPLINE
  5
CB
330
1F
100
AcDbEntity
  8
MAKE2D VISIBLE LINES
100
AcDbSpline
210
0.0
220
0.0
230
1.0
 70
    12
 71
     2
 72
     6
 73
     3
 74
     0
 42
0.0000000001
 43
0.0000000001
 40
0.0
 40
0.0
 40
0.0
 40
18.21158112440084
 40
18.21158112440084
 40
18.21158112440084
 10
1513.268004486483
 20
438.8992264270422
 30
0.0
 41
1.0
 10
1504.365117815891
 20
436.9058979985376
 30
0.0
 41
0.997122370221344
 10
1495.263206440951
 20
436.2814313332854
 30
0.0
 41
1.0
  0
SPLINE
  5
CC
330
1F
100
AcDbEntity
  8
MAKE2D VISIBLE LINES
100
AcDbSpline
210
0.0
220
0.0
230
1.0
 70
    12
 71
     2
 72
     6
 73
     3
 74
     0
 42
0.0000000001
 43
0.0000000001
 40
0.0
 40
0.0
 40
0.0
 40
18.21158112440073
 40
18.21158112440073
 40
18.21158112440073
 10
1495.263206440951
 20
715.7185686667146
 30
0.0
 41
1.0
 10
1504.365117815892
 20
715.094102001462
 30
0.0
 41
0.9971223702213453
 10
1513.268004486483
 20
713.1007735729579
 30
0.0
 41
1.0
  0
SPLINE
  5
CD
330
1F
100
AcDbEntity
  8
MAKE2D VISIBLE LINES
100
AcDbSpline
210
0.0
220
0.0
230
1.0
 70
    12
 71
     2
 72
     6
 73
     3
 74
     0
 42
0.0000000001
 43
0.0000000001
 40
0.0
 40
0.0
 40
0.0
 40
0.0137002021195609
 40
0.0137002021195609
 40
0.0137002021195609
 10
1478.835512884583
 20
715.7185670924214
 30
0.0
 41
1.0
 10
1478.842350523149
 20
715.7190155884026
 30
0.0
 41
0.9995117751255732
 10
1478.84920282403
 20
715.7190361417587
 30
0.0
 41
1.0
  0
SPLINE
  5
CE
330
1F
100
AcDbEntity
  8
MAKE2D VISIBLE LINES
100
AcDbSpline
210
0.0
220
0.0
230
1.0
 70
    24
 71
     2
 72
     6
 73
     3
 74
     0
 42
0.0000000001
 43
0.0000000001
 40
0.0
 40
0.0
 40
0.0
 40
8.200317073807128
 40
8.200317073807128
 40
8.200317073807128
 10
1487.04951684997
 20
715.7190361406928
 30
0.0
 10
1482.949358313067
 20
715.7190361412192
 30
0.0
 10
1478.849199776163
 20
715.7190361417456
 30
0.0
  0
SPLINE
  5
CF
330
1F
100
AcDbEntity
  8
MAKE2D VISIBLE LINES
100
AcDbSpline
210
0.0
220
0.0
230
1.0
 70
    12
 71
     2
 72
     6
 73
     3
 74
     0
 42
0.0000000001
 43
0.0000000001
 40
0.0
 40
0.0
 40
0.0
 40
0.1151702230553487
 40
0.1151702230553487
 40
0.1151702230553487
 10
1479.329967072564
 20
715.7190361419059
 30
0.0
 41
1.0
 10
1479.377406997274
 20
715.7545320137189
 30
0.0
 41
0.9583909736944072
 10
1479.436537475968
 20
715.7582856601622
 30
0.0
 41
1.0
  0
SPLINE
  5
D0
330
1F
100
AcDbEntity
  8
MAKE2D VISIBLE LINES
100
AcDbSpline
210
0.0
220
0.0
230
1.0
 70
    24
 71
     2
 72
     6
 73
     3
 74
     0
 42
0.0000000001
 43
0.0000000001
 40
0.0
 40
0.0
 40
0.0
 40
7.800474592627779
 40
7.800474592627779
 40
7.800474592627779
 10
1486.649670333925
 20
436.2809638596106
 30
0.0
 10
1482.749433037611
 20
436.2809638589002
 30
0.0
 10
1478.849195741297
 20
436.2809638581898
 30
0.0
  0
SPLINE
  5
D1
330
1F
100
AcDbEntity
  8
MAKE2D VISIBLE LINES
100
AcDbSpline
210
0.0
220
0.0
230
1.0
 70
    24
 71
     2
 72
     6
 73
     3
 74
     0
 42
0.0000000001
 43
0.0000000001
 40
0.0
 40
0.0
 40
0.0
 40
0.3182809376634168
 40
0.3182809376634168
 40
0.3182809376634168
 10
1487.367797787634
 20
436.2809638594051
 30
0.0
 10
1487.208657318802
 20
436.2809638593561
 30
0.0
 10
1487.049516849971
 20
436.2809638593072
 30
0.0
  0
SPLINE
  5
D2
330
1F
100
AcDbEntity
  8
MAKE2D VISIBLE LINES
100
AcDbSpline
210
0.0
220
0.0
230
1.0
 70
    12
 71
     2
 72
     6
 73
     3
 74
     0
 42
0.0000000001
 43
0.0000000001
 40
0.0
 40
0.0
 40
0.0
 40
0.1151551516250093
 40
0.1151551516250093
 40
0.1151551516250093
 10
1479.436537475968
 20
436.2417143398378
 30
0.0
 41
1.0
 10
1479.377489569569
 20
436.2457408943999
 30
0.0
 41
0.9597536639915522
 10
1479.329926860319
 20
436.2809638568058
 30
0.0
 41
1.0
  0
SPLINE
  5
D3
330
1F
100
AcDbEntity
  8
MAKE2D VISIBLE LINES
100
AcDbSpline
210
0.0
220
0.0
230
1.0
 70
    24
 71
     2
 72
     6
 73
     3
 74
     0
 42
0.0000000001
 43
0.0000000001
 40
0.0
 40
0.0
 40
0.0
 40
0.1597189823270355
 40
0.1597189823270355
 40
0.1597189823270355
 10
1487.609078535588
 20
436.2809638594321
 30
0.0
 10
1487.529219044425
 20
436.2809638594253
 30
0.0
 10
1487.449359553261
 20
436.2809638594185
 30
0.0
  0
SPLINE
  5
D4
330
1F
100
AcDbEntity
  8
MAKE2D VISIBLE LINES
100
AcDbSpline
210
0.0
220
0.0
230
1.0
 70
    24
 71
     3
 72
     8
 73
     4
 74
     0
 42
0.0000000001
 43
0.0000000001
 40
0.0
 40
0.0
 40
0.0
 40
0.0
 40
29.27707133651634
 40
29.27707133651634
 40
29.27707133651634
 40
29.27707133651634
 10
1426.049516849971
 20
631.3614967846631
 30
0.0
 10
1426.04951684997
 20
641.120520563502
 30
0.0
 10
1426.04951684997
 20
650.8795443423408
 30
0.0
 10
1426.049516849971
 20
660.6385681211794
 30
0.0
  0
SPLINE
  5
D5
330
1F
100
AcDbEntity
  8
MAKE2D VISIBLE LINES
100
AcDbSpline
210
0.0
220
0.0
230
1.0
 70
    28
 71
     3
 72
    16
 73
    12
 74
     0
 42
0.0000000001
 43
0.0000000001
 40
84.02684076120204
 40
84.02684076120204
 40
84.02684076120204
 40
84.02684076120204
 40
86.54264364451242
 40
86.54264364451242
 40
86.54264364451242
 40
92.56708690481994
 40
98.9782726676382
 40
98.9782726676382
 40
98.9782726676382
 40
101.3353694901131
 40
103.8511723734252
 40
103.8511723734252
 40
103.8511723734252
 40
103.8511723734252
 10
1436.04951684997
 20
523.0748816496883
 30
0.0
 41
1.0
 10
1436.049516849971
 20
523.0937860079163
 30
0.0
 41
1.0
 10
1436.04951684997
 20
522.8025797941009
 30
0.0
 41
1.0
 10
1436.04951684997
 20
522.2607708002911
 30
0.0
 41
1.0
 10
1436.049516849971
 20
520.9727749754231
 30
0.0
 41
1.0
 10
1436.049516849971
 20
518.5749636004198
 30
0.0
 41
1.0
 10
1436.049516849971
 20
516.8083391676446
 30
0.0
 41
1.0
 10
1436.04951684997
 20
516.0741183481678
 30
0.0
 41
1.0
 10
1436.04951684997
 20
515.8069207549865
 30
0.0
 41
1.0
 10
1436.04951684997
 20
514.7116407204223
 30
0.0
 41
1.0
 10
1436.04951684997
 20
513.0129940945976
 30
0.0
 41
1.0
 10
1436.04951684997
 20
512.1866524521181
 30
0.0
 41
1.0
  0
SPLINE
  5
D6
330
1F
100
AcDbEntity
  8
MAKE2D VISIBLE LINES
100
AcDbSpline
210
0.0
220
0.0
230
1.0
 70
    24
 71
     2
 72
     6
 73
     3
 74
     0
 42
0.0000000001
 43
0.0000000001
 40
0.0
 40
0.0
 40
0.0
 40
45.94870670511477
 40
45.94870670511477
 40
45.94870670511477
 10
1464.049516849971
 20
667.0
 30
0.0
 10
1464.049516849971
 20
689.9743533525574
 30
0.0
 10
1464.049516849971
 20
712.9487067051148
 30
0.0
  0
SPLINE
  5
D7
330
1F
100
AcDbEntity
  8
MAKE2D VISIBLE LINES
100
AcDbSpline
210
0.0
220
0.0
230
1.0
 70
    24
 71
     2
 72
     6
 73
     3
 74
     0
 42
0.0000000001
 43
0.0000000001
 40
0.0
 40
0.0
 40
0.0
 40
0.1560499615022763
 40
0.1560499615022763
 40
0.1560499615022763
 10
1486.887302372145
 20
436.2809638594608
 30
0.0
 10
1486.809277391394
 20
436.2809638595147
 30
0.0
 10
1486.731252410643
 20
436.2809638595686
 30
0.0
  0
SPLINE
  5
D8
330
1F
100
AcDbEntity
  8
MAKE2D VISIBLE LINES
100
AcDbSpline
210
0.0
220
0.0
230
1.0
 70
    24
 71
     2
 72
     6
 73
     3
 74
     0
 42
0.0000000001
 43
0.0000000001
 40
0.0
 40
0.0
 40
0.0
 40
22.60032414724195
 40
22.60032414724195
 40
22.60032414724195
 10
1425.817738129568
 20
490.7218655355167
 30
0.0
 10
1418.583550656355
 20
482.0408405676619
 30
0.0
 10
1411.349363183143
 20
473.3598155998071
 30
0.0
  0
SPLINE
  5
D9
330
1F
100
AcDbEntity
  8
MAKE2D VISIBLE LINES
100
AcDbSpline
210
0.0
220
0.0
230
1.0
 70
    24
 71
     2
 72
     6
 73
     3
 74
     0
 42
0.0000000001
 43
0.0000000001
 40
0.0
 40
0.0
 40
0.0
 40
8.531625054015592
 40
8.531625054015592
 40
8.531625054015592
 10
1410.581141903986
 20
473.0
 30
0.0
 10
1406.315329376978
 20
473.0
 30
0.0
 10
1402.04951684997
 20
473.0
 30
0.0
  0
SPLINE
  5
DA
330
1F
100
AcDbEntity
  8
MAKE2D VISIBLE LINES
100
AcDbSpline
210
0.0
220
0.0
230
1.0
 70
    24
 71
     2
 72
     6
 73
     3
 74
     0
 42
0.0000000001
 43
0.0000000001
 40
0.0
 40
0.0
 40
0.0
 40
22.60032414724196
 40
22.60032414724196
 40
22.60032414724196
 10
1411.349363183143
 20
538.640184400193
 30
0.0
 10
1418.583550656355
 20
529.9591594323381
 30
0.0
 10
1425.817738129568
 20
521.2781344644833
 30
0.0
  0
SPLINE
  5
DB
330
1F
100
AcDbEntity
  8
MAKE2D VISIBLE LINES
100
AcDbSpline
210
0.0
220
0.0
230
1.0
 70
    24
 71
     2
 72
     6
 73
     3
 74
     0
 42
0.0000000001
 43
0.0000000001
 40
0.0
 40
0.0
 40
0.0
 40
9.999999999999943
 40
9.999999999999943
 40
9.999999999999943
 10
1436.04951684997
 20
494.0
 30
0.0
 10
1431.04951684997
 20
494.0
 30
0.0
 10
1426.04951684997
 20
494.0
 30
0.0
  0
SPLINE
  5
DC
330
1F
100
AcDbEntity
  8
MAKE2D VISIBLE LINES
100
AcDbSpline
210
0.0
220
0.0
230
1.0
 70
    24
 71
     2
 72
     6
 73
     3
 74
     0
 42
0.0000000001
 43
0.0000000001
 40
0.0
 40
0.0
 40
0.0
 40
8.531625054015592
 40
8.531625054015592
 40
8.531625054015592
 10
1402.04951684997
 20
539.0
 30
0.0
 10
1406.315329376978
 20
539.0
 30
0.0
 10
1410.581141903986
 20
539.0
 30
0.0
  0
SPLINE
  5
DD
330
1F
100
AcDbEntity
  8
MAKE2D VISIBLE LINES
100
AcDbSpline
210
0.0
220
0.0
230
1.0
 70
    12
 71
     2
 72
     6
 73
     3
 74
     0
 42
0.0000000001
 43
0.0000000001
 40
0.0
 40
0.0
 40
0.0
 40
7.314370581061367
 40
7.314370581061367
 40
7.314370581061367
 10
1510.049380876818
 20
604.2281027713194
 30
0.0
 41
1.0
 10
1510.049564002017
 20
599.7405602746812
 30
0.0
 41
0.7442156826248117
 10
1514.511017369157
 20
599.2573713411365
 30
0.0
 41
1.0
  0
SPLINE
  5
DE
330
1F
100
AcDbEntity
  8
MAKE2D VISIBLE LINES
100
AcDbSpline
210
0.0
220
0.0
230
1.0
 70
    12
 71
     2
 72
     6
 73
     3
 74
     0
 42
0.0000000001
 43
0.0000000001
 40
0.0
 40
0.0
 40
0.0
 40
1.107127960463163
 40
1.107127960463163
 40
1.107127960463163
 10
1513.496761537811
 20
472.2763776560612
 30
0.0
 41
1.0
 10
1514.049518900528
 20
471.9999772474177
 30
0.0
 41
0.8506729167415558
 10
1514.04955144685
 20
471.3819660121825
 30
0.0
 41
1.0
  0
SPLINE
  5
DF
330
1F
100
AcDbEntity
  8
MAKE2D VISIBLE LINES
100
AcDbSpline
210
0.0
220
0.0
230
1.0
 70
    12
 71
     2
 72
     6
 73
     3
 74
     0
 42
0.0000000001
 43
0.0000000001
 40
0.0
 40
0.0
 40
0.0
 40
7.314368747211322
 40
7.314368747211322
 40
7.314368747211322
 10
1514.51101734167
 20
552.7426271790314
 30
0.0
 41
1.0
 10
1510.049566125307
 20
552.259437651497
 30
0.0
 41
0.7442159018269471
 10
1510.049380876899
 20
547.7718972292627
 30
0.0
 41
1.0
  0
SPLINE
  5
E0
330
1F
100
AcDbEntity
  8
MAKE2D VISIBLE LINES
100
AcDbSpline
210
0.0
220
0.0
230
1.0
 70
    24
 71
     2
 72
     6
 73
     3
 74
     0
 42
0.0000000001
 43
0.0000000001
 40
0.0
 40
0.0
 40
0.0
 40
45.9487067051148
 40
45.9487067051148
 40
45.9487067051148
 10
1464.049516849971
 20
439.0512932948852
 30
0.0
 10
1464.049516849971
 20
462.0256466474426
 30
0.0
 10
1464.049516849971
 20
485.0
 30
0.0
  0
SPLINE
  5
E1
330
1F
100
AcDbEntity
  8
MAKE2D VISIBLE LINES
100
AcDbSpline
210
0.0
220
0.0
230
1.0
 70
    12
 71
     2
 72
     6
 73
     3
 74
     0
 42
0.0000000001
 43
0.0000000001
 40
0.0
 40
0.0
 40
0.0
 40
0.9739767322039586
 40
0.9739767322039586
 40
0.9739767322039586
 10
1510.049517143936
 20
474.6180338353025
 30
0.0
 41
1.0
 10
1510.049606822785
 20
474.0885357697465
 30
0.0
 41
0.8838136350105779
 10
1510.487533727897
 20
473.7908980113069
 30
0.0
 41
1.0
  0
SPLINE
  5
E2
330
1F
100
AcDbEntity
  8
MAKE2D VISIBLE LINES
100
AcDbSpline
210
0.0
220
0.0
230
1.0
 70
    12
 71
     2
 72
     6
 73
     3
 74
     0
 42
0.0000000001
 43
0.0000000001
 40
0.0
 40
0.0
 40
0.0
 40
1.440813434015905
 40
1.440813434015905
 40
1.440813434015905
 10
1464.04853531939
 20
485.0
 30
0.0
 41
1.0
 10
1464.048572700972
 20
485.8777706464314
 30
0.0
 41
0.751557910109512
 10
1464.918936372063
 20
485.991561635438
 30
0.0
 41
1.0
  0
SPLINE
  5
E3
330
1F
100
AcDbEntity
  8
MAKE2D VISIBLE LINES
100
AcDbSpline
210
0.0
220
0.0
230
1.0
 70
    12
 71
     2
 72
     6
 73
     3
 74
     0
 42
0.0000000001
 43
0.0000000001
 40
0.0
 40
0.0
 40
0.0
 40
1.57079568662934
 40
1.57079568662934
 40
1.57079568662934
 10
1509.04952351661
 20
485.9999999999999
 30
0.0
 41
1.0
 10
1510.049521987972
 20
485.9999984713619
 30
0.0
 41
0.7071078719658662
 10
1510.049523544521
 20
485.0
 30
0.0
 41
1.0
  0
SPLINE
  5
E4
330
1F
100
AcDbEntity
  8
MAKE2D VISIBLE LINES
100
AcDbSpline
210
0.0
220
0.0
230
1.0
 70
    12
 71
     2
 72
     6
 73
     3
 74
     0
 42
0.0000000001
 43
0.0000000001
 40
0.0
 40
0.0
 40
0.0
 40
1.384874927637429
 40
1.384874927637429
 40
1.384874927637429
 10
1464.863793234211
 20
438.068531053671
 30
0.0
 41
1.0
 10
1464.048650109776
 20
438.2218556814436
 30
0.0
 41
0.7696981482165487
 10
1464.048635965055
 20
439.0512932948871
 30
0.0
 41
1.0
  0
SPLINE
  5
E5
330
1F
100
AcDbEntity
  8
MAKE2D VISIBLE LINES
100
AcDbSpline
210
0.0
220
0.0
230
1.0
 70
    12
 71
     2
 72
     6
 73
     3
 74
     0
 42
0.0000000001
 43
0.0000000001
 40
0.0
 40
0.0
 40
0.0
 40
0.694307100150608
 40
0.694307100150608
 40
0.694307100150608
 10
1425.818022197151
 20
521.2783709623753
 30
0.0
 41
1.0
 10
1426.049477717988
 20
521.0002991982604
 30
0.0
 41
0.9403878603572292
 10
1426.04951684997
 20
520.6385042803959
 30
0.0
 41
1.0
  0
SPLINE
  5
E6
330
1F
100
AcDbEntity
  8
MAKE2D VISIBLE LINES
100
AcDbSpline
210
0.0
220
0.0
230
1.0
 70
    12
 71
     2
 72
     6
 73
     3
 74
     0
 42
0.0000000001
 43
0.0000000001
 40
0.0
 40
0.0
 40
0.0
 40
0.694275018025913
 40
0.694275018025913
 40
0.694275018025913
 10
1426.049516849968
 20
491.3614293382165
 30
0.0
 41
1.0
 10
1426.049561460607
 20
490.9996329834312
 30
0.0
 41
0.9403182158897617
 10
1425.818055535575
 20
490.7216013107734
 30
0.0
 41
1.0
  0
SPLINE
  5
E7
330
1F
100
AcDbEntity
  8
MAKE2D VISIBLE LINES
100
AcDbSpline
210
0.0
220
0.0
230
1.0
 70
    12
 71
     2
 72
     6
 73
     3
 74
     0
 42
0.0000000001
 43
0.0000000001
 40
0.0
 40
0.0
 40
0.0
 40
1.570827529853798
 40
1.570827529853798
 40
1.570827529853798
 10
1402.04951684997
 20
472.9986061384005
 30
0.0
 41
1.0
 10
1401.04949901794
 20
472.9986295628764
 30
0.0
 41
0.7071087583764357
 10
1401.049516849971
 20
473.9986473950219
 30
0.0
 41
1.0
  0
SPLINE
  5
E8
330
1F
100
AcDbEntity
  8
MAKE2D VISIBLE LINES
100
AcDbSpline
210
0.0
220
0.0
230
1.0
 70
    12
 71
     2
 72
     6
 73
     3
 74
     0
 42
0.0000000001
 43
0.0000000001
 40
0.0
 40
0.0
 40
0.0
 40
1.144388651016978
 40
1.144388651016978
 40
1.144388651016978
 10
1527.042887351593
 20
581.9909993306492
 30
0.0
 41
1.0
 10
1526.699780659173
 20
581.5323111816288
 30
0.0
 41
0.9983754737797986
 10
1526.411086415363
 20
581.037566142214
 30
0.0
 41
1.0
  0
SPLINE
  5
E9
330
1F
100
AcDbEntity
  8
MAKE2D VISIBLE LINES
100
AcDbSpline
210
0.0
220
0.0
230
1.0
 70
    24
 71
     3
 72
     8
 73
     4
 74
     0
 42
0.0000000001
 43
0.0000000001
 40
0.0
 40
0.0
 40
0.0
 40
0.0
 40
64.00256036931879
 40
64.00256036931879
 40
64.00256036931879
 40
64.00256036931879
 10
1401.04951684997
 20
613.9987907606278
 30
0.0
 10
1401.049516849971
 20
635.3329775504005
 30
0.0
 10
1401.049516849971
 20
656.6671643401735
 30
0.0
 10
1401.049516849971
 20
678.0013511299466
 30
0.0
  0
SPLINE
  5
EA
330
1F
100
AcDbEntity
  8
MAKE2D VISIBLE LINES
100
AcDbSpline
210
0.0
220
0.0
230
1.0
 70
    12
 71
     2
 72
     6
 73
     3
 74
     0
 42
0.0000000001
 43
0.0000000001
 40
0.0
 40
0.0
 40
0.0
 40
9.18984273015018
 40
9.18984273015018
 40
9.18984273015018
 10
1540.487022830109
 20
584.3944177147954
 30
0.0
 41
1.0
 10
1536.333080319205
 20
587.0818317987556
 30
0.0
 41
0.8964618329071355
 10
1531.675340142679
 20
585.4136323830575
 30
0.0
 41
1.0
  0
SPLINE
  5
EB
330
1F
100
AcDbEntity
  8
MAKE2D VISIBLE LINES
100
AcDbSpline
210
0.0
220
0.0
230
1.0
 70
    12
 71
     2
 72
     6
 73
     3
 74
     0
 42
0.0000000001
 43
0.0000000001
 40
0.0
 40
0.0
 40
0.0
 40
9.191199863282817
 40
9.191199863282817
 40
9.191199863282817
 10
1531.677291205694
 20
566.5856714808257
 30
0.0
 41
1.0
 10
1536.336185617211
 20
564.9185251815048
 30
0.0
 41
0.8964615390397697
 10
1540.48998883217
 20
567.6075013384082
 30
0.0
 41
1.0
  0
SPLINE
  5
EC
330
1F
100
AcDbEntity
  8
MAKE2D VISIBLE LINES
100
AcDbSpline
210
0.0
220
0.0
230
1.0
 70
    12
 71
     2
 72
     6
 73
     3
 74
     0
 42
0.0000000001
 43
0.0000000001
 40
0.0
 40
0.0
 40
0.0
 40
0.093619672045145
 40
0.093619672045145
 40
0.093619672045145
 10
1526.355942821277
 20
580.9418508480253
 30
0.0
 41
1.0
 10
1526.332799179031
 20
580.9011622190089
 30
0.0
 41
0.9999890610298685
 10
1526.310037177097
 20
580.8602588698112
 30
0.0
 41
1.0
  0
SPLINE
  5
ED
330
1F
100
AcDbEntity
  8
MAKE2D VISIBLE LINES
100
AcDbSpline
210
0.0
220
0.0
230
1.0
 70
    24
 71
     2
 72
     6
 73
     3
 74
     0
 42
0.0000000001
 43
0.0000000001
 40
0.0
 40
0.0
 40
0.0
 40
61.77189722333026
 40
61.77189722333026
 40
61.77189722333026
 10
1510.049516849971
 20
547.7718972233303
 30
0.0
 10
1510.049516849971
 20
516.8859486116651
 30
0.0
 10
1510.049516849971
 20
486.0
 30
0.0
  0
SPLINE
  5
EE
330
1F
100
AcDbEntity
  8
MAKE2D VISIBLE LINES
100
AcDbSpline
210
0.0
220
0.0
230
1.0
 70
    24
 71
     2
 72
     6
 73
     3
 74
     0
 42
0.0000000001
 43
0.0000000001
 40
0.0
 40
0.0
 40
0.0
 40
61.77189722269924
 40
61.77189722269924
 40
61.77189722269924
 10
1510.049516849971
 20
666.0
 30
0.0
 10
1510.049516849971
 20
635.1140513886504
 30
0.0
 10
1510.049516849971
 20
604.2281027773008
 30
0.0
  0
SPLINE
  5
EF
330
1F
100
AcDbEntity
  8
MAKE2D VISIBLE LINES
100
AcDbSpline
210
0.0
220
0.0
230
1.0
 70
    12
 71
     2
 72
     6
 73
     3
 74
     0
 42
0.0000000001
 43
0.0000000001
 40
0.0
 40
0.0
 40
0.0
 40
1.135438594402344
 40
1.135438594402344
 40
1.135438594402344
 10
1526.355602685146
 20
571.0586496354326
 30
0.0
 41
1.0
 10
1526.636654832415
 20
570.5646842630233
 30
0.0
 41
0.9984049109421175
 10
1526.971603940867
 20
570.1055533520941
 30
0.0
 41
1.0
  0
SPLINE
  5
F0
330
1F
100
AcDbEntity
  8
MAKE2D VISIBLE LINES
100
AcDbSpline
210
0.0
220
0.0
230
1.0
 70
    12
 71
     2
 72
     6
 73
     3
 74
     0
 42
0.0000000001
 43
0.0000000001
 40
0.0
 40
0.0
 40
0.0
 40
0.677575300368444
 40
0.677575300368444
 40
0.677575300368444
 10
1454.182350940774
 20
628.8167422431302
 30
0.0
 41
1.0
 10
1454.096984169962
 20
628.4229816102791
 30
0.0
 41
0.7775207717332798
 10
1453.694077741153
 20
628.4241353721065
 30
0.0
 41
1.0
  0
SPLINE
  5
F1
330
1F
100
AcDbEntity
  8
MAKE2D VISIBLE LINES
100
AcDbSpline
210
0.0
220
0.0
230
1.0
 70
    12
 71
     2
 72
     6
 73
     3
 74
     0
 42
0.0000000001
 43
0.0000000001
 40
0.0
 40
0.0
 40
0.0
 40
0.6777044300101324
 40
0.6777044300101324
 40
0.6777044300101324
 10
1453.694039790151
 20
663.5758644569775
 30
0.0
 41
1.0
 10
1454.09705497141
 20
663.5770536891531
 30
0.0
 41
0.7774337132288587
 10
1454.182370121134
 20
663.1831704884119
 30
0.0
 41
1.0
  0
SPLINE
  5
F2
330
1F
100
AcDbEntity
  8
MAKE2D VISIBLE LINES
100
AcDbSpline
210
0.0
220
0.0
230
1.0
 70
    12
 71
     2
 72
     6
 73
     3
 74
     0
 42
0.0000000001
 43
0.0000000001
 40
0.0
 40
0.0
 40
0.0
 40
0.7854628264387402
 40
0.7854628264387402
 40
0.7854628264387402
 10
1436.049516849971
 20
663.0757483694463
 30
0.0
 41
1.0
 10
1436.049477980476
 20
663.5757872394709
 30
0.0
 41
0.7071112452319099
 10
1436.549516849971
 20
663.5758324225894
 30
0.0
 41
1.0
  0
SPLINE
  5
F3
330
1F
100
AcDbEntity
  8
MAKE2D VISIBLE LINES
100
AcDbSpline
210
0.0
220
0.0
230
1.0
 70
    12
 71
     2
 72
     6
 73
     3
 74
     0
 42
0.0000000001
 43
0.0000000001
 40
0.0
 40
0.0
 40
0.0
 40
1.350531977076491
 40
1.350531977076491
 40
1.350531977076491
 10
1514.049518763368
 20
439.8750672766639
 30
0.0
 41
1.0
 10
1514.049517693355
 20
439.0742062030751
 30
0.0
 41
0.7805412080412029
 10
1513.268005688665
 20
438.8992277880745
 30
0.0
 41
1.0
  0
SPLINE
  5
F4
330
1F
100
AcDbEntity
  8
MAKE2D VISIBLE LINES
100
AcDbSpline
210
0.0
220
0.0
230
1.0
 70
    24
 71
     2
 72
     6
 73
     3
 74
     0
 42
0.0000000001
 43
0.0000000001
 40
0.0
 40
0.0
 40
0.0
 40
3.446317519362189
 40
3.446317519362189
 40
3.446317519362189
 10
1510.414250347334
 20
678.1823667486818
 30
0.0
 10
1511.955490396403
 20
678.952986773216
 30
0.0
 10
1513.496730445471
 20
679.7236067977503
 30
0.0
  0
SPLINE
  5
F5
330
1F
100
AcDbEntity
  8
MAKE2D VISIBLE LINES
100
AcDbSpline
210
0.0
220
0.0
230
1.0
 70
    24
 71
     2
 72
     6
 73
     3
 74
     0
 42
0.0000000001
 43
0.0000000001
 40
0.0
 40
0.0
 40
0.0
 40
10.38196601125014
 40
10.38196601125014
 40
10.38196601125014
 10
1510.049516849971
 20
677.3819660112501
 30
0.0
 10
1510.049516849971
 20
672.1909830056251
 30
0.0
 10
1510.049516849971
 20
667.0
 30
0.0
  0
SPLINE
  5
F6
330
1F
100
AcDbEntity
  8
MAKE2D VISIBLE LINES
100
AcDbSpline
210
0.0
220
0.0
230
1.0
 70
    12
 71
     2
 72
     6
 73
     3
 74
     0
 42
0.0000000001
 43
0.0000000001
 40
0.0
 40
0.0
 40
0.0
 40
0.0912179742160745
 40
0.0912179742160745
 40
0.0912179742160745
 10
1510.3322077958
 20
473.8636987835594
 30
0.0
 41
1.0
 10
1510.370891004176
 20
473.8394730005139
 30
0.0
 41
0.9988841203796974
 10
1510.411687378208
 20
473.8190050978301
 30
0.0
 41
1.0
  0
SPLINE
  5
F7
330
1F
100
AcDbEntity
  8
MAKE2D VISIBLE LINES
100
AcDbSpline
210
0.0
220
0.0
230
1.0
 70
    24
 71
     2
 72
     6
 73
     3
 74
     0
 42
0.0000000001
 43
0.0000000001
 40
0.0
 40
0.0
 40
0.0
 40
17.14456406482032
 40
17.14456406482032
 40
17.14456406482032
 10
1453.694080914791
 20
628.4248457587789
 30
0.0
 10
1445.121798882381
 20
628.4248457587789
 30
0.0
 10
1436.54951684997
 20
628.4248457587788
 30
0.0
  0
SPLINE
  5
F8
330
1F
100
AcDbEntity
  8
MAKE2D VISIBLE LINES
100
AcDbSpline
210
0.0
220
0.0
230
1.0
 70
    12
 71
     2
 72
     6
 73
     3
 74
     0
 42
0.0000000001
 43
0.0000000001
 40
0.0
 40
0.0
 40
0.0
 40
0.8759833196609157
 40
0.8759833196609157
 40
0.8759833196609157
 10
1410.581141903918
 20
539.0013938616005
 30
0.0
 41
1.0
 10
1411.049382548748
 20
539.0010919375854
 30
0.0
 41
0.9058558584060766
 10
1411.349363183515
 20
538.6415630633729
 30
0.0
 41
1.0
  0
SPLINE
  5
F9
330
1F
100
AcDbEntity
  8
MAKE2D VISIBLE LINES
100
AcDbSpline
210
0.0
220
0.0
230
1.0
 70
    12
 71
     2
 72
     6
 73
     3
 74
     0
 42
0.0000000001
 43
0.0000000001
 40
0.0
 40
0.0
 40
0.0
 40
1.570824215298154
 40
1.570824215298154
 40
1.570824215298154
 10
1401.049516849971
 20
538.001210859268
 30
0.0
 41
1.0
 10
1401.049500566807
 20
539.0012271425052
 30
0.0
 41
0.7071082123866539
 10
1402.04951684997
 20
539.0012474737842
 30
0.0
 41
1.0
  0
SPLINE
  5
FA
330
1F
100
AcDbEntity
  8
MAKE2D VISIBLE LINES
100
AcDbSpline
210
0.0
220
0.0
230
1.0
 70
    12
 71
     2
 72
     6
 73
     3
 74
     0
 42
0.0000000001
 43
0.0000000001
 40
0.0
 40
0.0
 40
0.0
 40
7.618094008887878
 40
7.618094008887878
 40
7.618094008887878
 10
1487.04951684997
 20
436.0
 30
0.0
 41
1.0
 10
1483.239190236708
 20
436.0000088154436
 30
0.0
 41
0.9994963362975141
 10
1479.436538742323
 20
436.2417328565884
 30
0.0
 41
1.0
  0
SPLINE
  5
FB
330
1F
100
AcDbEntity
  8
MAKE2D VISIBLE LINES
100
AcDbSpline
210
0.0
220
0.0
230
1.0
 70
    12
 71
     2
 72
     6
 73
     3
 74
     0
 42
0.0000000001
 43
0.0000000001
 40
0.0
 40
0.0
 40
0.0
 40
5.272645634414055
 40
5.272645634414055
 40
5.272645634414055
 10
1454.182344655051
 20
663.1831638627608
 30
0.0
 41
1.0
 10
1454.748799364007
 20
660.6074384603581
 30
0.0
 41
0.9994571302177861
 10
1455.14439633554
 20
658.0000000004911
 30
0.0
 41
1.0
  0
SPLINE
  5
FC
330
1F
100
AcDbEntity
  8
MAKE2D VISIBLE LINES
100
AcDbSpline
210
0.0
220
0.0
230
1.0
 70
    12
 71
     2
 72
     6
 73
     3
 74
     0
 42
0.0000000001
 43
0.0000000001
 40
0.0
 40
0.0
 40
0.0
 40
7.61780346276045
 40
7.61780346276045
 40
7.61780346276045
 10
1494.662204675913
 20
436.2417141371341
 30
0.0
 41
1.0
 10
1490.859698373802
 20
435.9999930850811
 30
0.0
 41
0.999496244851618
 10
1487.049516849971
 20
436.0
 30
0.0
 41
1.0
  0
SPLINE
  5
FD
330
1F
100
AcDbEntity
  8
MAKE2D VISIBLE LINES
100
AcDbSpline
210
0.0
220
0.0
230
1.0
 70
    12
 71
     2
 72
     6
 73
     3
 74
     0
 42
0.0000000001
 43
0.0000000001
 40
0.0
 40
0.0
 40
0.0
 40
5.272737226395524
 40
5.272737226395524
 40
5.272737226395524
 10
1455.144401770376
 20
634.000000012705
 30
0.0
 41
1.0
 10
1454.748803795535
 20
631.392515165187
 30
0.0
 41
0.9994570161249328
 10
1454.182327191596
 20
628.8167474650782
 30
0.0
 41
1.0
  0
SPLINE
  5
FE
330
1F
100
AcDbEntity
  8
MAKE2D VISIBLE LINES
100
AcDbSpline
210
0.0
220
0.0
230
1.0
 70
    12
 71
     2
 72
     6
 73
     3
 74
     0
 42
0.0000000001
 43
0.0000000001
 40
0.0
 40
0.0
 40
0.0
 40
0.8760082891181068
 40
0.8760082891181068
 40
0.8760082891181068
 10
1411.349363183512
 20
473.3585817283021
 30
0.0
 41
1.0
 10
1411.049425668976
 20
472.9989607954157
 30
0.0
 41
0.9057718217442582
 10
1410.581141903914
 20
472.9987525262147
 30
0.0
 41
1.0
  0
SPLINE
  5
FF
330
1F
100
AcDbEntity
  8
MAKE2D VISIBLE LINES
100
AcDbSpline
210
0.0
220
0.0
230
1.0
 70
    12
 71
     2
 72
     6
 73
     3
 74
     0
 42
0.0000000001
 43
0.0000000001
 40
0.0
 40
0.0
 40
0.0
 40
0.8759830634956578
 40
0.8759830634956578
 40
0.8759830634956578
 10
1410.581141903914
 20
679.0012474737853
 30
0.0
 41
1.0
 10
1411.049382926215
 20
679.0009479504619
 30
0.0
 41
0.9058544081810999
 10
1411.349363183512
 20
678.6414182716981
 30
0.0
 41
1.0
  0
SPLINE
  5
100
330
1F
100
AcDbEntity
  8
MAKE2D VISIBLE LINES
100
AcDbSpline
210
0.0
220
0.0
230
1.0
 70
    12
 71
     2
 72
     6
 73
     3
 74
     0
 42
0.0000000001
 43
0.0000000001
 40
0.0001015393855949
 40
0.0001015393855949
 40
0.0001015393855949
 40
0.9994284978775626
 40
0.9994284978775626
 40
0.9994284978775626
 10
1510.532215478883
 20
713.6413676742692
 30
0.0
 41
0.9999436389052853
 10
1510.643835980089
 20
713.5934877119674
 30
0.0
 41
0.7226254267222333
 10
1510.432300451325
 20
712.6594008006516
 30
0.0
 41
0.9996829275083875
  0
SPLINE
  5
101
330
1F
100
AcDbEntity
  8
MAKE2D VISIBLE LINES
100
AcDbSpline
210
0.0
220
0.0
230
1.0
 70
    24
 71
     2
 72
     6
 73
     3
 74
     0
 42
0.0000000001
 43
0.0000000001
 40
0.0
 40
0.0
 40
0.0
 40
31.50689873458919
 40
31.50689873458919
 40
31.50689873458919
 10
1514.049516849971
 20
680.6180339887499
 30
0.0
 10
1514.049516849971
 20
696.3714833560445
 30
0.0
 10
1514.049516849971
 20
712.124932723339
 30
0.0
  0
SPLINE
  5
102
330
1F
100
AcDbEntity
  8
MAKE2D VISIBLE LINES
100
AcDbSpline
210
0.0
220
0.0
230
1.0
 70
    12
 71
     2
 72
     6
 73
     3
 74
     0
 42
0.0000000001
 43
0.0000000001
 40
0.0
 40
0.0
 40
0.0
 40
14.09363537277782
 40
14.09363537277782
 40
14.09363537277782
 10
1478.835514370434
 20
436.2814545657487
 30
0.0
 41
1.0
 10
1471.797134664554
 20
436.7643866769072
 30
0.0
 41
0.9982764499855905
 10
1464.863822832205
 20
438.0686870041121
 30
0.0
 41
1.0
  0
SPLINE
  5
103
330
1F
100
AcDbEntity
  8
MAKE2D VISIBLE LINES
100
AcDbSpline
210
0.0
220
0.0
230
1.0
 70
    12
 71
     2
 72
     6
 73
     3
 74
     0
 42
0.0000000001
 43
0.0000000001
 40
0.0
 40
0.0
 40
0.0
 40
1.570827904507646
 40
1.570827904507646
 40
1.570827904507646
 10
1401.049516849971
 20
678.0013526049781
 30
0.0
 41
1.0
 10
1401.049498145018
 20
679.0013713100095
 30
0.0
 41
0.7071081411513844
 10
1402.04951684997
 20
679.0013938615994
 30
0.0
 41
1.0
  0
SPLINE
  5
104
330
1F
100
AcDbEntity
  8
MAKE2D VISIBLE LINES
100
AcDbSpline
210
0.0
220
0.0
230
1.0
 70
    12
 71
     2
 72
     6
 73
     3
 74
     0
 42
0.0000000001
 43
0.0000000001
 40
0.0
 40
0.0
 40
0.0
 40
0.7854602530895527
 40
0.7854602530895527
 40
0.7854602530895527
 10
1436.54951684997
 20
628.4241675772829
 30
0.0
 41
1.0
 10
1436.049483976514
 20
628.4242187553722
 30
0.0
 41
0.7071197235466696
 10
1436.049516849971
 20
628.9242516303675
 30
0.0
 41
1.0
  0
SPLINE
  5
105
330
1F
100
AcDbEntity
  8
MAKE2D VISIBLE LINES
100
AcDbSpline
210
0.0
220
0.0
230
1.0
 70
    12
 71
     2
 72
     6
 73
     3
 74
     0
 42
0.0000000001
 43
0.0000000001
 40
0.0
 40
0.0
 40
0.0
 40
7.617803462760451
 40
7.617803462760451
 40
7.617803462760451
 10
1487.049516849971
 20
716.0
 30
0.0
 41
1.0
 10
1490.859698373802
 20
716.0000069149189
 30
0.0
 41
0.9994962448516174
 10
1494.662204675913
 20
715.7582858628659
 30
0.0
 41
1.0
  0
SPLINE
  5
106
330
1F
100
AcDbEntity
  8
MAKE2D VISIBLE LINES
100
AcDbSpline
210
0.0
220
0.0
230
1.0
 70
    24
 71
     3
 72
     8
 73
     4
 74
     0
 42
0.0000000001
 43
0.0000000001
 40
0.0
 40
0.0
 40
0.0
 40
0.0
 40
29.27707133651629
 40
29.27707133651629
 40
29.27707133651629
 40
29.27707133651629
 10
1426.049516849971
 20
520.6385032153369
 30
0.0
 10
1426.049516849971
 20
510.8794794364982
 30
0.0
 10
1426.049516849971
 20
501.1204556576593
 30
0.0
 10
1426.049516849971
 20
491.3614318788206
 30
0.0
  0
SPLINE
  5
107
330
1F
100
AcDbEntity
  8
MAKE2D VISIBLE LINES
100
AcDbSpline
210
0.0
220
0.0
230
1.0
 70
    12
 71
     2
 72
     6
 73
     3
 74
     0
 42
0.0000000001
 43
0.0000000001
 40
0.0
 40
0.0
 40
0.0
 40
0.6943258635928086
 40
0.6943258635928086
 40
0.6943258635928086
 10
1426.04951684997
 20
631.3614957196041
 30
0.0
 41
1.0
 10
1426.049561535418
 20
630.9996704777916
 30
0.0
 41
0.9403090463925938
 10
1425.818022197151
 20
630.721629037635
 30
0.0
 41
1.0
  0
SPLINE
  5
108
330
1F
100
AcDbEntity
  8
MAKE2D VISIBLE LINES
100
AcDbSpline
210
0.0
220
0.0
230
1.0
 70
    24
 71
     2
 72
     6
 73
     3
 74
     0
 42
0.0000000001
 43
0.0000000001
 40
0.0
 40
0.0
 40
0.0
 40
17.14452311893871
 40
17.14452311893871
 40
17.14452311893871
 10
1436.54951684997
 20
663.5751542412186
 30
0.0
 10
1445.12177840944
 20
663.5751542412186
 30
0.0
 10
1453.694039968909
 20
663.5751542412186
 30
0.0
  0
SPLINE
  5
109
330
1F
100
AcDbEntity
  8
MAKE2D VISIBLE LINES
100
AcDbSpline
210
0.0
220
0.0
230
1.0
 70
    12
 71
     2
 72
     6
 73
     3
 74
     0
 42
0.0000000001
 43
0.0000000001
 40
0.0
 40
0.0
 40
0.0
 40
0.6942584787333268
 40
0.6942584787333268
 40
0.6942584787333268
 10
1425.818055535567
 20
661.2783986892941
 30
0.0
 41
1.0
 10
1426.049487575351
 20
661.000340288203
 30
0.0
 41
0.9403876929085937
 10
1426.049516849968
 20
660.6385706617842
 30
0.0
 41
1.0
  0
ENDSEC
  0
SECTION
  2
OBJECTS
  0
DICTIONARY
  5
C
330
0
100
AcDbDictionary
281
     1
  3
ACAD_GROUP
350
D
  3
ACAD_LAYOUT
350
1A
  3
ACAD_MLEADERSTYLE
350
10D
  3
ACAD_MLINESTYLE
350
17
  3
ACAD_PLOTSETTINGS
350
19
  3
ACAD_PLOTSTYLENAME
350
E
  3
ACAD_SCALELIST
350
3D
  3
ACAD_TABLESTYLE
350
10C
  3
ACAD_VISUALSTYLE
350
2A
  3
AcDbVariableDictionary
350
10A
  0
DICTIONARY
  5
D
102
{ACAD_REACTORS
330
C
102
}
330
C
100
AcDbDictionary
281
     1
  0
DICTIONARY
  5
1A
102
{ACAD_REACTORS
330
C
102
}
330
C
100
AcDbDictionary
281
     1
  3
Layout1
350
1E
  3
Layout2
350
26
  3
Model
350
22
  0
DICTIONARY
  5
10D
102
{ACAD_REACTORS
330
C
102
}
330
C
100
AcDbDictionary
281
     1
  0
DICTIONARY
  5
17
102
{ACAD_REACTORS
330
C
102
}
330
C
100
AcDbDictionary
281
     1
  3
Standard
350
18
  0
DICTIONARY
  5
19
102
{ACAD_REACTORS
330
C
102
}
330
C
100
AcDbDictionary
281
     1
  0
ACDBDICTIONARYWDFLT
  5
E
102
{ACAD_REACTORS
330
C
102
}
330
C
100
AcDbDictionary
281
     1
  3
Normal
350
F
100
AcDbDictionaryWithDefault
340
F
  0
DICTIONARY
  5
3D
102
{ACAD_REACTORS
330
C
102
}
330
C
100
AcDbDictionary
281
     1
  3
A0
350
3E
  3
A1
350
3F
  3
A2
350
40
  3
A3
350
41
  3
A4
350
42
  3
A5
350
43
  3
A6
350
44
  3
A7
350
45
  3
A8
350
46
  3
A9
350
47
  3
B0
350
48
  3
B1
350
49
  3
B2
350
4A
  3
B3
350
4B
  3
B4
350
4C
  3
B5
350
4D
  3
B6
350
4E
  3
B7
350
4F
  3
B8
350
50
  3
B9
350
51
  3
C0
350
52
  3
C1
350
53
  3
C2
350
54
  3
C3
350
55
  3
C4
350
56
  3
C5
350
57
  3
C6
350
58
  3
C7
350
59
  3
C8
350
5A
  3
C9
350
5B
  3
D0
350
5C
  3
D1
350
5D
  3
D2
350
5E
  0
DICTIONARY
  5
10C
102
{ACAD_REACTORS
330
C
102
}
330
C
100
AcDbDictionary
281
     1
  0
DICTIONARY
  5
2A
102
{ACAD_REACTORS
330
C
102
}
330
C
100
AcDbDictionary
281
     1
  3
2dWireframe
350
2F
  3
3D Hidden
350
31
  3
3dWireframe
350
30
  3
Basic
350
32
  3
Brighten
350
36
  3
ColorChange
350
3A
  3
Conceptual
350
34
  3
Dim
350
35
  3
Facepattern
350
39
  3
Flat
350
2B
  3
FlatWithEdges
350
2C
  3
Gouraud
350
2D
  3
GouraudWithEdges
350
2E
  3
Linepattern
350
38
  3
Realistic
350
33
  3
Thicken
350
37
  0
DICTIONARY
  5
10A
102
{ACAD_REACTORS
330
C
102
}
330
C
100
AcDbDictionary
281
     1
  3
CANNOSCALE
350
10B
  0
LAYOUT
  5
1E
102
{ACAD_REACTORS
330
1A
102
}
330
1A
100
AcDbPlotSettings
  1

  2
none_device
  4

  6

 40
0.0
 41
0.0
 42
0.0
 43
0.0
 44
0.0
 45
0.0
 46
0.0
 47
0.0
 48
0.0
 49
0.0
140
0.0
141
0.0
142
1.0
143
1.0
 70
   688
 72
     0
 73
     0
 74
     5
  7

 75
    16
 76
     0
 77
     2
 78
   300
147
1.0
148
0.0
149
0.0
100
AcDbLayout
  1
Layout1
 70
     1
 71
     1
 10
0.0
 20
0.0
 11
12.0
 21
9.0
 12
0.0
 22
0.0
 32
0.0
 14
1.000000000000000E+20
 24
1.000000000000000E+20
 34
1.000000000000000E+20
 15
-1.000000000000000E+20
 25
-1.000000000000000E+20
 35
-1.000000000000000E+20
146
0.0
 13
0.0
 23
0.0
 33
0.0
 16
1.0
 26
0.0
 36
0.0
 17
0.0
 27
1.0
 37
0.0
 76
     0
330
1B
  0
LAYOUT
  5
26
102
{ACAD_REACTORS
330
1A
102
}
330
1A
100
AcDbPlotSettings
  1

  2
none_device
  4

  6

 40
0.0
 41
0.0
 42
0.0
 43
0.0
 44
0.0
 45
0.0
 46
0.0
 47
0.0
 48
0.0
 49
0.0
140
0.0
141
0.0
142
1.0
143
1.0
 70
   688
 72
     0
 73
     0
 74
     5
  7

 75
    16
 76
     0
 77
     2
 78
   300
147
1.0
148
0.0
149
0.0
100
AcDbLayout
  1
Layout2
 70
     1
 71
     2
 10
0.0
 20
0.0
 11
0.0
 21
0.0
 12
0.0
 22
0.0
 32
0.0
 14
0.0
 24
0.0
 34
0.0
 15
0.0
 25
0.0
 35
0.0
146
0.0
 13
0.0
 23
0.0
 33
0.0
 16
1.0
 26
0.0
 36
0.0
 17
0.0
 27
1.0
 37
0.0
 76
     0
330
23
  0
LAYOUT
  5
22
102
{ACAD_REACTORS
330
1A
102
}
330
1A
100
AcDbPlotSettings
  1

  2
none_device
  4

  6

 40
0.0
 41
0.0
 42
0.0
 43
0.0
 44
0.0
 45
0.0
 46
0.0
 47
0.0
 48
0.0
 49
0.0
140
0.0
141
0.0
142
1.0
143
1.0
 70
  1712
 72
     0
 73
     0
 74
     0
  7

 75
     0
 76
     0
 77
     2
 78
   300
147
1.0
148
0.0
149
0.0
100
AcDbLayout
  1
Model
 70
     1
 71
     0
 10
0.0
 20
0.0
 11
12.0
 21
9.0
 12
0.0
 22
0.0
 32
0.0
 14
1401.04951684997
 24
436.0
 34
0.0
 15
1672.949359553261
 25
777.3213511299467
 35
0.0
146
0.0
 13
0.0
 23
0.0
 33
0.0
 16
1.0
 26
0.0
 36
0.0
 17
0.0
 27
1.0
 37
0.0
 76
     0
330
1F
331
29
  0
MLINESTYLE
  5
18
102
{ACAD_REACTORS
330
17
102
}
330
17
100
AcDbMlineStyle
  2
Standard
 70
     0
  3

 62
   256
 51
90.0
 52
90.0
 71
     2
 49
0.5
 62
   256
  6
BYLAYER
 49
-0.5
 62
   256
  6
BYLAYER
  0
ACDBPLACEHOLDER
  5
F
102
{ACAD_REACTORS
330
E
102
}
330
E
  0
SCALE
  5
3E
102
{ACAD_REACTORS
330
3D
102
}
330
3D
100
AcDbScale
 70
     0
300
1:1
140
1.0
141
1.0
290
     1
  0
SCALE
  5
3F
102
{ACAD_REACTORS
330
3D
102
}
330
3D
100
AcDbScale
 70
     0
300
1:2
140
1.0
141
2.0
290
     0
  0
SCALE
  5
40
102
{ACAD_REACTORS
330
3D
102
}
330
3D
100
AcDbScale
 70
     0
300
1:4
140
1.0
141
4.0
290
     0
  0
SCALE
  5
41
102
{ACAD_REACTORS
330
3D
102
}
330
3D
100
AcDbScale
 70
     0
300
1:5
140
1.0
141
5.0
290
     0
  0
SCALE
  5
42
102
{ACAD_REACTORS
330
3D
102
}
330
3D
100
AcDbScale
 70
     0
300
1:8
140
1.0
141
8.0
290
     0
  0
SCALE
  5
43
102
{ACAD_REACTORS
330
3D
102
}
330
3D
100
AcDbScale
 70
     0
300
1:10
140
1.0
141
10.0
290
     0
  0
SCALE
  5
44
102
{ACAD_REACTORS
330
3D
102
}
330
3D
100
AcDbScale
 70
     0
300
1:16
140
1.0
141
16.0
290
     0
  0
SCALE
  5
45
102
{ACAD_REACTORS
330
3D
102
}
330
3D
100
AcDbScale
 70
     0
300
1:20
140
1.0
141
20.0
290
     0
  0
SCALE
  5
46
102
{ACAD_REACTORS
330
3D
102
}
330
3D
100
AcDbScale
 70
     0
300
1:30
140
1.0
141
30.0
290
     0
  0
SCALE
  5
47
102
{ACAD_REACTORS
330
3D
102
}
330
3D
100
AcDbScale
 70
     0
300
1:40
140
1.0
141
40.0
290
     0
  0
SCALE
  5
48
102
{ACAD_REACTORS
330
3D
102
}
330
3D
100
AcDbScale
 70
     0
300
1:50
140
1.0
141
50.0
290
     0
  0
SCALE
  5
49
102
{ACAD_REACTORS
330
3D
102
}
330
3D
100
AcDbScale
 70
     0
300
1:100
140
1.0
141
100.0
290
     0
  0
SCALE
  5
4A
102
{ACAD_REACTORS
330
3D
102
}
330
3D
100
AcDbScale
 70
     0
300
2:1
140
2.0
141
1.0
290
     0
  0
SCALE
  5
4B
102
{ACAD_REACTORS
330
3D
102
}
330
3D
100
AcDbScale
 70
     0
300
4:1
140
4.0
141
1.0
290
     0
  0
SCALE
  5
4C
102
{ACAD_REACTORS
330
3D
102
}
330
3D
100
AcDbScale
 70
     0
300
8:1
140
8.0
141
1.0
290
     0
  0
SCALE
  5
4D
102
{ACAD_REACTORS
330
3D
102
}
330
3D
100
AcDbScale
 70
     0
300
10:1
140
10.0
141
1.0
290
     0
  0
SCALE
  5
4E
102
{ACAD_REACTORS
330
3D
102
}
330
3D
100
AcDbScale
 70
     0
300
100:1
140
100.0
141
1.0
290
     0
  0
SCALE
  5
4F
102
{ACAD_REACTORS
330
3D
102
}
330
3D
100
AcDbScale
 70
     0
300
1/128" = 1'-0"
140
0.0078125
141
12.0
290
     0
  0
SCALE
  5
50
102
{ACAD_REACTORS
330
3D
102
}
330
3D
100
AcDbScale
 70
     0
300
1/64" = 1'-0"
140
0.015625
141
12.0
290
     0
  0
SCALE
  5
51
102
{ACAD_REACTORS
330
3D
102
}
330
3D
100
AcDbScale
 70
     0
300
1/32" = 1'-0"
140
0.03125
141
12.0
290
     0
  0
SCALE
  5
52
102
{ACAD_REACTORS
330
3D
102
}
330
3D
100
AcDbScale
 70
     0
300
1/16" = 1'-0"
140
0.0625
141
12.0
290
     0
  0
SCALE
  5
53
102
{ACAD_REACTORS
330
3D
102
}
330
3D
100
AcDbScale
 70
     0
300
3/32" = 1'-0"
140
0.09375
141
12.0
290
     0
  0
SCALE
  5
54
102
{ACAD_REACTORS
330
3D
102
}
330
3D
100
AcDbScale
 70
     0
300
1/8" = 1'-0"
140
0.125
141
12.0
290
     0
  0
SCALE
  5
55
102
{ACAD_REACTORS
330
3D
102
}
330
3D
100
AcDbScale
 70
     0
300
3/16" = 1'-0"
140
0.1875
141
12.0
290
     0
  0
SCALE
  5
56
102
{ACAD_REACTORS
330
3D
102
}
330
3D
100
AcDbScale
 70
     0
300
1/4" = 1'-0"
140
0.25
141
12.0
290
     0
  0
SCALE
  5
57
102
{ACAD_REACTORS
330
3D
102
}
330
3D
100
AcDbScale
 70
     0
300
3/8" = 1'-0"
140
0.375
141
12.0
290
     0
  0
SCALE
  5
58
102
{ACAD_REACTORS
330
3D
102
}
330
3D
100
AcDbScale
 70
     0
300
1/2" = 1'-0"
140
0.5
141
12.0
290
     0
  0
SCALE
  5
59
102
{ACAD_REACTORS
330
3D
102
}
330
3D
100
AcDbScale
 70
     0
300
3/4" = 1'-0"
140
0.75
141
12.0
290
     0
  0
SCALE
  5
5A
102
{ACAD_REACTORS
330
3D
102
}
330
3D
100
AcDbScale
 70
     0
300
1" = 1'-0"
140
1.0
141
12.0
290
     0
  0
SCALE
  5
5B
102
{ACAD_REACTORS
330
3D
102
}
330
3D
100
AcDbScale
 70
     0
300
1-1/2" = 1'-0"
140
1.5
141
12.0
290
     0
  0
SCALE
  5
5C
102
{ACAD_REACTORS
330
3D
102
}
330
3D
100
AcDbScale
 70
     0
300
3" = 1'-0"
140
3.0
141
12.0
290
     0
  0
SCALE
  5
5D
102
{ACAD_REACTORS
330
3D
102
}
330
3D
100
AcDbScale
 70
     0
300
6" = 1'-0"
140
6.0
141
12.0
290
     0
  0
SCALE
  5
5E
102
{ACAD_REACTORS
330
3D
102
}
330
3D
100
AcDbScale
 70
     0
300
1'-0" = 1'-0"
140
12.0
141
12.0
290
     0
  0
VISUALSTYLE
  5
2F
102
{ACAD_REACTORS
330
2A
102
}
330
2A
100
AcDbVisualStyle
  2
2dWireframe
 70
     4
 71
     0
 72
     2
 73
     0
 90
        0
 40
-0.6
 41
-30.0
 62
     5
 63
     7
421
 16777215
 74
     1
 91
        4
 64
     7
 65
   257
 75
     1
175
     1
 42
1.0
 92
        0
 66
   257
 43
1.0
 76
     1
 77
     6
 78
     2
 67
     7
 79
     5
170
     0
171
     0
290
     0
174
     0
 93
        1
 44
0.0
173
     0
291
     0
 45
0.0
1001
ACAD
1000
AcDbSavedByObjectVersion
1070
     0
  0
VISUALSTYLE
  5
31
102
{ACAD_REACTORS
330
2A
102
}
330
2A
100
AcDbVisualStyle
  2
3D Hidden
 70
     6
 71
     1
 72
     2
 73
     2
 90
        0
 40
-0.6
 41
-30.0
 62
     5
 63
     7
421
 16777215
 74
     2
 91
        2
 64
     7
 65
   257
 75
     2
175
     1
 42
40.0
 92
        0
 66
   257
 43
1.0
 76
     1
 77
     6
 78
     2
 67
     7
 79
     3
170
     0
171
     0
290
     0
174
     0
 93
        1
 44
0.0
173
     0
291
     0
 45
0.0
1001
ACAD
1000
AcDbSavedByObjectVersion
1070
     0
  0
VISUALSTYLE
  5
30
102
{ACAD_REACTORS
330
2A
102
}
330
2A
100
AcDbVisualStyle
  2
3dWireframe
 70
     5
 71
     0
 72
     2
 73
     0
 90
        0
 40
-0.6
 41
-30.0
 62
     5
 63
     7
421
 16777215
 74
     1
 91
        4
 64
     7
 65
   257
 75
     1
175
     1
 42
1.0
 92
        0
 66
   257
 43
1.0
 76
     1
 77
     6
 78
     2
 67
     7
 79
     5
170
     0
171
     0
290
     0
174
     0
 93
        1
 44
0.0
173
     0
291
     0
 45
0.0
1001
ACAD
1000
AcDbSavedByObjectVersion
1070
     0
  0
VISUALSTYLE
  5
32
102
{ACAD_REACTORS
330
2A
102
}
330
2A
100
AcDbVisualStyle
  2
Basic
 70
     7
 71
     1
 72
     0
 73
     1
 90
        0
 40
-0.6
 41
-30.0
 62
     5
 63
     7
421
 16777215
 74
     0
 91
        4
 64
     7
 65
   257
 75
     1
175
     1
 42
1.0
 92
        8
 66
     7
 43
1.0
 76
     1
 77
     6
 78
     2
 67
     7
 79
     5
170
     0
171
     0
290
     0
174
     0
 93
        1
 44
0.0
173
     0
291
     1
 45
0.0
1001
ACAD
1000
AcDbSavedByObjectVersion
1070
     0
  0
VISUALSTYLE
  5
36
102
{ACAD_REACTORS
330
2A
102
}
330
2A
100
AcDbVisualStyle
  2
Brighten
 70
    12
 71
     2
 72
     2
 73
     0
 90
        0
 40
-0.6
 41
-30.0
 62
     5
 63
     7
421
 16777215
 74
     1
 91
        4
 64
     7
 65
   257
 75
     1
175
     1
 42
1.0
 92
        8
 66
     7
 43
1.0
 76
     1
 77
     6
 78
     2
 67
     7
 79
     5
170
     0
171
     0
290
     0
174
     0
 93
        1
 44
50.0
173
     0
291
     1
 45
0.0
1001
ACAD
1000
AcDbSavedByObjectVersion
1070
     0
  0
VISUALSTYLE
  5
3A
102
{ACAD_REACTORS
330
2A
102
}
330
2A
100
AcDbVisualStyle
  2
ColorChange
 70
    16
 71
     2
 72
     2
 73
     3
 90
        0
 40
-0.6
 41
-30.0
 62
     5
 63
     8
421
  8421504
 74
     1
 91
        4
 64
     7
 65
   257
 75
     1
175
     1
 42
1.0
 92
        8
 66
     8
424
  8421504
 43
1.0
 76
     1
 77
     6
 78
     2
 67
     7
 79
     5
170
     0
171
     0
290
     0
174
     0
 93
        1
 44
0.0
173
     0
291
     1
 45
0.0
1001
ACAD
1000
AcDbSavedByObjectVersion
1070
     0
  0
VISUALSTYLE
  5
34
102
{ACAD_REACTORS
330
2A
102
}
330
2A
100
AcDbVisualStyle
  2
Conceptual
 70
     9
 71
     3
 72
     2
 73
     0
 90
        0
 40
-0.6
 41
-30.0
 62
     5
 63
     7
421
 16777215
 74
     2
 91
        2
 64
     7
 65
   257
 75
     1
175
     1
 42
40.0
 92
        8
 66
     7
 43
1.0
 76
     1
 77
     6
 78
     2
 67
     7
 79
     3
170
     0
171
     0
290
     0
174
     0
 93
        1
 44
0.0
173
     0
291
     0
 45
0.0
1001
ACAD
1000
AcDbSavedByObjectVersion
1070
     0
  0
VISUALSTYLE
  5
35
102
{ACAD_REACTORS
330
2A
102
}
330
2A
100
AcDbVisualStyle
  2
Dim
 70
    11
 71
     2
 72
     2
 73
     0
 90
        0
 40
-0.6
 41
-30.0
 62
     5
 63
     7
421
 16777215
 74
     1
 91
        4
 64
     7
 65
   257
 75
     1
175
     1
 42
1.0
 92
        8
 66
     7
 43
1.0
 76
     1
 77
     6
 78
     2
 67
     7
 79
     5
170
     0
171
     0
290
     0
174
     0
 93
        1
 44
-50.0
173
     0
291
     1
 45
0.0
1001
ACAD
1000
AcDbSavedByObjectVersion
1070
     0
  0
VISUALSTYLE
  5
39
102
{ACAD_REACTORS
330
2A
102
}
330
2A
100
AcDbVisualStyle
  2
Facepattern
 70
    15
 71
     2
 72
     2
 73
     0
 90
        0
 40
-0.6
 41
-30.0
 62
     5
 63
     7
421
 16777215
 74
     1
 91
        4
 64
     7
 65
   257
 75
     1
175
     1
 42
1.0
 92
        8
 66
     7
 43
1.0
 76
     1
 77
     6
 78
     2
 67
     7
 79
     5
170
     0
171
     0
290
     0
174
     0
 93
        1
 44
0.0
173
     0
291
     1
 45
0.0
1001
ACAD
1000
AcDbSavedByObjectVersion
1070
     0
  0
VISUALSTYLE
  5
2B
102
{ACAD_REACTORS
330
2A
102
}
330
2A
100
AcDbVisualStyle
  2
Flat
 70
     0
 71
     2
 72
     1
 73
     1
 90
        2
 40
-0.6
 41
30.0
 62
     5
 63
     7
421
 16777215
 74
     0
 91
        4
 64
     7
 65
   257
 75
     1
175
     1
 42
1.0
 92
        8
 66
     7
 43
1.0
 76
     1
 77
     6
 78
     2
 67
     7
 79
     5
170
     0
171
     0
290
     0
174
     0
 93
       13
 44
0.0
173
     0
291
     1
 45
0.0
1001
ACAD
1000
AcDbSavedByObjectVersion
1070
     0
  0
VISUALSTYLE
  5
2C
102
{ACAD_REACTORS
330
2A
102
}
330
2A
100
AcDbVisualStyle
  2
FlatWithEdges
 70
     1
 71
     2
 72
     1
 73
     1
 90
        2
 40
-0.6
 41
30.0
 62
     5
 63
     7
421
 16777215
 74
     1
 91
        4
 64
     7
 65
   257
 75
     1
175
     1
 42
1.0
 92
        0
 66
   257
 43
1.0
 76
     1
 77
     6
 78
     2
 67
     7
 79
     5
170
     0
171
     0
290
     0
174
     0
 93
       13
 44
0.0
173
     0
291
     1
 45
0.0
1001
ACAD
1000
AcDbSavedByObjectVersion
1070
     0
  0
VISUALSTYLE
  5
2D
102
{ACAD_REACTORS
330
2A
102
}
330
2A
100
AcDbVisualStyle
  2
Gouraud
 70
     2
 71
     2
 72
     2
 73
     1
 90
        2
 40
-0.6
 41
30.0
 62
     5
 63
     7
421
 16777215
 74
     0
 91
        4
 64
     7
 65
   257
 75
     1
175
     1
 42
1.0
 92
        0
 66
     7
 43
1.0
 76
     1
 77
     6
 78
     2
 67
     7
 79
     5
170
     0
171
     0
290
     0
174
     0
 93
       13
 44
0.0
173
     0
291
     1
 45
0.0
1001
ACAD
1000
AcDbSavedByObjectVersion
1070
     0
  0
VISUALSTYLE
  5
2E
102
{ACAD_REACTORS
330
2A
102
}
330
2A
100
AcDbVisualStyle
  2
GouraudWithEdges
 70
     3
 71
     2
 72
     2
 73
     1
 90
        2
 40
-0.6
 41
30.0
 62
     5
 63
     7
421
 16777215
 74
     1
 91
        4
 64
     7
 65
   257
 75
     1
175
     1
 42
1.0
 92
        0
 66
   257
 43
1.0
 76
     1
 77
     6
 78
     2
 67
     7
 79
     5
170
     0
171
     0
290
     0
174
     0
 93
       13
 44
0.0
173
     0
291
     1
 45
0.0
1001
ACAD
1000
AcDbSavedByObjectVersion
1070
     0
  0
VISUALSTYLE
  5
38
102
{ACAD_REACTORS
330
2A
102
}
330
2A
100
AcDbVisualStyle
  2
Linepattern
 70
    14
 71
     2
 72
     2
 73
     0
 90
        0
 40
-0.6
 41
-30.0
 62
     5
 63
     7
421
 16777215
 74
     1
 91
        4
 64
     7
 65
   257
 75
     7
175
     7
 42
1.0
 92
        8
 66
     7
 43
1.0
 76
     1
 77
     6
 78
     2
 67
     7
 79
     5
170
     0
171
     0
290
     0
174
     0
 93
        1
 44
0.0
173
     0
291
     1
 45
0.0
1001
ACAD
1000
AcDbSavedByObjectVersion
1070
     0
  0
VISUALSTYLE
  5
33
102
{ACAD_REACTORS
330
2A
102
}
330
2A
100
AcDbVisualStyle
  2
Realistic
 70
     8
 71
     2
 72
     2
 73
     0
 90
        0
 40
-0.6
 41
-30.0
 62
     5
 63
     7
421
 16777215
 74
     1
 91
        0
 64
     7
 65
   257
 75
     1
175
     1
 42
1.0
 92
        8
 66
     8
424
  7895160
 43
1.0
 76
     1
 77
     6
 78
     2
 67
     7
 79
     5
170
     0
171
     0
290
     0
174
     0
 93
       13
 44
0.0
173
     0
291
     0
 45
0.0
1001
ACAD
1000
AcDbSavedByObjectVersion
1070
     0
  0
VISUALSTYLE
  5
37
102
{ACAD_REACTORS
330
2A
102
}
330
2A
100
AcDbVisualStyle
  2
Thicken
 70
    13
 71
     2
 72
     2
 73
     0
 90
        0
 40
-0.6
 41
-30.0
 62
     5
 63
     7
421
 16777215
 74
     1
 91
        4
 64
     7
 65
   257
 75
     1
175
     1
 42
1.0
 92
       12
 66
     7
 43
1.0
 76
     1
 77
     6
 78
     2
 67
     7
 79
     5
170
     0
171
     0
290
     0
174
     0
 93
        1
 44
0.0
173
     0
291
     1
 45
0.0
1001
ACAD
1000
AcDbSavedByObjectVersion
1070
     0
  0
DICTIONARYVAR
  5
10B
102
{ACAD_REACTORS
330
10A
102
}
330
10A
100
DictionaryVariables
280
     0
  1
1:1
  0
ENDSEC
  0
EOF
