  0
SECTION
  2
HEADER
  9
$ACADVER
  1
AC1018
  9
$ACADMAINTVER
 70
     0
  9
$DWGCODEPAGE
  3
ANSI_936
  9
$INSBASE
 10
0.0
 20
0.0
 30
0.0
  9
$EXTMIN
 10
948.0000000000001
 20
889.0
 30
0.0
  9
$EXTMAX
 10
1325.5
 20
1037.869516850004
 30
0.0
  9
$LIMMIN
 10
0.0
 20
0.0
  9
$LIMMAX
 10
12.0
 20
9.0
  9
$ORTHOMODE
 70
     0
  9
$REGENMODE
 70
     1
  9
$FILLMODE
 70
     1
  9
$QTEXTMODE
 70
     0
  9
$MIRRTEXT
 70
     1
  9
$LTSCALE
 40
1.0
  9
$ATTMODE
 70
     1
  9
$TEXTSIZE
 40
0.2
  9
$TRACEWID
 40
0.05
  9
$TEXTSTYLE
  7
Standard
  9
$CLAYER
  8
E45714
  9
$CELTYPE
  6
ByLayer
  9
$CECOLOR
 62
   256
  9
$CELTSCALE
 40
1.0
  9
$DISPSILH
 70
     0
  9
$DIMSCALE
 40
1.0
  9
$DIMASZ
 40
0.18
  9
$DIMEXO
 40
0.0625
  9
$DIMDLI
 40
0.38
  9
$DIMRND
 40
0.0
  9
$DIMDLE
 40
0.0
  9
$DIMEXE
 40
0.18
  9
$DIMTP
 40
0.0
  9
$DIMTM
 40
0.0
  9
$DIMTXT
 40
0.18
  9
$DIMCEN
 40
0.09
  9
$DIMTSZ
 40
0.0
  9
$DIMTOL
 70
     0
  9
$DIMLIM
 70
     0
  9
$DIMTIH
 70
     1
  9
$DIMTOH
 70
     1
  9
$DIMSE1
 70
     0
  9
$DIMSE2
 70
     0
  9
$DIMTAD
 70
     0
  9
$DIMZIN
 70
     0
  9
$DIMBLK
  1

  9
$DIMASO
 70
     1
  9
$DIMSHO
 70
     1
  9
$DIMPOST
  1

  9
$DIMAPOST
  1

  9
$DIMALT
 70
     0
  9
$DIMALTD
 70
     2
  9
$DIMALTF
 40
25.4
  9
$DIMLFAC
 40
1.0
  9
$DIMTOFL
 70
     0
  9
$DIMTVP
 40
0.0
  9
$DIMTIX
 70
     0
  9
$DIMSOXD
 70
     0
  9
$DIMSAH
 70
     0
  9
$DIMBLK1
  1

  9
$DIMBLK2
  1

  9
$DIMSTYLE
  2
Standard
  9
$DIMCLRD
 70
     0
  9
$DIMCLRE
 70
     0
  9
$DIMCLRT
 70
     0
  9
$DIMTFAC
 40
1.0
  9
$DIMGAP
 40
0.09
  9
$DIMJUST
 70
     0
  9
$DIMSD1
 70
     0
  9
$DIMSD2
 70
     0
  9
$DIMTOLJ
 70
     1
  9
$DIMTZIN
 70
     0
  9
$DIMALTZ
 70
     0
  9
$DIMALTTZ
 70
     0
  9
$DIMUPT
 70
     0
  9
$DIMDEC
 70
     4
  9
$DIMTDEC
 70
     4
  9
$DIMALTU
 70
     2
  9
$DIMALTTD
 70
     2
  9
$DIMTXSTY
  7
Standard
  9
$DIMAUNIT
 70
     0
  9
$DIMADEC
 70
     0
  9
$DIMALTRND
 40
0.0
  9
$DIMAZIN
 70
     0
  9
$DIMDSEP
 70
    46
  9
$DIMATFIT
 70
     3
  9
$DIMFRAC
 70
     0
  9
$DIMLDRBLK
  1

  9
$DIMLUNIT
 70
     2
  9
$DIMLWD
 70
    -2
  9
$DIMLWE
 70
    -2
  9
$DIMTMOVE
 70
     2
  9
$LUNITS
 70
     2
  9
$LUPREC
 70
     2
  9
$SKETCHINC
 40
0.1
  9
$FILLETRAD
 40
0.5
  9
$AUNITS
 70
     0
  9
$AUPREC
 70
     0
  9
$MENU
  1
.
  9
$ELEVATION
 40
0.0
  9
$PELEVATION
 40
0.0
  9
$THICKNESS
 40
0.0
  9
$LIMCHECK
 70
     0
  9
$CHAMFERA
 40
0.5
  9
$CHAMFERB
 40
0.5
  9
$CHAMFERC
 40
1.0
  9
$CHAMFERD
 40
0.0
  9
$SKPOLY
 70
     0
  9
$TDCREATE
 40
2456449.704604305
  9
$TDUCREATE
 40
2456449.621270972
  9
$TDUPDATE
 40
2456449.704604317
  9
$TDUUPDATE
 40
2456449.621270984
  9
$TDINDWG
 40
0.0000000116
  9
$TDUSRTIMER
 40
0.0000000116
  9
$USRTIMER
 70
     1
  9
$ANGBASE
 50
0.0
  9
$ANGDIR
 70
     0
  9
$PDMODE
 70
     0
  9
$PDSIZE
 40
0.0
  9
$PLINEWID
 40
0.0
  9
$SPLFRAME
 70
     0
  9
$SPLINETYPE
 70
     6
  9
$SPLINESEGS
 70
     8
  9
$HANDSEED
  5
12B
  9
$SURFTAB1
 70
     6
  9
$SURFTAB2
 70
     6
  9
$SURFTYPE
 70
     6
  9
$SURFU
 70
     6
  9
$SURFV
 70
     6
  9
$UCSBASE
  2

  9
$UCSNAME
  2

  9
$UCSORG
 10
0.0
 20
0.0
 30
0.0
  9
$UCSXDIR
 10
1.0
 20
0.0
 30
0.0
  9
$UCSYDIR
 10
0.0
 20
1.0
 30
0.0
  9
$UCSORTHOREF
  2

  9
$UCSORTHOVIEW
 70
     0
  9
$UCSORGTOP
 10
0.0
 20
0.0
 30
0.0
  9
$UCSORGBOTTOM
 10
0.0
 20
0.0
 30
0.0
  9
$UCSORGLEFT
 10
0.0
 20
0.0
 30
0.0
  9
$UCSORGRIGHT
 10
0.0
 20
0.0
 30
0.0
  9
$UCSORGFRONT
 10
0.0
 20
0.0
 30
0.0
  9
$UCSORGBACK
 10
0.0
 20
0.0
 30
0.0
  9
$PUCSBASE
  2

  9
$PUCSNAME
  2

  9
$PUCSORG
 10
0.0
 20
0.0
 30
0.0
  9
$PUCSXDIR
 10
1.0
 20
0.0
 30
0.0
  9
$PUCSYDIR
 10
0.0
 20
1.0
 30
0.0
  9
$PUCSORTHOREF
  2

  9
$PUCSORTHOVIEW
 70
     0
  9
$PUCSORGTOP
 10
0.0
 20
0.0
 30
0.0
  9
$PUCSORGBOTTOM
 10
0.0
 20
0.0
 30
0.0
  9
$PUCSORGLEFT
 10
0.0
 20
0.0
 30
0.0
  9
$PUCSORGRIGHT
 10
0.0
 20
0.0
 30
0.0
  9
$PUCSORGFRONT
 10
0.0
 20
0.0
 30
0.0
  9
$PUCSORGBACK
 10
0.0
 20
0.0
 30
0.0
  9
$USERI1
 70
     0
  9
$USERI2
 70
     0
  9
$USERI3
 70
     0
  9
$USERI4
 70
     0
  9
$USERI5
 70
     0
  9
$USERR1
 40
0.0
  9
$USERR2
 40
0.0
  9
$USERR3
 40
0.0
  9
$USERR4
 40
0.0
  9
$USERR5
 40
0.0
  9
$WORLDVIEW
 70
     1
  9
$SHADEDGE
 70
     3
  9
$SHADEDIF
 70
    70
  9
$TILEMODE
 70
     1
  9
$MAXACTVP
 70
    64
  9
$PINSBASE
 10
0.0
 20
0.0
 30
0.0
  9
$PLIMCHECK
 70
     0
  9
$PEXTMIN
 10
1.000000000000000E+20
 20
1.000000000000000E+20
 30
1.000000000000000E+20
  9
$PEXTMAX
 10
-1.000000000000000E+20
 20
-1.000000000000000E+20
 30
-1.000000000000000E+20
  9
$PLIMMIN
 10
0.0
 20
0.0
  9
$PLIMMAX
 10
12.0
 20
9.0
  9
$UNITMODE
 70
     0
  9
$VISRETAIN
 70
     1
  9
$PLINEGEN
 70
     0
  9
$PSLTSCALE
 70
     1
  9
$TREEDEPTH
 70
  3020
  9
$CMLSTYLE
  2
Standard
  9
$CMLJUST
 70
     0
  9
$CMLSCALE
 40
1.0
  9
$PROXYGRAPHICS
 70
     1
  9
$MEASUREMENT
 70
     0
  9
$CELWEIGHT
370
    -1
  9
$ENDCAPS
280
     0
  9
$JOINSTYLE
280
     0
  9
$LWDISPLAY
290
     0
  9
$INSUNITS
 70
     4
  9
$HYPERLINKBASE
  1

  9
$STYLESHEET
  1

  9
$XEDIT
290
     1
  9
$CEPSNTYPE
380
     0
  9
$PSTYLEMODE
290
     1
  9
$FINGERPRINTGUID
  2
{C8CD7404-68DF-48F7-91E4-1EC0BB5BCBAD}
  9
$VERSIONGUID
  2
{FAEB1C32-E019-11D5-929B-00C0DF256EC4}
  9
$EXTNAMES
290
     1
  9
$PSVPSCALE
 40
0.0
  9
$OLESTARTUP
290
     0
  9
$SORTENTS
280
   127
  9
$INDEXCTL
280
     0
  9
$HIDETEXT
280
     1
  9
$XCLIPFRAME
290
     0
  9
$HALOGAP
280
     0
  9
$OBSCOLOR
 70
   257
  9
$OBSLTYPE
280
     0
  9
$INTERSECTIONDISPLAY
280
     0
  9
$INTERSECTIONCOLOR
 70
   257
  9
$DIMASSOC
280
     2
  9
$PROJECTNAME
  1

  0
ENDSEC
  0
SECTION
  2
CLASSES
  0
CLASS
  1
ACDBDICTIONARYWDFLT
  2
AcDbDictionaryWithDefault
  3
ObjectDBX Classes
 90
        0
 91
        4
280
     0
281
     0
  0
CLASS
  1
VISUALSTYLE
  2
AcDbVisualStyle
  3
ObjectDBX Classes
 90
     4095
 91
        4
280
     0
281
     0
  0
CLASS
  1
SCALE
  2
AcDbScale
  3
ObjectDBX Classes
 90
     1153
 91
        4
280
     0
281
     0
  0
CLASS
  1
DICTIONARYVAR
  2
AcDbDictionaryVar
  3
ObjectDBX Classes
 90
        0
 91
        4
280
     0
281
     0
  0
ENDSEC
  0
SECTION
  2
TABLES
  0
TABLE
  2
VPORT
  5
8
330
0
100
AcDbSymbolTable
 70
     1
  0
VPORT
  5
29
330
8
100
AcDbSymbolTableRecord
100
AcDbViewportTableRecord
  2
*Active
 70
     0
 10
0.0
 20
0.0
 11
1.0
 21
1.0
 12
1136.75
 22
963.4347584250021
 13
0.0
 23
0.0
 14
0.5
 24
0.5
 15
0.5
 25
0.5
 16
0.0
 26
0.0
 36
1.0
 17
0.0
 27
0.0
 37
0.0
 40
151.8469071870043
 41
2.535777693027351
 42
50.0
 43
0.0
 44
0.0
 50
0.0
 51
0.0
 71
     0
 72
   100
 73
     1
 74
     3
 75
     0
 76
     0
 77
     0
 78
     0
281
     0
 65
     1
110
0.0
120
0.0
130
0.0
111
1.0
121
0.0
131
0.0
112
0.0
122
1.0
132
0.0
 79
     0
146
0.0
  0
ENDTAB
  0
TABLE
  2
LTYPE
  5
5
330
0
100
AcDbSymbolTable
 70
     1
  0
LTYPE
  5
14
330
5
100
AcDbSymbolTableRecord
100
AcDbLinetypeTableRecord
  2
ByBlock
 70
     0
  3

 72
    65
 73
     0
 40
0.0
  0
LTYPE
  5
15
330
5
100
AcDbSymbolTableRecord
100
AcDbLinetypeTableRecord
  2
ByLayer
 70
     0
  3

 72
    65
 73
     0
 40
0.0
  0
LTYPE
  5
16
330
5
100
AcDbSymbolTableRecord
100
AcDbLinetypeTableRecord
  2
Continuous
 70
     0
  3
Solid line
 72
    65
 73
     0
 40
0.0
  0
ENDTAB
  0
TABLE
  2
LAYER
  5
2
330
0
100
AcDbSymbolTable
 70
     4
  0
LAYER
  5
10
330
2
100
AcDbSymbolTableRecord
100
AcDbLayerTableRecord
  2
0
 70
     0
 62
     7
  6
Continuous
370
    -3
390
F
  0
LAYER
  5
3B
330
2
100
AcDbSymbolTableRecord
100
AcDbLayerTableRecord
  2
E45714
 70
     0
 62
     7
  6
Continuous
370
    -3
390
F
  0
LAYER
  5
61
330
2
100
AcDbSymbolTableRecord
100
AcDbLayerTableRecord
  2
Defpoints
 70
     0
 62
     7
  6
Continuous
290
     0
370
    -3
390
F
  0
LAYER
  5
7B
330
2
100
AcDbSymbolTableRecord
100
AcDbLayerTableRecord
  2
MAKE2D VISIBLE LINES
 70
     0
 62
     7
  6
Continuous
370
    -3
390
F
  0
ENDTAB
  0
TABLE
  2
STYLE
  5
3
330
0
100
AcDbSymbolTable
 70
     2
  0
STYLE
  5
11
330
3
100
AcDbSymbolTableRecord
100
AcDbTextStyleTableRecord
  2
Standard
 70
     0
 40
0.0
 41
1.0
 50
0.0
 71
     0
 42
0.2
  3
txt
  4

  0
STYLE
  5
5F
330
3
100
AcDbSymbolTableRecord
100
AcDbTextStyleTableRecord
  2
ARIAL
 70
     0
 40
0.0
 41
1.0
 50
0.0
 71
     0
 42
0.0
  3
ARIAL.TTF
  4

1001
ACAD
1000
Arial
1071
      256
  0
ENDTAB
  0
TABLE
  2
VIEW
  5
6
330
0
100
AcDbSymbolTable
 70
     0
  0
ENDTAB
  0
TABLE
  2
UCS
  5
7
330
0
100
AcDbSymbolTable
 70
     0
  0
ENDTAB
  0
TABLE
  2
APPID
  5
9
330
0
100
AcDbSymbolTable
 70
     1
  0
APPID
  5
12
330
9
100
AcDbSymbolTableRecord
100
AcDbRegAppTableRecord
  2
ACAD
 70
     0
  0
ENDTAB
  0
TABLE
  2
DIMSTYLE
  5
A
330
0
100
AcDbSymbolTable
 70
     2
100
AcDbDimStyleTable
  0
DIMSTYLE
105
27
330
A
100
AcDbSymbolTableRecord
100
AcDbDimStyleTableRecord
  2
Standard
 70
     0
340
11
  0
DIMSTYLE
105
60
102
{ACAD_REACTORS
330
3C
330
6E
102
}
330
A
100
AcDbSymbolTableRecord
100
AcDbDimStyleTableRecord
  2
DEFAULT
 70
     0
 41
1.0
 42
0.5
 44
0.5
 73
     0
 77
     1
 78
     1
140
10.0
141
0.5
172
     1
174
     1
179
     2
271
     2
284
     1
340
5F
  0
ENDTAB
  0
TABLE
  2
BLOCK_RECORD
  5
1
330
0
100
AcDbSymbolTable
 70
     3
  0
BLOCK_RECORD
  5
1F
330
1
100
AcDbSymbolTableRecord
100
AcDbBlockTableRecord
  2
*Model_Space
340
22
  0
BLOCK_RECORD
  5
1B
330
1
100
AcDbSymbolTableRecord
100
AcDbBlockTableRecord
  2
*Paper_Space
340
1E
  0
BLOCK_RECORD
  5
23
330
1
100
AcDbSymbolTableRecord
100
AcDbBlockTableRecord
  2
*Paper_Space0
340
26
  0
BLOCK_RECORD
  5
62
330
1
100
AcDbSymbolTableRecord
100
AcDbBlockTableRecord
  2
*D1
340
0
  0
BLOCK_RECORD
  5
6F
330
1
100
AcDbSymbolTableRecord
100
AcDbBlockTableRecord
  2
*D2
340
0
  0
ENDTAB
  0
ENDSEC
  0
SECTION
  2
BLOCKS
  0
BLOCK
  5
20
330
1F
100
AcDbEntity
  8
0
100
AcDbBlockBegin
  2
*Model_Space
 70
     0
 10
0.0
 20
0.0
 30
0.0
  3
*Model_Space
  1

  0
ENDBLK
  5
21
330
1F
100
AcDbEntity
  8
0
100
AcDbBlockEnd
  0
BLOCK
  5
1C
330
1B
100
AcDbEntity
 67
     1
  8
0
100
AcDbBlockBegin
  2
*Paper_Space
 70
     0
 10
0.0
 20
0.0
 30
0.0
  3
*Paper_Space
  1

  0
ENDBLK
  5
1D
330
1B
100
AcDbEntity
 67
     1
  8
0
100
AcDbBlockEnd
  0
BLOCK
  5
24
330
23
100
AcDbEntity
  8
0
100
AcDbBlockBegin
  2
*Paper_Space0
 70
     0
 10
0.0
 20
0.0
 30
0.0
  3
*Paper_Space0
  1

  0
ENDBLK
  5
25
330
23
100
AcDbEntity
  8
0
100
AcDbBlockEnd
  0
BLOCK
  5
6C
330
62
100
AcDbEntity
  8
0
100
AcDbBlockBegin
  2
*D1
 70
     1
 10
0.0
 20
0.0
 30
0.0
  3
*D1
  1

  0
LINE
  5
63
330
62
100
AcDbEntity
  8
E45714
 62
     0
370
    -2
100
AcDbLine
 10
1115.5
 20
889.0
 30
0.0
 11
1325.5
 21
889.0
 31
0.0
  0
LINE
  5
64
330
62
100
AcDbEntity
  8
E45714
 62
     0
370
    -2
100
AcDbLine
 10
1115.5
 20
974.0
 30
0.0
 11
1325.5
 21
974.0
 31
0.0
  0
LINE
  5
65
330
62
100
AcDbEntity
  8
E45714
 62
     0
370
    -2
100
AcDbLine
 10
1325.0
 20
890.0
 30
0.0
 11
1325.0
 21
973.0
 31
0.0
  0
SOLID
  5
66
330
62
100
AcDbEntity
  8
E45714
 62
     0
100
AcDbTrace
 10
1324.833333333333
 20
890.0
 30
0.0
 11
1325.166666666667
 21
890.0
 31
0.0
 12
1325.0
 22
889.0
 32
0.0
 13
1325.0
 23
889.0
 33
0.0
  0
SOLID
  5
67
330
62
100
AcDbEntity
  8
E45714
 62
     0
100
AcDbTrace
 10
1325.166666666667
 20
973.0
 30
0.0
 11
1324.833333333333
 21
973.0
 31
0.0
 12
1325.0
 22
974.0
 32
0.0
 13
1325.0
 23
974.0
 33
0.0
  0
MTEXT
  5
68
330
62
100
AcDbEntity
  8
E45714
 62
     0
100
AcDbMText
 10
1319.805
 20
931.5
 30
0.0
 40
10.0
 41
0.0
 71
     5
 72
     1
  1
\A1;85.00
  7
ARIAL
 11
0.0
 21
1.0
 31
0.0
 73
     1
 44
1.0
  0
POINT
  5
69
330
62
100
AcDbEntity
  8
Defpoints
 62
     0
100
AcDbPoint
 10
1115.0
 20
889.0
 30
0.0
  0
POINT
  5
6A
330
62
100
AcDbEntity
  8
Defpoints
 62
     0
100
AcDbPoint
 10
1115.0
 20
974.0
 30
0.0
  0
POINT
  5
6B
330
62
100
AcDbEntity
  8
Defpoints
 62
     0
100
AcDbPoint
 10
1325.0
 20
974.0
 30
0.0
  0
ENDBLK
  5
6D
330
62
100
AcDbEntity
  8
0
100
AcDbBlockEnd
  0
BLOCK
  5
79
330
6F
100
AcDbEntity
  8
0
100
AcDbBlockBegin
  2
*D2
 70
     1
 10
0.0
 20
0.0
 30
0.0
  3
*D2
  1

  0
LINE
  5
70
330
6F
100
AcDbEntity
  8
E45714
 62
     0
370
    -2
100
AcDbLine
 10
948.0000000000001
 20
982.0495168500042
 30
0.0
 11
948.0000000000001
 21
1028.049516850004
 31
0.0
  0
LINE
  5
71
330
6F
100
AcDbEntity
  8
E45714
 62
     0
370
    -2
100
AcDbLine
 10
1228.0
 20
982.0495168500044
 30
0.0
 11
1228.0
 21
1028.049516850004
 31
0.0
  0
LINE
  5
72
330
6F
100
AcDbEntity
  8
E45714
 62
     0
370
    -2
100
AcDbLine
 10
949.0000000000001
 20
1027.549516850004
 30
0.0
 11
1227.0
 21
1027.549516850004
 31
0.0
  0
SOLID
  5
73
330
6F
100
AcDbEntity
  8
E45714
 62
     0
100
AcDbTrace
 10
949.0000000000001
 20
1027.716183516671
 30
0.0
 11
949.0000000000001
 21
1027.382850183337
 31
0.0
 12
948.0000000000001
 22
1027.549516850004
 32
0.0
 13
948.0000000000001
 23
1027.549516850004
 33
0.0
  0
SOLID
  5
74
330
6F
100
AcDbEntity
  8
E45714
 62
     0
100
AcDbTrace
 10
1227.0
 20
1027.382850183337
 30
0.0
 11
1227.0
 21
1027.716183516671
 31
0.0
 12
1228.0
 22
1027.549516850004
 32
0.0
 13
1228.0
 23
1027.549516850004
 33
0.0
  0
MTEXT
  5
75
330
6F
100
AcDbEntity
  8
E45714
 62
     0
100
AcDbMText
 10
1088.0
 20
1032.744516850004
 30
0.0
 40
10.0
 41
0.0
 71
     5
 72
     1
  1
\A1;280.00
  7
ARIAL
 73
     1
 44
1.0
  0
POINT
  5
76
330
6F
100
AcDbEntity
  8
Defpoints
 62
     0
100
AcDbPoint
 10
948.0000000000001
 20
981.5495168500042
 30
0.0
  0
POINT
  5
77
330
6F
100
AcDbEntity
  8
Defpoints
 62
     0
100
AcDbPoint
 10
1228.0
 20
981.5495168500044
 30
0.0
  0
POINT
  5
78
330
6F
100
AcDbEntity
  8
Defpoints
 62
     0
100
AcDbPoint
 10
1228.0
 20
1027.549516850004
 30
0.0
  0
ENDBLK
  5
7A
330
6F
100
AcDbEntity
  8
0
100
AcDbBlockEnd
  0
ENDSEC
  0
SECTION
  2
ENTITIES
  0
DIMENSION
  5
3C
330
1F
100
AcDbEntity
  8
E45714
100
AcDbDimension
  2
*D1
 10
1325.0
 20
974.0
 30
0.0
 11
1319.805
 21
931.5
 31
0.0
 70
    32
  1
<>
 71
     5
 42
85.0
  3
DEFAULT
100
AcDbAlignedDimension
 13
1115.0
 23
889.0
 33
0.0
 14
1115.0
 24
974.0
 34
0.0
 50
90.0
100
AcDbRotatedDimension
1001
ACAD
1000
DSTYLE
1002
{
1070
   279
1070
     1
1002
}
  0
DIMENSION
  5
6E
330
1F
100
AcDbEntity
  8
E45714
100
AcDbDimension
  2
*D2
 10
1228.0
 20
1027.549516850004
 30
0.0
 11
1088.0
 21
1032.744516850004
 31
0.0
 70
    32
  1
<>
 71
     5
 42
279.9999999999997
  3
DEFAULT
100
AcDbAlignedDimension
 13
948.0000000000001
 23
981.5495168500042
 33
0.0
 14
1228.0
 24
981.5495168500044
 34
0.0
100
AcDbRotatedDimension
1001
ACAD
1000
DSTYLE
1002
{
1070
   279
1070
     1
1002
}
  0
SPLINE
  5
7C
330
1F
100
AcDbEntity
  8
MAKE2D VISIBLE LINES
100
AcDbSpline
210
0.0
220
0.0
230
1.0
 70
    24
 71
     2
 72
     6
 73
     3
 74
     0
 42
0.0000000001
 43
0.0000000001
 40
0.0
 40
0.0
 40
0.0
 40
7.461441267927228
 40
7.461441267927228
 40
7.461441267927228
 10
1087.999999999972
 20
958.5495168499705
 30
0.0
 10
1091.730720633936
 20
958.5495168499706
 30
0.0
 10
1095.461441267899
 20
958.5495168499706
 30
0.0
  0
SPLINE
  5
7D
330
1F
100
AcDbEntity
  8
MAKE2D VISIBLE LINES
100
AcDbSpline
210
0.0
220
0.0
230
1.0
 70
    24
 71
     2
 72
     6
 73
     3
 74
     0
 42
0.0000000001
 43
0.0000000001
 40
0.0
 40
0.0
 40
0.0
 40
45.94870670510642
 40
45.94870670510642
 40
45.94870670510642
 10
1224.948706705106
 20
916.5495168499706
 30
0.0
 10
1201.974353352553
 20
916.5495168499706
 30
0.0
 10
1179.0
 20
916.5495168499706
 30
0.0
  0
SPLINE
  5
7E
330
1F
100
AcDbEntity
  8
MAKE2D VISIBLE LINES
100
AcDbSpline
210
0.0
220
0.0
230
1.0
 70
    12
 71
     2
 72
     6
 73
     3
 74
     0
 42
0.0000000001
 43
0.0000000001
 40
0.0
 40
0.0
 40
0.0
 40
17.28425357523491
 40
17.28425357523491
 40
17.28425357523491
 10
1041.666322562495
 20
916.5495168499706
 30
0.0
 41
1.0
 10
1035.499575607695
 20
910.209017578659
 30
0.0
 41
0.9659782361024334
 10
1026.989742600547
 20
907.7979096995946
 30
0.0
 41
1.0
  0
SPLINE
  5
7F
330
1F
100
AcDbEntity
  8
MAKE2D VISIBLE LINES
100
AcDbSpline
210
0.0
220
0.0
230
1.0
 70
    12
 71
     2
 72
     6
 73
     3
 74
     0
 42
0.0000000001
 43
0.0000000001
 40
0.0
 40
0.0
 40
0.0
 40
1.437896855464159
 40
1.437896855464159
 40
1.437896855464159
 10
1179.0
 20
916.5486473985452
 30
0.0
 41
1.0
 10
1178.124807708706
 20
916.5486839680011
 30
0.0
 41
0.7525189063438911
 10
1178.008820230738
 20
917.4161564188793
 30
0.0
 41
1.0
  0
SPLINE
  5
80
330
1F
100
AcDbEntity
  8
MAKE2D VISIBLE LINES
100
AcDbSpline
210
0.0
220
0.0
230
1.0
 70
    12
 71
     2
 72
     6
 73
     3
 74
     0
 42
0.0000000001
 43
0.0000000001
 40
0.0
 40
0.0
 40
0.0
 40
1.437994944969173
 40
1.437994944969173
 40
1.437994944969173
 10
1178.008807425658
 20
961.6828799491699
 30
0.0
 41
1.0
 10
1178.124723216212
 20
962.55044722577
 30
0.0
 41
0.752489150744295
 10
1179.0
 20
962.5504883292662
 30
0.0
 41
1.0
  0
SPLINE
  5
81
330
1F
100
AcDbEntity
  8
MAKE2D VISIBLE LINES
100
AcDbSpline
210
0.0
220
0.0
230
1.0
 70
    12
 71
     2
 72
     6
 73
     3
 74
     0
 42
0.0000000001
 43
0.0000000001
 40
0.0
 40
0.0
 40
0.0
 40
1.384852170338697
 40
1.384852170338697
 40
1.384852170338697
 10
1225.931468946302
 20
917.3646422023949
 30
0.0
 41
1.0
 10
1225.778128970779
 20
916.5495175820438
 30
0.0
 41
0.7697003860641692
 10
1224.948706705106
 20
916.5495161265284
 30
0.0
 41
1.0
  0
SPLINE
  5
82
330
1F
100
AcDbEntity
  8
MAKE2D VISIBLE LINES
100
AcDbSpline
210
0.0
220
0.0
230
1.0
 70
    12
 71
     2
 72
     6
 73
     3
 74
     0
 42
0.0000000001
 43
0.0000000001
 40
0.0
 40
0.0
 40
0.0
 40
1.384851306775066
 40
1.384851306775066
 40
1.384851306775066
 10
1224.948706705114
 20
962.549521771359
 30
0.0
 41
1.0
 10
1225.778127019336
 20
962.5495178140899
 30
0.0
 41
0.7697022543431732
 10
1225.931468946339
 20
961.7343955465234
 30
0.0
 41
1.0
  0
SPLINE
  5
83
330
1F
100
AcDbEntity
  8
MAKE2D VISIBLE LINES
100
AcDbSpline
210
0.0
220
0.0
230
1.0
 70
    24
 71
     2
 72
     6
 73
     3
 74
     0
 42
0.0000000001
 43
0.0000000001
 40
0.0
 40
0.0
 40
0.0
 40
8.198435805262818
 40
8.198435805262818
 40
8.198435805262818
 10
1227.71903614069
 20
939.5479507133228
 30
0.0
 10
1227.719036140685
 20
935.4487328106914
 30
0.0
 10
1227.71903614068
 20
931.34951490806
 30
0.0
  0
SPLINE
  5
84
330
1F
100
AcDbEntity
  8
MAKE2D VISIBLE LINES
100
AcDbSpline
210
0.0
220
0.0
230
1.0
 70
    12
 71
     2
 72
     6
 73
     3
 74
     0
 42
0.0000000001
 43
0.0000000001
 40
0.0
 40
0.0
 40
0.0
 40
0.0135523455908372
 40
0.0135523455908372
 40
0.0135523455908372
 10
1227.718567261
 20
947.7632063444566
 30
0.0
 41
1.0
 10
1227.719011258845
 20
947.7564425566934
 30
0.0
 41
0.9995194074766408
 10
1227.719035260079
 20
947.7496642543297
 30
0.0
 41
1.0
  0
SPLINE
  5
85
330
1F
100
AcDbEntity
  8
MAKE2D VISIBLE LINES
100
AcDbSpline
210
0.0
220
0.0
230
1.0
 70
    12
 71
     2
 72
     6
 73
     3
 74
     0
 42
0.0000000001
 43
0.0000000001
 40
0.0
 40
0.0
 40
0.0
 40
0.5392703017882431
 40
0.5392703017882431
 40
0.5392703017882431
 10
1086.922398215399
 20
893.1108657860659
 30
0.0
 41
1.0
 10
1087.191855544559
 20
893.1206567284045
 30
0.0
 41
0.9999999980164046
 10
1087.461314104959
 20
893.1304137267796
 30
0.0
 41
1.0
  0
SPLINE
  5
86
330
1F
100
AcDbEntity
  8
MAKE2D VISIBLE LINES
100
AcDbSpline
210
0.0
220
0.0
230
1.0
 70
    12
 71
     2
 72
     6
 73
     3
 74
     0
 42
0.0000000001
 43
0.0000000001
 40
0.0
 40
0.0
 40
0.0
 40
0.5527609406139137
 40
0.5527609406139137
 40
0.5527609406139137
 10
1077.000000000002
 20
898.7776509562129
 30
0.0
 41
1.0
 10
1076.716938302488
 20
898.8287016381285
 30
0.0
 41
0.9423604641815723
 10
1076.529451855541
 20
899.0468275855396
 30
0.0
 41
1.0
  0
SPLINE
  5
87
330
1F
100
AcDbEntity
  8
MAKE2D VISIBLE LINES
100
AcDbSpline
210
0.0
220
0.0
230
1.0
 70
    12
 71
     2
 72
     6
 73
     3
 74
     0
 42
0.0000000001
 43
0.0000000001
 40
0.0
 40
0.0
 40
0.0
 40
1.570008574352446
 40
1.570008574352446
 40
1.570008574352446
 10
1101.000549096994
 20
900.0495168499705
 30
0.0
 41
1.0
 10
1101.000525829413
 20
899.0503175463757
 30
0.0
 41
0.7073981509097406
 10
1100.001326846093
 20
899.0495171861319
 30
0.0
 41
1.0
  0
SPLINE
  5
88
330
1F
100
AcDbEntity
  8
MAKE2D VISIBLE LINES
100
AcDbSpline
210
0.0
220
0.0
230
1.0
 70
    12
 71
     2
 72
     6
 73
     3
 74
     0
 42
0.0000000001
 43
0.0000000001
 40
0.0
 40
0.0
 40
0.0
 40
1.570826161821378
 40
1.570826161821378
 40
1.570826161821378
 10
1074.999450903006
 20
910.0495168499705
 30
0.0
 41
1.0
 10
1074.999474327218
 20
911.049533314124
 30
0.0
 41
0.7071092418928437
 10
1075.99949079151
 20
911.0495168499677
 30
0.0
 41
1.0
  0
SPLINE
  5
89
330
1F
100
AcDbEntity
  8
MAKE2D VISIBLE LINES
100
AcDbSpline
210
0.0
220
0.0
230
1.0
 70
    12
 71
     2
 72
     6
 73
     3
 74
     0
 42
0.0000000001
 43
0.0000000001
 40
0.0
 40
0.0
 40
0.0
 40
0.6823934123258231
 40
0.6823934123258231
 40
0.6823934123258231
 10
1070.822632796358
 20
912.3357030638279
 30
0.0
 41
1.0
 10
1070.425014382176
 20
912.418912432586
 30
0.0
 41
0.7762861240186568
 10
1070.424845038021
 20
912.8251441074565
 30
0.0
 41
1.0
  0
SPLINE
  5
8A
330
1F
100
AcDbEntity
  8
MAKE2D VISIBLE LINES
100
AcDbSpline
210
0.0
220
0.0
230
1.0
 70
    12
 71
     2
 72
     6
 73
     3
 74
     0
 42
0.0000000001
 43
0.0000000001
 40
0.0
 40
0.0
 40
0.0
 40
0.6824566189461956
 40
0.6824566189461956
 40
0.6824566189461956
 10
1105.575155325685
 20
912.825144107456
 30
0.0
 41
1.0
 10
1105.575146219096
 20
912.4187821747573
 30
0.0
 41
0.7760373382725253
 10
1105.177367523471
 20
912.3357031176154
 30
0.0
 41
1.0
  0
SPLINE
  5
8B
330
1F
100
AcDbEntity
  8
MAKE2D VISIBLE LINES
100
AcDbSpline
210
0.0
220
0.0
230
1.0
 70
    24
 71
     2
 72
     6
 73
     3
 74
     0
 42
0.0000000001
 43
0.0000000001
 40
0.0
 40
0.0
 40
0.0
 40
5.524372742513094
 40
5.524372742513094
 40
5.524372742513094
 10
1105.575154241221
 20
918.3495168499705
 30
0.0
 10
1105.575154241221
 20
915.587330478714
 30
0.0
 10
1105.575154241221
 20
912.8251441074574
 30
0.0
  0
SPLINE
  5
8C
330
1F
100
AcDbEntity
  8
MAKE2D VISIBLE LINES
100
AcDbSpline
210
0.0
220
0.0
230
1.0
 70
    24
 71
     2
 72
     6
 73
     3
 74
     0
 42
0.0000000001
 43
0.0000000001
 40
0.0
 40
0.0
 40
0.0
 40
5.524372742513606
 40
5.524372742513606
 40
5.524372742513606
 10
1070.424845758781
 20
912.8251441074569
 30
0.0
 10
1070.424845758781
 20
915.5873304787137
 30
0.0
 10
1070.424845758781
 20
918.3495168499705
 30
0.0
  0
SPLINE
  5
8D
330
1F
100
AcDbEntity
  8
MAKE2D VISIBLE LINES
100
AcDbSpline
210
0.0
220
0.0
230
1.0
 70
     8
 71
     3
 72
    16
 73
    12
 74
     0
 42
0.0000000001
 43
0.0000000001
 40
0.0
 40
0.0
 40
0.0
 40
0.0
 40
0.0245200110782956
 40
0.0674039068167663
 40
0.1387655425892033
 40
0.384696797889688
 40
0.6948436898365254
 40
2.276897100979833
 40
3.396590942547505
 40
5.452440235873662
 40
9.820685691626501
 40
9.820685691626501
 40
9.820685691626501
 40
9.820685691626501
 10
1100.000048129971
 20
923.7143140764771
 30
0.0
 10
1100.001267251538
 20
923.7226000726662
 30
0.0
 10
1099.991012361129
 20
923.7455510357013
 30
0.0
 10
1099.941158086169
 20
923.7519377478742
 30
0.0
 10
1099.824655569952
 20
923.726498743632
 30
0.0
 10
1099.626546377438
 20
923.65670666264
 30
0.0
 10
1098.973556318691
 20
923.3718481149997
 30
0.0
 10
1098.059926775888
 20
922.9545645030324
 30
0.0
 10
1096.580896394273
 20
922.3808484424912
 30
0.0
 10
1094.173552725848
 20
921.6436388871871
 30
0.0
 10
1092.033065709808
 20
921.3750628967973
 30
0.0
 10
1090.576684579215
 20
921.3807913586345
 30
0.0
  0
SPLINE
  5
8E
330
1F
100
AcDbEntity
  8
MAKE2D VISIBLE LINES
100
AcDbSpline
210
0.0
220
0.0
230
1.0
 70
     8
 71
     3
 72
    16
 73
    12
 74
     0
 42
0.0000000001
 43
0.0000000001
 40
0.0
 40
0.0
 40
0.0
 40
0.0
 40
0.0245289239463058
 40
0.067372233558816
 40
0.1387246699602133
 40
0.384747891586275
 40
0.695063597111631
 40
2.276607246201445
 40
3.396175232101518
 40
5.453472538956093
 40
9.820814153645061
 40
9.820814153645061
 40
9.820814153645061
 40
9.820814153645061
 10
1075.999958540171
 20
923.7143629213807
 30
0.0
 10
1075.998718651667
 20
923.7226457141658
 30
0.0
 10
1076.008886348758
 20
923.7456357287813
 30
0.0
 10
1076.058748624152
 20
923.7520614166858
 30
0.0
 10
1076.175246450588
 20
923.7265877405588
 30
0.0
 10
1076.373459185301
 20
923.6568130626408
 30
0.0
 10
1077.026250085028
 20
923.3717099323046
 30
0.0
 10
1077.939812216094
 20
922.9546584901371
 30
0.0
 10
1079.419090836779
 20
922.3808460577702
 30
0.0
 10
1081.826538542605
 20
921.6434644297244
 30
0.0
 10
1083.96724583949
 20
921.375094911265
 30
0.0
 10
1085.423315412126
 20
921.3807913585999
 30
0.0
  0
SPLINE
  5
8F
330
1F
100
AcDbEntity
  8
MAKE2D VISIBLE LINES
100
AcDbSpline
210
0.0
220
0.0
230
1.0
 70
    24
 71
     2
 72
     6
 73
     3
 74
     0
 42
0.0000000001
 43
0.0000000001
 40
0.0
 40
0.0
 40
0.0
 40
7.461629528161382
 40
7.461629528161382
 40
7.461629528161382
 10
1080.538370471811
 20
958.5495168499705
 30
0.0
 10
1084.269185235892
 20
958.5495168499705
 30
0.0
 10
1087.999999999972
 20
958.5495168499705
 30
0.0
  0
SPLINE
  5
90
330
1F
100
AcDbEntity
  8
MAKE2D VISIBLE LINES
100
AcDbSpline
210
0.0
220
0.0
230
1.0
 70
    12
 71
     2
 72
     6
 73
     3
 74
     0
 42
0.0000000001
 43
0.0000000001
 40
0.0
 40
0.0
 40
0.0
 40
6.381452144833374
 40
6.381452144833374
 40
6.381452144833374
 10
994.333915778508
 20
962.5495168499704
 30
0.0
 41
1.0
 10
996.5657100771234
 20
964.8437300591588
 30
0.0
 41
0.9953439691464672
 10
999.1962397124141
 20
966.667087917179
 30
0.0
 41
1.0
  0
SPLINE
  5
91
330
1F
100
AcDbEntity
  8
MAKE2D VISIBLE LINES
100
AcDbSpline
210
0.0
220
0.0
230
1.0
 70
    12
 71
     2
 72
     6
 73
     3
 74
     0
 42
0.0000000001
 43
0.0000000001
 40
0.0
 40
0.0
 40
0.0
 40
2.576691322504134
 40
2.576691322504134
 40
2.576691322504134
 10
1088.0
 20
921.3858804863341
 30
0.0
 41
1.0
 10
1086.711652630049
 20
921.3859059675874
 30
0.0
 41
0.9999980102996521
 10
1085.423315412126
 20
921.3807913585999
 30
0.0
 41
1.0
  0
SPLINE
  5
92
330
1F
100
AcDbEntity
  8
MAKE2D VISIBLE LINES
100
AcDbSpline
210
0.0
220
0.0
230
1.0
 70
    24
 71
     2
 72
     6
 73
     3
 74
     0
 42
0.0000000001
 43
0.0000000001
 40
0.0
 40
0.0
 40
0.0
 40
8.800332540854868
 40
8.800332540854868
 40
8.800332540854868
 10
1088.000000000026
 20
962.5495168499705
 30
0.0
 10
1083.599833729598
 20
962.5495168499706
 30
0.0
 10
1079.199667459171
 20
962.5495168499706
 30
0.0
  0
SPLINE
  5
93
330
1F
100
AcDbEntity
  8
MAKE2D VISIBLE LINES
100
AcDbSpline
210
0.0
220
0.0
230
1.0
 70
    24
 71
     2
 72
     6
 73
     3
 74
     0
 42
0.0000000001
 43
0.0000000001
 40
0.0
 40
0.0
 40
0.0
 40
7.161291404376726
 40
7.161291404376726
 40
7.161291404376726
 10
1095.161291404403
 20
962.5495168499705
 30
0.0
 10
1091.580645702214
 20
962.5495168499705
 30
0.0
 10
1088.000000000026
 20
962.5495168499705
 30
0.0
  0
SPLINE
  5
94
330
1F
100
AcDbEntity
  8
MAKE2D VISIBLE LINES
100
AcDbSpline
210
0.0
220
0.0
230
1.0
 70
    12
 71
     2
 72
     6
 73
     3
 74
     0
 42
0.0000000001
 43
0.0000000001
 40
0.0
 40
0.0
 40
0.0
 40
14.58273281940532
 40
14.58273281940532
 40
14.58273281940532
 10
1095.269230769296
 20
973.0580048123744
 30
0.0
 41
1.0
 10
1088.000000000033
 20
974.0455437615999
 30
0.0
 41
0.9908979252297812
 10
1080.730769230769
 20
973.0580048123833
 30
0.0
 41
1.0
  0
SPLINE
  5
95
330
1F
100
AcDbEntity
  8
MAKE2D VISIBLE LINES
100
AcDbSpline
210
0.0
220
0.0
230
1.0
 70
    12
 71
     2
 72
     6
 73
     3
 74
     0
 42
0.0000000001
 43
0.0000000001
 40
0.0
 40
0.0
 40
0.0
 40
1.513631054253658
 40
1.513631054253658
 40
1.513631054253658
 10
951.3405595942744
 20
935.5678575744911
 30
0.0
 41
1.0
 10
950.4089961022872
 20
935.6065970972763
 30
0.0
 41
0.7400873960064454
 10
950.3586328699471
 20
936.5376045274602
 30
0.0
 41
1.0
  0
SPLINE
  5
96
330
1F
100
AcDbEntity
  8
MAKE2D VISIBLE LINES
100
AcDbSpline
210
0.0
220
0.0
230
1.0
 70
    12
 71
     2
 72
     6
 73
     3
 74
     0
 42
0.0000000001
 43
0.0000000001
 40
0.0
 40
0.0
 40
0.0
 40
1.516645629448188
 40
1.516645629448188
 40
1.516645629448188
 10
950.35862530404
 20
942.5612596510778
 30
0.0
 41
1.0
 10
950.4041790043913
 20
943.4979342976936
 30
0.0
 41
0.736189833372331
 10
951.3413713614425
 20
943.53117612545
 30
0.0
 41
1.0
  0
SPLINE
  5
97
330
1F
100
AcDbEntity
  8
MAKE2D VISIBLE LINES
100
AcDbSpline
210
0.0
220
0.0
230
1.0
 70
    12
 71
     2
 72
     6
 73
     3
 74
     0
 42
0.0000000001
 43
0.0000000001
 40
0.0
 40
0.0
 40
0.0
 40
14.09311530047168
 40
14.09311530047168
 40
14.09311530047168
 10
948.2814329141651
 20
947.7632063324415
 30
0.0
 41
1.0
 10
948.7643066928993
 20
954.8013293338946
 30
0.0
 41
0.9982763990167163
 10
950.0685310536612
 20
961.7343907995506
 30
0.0
 41
1.0
  0
SPLINE
  5
98
330
1F
100
AcDbEntity
  8
MAKE2D VISIBLE LINES
100
AcDbSpline
210
0.0
220
0.0
230
1.0
 70
    12
 71
     2
 72
     6
 73
     3
 74
     0
 42
0.0000000001
 43
0.0000000001
 40
0.0
 40
0.0
 40
0.0
 40
14.09311530059299
 40
14.09311530059299
 40
14.09311530059299
 10
950.0685310536971
 20
917.3646429001997
 30
0.0
 41
1.0
 10
948.7643066929124
 20
924.2977043659133
 30
0.0
 41
0.9982763990166859
 10
948.28143291417
 20
931.3358273674269
 30
0.0
 41
1.0
  0
SPLINE
  5
99
330
1F
100
AcDbEntity
  8
MAKE2D VISIBLE LINES
100
AcDbSpline
210
0.0
220
0.0
230
1.0
 70
    12
 71
     2
 72
     6
 73
     3
 74
     0
 42
0.0000000001
 43
0.0000000001
 40
0.0
 40
0.0
 40
0.0
 40
15.23560662434599
 40
15.23560662434599
 40
15.23560662434599
 10
948.2417143398359
 20
931.9368290369478
 30
0.0
 41
1.0
 10
947.7577977956125
 20
939.5495168500044
 30
0.0
 41
0.9979857138346829
 10
948.2417143398402
 20
947.1622046630606
 30
0.0
 41
1.0
  0
SPLINE
  5
9A
330
1F
100
AcDbEntity
  8
MAKE2D VISIBLE LINES
100
AcDbSpline
210
0.0
220
0.0
230
1.0
 70
    24
 71
     2
 72
     6
 73
     3
 74
     0
 42
0.0000000001
 43
0.0000000001
 40
0.0
 40
0.0
 40
0.0
 40
45.94870670511409
 40
45.94870670511409
 40
45.94870670511409
 10
1179.0
 20
962.5495168499705
 30
0.0
 10
1201.974353352557
 20
962.5495168499705
 30
0.0
 10
1224.948706705114
 20
962.5495168499705
 30
0.0
  0
SPLINE
  5
9B
330
1F
100
AcDbEntity
  8
MAKE2D VISIBLE LINES
100
AcDbSpline
210
0.0
220
0.0
230
1.0
 70
    12
 71
     2
 72
     6
 73
     3
 74
     0
 42
0.0000000001
 43
0.0000000001
 40
0.0
 40
0.0
 40
0.0
 40
0.0135502753277761
 40
0.0135502753277761
 40
0.0135502753277761
 10
1227.719035233722
 20
931.3493673802757
 30
0.0
 41
1.0
 10
1227.719011136479
 20
931.34259011383
 30
0.0
 41
0.9995194312893428
 10
1227.718567117396
 20
931.3358273652614
 30
0.0
 41
1.0
  0
SPLINE
  5
9C
330
1F
100
AcDbEntity
  8
MAKE2D VISIBLE LINES
100
AcDbSpline
210
0.0
220
0.0
230
1.0
 70
    28
 71
     2
 72
     6
 73
     3
 74
     0
 42
0.0000000001
 43
0.0000000001
 40
0.0
 40
0.0
 40
0.0
 40
8.200002600289281
 40
8.200002600289281
 40
8.200002600289281
 10
1227.719036102295
 20
947.7495194502976
 30
0.0
 41
1.0
 10
1227.719036105554
 20
943.649518150153
 30
0.0
 41
1.0
 10
1227.719036108812
 20
939.5495168500083
 30
0.0
 41
1.0
  0
SPLINE
  5
9D
330
1F
100
AcDbEntity
  8
MAKE2D VISIBLE LINES
100
AcDbSpline
210
0.0
220
0.0
230
1.0
 70
    12
 71
     2
 72
     6
 73
     3
 74
     0
 42
0.0000000001
 43
0.0000000001
 40
0.0
 40
0.0
 40
0.0
 40
0.1151664777065633
 40
0.1151664777065633
 40
0.1151664777065633
 10
1227.719036141439
 20
947.2687714625199
 30
0.0
 41
1.0
 10
1227.754531889291
 20
947.2213337295117
 30
0.0
 41
0.9583886297066969
 10
1227.75828566016
 20
947.1622050915028
 30
0.0
 41
1.0
  0
SPLINE
  5
9E
330
1F
100
AcDbEntity
  8
MAKE2D VISIBLE LINES
100
AcDbSpline
210
0.0
220
0.0
230
1.0
 70
    12
 71
     2
 72
     6
 73
     3
 74
     0
 42
0.0000000001
 43
0.0000000001
 40
0.0
 40
0.0
 40
0.0
 40
0.1151513544935482
 40
0.1151513544935482
 40
0.1151513544935482
 10
1227.758285660164
 20
931.9368266592446
 30
0.0
 41
1.0
 10
1227.754258941023
 20
931.8777806326345
 30
0.0
 41
0.9597515625738415
 10
1227.719036141617
 20
931.830220122466
 30
0.0
 41
1.0
  0
SPLINE
  5
9F
330
1F
100
AcDbEntity
  8
MAKE2D VISIBLE LINES
100
AcDbSpline
210
0.0
220
0.0
230
1.0
 70
    12
 71
     2
 72
     6
 73
     3
 74
     0
 42
0.0000000001
 43
0.0000000001
 40
0.0
 40
0.0
 40
0.0
 40
9.104871869601896
 40
9.104871869601896
 40
9.104871869601896
 10
1158.000000000028
 20
906.5495168499706
 30
0.0
 41
1.0
 10
1153.41845285957
 20
906.5495556191225
 30
0.0
 41
0.9904961771867268
 10
1149.01025749639
 20
907.7979096721781
 30
0.0
 41
1.0
  0
SPLINE
  5
A0
330
1F
100
AcDbEntity
  8
MAKE2D VISIBLE LINES
100
AcDbSpline
210
0.0
220
0.0
230
1.0
 70
    12
 71
     2
 72
     6
 73
     3
 74
     0
 42
0.0000000001
 43
0.0000000001
 40
0.0
 40
0.0
 40
0.0
 40
6.576825096058207
 40
6.576825096058207
 40
6.576825096058207
 10
1164.533336285973
 20
907.2031121459707
 30
0.0
 41
1.0
 10
1161.299338682254
 20
906.54973990221
 30
0.0
 41
0.9950399710222153
 10
1158.000000000028
 20
906.5495168499706
 30
0.0
 41
1.0
  0
SPLINE
  5
A1
330
1F
100
AcDbEntity
  8
MAKE2D VISIBLE LINES
100
AcDbSpline
210
0.0
220
0.0
230
1.0
 70
    12
 71
     2
 72
     6
 73
     3
 74
     0
 42
0.0000000001
 43
0.0000000001
 40
0.0
 40
0.0
 40
0.0
 40
7.040172903656864
 40
7.040172903656864
 40
7.040172903656864
 10
1181.665456342695
 20
916.5495168499706
 30
0.0
 41
1.0
 10
1179.202750018855
 20
914.0155065759637
 30
0.0
 41
0.994285243013642
 10
1176.258227948056
 20
912.0620685091633
 30
0.0
 41
1.0
  0
SPLINE
  5
A2
330
1F
100
AcDbEntity
  8
MAKE2D VISIBLE LINES
100
AcDbSpline
210
0.0
220
0.0
230
1.0
 70
    12
 71
     2
 72
     6
 73
     3
 74
     0
 42
0.0000000001
 43
0.0000000001
 40
0.0
 40
0.0
 40
0.0
 40
12.47671644247648
 40
12.47671644247648
 40
12.47671644247648
 10
1165.465473782891
 20
971.6922442232626
 30
0.0
 41
1.0
 10
1171.617223401278
 20
970.268580226323
 30
0.0
 41
0.9820484043607942
 10
1176.803755785913
 20
966.6670910389677
 30
0.0
 41
1.0
  0
SPLINE
  5
A3
330
1F
100
AcDbEntity
  8
MAKE2D VISIBLE LINES
100
AcDbSpline
210
0.0
220
0.0
230
1.0
 70
    12
 71
     2
 72
     6
 73
     3
 74
     0
 42
0.0000000001
 43
0.0000000001
 40
0.0
 40
0.0
 40
0.0
 40
13.25948289326541
 40
13.25948289326541
 40
13.25948289326541
 10
1140.348097043694
 20
967.4301471275228
 30
0.0
 41
1.0
 10
1146.0247563664
 20
971.0279266297359
 30
0.0
 41
0.9798111186559898
 10
1152.657153493979
 20
972.1141065203165
 30
0.0
 41
1.0
  0
SPLINE
  5
A4
330
1F
100
AcDbEntity
  8
MAKE2D VISIBLE LINES
100
AcDbSpline
210
0.0
220
0.0
230
1.0
 70
    12
 71
     2
 72
     6
 73
     3
 74
     0
 42
0.0000000001
 43
0.0000000001
 40
0.0
 40
0.0
 40
0.0
 40
0.7854124564280914
 40
0.7854124564280914
 40
0.7854124564280914
 10
1076.499513159173
 20
917.5495168499717
 30
0.0
 41
1.0
 10
1075.99950648
 20
917.5495101709305
 30
0.0
 41
0.7071114902595141
 10
1075.999493141212
 20
918.0495168499706
 30
0.0
 41
1.0
  0
SPLINE
  5
A5
330
1F
100
AcDbEntity
  8
MAKE2D VISIBLE LINES
100
AcDbSpline
210
0.0
220
0.0
230
1.0
 70
    12
 71
     2
 72
     6
 73
     3
 74
     0
 42
0.0000000001
 43
0.0000000001
 40
0.0
 40
0.0
 40
0.0
 40
0.7854086807735535
 40
0.7854086807735535
 40
0.7854086807735535
 10
1100.00045362685
 20
918.0495168499706
 30
0.0
 41
1.0
 10
1100.000435477105
 20
917.5495166927805
 30
0.0
 41
0.7071195037254557
 10
1099.500435319586
 20
917.5495168499708
 30
0.0
 41
1.0
  0
SPLINE
  5
A6
330
1F
100
AcDbEntity
  8
MAKE2D VISIBLE LINES
100
AcDbSpline
210
0.0
220
0.0
230
1.0
 70
    12
 71
     2
 72
     6
 73
     3
 74
     0
 42
0.0000000001
 43
0.0000000001
 40
0.0
 40
0.0
 40
0.0
 40
0.4114958487241793
 40
0.4114958487241793
 40
0.4114958487241793
 10
1089.08484988971
 20
896.9884321636955
 30
0.0
 41
1.0
 10
1088.879237706106
 20
896.9809596533398
 30
0.0
 41
0.9999999986156144
 10
1088.673624737247
 20
896.9735087812868
 30
0.0
 41
1.0
  0
SPLINE
  5
A7
330
1F
100
AcDbEntity
  8
MAKE2D VISIBLE LINES
100
AcDbSpline
210
0.0
220
0.0
230
1.0
 70
    12
 71
     2
 72
     6
 73
     3
 74
     0
 42
0.0000000001
 43
0.0000000001
 40
0.0
 40
0.0
 40
0.0
 40
0.1661541661458841
 40
0.1661541661458841
 40
0.1661541661458841
 10
1089.621888650838
 20
894.5080205418747
 30
0.0
 41
1.0
 10
1089.704910215525
 20
894.5110572403063
 30
0.0
 41
0.9999999990729089
 10
1089.787931518383
 20
894.5141010885798
 30
0.0
 41
1.0
  0
SPLINE
  5
A8
330
1F
100
AcDbEntity
  8
MAKE2D VISIBLE LINES
100
AcDbSpline
210
0.0
220
0.0
230
1.0
 70
    12
 71
     2
 72
     6
 73
     3
 74
     0
 42
0.0000000001
 43
0.0000000001
 40
0.0
 40
0.0
 40
0.0
 40
0.1107257493331802
 40
0.1107257493331802
 40
0.1107257493331802
 10
1089.084849620491
 20
896.9884395399304
 30
0.0
 41
1.0
 10
1089.140175937639
 20
896.9904511370224
 30
0.0
 41
0.999999999821856
 10
1089.195502178808
 20
896.992464822747
 30
0.0
 41
1.0
  0
SPLINE
  5
A9
330
1F
100
AcDbEntity
  8
MAKE2D VISIBLE LINES
100
AcDbSpline
210
0.0
220
0.0
230
1.0
 70
    12
 71
     2
 72
     6
 73
     3
 74
     0
 42
0.0000000001
 43
0.0000000001
 40
0.0
 40
0.0
 40
0.0
 40
0.4173242317264852
 40
0.4173242317264852
 40
0.4173242317264852
 10
1089.621889178773
 20
894.5080062163165
 30
0.0
 41
1.0
 10
1089.413366367354
 20
894.5003828352824
 30
0.0
 41
0.9999999961441568
 10
1089.204842220238
 20
894.4927960777316
 30
0.0
 41
1.0
  0
SPLINE
  5
AA
330
1F
100
AcDbEntity
  8
MAKE2D VISIBLE LINES
100
AcDbSpline
210
0.0
220
0.0
230
1.0
 70
    12
 71
     2
 72
     6
 73
     3
 74
     0
 42
0.0000000001
 43
0.0000000001
 40
0.0
 40
0.0
 40
0.0
 40
0.5279095552293563
 40
0.5279095552293563
 40
0.5279095552293563
 10
1087.461314037176
 20
895.6304144323203
 30
0.0
 41
1.0
 10
1087.725095943767
 20
895.6399658928545
 30
0.0
 41
0.9999999998085597
 10
1087.98887822395
 20
895.649507030364
 30
0.0
 41
1.0
  0
SPLINE
  5
AB
330
1F
100
AcDbEntity
  8
MAKE2D VISIBLE LINES
100
AcDbSpline
210
0.0
220
0.0
230
1.0
 70
    12
 71
     2
 72
     6
 73
     3
 74
     0
 42
0.0000000001
 43
0.0000000001
 40
0.0
 40
0.0
 40
0.0
 40
0.417368350358397
 40
0.417368350358397
 40
0.417368350358397
 10
1089.62188913971
 20
892.0080062138095
 30
0.0
 41
1.0
 10
1089.413344283687
 20
892.0003820272502
 30
0.0
 41
0.9999999961434723
 10
1089.204798091708
 20
891.9927944712954
 30
0.0
 41
1.0
  0
SPLINE
  5
AC
330
1F
100
AcDbEntity
  8
MAKE2D VISIBLE LINES
100
AcDbSpline
210
0.0
220
0.0
230
1.0
 70
    12
 71
     2
 72
     6
 73
     3
 74
     0
 42
0.0000000001
 43
0.0000000001
 40
0.0
 40
0.0
 40
0.0
 40
0.2843780085112518
 40
0.2843780085112518
 40
0.2843780085112518
 10
1087.74550595458
 20
893.1407017967831
 30
0.0
 41
1.0
 10
1087.603409940037
 20
893.1355602419969
 30
0.0
 41
0.9999999998707946
 10
1087.46131409087
 20
893.1304141187809
 30
0.0
 41
1.0
  0
SPLINE
  5
AD
330
1F
100
AcDbEntity
  8
MAKE2D VISIBLE LINES
100
AcDbSpline
210
0.0
220
0.0
230
1.0
 70
    12
 71
     2
 72
     6
 73
     3
 74
     0
 42
0.0000000001
 43
0.0000000001
 40
0.0
 40
0.0
 40
0.0
 40
0.1323121611012903
 40
0.1323121611012903
 40
0.1323121611012903
 10
1088.543215499485
 20
891.9687860250388
 30
0.0
 41
1.0
 10
1088.609328213703
 20
891.9711810225333
 30
0.0
 41
0.9999999999250481
 10
1088.675440869254
 20
891.9735776389323
 30
0.0
 41
1.0
  0
SPLINE
  5
AE
330
1F
100
AcDbEntity
  8
MAKE2D VISIBLE LINES
100
AcDbSpline
210
0.0
220
0.0
230
1.0
 70
    12
 71
     2
 72
     6
 73
     3
 74
     0
 42
0.0000000001
 43
0.0000000001
 40
0.0
 40
0.0
 40
0.0
 40
0.0910455112220331
 40
0.0910455112220331
 40
0.0910455112220331
 10
1087.461314048606
 20
895.6304141172513
 30
0.0
 41
1.0
 10
1087.4158211202
 20
895.6287664693732
 30
0.0
 41
0.9999999999702549
 10
1087.370328217216
 20
895.6271181197217
 30
0.0
 41
1.0
  0
SPLINE
  5
AF
330
1F
100
AcDbEntity
  8
MAKE2D VISIBLE LINES
100
AcDbSpline
210
0.0
220
0.0
230
1.0
 70
    12
 71
     2
 72
     6
 73
     3
 74
     0
 42
0.0000000001
 43
0.0000000001
 40
0.0
 40
0.0
 40
0.0
 40
1.513631054253608
 40
1.513631054253608
 40
1.513631054253608
 10
1224.659440405725
 20
935.5678575744911
 30
0.0
 41
1.0
 10
1225.591003897713
 20
935.6065970972766
 30
0.0
 41
0.7400873960064629
 10
1225.641367130053
 20
936.5376045274602
 30
0.0
 41
1.0
  0
SPLINE
  5
B0
330
1F
100
AcDbEntity
  8
MAKE2D VISIBLE LINES
100
AcDbSpline
210
0.0
220
0.0
230
1.0
 70
    12
 71
     2
 72
     6
 73
     3
 74
     0
 42
0.0000000001
 43
0.0000000001
 40
0.0
 40
0.0
 40
0.0
 40
1.51664562944814
 40
1.51664562944814
 40
1.51664562944814
 10
1225.64137469596
 20
942.5612596510778
 30
0.0
 41
1.0
 10
1225.595820995609
 20
943.4979342976934
 30
0.0
 41
0.7361898333723503
 10
1224.658628638557
 20
943.5311761254499
 30
0.0
 41
1.0
  0
SPLINE
  5
B1
330
1F
100
AcDbEntity
  8
MAKE2D VISIBLE LINES
100
AcDbSpline
210
0.0
220
0.0
230
1.0
 70
    12
 71
     2
 72
     6
 73
     3
 74
     0
 42
0.0000000001
 43
0.0000000001
 40
0.0
 40
0.0
 40
0.0
 40
14.09311530047174
 40
14.09311530047174
 40
14.09311530047174
 10
1227.718567085835
 20
947.7632063324415
 30
0.0
 41
1.0
 10
1227.235693307101
 20
954.8013293338944
 30
0.0
 41
0.9982763990167159
 10
1225.931468946339
 20
961.7343907995506
 30
0.0
 41
1.0
  0
SPLINE
  5
B2
330
1F
100
AcDbEntity
  8
MAKE2D VISIBLE LINES
100
AcDbSpline
210
0.0
220
0.0
230
1.0
 70
    12
 71
     2
 72
     6
 73
     3
 74
     0
 42
0.0000000001
 43
0.0000000001
 40
0.0
 40
0.0
 40
0.0
 40
14.09311530059304
 40
14.09311530059304
 40
14.09311530059304
 10
1225.931468946303
 20
917.3646429001998
 30
0.0
 41
1.0
 10
1227.235693307087
 20
924.2977043659135
 30
0.0
 41
0.998276399016685
 10
1227.71856708583
 20
931.3358273674271
 30
0.0
 41
1.0
  0
SPLINE
  5
B3
330
1F
100
AcDbEntity
  8
MAKE2D VISIBLE LINES
100
AcDbSpline
210
0.0
220
0.0
230
1.0
 70
    12
 71
     2
 72
     6
 73
     3
 74
     0
 42
0.0000000001
 43
0.0000000001
 40
0.0
 40
0.0
 40
0.0
 40
15.235606624346
 40
15.235606624346
 40
15.235606624346
 10
1227.758285660164
 20
931.9368290369478
 30
0.0
 41
1.0
 10
1228.242202204387
 20
939.5495168500045
 30
0.0
 41
0.9979857138346829
 10
1227.75828566016
 20
947.1622046630607
 30
0.0
 41
1.0
  0
SPLINE
  5
B4
330
1F
100
AcDbEntity
  8
MAKE2D VISIBLE LINES
100
AcDbSpline
210
0.0
220
0.0
230
1.0
 70
    28
 71
     2
 72
    12
 73
     9
 74
     0
 42
0.0000000001
 43
0.0000000001
 40
194.8936184017623
 40
194.8936184017623
 40
194.8936184017623
 40
209.0212781734427
 40
209.0212781734427
 40
231.6255338081314
 40
231.6255338081314
 40
254.22978944282
 40
254.22978944282
 40
267.6510662259163
 40
267.6510662259163
 40
267.6510662259163
 10
997.9999999999998
 20
916.5589311897018
 30
0.0
 41
0.9445349681724732
 10
998.0
 20
916.34938111416
 30
0.0
 41
0.9260466242299643
 10
997.9999999999999
 20
920.4123600802
 30
0.0
 41
1.0
 10
997.9999999999999
 20
927.2402904047464
 30
0.0
 41
0.8816745987679429
 10
997.9999999999999
 20
939.5495168499704
 30
0.0
 41
1.0
 10
997.9999999999999
 20
951.8587432951944
 30
0.0
 41
0.8816745987679429
 10
997.9999999999999
 20
958.6866736197409
 30
0.0
 41
1.0
 10
997.9999999999999
 20
962.5311527790841
 30
0.0
 41
0.9297442930184662
 10
997.9999999999999
 20
962.5494368141677
 30
0.0
 41
0.9429172380775036
  0
SPLINE
  5
B5
330
1F
100
AcDbEntity
  8
MAKE2D VISIBLE LINES
100
AcDbSpline
210
0.0
220
0.0
230
1.0
 70
    12
 71
     2
 72
     6
 73
     3
 74
     0
 42
0.0000000001
 43
0.0000000001
 40
0.0
 40
0.0
 40
0.0
 40
6.381452136294408
 40
6.381452136294408
 40
6.381452136294408
 10
1181.666084221492
 20
962.5495168499705
 30
0.0
 41
1.0
 10
1179.434289925883
 20
964.8437300560716
 30
0.0
 41
0.9953439691588204
 10
1176.803760294603
 20
966.667087912313
 30
0.0
 41
1.0
  0
SPLINE
  5
B6
330
1F
100
AcDbEntity
  8
MAKE2D VISIBLE LINES
100
AcDbSpline
210
0.0
220
0.0
230
1.0
 70
    12
 71
     2
 72
     6
 73
     3
 74
     0
 42
0.0000000001
 43
0.0000000001
 40
0.0
 40
0.0
 40
0.0
 40
17.2842536278391
 40
17.2842536278391
 40
17.2842536278391
 10
1134.333677437505
 20
916.5495168499706
 30
0.0
 41
1.0
 10
1140.500424411935
 20
910.2090175584176
 30
0.0
 41
0.9659782358949967
 10
1149.010257450069
 20
907.7979096852791
 30
0.0
 41
1.0
  0
SPLINE
  5
B7
330
1F
100
AcDbEntity
  8
MAKE2D VISIBLE LINES
100
AcDbSpline
210
0.0
220
0.0
230
1.0
 70
    24
 71
     2
 72
     6
 73
     3
 74
     0
 42
0.0000000001
 43
0.0000000001
 40
0.0
 40
0.0
 40
0.0
 40
11.50043457041582
 40
11.50043457041582
 40
11.50043457041582
 10
1087.999999999966
 20
917.5495168499706
 30
0.0
 10
1093.750217285174
 20
917.5495168499706
 30
0.0
 10
1099.500434570382
 20
917.5495168499706
 30
0.0
  0
SPLINE
  5
B8
330
1F
100
AcDbEntity
  8
MAKE2D VISIBLE LINES
100
AcDbSpline
210
0.0
220
0.0
230
1.0
 70
    28
 71
     3
 72
    11
 73
     7
 74
     0
 42
0.0000000001
 43
0.0000000001
 40
54.19071658808038
 40
54.19071658808038
 40
54.19071658808038
 40
54.19071658808038
 40
58.38328600722556
 40
62.924876215559
 40
67.48951794481277
 40
72.25428878414768
 40
72.25428878414768
 40
72.25428878414768
 40
72.25428878414768
 10
1076.49951443769
 20
917.5495168499706
 30
0.0
 41
1.0
 10
1076.499267377575
 20
917.5495168499706
 30
0.0
 41
1.0
 10
1077.036582545427
 20
917.5495168499706
 30
0.0
 41
1.0
 10
1079.444231660837
 20
917.5495168499706
 30
0.0
 41
1.0
 10
1083.302927958027
 20
917.5495168499706
 30
0.0
 41
1.0
 10
1086.411374256206
 20
917.5495168499706
 30
0.0
 41
1.0
 10
1087.999999999966
 20
917.5495168499706
 30
0.0
 41
1.0
  0
SPLINE
  5
B9
330
1F
100
AcDbEntity
  8
MAKE2D VISIBLE LINES
100
AcDbSpline
210
0.0
220
0.0
230
1.0
 70
    12
 71
     3
 72
    12
 73
     8
 74
     0
 42
0.0000000001
 43
0.0000000001
 40
-52.0372282472852
 40
-52.0372282472852
 40
-52.0372282472852
 40
-52.0372282472852
 40
-44.60178768519714
 40
-44.60178768519714
 40
-37.16739266705617
 40
-37.16739266705617
 40
-34.57377838307471
 40
-34.57377838307471
 40
-34.57377838307471
 40
-34.57377838307471
 10
1098.998734072252
 20
898.7809468276472
 30
0.0
 41
1.0
 10
1099.036671519064
 20
898.6904800946728
 30
0.0
 41
1.0
 10
1098.2215284185
 20
898.6026225837116
 30
0.0
 41
1.0
 10
1095.154030272912
 20
898.4217396744036
 30
0.0
 41
1.0
 10
1092.993398722184
 20
898.333864182301
 30
0.0
 41
1.0
 10
1089.713547049075
 20
898.2118841711697
 30
0.0
 41
1.0
 10
1088.849939723073
 20
898.1806485759745
 30
0.0
 41
1.0
 10
1087.988910771579
 20
898.1495068803636
 30
0.0
 41
1.0
  0
SPLINE
  5
BA
330
1F
100
AcDbEntity
  8
MAKE2D VISIBLE LINES
100
AcDbSpline
210
0.0
220
0.0
230
1.0
 70
    12
 71
     2
 72
     6
 73
     3
 74
     0
 42
0.0000000001
 43
0.0000000001
 40
0.0
 40
0.0
 40
0.0
 40
0.0955765404691391
 40
0.0955765404691391
 40
0.0955765404691391
 10
1086.873419603948
 20
898.1090918477616
 30
0.0
 41
1.0
 10
1086.825662886343
 20
898.1073555597455
 30
0.0
 41
0.9999999998541311
 10
1086.777906228079
 20
898.1056176403299
 30
0.0
 41
1.0
  0
SPLINE
  5
BB
330
1F
100
AcDbEntity
  8
MAKE2D VISIBLE LINES
100
AcDbSpline
210
0.0
220
0.0
230
1.0
 70
    12
 71
     2
 72
     6
 73
     3
 74
     0
 42
0.0000000001
 43
0.0000000001
 40
0.0
 40
0.0
 40
0.0
 40
0.3296106057149978
 40
0.3296106057149978
 40
0.3296106057149978
 10
1095.084188879797
 20
958.5866964338728
 30
0.0
 41
1.0
 10
1095.248528368846
 20
958.5741751139573
 30
0.0
 41
0.9999043796282292
 10
1095.412458731265
 20
958.5571138305788
 30
0.0
 41
1.0
  0
SPLINE
  5
BC
330
1F
100
AcDbEntity
  8
MAKE2D VISIBLE LINES
100
AcDbSpline
210
0.0
220
0.0
230
1.0
 70
    28
 71
     2
 72
    12
 73
     9
 74
     0
 42
0.0000000001
 43
0.0000000001
 40
32.47659586300824
 40
32.47659586300824
 40
32.47659586300824
 40
46.60425563468866
 40
46.60425563468866
 40
69.20851126937731
 40
69.20851126937731
 40
91.81276690406594
 40
91.81276690406594
 40
105.2340436871623
 40
105.2340436871623
 40
105.2340436871623
 10
1178.0
 20
962.5401025102392
 30
0.0
 41
0.9445349681724732
 10
1178.0
 20
962.749652585781
 30
0.0
 41
0.9260466242299643
 10
1178.0
 20
958.6866736197409
 30
0.0
 41
1.0
 10
1178.0
 20
951.8587432951944
 30
0.0
 41
0.8816745987679429
 10
1178.0
 20
939.5495168499704
 30
0.0
 41
1.0
 10
1178.0
 20
927.2402904047464
 30
0.0
 41
0.8816745987679429
 10
1178.0
 20
920.4123600802
 30
0.0
 41
1.0
 10
1178.0
 20
916.5678809208567
 30
0.0
 41
0.9297442930184661
 10
1178.0
 20
916.5495968857733
 30
0.0
 41
0.9429172380775037
  0
SPLINE
  5
BD
330
1F
100
AcDbEntity
  8
MAKE2D VISIBLE LINES
100
AcDbSpline
210
0.0
220
0.0
230
1.0
 70
    12
 71
     2
 72
     6
 73
     3
 74
     0
 42
0.0000000001
 43
0.0000000001
 40
0.0
 40
0.0
 40
0.0
 40
0.329724957701639
 40
0.329724957701639
 40
0.329724957701639
 10
1080.915833025832
 20
958.5866894322417
 30
0.0
 41
1.0
 10
1080.751436480643
 20
958.5741642785564
 30
0.0
 41
0.9999043535549463
 10
1080.587449254282
 20
958.557096966668
 30
0.0
 41
1.0
  0
SPLINE
  5
BE
330
1F
100
AcDbEntity
  8
MAKE2D VISIBLE LINES
100
AcDbSpline
210
0.0
220
0.0
230
1.0
 70
    28
 71
     3
 72
    12
 73
     8
 74
     0
 42
0.0000000001
 43
0.0000000001
 40
73.04984329879628
 40
73.04984329879628
 40
73.04984329879628
 40
73.04984329879628
 40
75.7812864292483
 40
75.7812864292483
 40
75.7812864292483
 40
81.75559930880375
 40
83.97000099621259
 40
83.97000099621259
 40
83.97000099621259
 40
83.97000099621259
 10
1070.625141715303
 20
918.5495168499706
 30
0.0
 41
1.0
 10
1070.604616983514
 20
918.5495168499706
 30
0.0
 41
1.0
 10
1070.920783729939
 20
918.5495168499706
 30
0.0
 41
1.0
 10
1071.50903349465
 20
918.5495168499706
 30
0.0
 41
1.0
 10
1072.786312736939
 20
918.5495168499706
 30
0.0
 41
1.0
 10
1074.365277428699
 20
918.5495168499706
 30
0.0
 41
1.0
 10
1075.66821112317
 20
918.5495168499706
 30
0.0
 41
1.0
 10
1076.0
 20
918.5495168499706
 30
0.0
 41
1.0
  0
SPLINE
  5
BF
330
1F
100
AcDbEntity
  8
MAKE2D VISIBLE LINES
100
AcDbSpline
210
0.0
220
0.0
230
1.0
 70
    12
 71
     2
 72
     6
 73
     3
 74
     0
 42
0.0000000001
 43
0.0000000001
 40
0.0
 40
0.0
 40
0.0
 40
8.180562172759915
 40
8.180562172759915
 40
8.180562172759915
 10
1078.898248883324
 20
911.0495168499706
 30
0.0
 41
1.0
 10
1074.829435379378
 20
911.4979329952866
 30
0.0
 41
0.9988397508237135
 10
1070.822633430131
 20
912.3357029570251
 30
0.0
 41
1.0
  0
SPLINE
  5
C0
330
1F
100
AcDbEntity
  8
MAKE2D VISIBLE LINES
100
AcDbSpline
210
0.0
220
0.0
230
1.0
 70
    24
 71
     2
 72
     6
 73
     3
 74
     0
 42
0.0000000001
 43
0.0000000001
 40
0.0
 40
0.0
 40
0.0
 40
5.374858284341826
 40
5.374858284341826
 40
5.374858284341826
 10
1100.0
 20
918.5495168499706
 30
0.0
 10
1102.687429142171
 20
918.5495168499706
 30
0.0
 10
1105.374858284342
 20
918.5495168499706
 30
0.0
  0
SPLINE
  5
C1
330
1F
100
AcDbEntity
  8
MAKE2D VISIBLE LINES
100
AcDbSpline
210
0.0
220
0.0
230
1.0
 70
    12
 71
     2
 72
     6
 73
     3
 74
     0
 42
0.0000000001
 43
0.0000000001
 40
0.0
 40
0.0
 40
0.0
 40
8.180562172911973
 40
8.180562172911973
 40
8.180562172911973
 10
1105.177366570018
 20
912.3357029570562
 30
0.0
 41
1.0
 10
1101.170564620698
 20
911.4979329952951
 30
0.0
 41
0.9988397508236707
 10
1097.101751116676
 20
911.0495168499706
 30
0.0
 41
1.0
  0
SPLINE
  5
C2
330
1F
100
AcDbEntity
  8
MAKE2D VISIBLE LINES
100
AcDbSpline
210
0.0
220
0.0
230
1.0
 70
    12
 71
     2
 72
     6
 73
     3
 74
     0
 42
0.0000000001
 43
0.0000000001
 40
0.0
 40
0.0
 40
0.0
 40
2.576691313977022
 40
2.576691313977022
 40
2.576691313977022
 10
1090.576684579215
 20
921.3807913586346
 30
0.0
 41
1.0
 10
1089.288347365818
 20
921.3859060670335
 30
0.0
 41
0.9999980101456829
 10
1088.0
 20
921.3858804863343
 30
0.0
 41
1.0
  0
SPLINE
  5
C3
330
1F
100
AcDbEntity
  8
MAKE2D VISIBLE LINES
100
AcDbSpline
210
0.0
220
0.0
230
1.0
 70
     8
 71
     3
 72
    18
 73
    14
 74
     0
 42
0.0000000001
 43
0.0000000001
 40
0.0
 40
0.0
 40
0.0
 40
0.0
 40
0.2779868554058025
 40
0.5190292044667432
 40
1.009574040423027
 40
1.491188161376244
 40
1.729179536496449
 40
2.028597587140301
 40
2.436301478463495
 40
3.035916697564883
 40
4.859598104642488
 40
7.510411386177316
 40
11.74387725527139
 40
11.74387725527139
 40
11.74387725527139
 40
11.74387725527139
 10
1098.999999999998
 20
898.8213540359304
 30
0.0
 10
1099.090300407089
 20
898.8008597022034
 30
0.0
 10
1099.25694944665
 20
898.7482317181759
 30
0.0
 10
1099.528162769993
 20
898.5382038864251
 30
0.0
 10
1099.666104223731
 20
898.1230762481124
 30
0.0
 10
1099.467366062091
 20
897.7353260690928
 30
0.0
 10
1099.16833530364
 20
897.5631586038671
 30
0.0
 10
1098.859288905361
 20
897.4944225066903
 30
0.0
 10
1098.427652053227
 20
897.438345637433
 30
0.0
 10
1097.487267916438
 20
897.3555813539786
 30
0.0
 10
1095.798795727683
 20
897.2573427518422
 30
0.0
 10
1092.898905587888
 20
897.1280353261694
 30
0.0
 10
1090.605733246549
 20
897.0440074092257
 30
0.0
 10
1089.19550249682
 20
896.992456077945
 30
0.0
  0
SPLINE
  5
C4
330
1F
100
AcDbEntity
  8
MAKE2D VISIBLE LINES
100
AcDbSpline
210
0.0
220
0.0
230
1.0
 70
     8
 71
     3
 72
    16
 73
    12
 74
     0
 42
0.0000000001
 43
0.0000000001
 40
0.0
 40
0.0
 40
0.0
 40
0.0
 40
0.2798719589179037
 40
0.5181880548666802
 40
1.009457224800235
 40
1.490787442816579
 40
2.027030330141739
 40
3.007461070161317
 40
4.850265197767144
 40
7.62156118554153
 40
11.78278088812154
 40
11.78278088812154
 40
11.78278088812154
 40
11.78278088812154
 10
1077.000000000001
 20
891.2776590996815
 30
0.0
 10
1076.909789048104
 20
891.2994087667566
 30
0.0
 10
1076.741512594129
 20
891.349087007194
 30
0.0
 10
1076.473723128375
 20
891.5643542841896
 30
0.0
 10
1076.329761342387
 20
891.9691558748059
 30
0.0
 10
1076.58849810406
 20
892.4695092525337
 30
0.0
 10
1077.252294134251
 20
892.6412750105967
 30
0.0
 10
1078.360638209622
 20
892.7262177910799
 30
0.0
 10
1080.228086080186
 20
892.8494714556566
 30
0.0
 10
1083.145771007016
 20
892.9671733894697
 30
0.0
 10
1085.458295309401
 20
893.0600982942468
 30
0.0
 10
1086.843380160058
 20
893.1079930100544
 30
0.0
  0
SPLINE
  5
C5
330
1F
100
AcDbEntity
  8
MAKE2D VISIBLE LINES
100
AcDbSpline
210
0.0
220
0.0
230
1.0
 70
     8
 71
     3
 72
    17
 73
    13
 74
     0
 42
0.0000000001
 43
0.0000000001
 40
0.0
 40
0.0
 40
0.0
 40
0.0
 40
0.2808550913787792
 40
0.5303422244817448
 40
1.029457865437099
 40
1.512847572757333
 40
1.754413997482318
 40
2.072310058598576
 40
3.171685690978157
 40
5.185738920025153
 40
8.22190008908845
 40
12.9185540829561
 40
12.9185540829561
 40
12.9185540829561
 40
12.9185540829561
 10
1099.0
 20
891.3213545191315
 30
0.0
 10
1099.091243282216
 20
891.3007505636881
 30
0.0
 10
1099.261486703583
 20
891.2464757048257
 30
0.0
 10
1099.53624953543
 20
891.0295629048994
 30
0.0
 10
1099.665986643379
 20
890.6027620406342
 30
0.0
 10
1099.451556686862
 20
890.2183328475912
 30
0.0
 10
1099.139603521373
 20
890.0519559582061
 30
0.0
 10
1098.595008966249
 20
889.9479387694201
 30
0.0
 10
1097.454778436037
 20
889.8534238296689
 30
0.0
 10
1095.408346391042
 20
889.7358660561727
 30
0.0
 10
1092.162039467443
 20
889.6004122130792
 30
0.0
 10
1089.586272773618
 20
889.5059857946983
 30
0.0
 10
1088.021688762818
 20
889.4499089801361
 30
0.0
  0
SPLINE
  5
C6
330
1F
100
AcDbEntity
  8
MAKE2D VISIBLE LINES
100
AcDbSpline
210
0.0
220
0.0
230
1.0
 70
    12
 71
     2
 72
     6
 73
     3
 74
     0
 42
0.0000000001
 43
0.0000000001
 40
0.0
 40
0.0
 40
0.0
 40
0.4096355258315103
 40
0.4096355258315103
 40
0.4096355258315103
 10
1089.084849848445
 20
894.4884323054498
 30
0.0
 41
1.0
 10
1088.880167214303
 20
894.4809935311267
 30
0.0
 41
0.9999999986241448
 10
1088.675483800859
 20
894.4735762308158
 30
0.0
 41
1.0
  0
SPLINE
  5
C7
330
1F
100
AcDbEntity
  8
MAKE2D VISIBLE LINES
100
AcDbSpline
210
0.0
220
0.0
230
1.0
 70
    12
 71
     2
 72
     6
 73
     3
 74
     0
 42
0.0000000001
 43
0.0000000001
 40
0.0
 40
0.0
 40
0.0
 40
0.4096783395290151
 40
0.4096783395290151
 40
0.4096783395290151
 10
1089.084849809642
 20
891.9884323034394
 30
0.0
 41
1.0
 10
1088.880145782761
 20
891.9809927519941
 30
0.0
 41
0.9999999986239316
 10
1088.675440976438
 20
891.9735746784678
 30
0.0
 41
1.0
  0
SPLINE
  5
C8
330
1F
100
AcDbEntity
  8
MAKE2D VISIBLE LINES
100
AcDbSpline
210
0.0
220
0.0
230
1.0
 70
    24
 71
     2
 72
     6
 73
     3
 74
     0
 42
0.0000000001
 43
0.0000000001
 40
0.0
 40
0.0
 40
0.0
 40
2.274604890592855
 40
2.274604890592855
 40
2.274604890592855
 10
1077.0
 20
889.0495168499706
 30
0.0
 10
1077.0
 20
890.186819295267
 30
0.0
 10
1077.0
 20
891.3241217405634
 30
0.0
  0
SPLINE
  5
C9
330
1F
100
AcDbEntity
  8
MAKE2D VISIBLE LINES
100
AcDbSpline
210
0.0
220
0.0
230
1.0
 70
    24
 71
     2
 72
     6
 73
     3
 74
     0
 42
0.0000000001
 43
0.0000000001
 40
0.0
 40
0.0
 40
0.0
 40
1.252717902938969
 40
1.252717902938969
 40
1.252717902938969
 10
1099.0
 20
892.5276313498821
 30
0.0
 10
1099.0
 20
891.9012723984126
 30
0.0
 10
1099.0
 20
891.2749134469432
 30
0.0
  0
SPLINE
  5
CA
330
1F
100
AcDbEntity
  8
MAKE2D VISIBLE LINES
100
AcDbSpline
210
0.0
220
0.0
230
1.0
 70
    24
 71
     2
 72
     6
 73
     3
 74
     0
 42
0.0000000001
 43
0.0000000001
 40
0.0
 40
0.0
 40
0.0
 40
0.9781251092511525
 40
0.9781251092511525
 40
0.9781251092511525
 10
1099.0
 20
890.0276419592217
 30
0.0
 10
1099.0
 20
889.5385794045961
 30
0.0
 10
1099.0
 20
889.0495168499706
 30
0.0
  0
SPLINE
  5
CB
330
1F
100
AcDbEntity
  8
MAKE2D VISIBLE LINES
100
AcDbSpline
210
0.0
220
0.0
230
1.0
 70
    12
 71
     3
 72
    10
 73
     6
 74
     0
 42
0.0000000001
 43
0.0000000001
 40
17.27561437368966
 40
17.27561437368966
 40
17.27561437368966
 40
17.27561437368966
 40
17.6430917519493
 40
17.6430917519493
 40
23.34124803507841
 40
23.34124803507841
 40
23.34124803507841
 40
23.34124803507841
 10
1077.00001064188
 20
898.8235379764942
 30
0.0
 41
1.0
 10
1076.99983026451
 20
898.8279834841005
 30
0.0
 41
1.0
 10
1077.001708728785
 20
898.8324333750002
 30
0.0
 41
1.0
 10
1077.066895107185
 20
898.9059665354231
 30
0.0
 41
1.0
 10
1077.62384684422
 20
898.9738429497639
 30
0.0
 41
1.0
 10
1078.620273965797
 20
899.042834123929
 30
0.0
 41
1.0
  0
SPLINE
  5
CC
330
1F
100
AcDbEntity
  8
MAKE2D VISIBLE LINES
100
AcDbSpline
210
0.0
220
0.0
230
1.0
 70
    12
 71
     2
 72
     6
 73
     3
 74
     0
 42
0.0000000001
 43
0.0000000001
 40
0.0
 40
0.0
 40
0.0
 40
0.0288607984912126
 40
0.0288607984912126
 40
0.0288607984912126
 10
1087.992833488829
 20
889.4495023705257
 30
0.0
 41
1.0
 10
1088.007265907505
 20
889.449366340708
 30
0.0
 41
0.9997235247309566
 10
1088.021688762805
 20
889.4499089805169
 30
0.0
 41
1.0
  0
SPLINE
  5
CD
330
1F
100
AcDbEntity
  8
MAKE2D VISIBLE LINES
100
AcDbSpline
210
0.0
220
0.0
230
1.0
 70
    24
 71
     2
 72
     6
 73
     3
 74
     0
 42
0.0000000001
 43
0.0000000001
 40
0.0
 40
0.0
 40
0.0
 40
22.0
 40
22.0
 40
22.0
 10
1077.0
 20
889.0495168499706
 30
0.0
 10
1088.0
 20
889.0495168499706
 30
0.0
 10
1099.0
 20
889.0495168499706
 30
0.0
  0
SPLINE
  5
CE
330
1F
100
AcDbEntity
  8
MAKE2D VISIBLE LINES
100
AcDbSpline
210
0.0
220
0.0
230
1.0
 70
    24
 71
     2
 72
     6
 73
     3
 74
     0
 42
0.0000000001
 43
0.0000000001
 40
0.0
 40
0.0
 40
0.0
 40
9.374597724243927
 40
9.374597724243927
 40
9.374597724243927
 10
1087.994408987777
 20
899.0495168499706
 30
0.0
 10
1083.307110125655
 20
899.0495168499706
 30
0.0
 10
1078.619811263533
 20
899.0495168499706
 30
0.0
  0
SPLINE
  5
CF
330
1F
100
AcDbEntity
  8
MAKE2D VISIBLE LINES
100
AcDbSpline
210
0.0
220
0.0
230
1.0
 70
    24
 71
     2
 72
     6
 73
     3
 74
     0
 42
0.0000000001
 43
0.0000000001
 40
0.0
 40
0.0
 40
0.0
 40
0.5333888839634824
 40
0.5333888839634824
 40
0.5333888839634824
 10
1076.532935419199
 20
899.0495168499706
 30
0.0
 10
1076.266240977217
 20
899.0495168499706
 30
0.0
 10
1075.999546535235
 20
899.0495168499705
 30
0.0
  0
SPLINE
  5
D0
330
1F
100
AcDbEntity
  8
MAKE2D VISIBLE LINES
100
AcDbSpline
210
0.0
220
0.0
230
1.0
 70
    28
 71
     3
 72
    11
 73
     7
 74
     0
 42
0.0000000001
 43
0.0000000001
 40
56.54683470072047
 40
56.54683470072047
 40
56.54683470072047
 40
56.54683470072047
 40
60.92168974665498
 40
65.66074039882896
 40
70.42384481196187
 40
75.3957796009606
 40
75.3957796009606
 40
75.3957796009606
 40
75.3957796009606
 10
1100.00050667373
 20
899.0495168499706
 30
0.0
 41
1.0
 10
1100.000764475553
 20
899.0495168499706
 30
0.0
 41
1.0
 10
1099.440087778534
 20
899.0495168499705
 30
0.0
 41
1.0
 10
1096.927758267199
 20
899.0495168499706
 30
0.0
 41
1.0
 10
1092.901292565495
 20
899.0495168499706
 30
0.0
 41
1.0
 10
1089.657696428172
 20
899.0495168499706
 30
0.0
 41
1.0
 10
1088.0
 20
899.0495168499706
 30
0.0
 41
1.0
  0
SPLINE
  5
D1
330
1F
100
AcDbEntity
  8
MAKE2D VISIBLE LINES
100
AcDbSpline
210
0.0
220
0.0
230
1.0
 70
    12
 71
     2
 72
     6
 73
     3
 74
     0
 42
0.0000000001
 43
0.0000000001
 40
0.0
 40
0.0
 40
0.0
 40
1.11622308415111
 40
1.11622308415111
 40
1.11622308415111
 10
1086.873419801743
 20
898.1090863802056
 30
0.0
 41
1.0
 10
1087.431163449434
 20
898.1293476376043
 30
0.0
 41
0.9999999959243397
 10
1087.988910746594
 20
898.1495081832786
 30
0.0
 41
1.0
  0
SPLINE
  5
D2
330
1F
100
AcDbEntity
  8
MAKE2D VISIBLE LINES
100
AcDbSpline
210
0.0
220
0.0
230
1.0
 70
    24
 71
     2
 72
     6
 73
     3
 74
     0
 42
0.0000000001
 43
0.0000000001
 40
0.0
 40
0.0
 40
0.0
 40
9.099431378081874
 40
9.099431378081874
 40
9.099431378081874
 10
1088.0
 20
911.0495168499706
 30
0.0
 10
1092.549715689041
 20
911.0495168499706
 30
0.0
 10
1097.099431378082
 20
911.0495168499706
 30
0.0
  0
SPLINE
  5
D3
330
1F
100
AcDbEntity
  8
MAKE2D VISIBLE LINES
100
AcDbSpline
210
0.0
220
0.0
230
1.0
 70
    28
 71
     3
 72
    11
 73
     7
 74
     0
 42
0.0000000001
 43
0.0000000001
 40
56.54683470072049
 40
56.54683470072049
 40
56.54683470072049
 40
56.54683470072049
 40
60.92168974665502
 40
65.66074039882898
 40
70.42384481196191
 40
75.39577960096065
 40
75.39577960096065
 40
75.39577960096065
 40
75.39577960096065
 10
1075.99949332627
 20
911.0495168499705
 30
0.0
 41
1.0
 10
1075.999235524447
 20
911.0495168499705
 30
0.0
 41
1.0
 10
1076.559912221466
 20
911.0495168499706
 30
0.0
 41
1.0
 10
1079.072241732801
 20
911.0495168499705
 30
0.0
 41
1.0
 10
1083.098707434505
 20
911.0495168499706
 30
0.0
 41
1.0
 10
1086.342303571828
 20
911.0495168499706
 30
0.0
 41
1.0
 10
1088.0
 20
911.0495168499706
 30
0.0
 41
1.0
  0
SPLINE
  5
D4
330
1F
100
AcDbEntity
  8
MAKE2D VISIBLE LINES
100
AcDbSpline
210
0.0
220
0.0
230
1.0
 70
    12
 71
     2
 72
     8
 73
     5
 74
     0
 42
0.0000000001
 43
0.0000000001
 40
0.0
 40
0.0
 40
0.0
 40
0.4716782577099747
 40
0.4716782577099747
 40
0.9433565154199495
 40
0.9433565154199495
 40
0.9433565154199495
 10
1087.399547512851
 20
890.0277986396768
 30
0.0
 41
1.0
 10
1087.390521653056
 20
890.2764240501218
 30
0.0
 41
0.9237194912562022
 10
1087.560096368095
 20
890.458469310657
 30
0.0
 41
1.0
 10
1087.729671083134
 20
890.6405145711924
 30
0.0
 41
0.9237194912562022
 10
1087.978311237182
 20
890.649124719805
 30
0.0
 41
1.0
  0
SPLINE
  5
D5
330
1F
100
AcDbEntity
  8
MAKE2D VISIBLE LINES
100
AcDbSpline
210
0.0
220
0.0
230
1.0
 70
    24
 71
     2
 72
     6
 73
     3
 74
     0
 42
0.0000000001
 43
0.0000000001
 40
0.0
 40
0.0
 40
0.0
 40
1.25217617602766
 40
1.25217617602766
 40
1.25217617602766
 10
1077.0
 20
897.5713618004665
 30
0.0
 10
1077.0
 20
898.1974498884804
 30
0.0
 10
1077.0
 20
898.8235379764942
 30
0.0
  0
SPLINE
  5
D6
330
1F
100
AcDbEntity
  8
MAKE2D VISIBLE LINES
100
AcDbSpline
210
0.0
220
0.0
230
1.0
 70
    24
 71
     2
 72
     6
 73
     3
 74
     0
 42
0.0000000001
 43
0.0000000001
 40
0.0
 40
0.0
 40
0.0
 40
0.268570022323388
 40
0.268570022323388
 40
0.268570022323388
 10
1099.0
 20
899.0495168499706
 30
0.0
 10
1099.0
 20
898.9152318388088
 30
0.0
 10
1099.0
 20
898.7809468276471
 30
0.0
  0
SPLINE
  5
D7
330
1F
100
AcDbEntity
  8
MAKE2D VISIBLE LINES
100
AcDbSpline
210
0.0
220
0.0
230
1.0
 70
    24
 71
     2
 72
     6
 73
     3
 74
     0
 42
0.0000000001
 43
0.0000000001
 40
0.0
 40
0.0
 40
0.0
 40
1.252758147244776
 40
1.252758147244776
 40
1.252758147244776
 10
1077.0
 20
895.0713635933171
 30
0.0
 10
1077.0
 20
895.6977426669395
 30
0.0
 10
1077.0
 20
896.3241217405618
 30
0.0
  0
SPLINE
  5
D8
330
1F
100
AcDbEntity
  8
MAKE2D VISIBLE LINES
100
AcDbSpline
210
0.0
220
0.0
230
1.0
 70
    24
 71
     2
 72
     6
 73
     3
 74
     0
 42
0.0000000001
 43
0.0000000001
 40
0.0
 40
0.0
 40
0.0
 40
1.252729580819562
 40
1.252729580819562
 40
1.252729580819562
 10
1099.0
 20
897.527641521109
 30
0.0
 10
1099.0
 20
896.9012767306992
 30
0.0
 10
1099.0
 20
896.2749119402895
 30
0.0
  0
SPLINE
  5
D9
330
1F
100
AcDbEntity
  8
MAKE2D VISIBLE LINES
100
AcDbSpline
210
0.0
220
0.0
230
1.0
 70
    24
 71
     2
 72
     6
 73
     3
 74
     0
 42
0.0000000001
 43
0.0000000001
 40
0.0
 40
0.0
 40
0.0
 40
1.252750753262092
 40
1.252750753262092
 40
1.252750753262092
 10
1077.0
 20
892.5713709873007
 30
0.0
 10
1077.0
 20
893.1977463639317
 30
0.0
 10
1077.0
 20
893.8241217405628
 30
0.0
  0
SPLINE
  5
DA
330
1F
100
AcDbEntity
  8
MAKE2D VISIBLE LINES
100
AcDbSpline
210
0.0
220
0.0
230
1.0
 70
    24
 71
     2
 72
     6
 73
     3
 74
     0
 42
0.0000000001
 43
0.0000000001
 40
0.0
 40
0.0
 40
0.0
 40
1.252719172642628
 40
1.252719172642628
 40
1.252719172642628
 10
1099.0
 20
895.0276311129335
 30
0.0
 10
1099.0
 20
894.4012715266122
 30
0.0
 10
1099.0
 20
893.7749119402908
 30
0.0
  0
SPLINE
  5
DB
330
1F
100
AcDbEntity
  8
MAKE2D VISIBLE LINES
100
AcDbSpline
210
0.0
220
0.0
230
1.0
 70
    12
 71
     2
 72
     6
 73
     3
 74
     0
 42
0.0000000001
 43
0.0000000001
 40
0.0
 40
0.0
 40
0.0
 40
0.2435483384859116
 40
0.2435483384859116
 40
0.2435483384859116
 10
1087.745505970457
 20
893.1407012447926
 30
0.0
 41
1.0
 10
1087.867200499573
 20
893.1451046387408
 30
0.0
 41
0.999999999992066
 10
1087.988895063766
 20
893.1495070631543
 30
0.0
 41
1.0
  0
SPLINE
  5
DC
330
1F
100
AcDbEntity
  8
MAKE2D VISIBLE LINES
100
AcDbSpline
210
0.0
220
0.0
230
1.0
 70
    12
 71
     2
 72
     6
 73
     3
 74
     0
 42
0.0000000001
 43
0.0000000001
 40
0.0
 40
0.0
 40
0.0
 40
0.5327773192831065
 40
0.5327773192831065
 40
0.5327773192831065
 10
1088.54321560631
 20
894.4687841405594
 30
0.0
 41
1.0
 10
1088.27700143367
 20
894.459144000977
 30
0.0
 41
0.9999999997906541
 10
1088.010786866741
 20
894.4495147559269
 30
0.0
 41
1.0
  0
SPLINE
  5
DD
330
1F
100
AcDbEntity
  8
MAKE2D VISIBLE LINES
100
AcDbSpline
210
0.0
220
0.0
230
1.0
 70
    12
 71
     2
 72
     6
 73
     3
 74
     0
 42
0.0000000001
 43
0.0000000001
 40
0.0
 40
0.0
 40
0.0
 40
0.5327772930469078
 40
0.5327772930469078
 40
0.5327772930469078
 10
1088.543215567898
 20
891.9687841389459
 30
0.0
 41
1.0
 10
1088.277001408363
 20
891.9591439999848
 30
0.0
 41
0.9999999997906582
 10
1088.010786854541
 20
891.9495147554485
 30
0.0
 41
1.0
  0
SPLINE
  5
DE
330
1F
100
AcDbEntity
  8
MAKE2D VISIBLE LINES
100
AcDbSpline
210
0.0
220
0.0
230
1.0
 70
    12
 71
     2
 72
     6
 73
     3
 74
     0
 42
0.0000000001
 43
0.0000000001
 40
0.0
 40
0.0
 40
0.0
 40
0.9144085616734595
 40
0.9144085616734595
 40
0.9144085616734595
 10
1087.992775429818
 20
889.449525851881
 30
0.0
 41
1.0
 10
1087.420225863101
 20
889.4555882838048
 30
0.0
 41
0.7234269340640501
 10
1087.39954759259
 20
890.0277964352296
 30
0.0
 41
1.0
  0
SPLINE
  5
DF
330
1F
100
AcDbEntity
  8
MAKE2D VISIBLE LINES
100
AcDbSpline
210
0.0
220
0.0
230
1.0
 70
    12
 71
     2
 72
     6
 73
     3
 74
     0
 42
0.0000000001
 43
0.0000000001
 40
0.0
 40
0.0
 40
0.0
 40
0.0790702606943095
 40
0.0790702606943095
 40
0.0790702606943095
 10
1086.922398240745
 20
893.1108651252853
 30
0.0
 41
1.0
 10
1086.882889198406
 20
893.1094291220792
 30
0.0
 41
0.9999999999129612
 10
1086.843380193974
 20
893.1079920763214
 30
0.0
 41
1.0
  0
SPLINE
  5
E0
330
1F
100
AcDbEntity
  8
MAKE2D VISIBLE LINES
100
AcDbSpline
210
0.0
220
0.0
230
1.0
 70
    12
 71
     3
 72
    12
 73
     8
 74
     0
 42
0.0000000001
 43
0.0000000001
 40
17.26013154891352
 40
17.26013154891352
 40
17.26013154891352
 40
17.26013154891352
 40
25.97461437122
 40
25.97461437122
 40
30.2870587542929
 40
30.2870587542929
 40
34.60185836988183
 40
34.60185836988183
 40
34.60185836988183
 40
34.60185836988183
 10
1098.999993139513
 20
891.2744620979499
 30
0.0
 41
1.0
 10
1098.996718133029
 20
891.1688462443499
 30
0.0
 41
1.0
 10
1097.832996397658
 20
891.0673435980676
 30
0.0
 41
1.0
 10
1094.74193048554
 20
890.9094901025366
 30
0.0
 41
1.0
 10
1093.527801495824
 20
890.8577603839233
 30
0.0
 41
1.0
 10
1090.855703076749
 20
890.7531803334974
 30
0.0
 41
1.0
 10
1089.423810323155
 20
890.7014148795911
 30
0.0
 41
1.0
 10
1087.978311237195
 20
890.6491247194242
 30
0.0
 41
1.0
  0
SPLINE
  5
E1
330
1F
100
AcDbEntity
  8
MAKE2D VISIBLE LINES
100
AcDbSpline
210
0.0
220
0.0
230
1.0
 70
    12
 71
     2
 72
     6
 73
     3
 74
     0
 42
0.0000000001
 43
0.0000000001
 40
0.0
 40
0.0
 40
0.0
 40
0.1200275764479003
 40
0.1200275764479003
 40
0.1200275764479003
 10
1089.084849545635
 20
891.9884395372078
 30
0.0
 41
1.0
 10
1089.144823705344
 20
891.9906201209052
 30
0.0
 41
0.9999999997889351
 10
1089.204797775398
 20
891.9928031690345
 30
0.0
 41
1.0
  0
SPLINE
  5
E2
330
1F
100
AcDbEntity
  8
MAKE2D VISIBLE LINES
100
AcDbSpline
210
0.0
220
0.0
230
1.0
 70
    12
 71
     2
 72
     6
 73
     3
 74
     0
 42
0.0000000001
 43
0.0000000001
 40
0.0
 40
0.0
 40
0.0
 40
0.1323549752038175
 40
0.1323549752038175
 40
0.1323549752038175
 10
1088.543215537905
 20
894.4687860264303
 30
0.0
 41
1.0
 10
1088.609349645142
 20
894.4711817988903
 30
0.0
 41
0.9999999999249946
 10
1088.675483693673
 20
894.4735791913565
 30
0.0
 41
1.0
  0
SPLINE
  5
E3
330
1F
100
AcDbEntity
  8
MAKE2D VISIBLE LINES
100
AcDbSpline
210
0.0
220
0.0
230
1.0
 70
    12
 71
     2
 72
     6
 73
     3
 74
     0
 42
0.0000000001
 43
0.0000000001
 40
0.0
 40
0.0
 40
0.0
 40
0.4281376393634633
 40
0.4281376393634633
 40
0.4281376393634633
 10
1088.245767479408
 20
896.9580166836677
 30
0.0
 41
1.0
 10
1088.459696290356
 20
896.9657577065423
 30
0.0
 41
0.999999999533462
 10
1088.673624627985
 20
896.973511798869
 30
0.0
 41
1.0
  0
SPLINE
  5
E4
330
1F
100
AcDbEntity
  8
MAKE2D VISIBLE LINES
100
AcDbSpline
210
0.0
220
0.0
230
1.0
 70
    12
 71
     2
 72
     6
 73
     3
 74
     0
 42
0.0000000001
 43
0.0000000001
 40
0.0
 40
0.0
 40
0.0
 40
0.2351029672547655
 40
0.2351029672547655
 40
0.2351029672547655
 10
1088.245767489251
 20
896.9580164493964
 30
0.0
 41
1.0
 10
1088.128292885364
 20
896.9537657147953
 30
0.0
 41
0.9999999999925165
 10
1088.01081824859
 20
896.9495158891509
 30
0.0
 41
1.0
  0
SPLINE
  5
E5
330
1F
100
AcDbEntity
  8
MAKE2D VISIBLE LINES
100
AcDbSpline
210
0.0
220
0.0
230
1.0
 70
     8
 71
     3
 72
    13
 73
     9
 74
     0
 42
0.0000000001
 43
0.0000000001
 40
0.0
 40
0.0
 40
0.0
 40
0.0
 40
0.0482915815386856
 40
0.1548220958213972
 40
0.6320996623415981
 40
2.52912704323822
 40
5.667439972915069
 40
11.04838640268844
 40
11.04838640268844
 40
11.04838640268844
 40
11.04838640268844
 10
1099.000000210177
 20
896.2748847695195
 30
0.0
 10
1098.995728905397
 20
896.2580234618598
 30
0.0
 10
1098.948864800129
 20
896.2330087323894
 30
0.0
 10
1098.744061185015
 20
896.1815391790826
 30
0.0
 10
1097.92208272059
 20
896.0863003397715
 30
0.0
 10
1096.087944013655
 20
895.9713428067696
 30
0.0
 10
1092.619351568841
 20
895.8153639993545
 30
0.0
 10
1089.781318945483
 20
895.714883490093
 30
0.0
 10
1087.988878223916
 20
895.6495070051869
 30
0.0
  0
SPLINE
  5
E6
330
1F
100
AcDbEntity
  8
MAKE2D VISIBLE LINES
100
AcDbSpline
210
0.0
220
0.0
230
1.0
 70
     8
 71
     3
 72
    13
 73
     9
 74
     0
 42
0.0000000001
 43
0.0000000001
 40
0.0
 40
0.0
 40
0.0
 40
0.0
 40
0.1556250479184261
 40
0.7049991242006606
 40
1.425446165510203
 40
2.658663156331639
 40
5.844635724294036
 40
11.04752464546801
 40
11.04752464546801
 40
11.04752464546801
 40
11.04752464546801
 10
1076.999999976974
 20
891.324157617136
 30
0.0
 10
1077.033049333658
 20
891.3656015700824
 30
0.0
 10
1077.266386644789
 20
891.4179901504837
 30
0.0
 10
1077.736429233724
 20
891.4744618100642
 30
0.0
 10
1078.568815733958
 20
891.543020294481
 30
0.0
 10
1080.278716482198
 20
891.6456177591908
 30
0.0
 10
1083.48322934627
 20
891.7863305313042
 30
0.0
 10
1086.277582715105
 20
891.8867837541059
 30
0.0
 10
1088.010786864128
 20
891.9495145802441
 30
0.0
  0
SPLINE
  5
E7
330
1F
100
AcDbEntity
  8
MAKE2D VISIBLE LINES
100
AcDbSpline
210
0.0
220
0.0
230
1.0
 70
     8
 71
     3
 72
    13
 73
     9
 74
     0
 42
0.0000000001
 43
0.0000000001
 40
0.0
 40
0.0
 40
0.0
 40
0.0
 40
0.1556250505370345
 40
0.7049991317080235
 40
1.425446177314882
 40
2.658663173384591
 40
5.844635752885998
 40
11.04752465705857
 40
11.04752465705857
 40
11.04752465705857
 40
11.04752465705857
 10
1076.999999976968
 20
893.8241576178598
 30
0.0
 10
1077.03304933518
 20
893.8656015706924
 30
0.0
 10
1077.266386648667
 20
893.9179901511229
 30
0.0
 10
1077.736429241646
 20
893.9744618108427
 30
0.0
 10
1078.568815746658
 20
894.0430202953455
 30
0.0
 10
1080.278716501947
 20
894.1456177601845
 30
0.0
 10
1083.48322936595
 20
894.2863305320126
 30
0.0
 10
1086.277582732971
 20
894.3867837547618
 30
0.0
 10
1088.010786876329
 20
894.4495145806854
 30
0.0
  0
SPLINE
  5
E8
330
1F
100
AcDbEntity
  8
MAKE2D VISIBLE LINES
100
AcDbSpline
210
0.0
220
0.0
230
1.0
 70
     8
 71
     3
 72
    13
 73
     9
 74
     0
 42
0.0000000001
 43
0.0000000001
 40
0.0
 40
0.0
 40
0.0
 40
0.0
 40
0.1556250529053324
 40
0.7049991385920102
 40
1.425446188233538
 40
2.658663189295344
 40
5.844635778900988
 40
11.04755605884016
 40
11.04755605884016
 40
11.04755605884016
 40
11.04755605884016
 10
1076.999999976963
 20
896.3241576185037
 30
0.0
 10
1077.033049336559
 20
896.3656015712498
 30
0.0
 10
1077.266386652098
 20
896.4179901517532
 30
0.0
 10
1077.736429249046
 20
896.4744618115336
 30
0.0
 10
1078.568815758163
 20
896.5430202962202
 30
0.0
 10
1080.278716520517
 20
896.6456177609728
 30
0.0
 10
1083.483239837485
 20
896.786330991948
 30
0.0
 10
1086.277603663371
 20
896.8867845070281
 30
0.0
 10
1088.010818258117
 20
896.949515716
 30
0.0
  0
SPLINE
  5
E9
330
1F
100
AcDbEntity
  8
MAKE2D VISIBLE LINES
100
AcDbSpline
210
0.0
220
0.0
230
1.0
 70
     8
 71
     3
 72
    13
 73
     9
 74
     0
 42
0.0000000001
 43
0.0000000001
 40
0.0
 40
0.0
 40
0.0
 40
0.0
 40
0.0482915783686199
 40
0.1548220880833622
 40
0.6320996445226574
 40
2.5291270110187
 40
5.667439932359956
 40
11.04836957496839
 40
11.04836957496839
 40
11.04836957496839
 40
11.04836957496839
 10
1099.00000021018
 20
893.7748847718157
 30
0.0
 10
1098.995728908162
 20
893.7580234643002
 30
0.0
 10
1098.948864805751
 20
893.7330087340695
 30
0.0
 10
1098.74406119672
 20
893.6815391812756
 30
0.0
 10
1097.922082742115
 20
893.5863003406065
 30
0.0
 10
1096.087944045967
 20
893.471342810134
 30
0.0
 10
1092.619357199235
 20
893.3153642478948
 30
0.0
 10
1089.781330172505
 20
893.2148838940242
 30
0.0
 10
1087.988895042905
 20
893.1495076136514
 30
0.0
  0
SPLINE
  5
EA
330
1F
100
AcDbEntity
  8
MAKE2D VISIBLE LINES
100
AcDbSpline
210
0.0
220
0.0
230
1.0
 70
     8
 71
     3
 72
    18
 73
    14
 74
     0
 42
0.0000000001
 43
0.0000000001
 40
0.0
 40
0.0
 40
0.0
 40
0.0
 40
0.2802229293437815
 40
0.524565105525078
 40
1.010635330623809
 40
1.488328183057013
 40
1.725848659537528
 40
2.024881164662901
 40
2.425201156028745
 40
3.0035876887399
 40
4.820831707975074
 40
7.566998007983736
 40
11.71731491893934
 40
11.71731491893934
 40
11.71731491893934
 40
11.71731491893934
 10
1077.000000000001
 20
896.2776585942136
 30
0.0
 10
1076.909000282365
 20
896.2982251682987
 30
0.0
 10
1076.740456124323
 20
896.3517004836704
 30
0.0
 10
1076.470213310685
 20
896.5636146477393
 30
0.0
 10
1076.335229428496
 20
896.9773484585057
 30
0.0
 10
1076.531591479419
 20
897.3619175044491
 30
0.0
 10
1076.82846590183
 20
897.5347580088558
 30
0.0
 10
1077.134737468956
 20
897.6035233416517
 30
0.0
 10
1077.556660644018
 20
897.6588850131365
 30
0.0
 10
1078.48536770503
 20
897.7416551317083
 30
0.0
 10
1080.196307853654
 20
897.8418874738259
 30
0.0
 10
1083.098143849672
 20
897.9706051026994
 30
0.0
 10
1085.395367761474
 20
898.0551610306767
 30
0.0
 10
1086.777906411975
 20
898.1056121071294
 30
0.0
  0
SPLINE
  5
EB
330
1F
100
AcDbEntity
  8
MAKE2D VISIBLE LINES
100
AcDbSpline
210
0.0
220
0.0
230
1.0
 70
    12
 71
     2
 72
     6
 73
     3
 74
     0
 42
0.0000000001
 43
0.0000000001
 40
0.0
 40
0.0
 40
0.0
 40
0.3140892305503689
 40
0.3140892305503689
 40
0.3140892305503689
 10
1097.000380144073
 20
962.7495168499705
 30
0.0
 41
1.0
 10
1097.000197318753
 20
962.5496912351945
 30
0.0
 41
0.707738514540085
 10
1096.800371696433
 20
962.5495168499704
 30
0.0
 41
1.0
  0
SPLINE
  5
EC
330
1F
100
AcDbEntity
  8
MAKE2D VISIBLE LINES
100
AcDbSpline
210
0.0
220
0.0
230
1.0
 70
    24
 71
     2
 72
     6
 73
     3
 74
     0
 42
0.0000000001
 43
0.0000000001
 40
0.0
 40
0.0
 40
0.0
 40
8.326692111954799
 40
8.326692111954799
 40
8.326692111954799
 10
1079.0
 20
962.7495168499705
 30
0.0
 10
1079.0
 20
966.9128629059479
 30
0.0
 10
1079.0
 20
971.0762089619253
 30
0.0
  0
SPLINE
  5
ED
330
1F
100
AcDbEntity
  8
MAKE2D VISIBLE LINES
100
AcDbSpline
210
0.0
220
0.0
230
1.0
 70
    12
 71
     2
 72
     6
 73
     3
 74
     0
 42
0.0000000001
 43
0.0000000001
 40
0.0
 40
0.0
 40
0.0
 40
0.2756306893778153
 40
0.2756306893778153
 40
0.2756306893778153
 10
1095.162056324081
 20
962.5456946167817
 30
0.0
 41
1.0
 10
1095.000241282217
 20
962.5143413978063
 30
0.0
 41
0.7713892650021361
 10
1095.000264615651
 20
962.3495168499705
 30
0.0
 41
1.0
  0
SPLINE
  5
EE
330
1F
100
AcDbEntity
  8
MAKE2D VISIBLE LINES
100
AcDbSpline
210
0.0
220
0.0
230
1.0
 70
    24
 71
     2
 72
     6
 73
     3
 74
     0
 42
0.0000000001
 43
0.0000000001
 40
0.0
 40
0.0
 40
0.0
 40
8.326692111954799
 40
8.326692111954799
 40
8.326692111954799
 10
1097.0
 20
971.0762089619253
 30
0.0
 10
1097.0
 20
966.9128629059479
 30
0.0
 10
1097.0
 20
962.7495168499705
 30
0.0
  0
SPLINE
  5
EF
330
1F
100
AcDbEntity
  8
MAKE2D VISIBLE LINES
100
AcDbSpline
210
0.0
220
0.0
230
1.0
 70
    12
 71
     2
 72
     6
 73
     3
 74
     0
 42
0.0000000001
 43
0.0000000001
 40
0.0
 40
0.0
 40
0.0
 40
0.2754715553751157
 40
0.2754715553751157
 40
0.2754715553751157
 10
1080.999704332389
 20
962.3495168499705
 30
0.0
 41
1.0
 10
1080.999445436909
 20
962.5140751836585
 30
0.0
 41
0.7725144977058582
 10
1080.83794895926
 20
962.545672650644
 30
0.0
 41
1.0
  0
SPLINE
  5
F0
330
1F
100
AcDbEntity
  8
MAKE2D VISIBLE LINES
100
AcDbSpline
210
0.0
220
0.0
230
1.0
 70
     8
 71
     3
 72
    16
 73
    12
 74
     0
 42
0.0000000001
 43
0.0000000001
 40
0.0
 40
0.0
 40
0.0
 40
0.0
 40
0.2747471744238835
 40
0.5158094848690495
 40
0.9989356830600209
 40
1.475655638276826
 40
1.996407898356839
 40
2.27107076361651
 40
2.92515144082052
 40
4.691304511516093
 40
11.15120706502962
 40
11.15120706502962
 40
11.15120706502962
 40
11.15120706502962
 10
1099.0
 20
893.8213550676837
 30
0.0
 10
1099.088885943021
 20
893.8005821095619
 30
0.0
 10
1099.255491182641
 20
893.7497753390892
 30
0.0
 10
1099.52322958158
 20
893.5411140371294
 30
0.0
 10
1099.66720142243
 20
893.1370129416537
 30
0.0
 10
1099.428875722336
 20
892.6502302716301
 30
0.0
 10
1099.004787373969
 20
892.5157688281508
 30
0.0
 10
1098.531230637775
 20
892.4509449824673
 30
0.0
 10
1097.634473370557
 20
892.3641704502234
 30
0.0
 10
1094.681183644425
 20
892.1921070462249
 30
0.0
 10
1091.939079477147
 20
892.0944442399309
 30
0.0
 10
1089.78785658176
 20
892.0140815609582
 30
0.0
  0
SPLINE
  5
F1
330
1F
100
AcDbEntity
  8
MAKE2D VISIBLE LINES
100
AcDbSpline
210
0.0
220
0.0
230
1.0
 70
    24
 71
     2
 72
     6
 73
     3
 74
     0
 42
0.0000000001
 43
0.0000000001
 40
0.0
 40
0.0
 40
0.0
 40
3.600000000000023
 40
3.600000000000023
 40
3.600000000000023
 10
1081.0
 20
958.7495168499705
 30
0.0
 10
1081.0
 20
960.5495168499706
 30
0.0
 10
1081.0
 20
962.3495168499705
 30
0.0
  0
SPLINE
  5
F2
330
1F
100
AcDbEntity
  8
MAKE2D VISIBLE LINES
100
AcDbSpline
210
0.0
220
0.0
230
1.0
 70
    12
 71
     2
 72
     6
 73
     3
 74
     0
 42
0.0000000001
 43
0.0000000001
 40
0.0
 40
0.0
 40
0.0
 40
0.2754568579806743
 40
0.2754568579806743
 40
0.2754568579806743
 10
1095.00029566761
 20
958.7495168499705
 30
0.0
 41
1.0
 10
1095.000642228878
 20
958.5850691378812
 30
0.0
 41
0.7731857248010916
 10
1095.16198016782
 20
958.5532377135628
 30
0.0
 41
1.0
  0
SPLINE
  5
F3
330
1F
100
AcDbEntity
  8
MAKE2D VISIBLE LINES
100
AcDbSpline
210
0.0
220
0.0
230
1.0
 70
    12
 71
     2
 72
     6
 73
     3
 74
     0
 42
0.0000000001
 43
0.0000000001
 40
0.0
 40
0.0
 40
0.0
 40
0.3140668214693727
 40
0.3140668214693727
 40
0.3140668214693727
 10
1078.399594512989
 20
958.3495168499705
 30
0.0
 41
1.0
 10
1078.399777411513
 20
958.5493200322924
 30
0.0
 41
0.7077783704338029
 10
1078.59958058061
 20
958.5495168487184
 30
0.0
 41
1.0
  0
SPLINE
  5
F4
330
1F
100
AcDbEntity
  8
MAKE2D VISIBLE LINES
100
AcDbSpline
210
0.0
220
0.0
230
1.0
 70
     8
 71
     3
 72
    17
 73
    13
 74
     0
 42
0.0000000001
 43
0.0000000001
 40
0.0
 40
0.0
 40
0.0
 40
0.0
 40
0.524530783922299
 40
1.01947057619314
 40
1.501292579339479
 40
1.737564461436002
 40
2.04545243027329
 40
2.453356587815278
 40
3.076860683177565
 40
5.015637517603531
 40
7.845835543255342
 40
12.31015381304208
 40
12.31015381304208
 40
12.31015381304208
 40
12.31015381304208
 10
1077.000000000001
 20
893.7776397775413
 30
0.0
 10
1076.831132505081
 20
893.8112154507716
 30
0.0
 10
1076.499162617082
 20
893.966558381911
 30
0.0
 10
1076.333491399529
 20
894.4867764575488
 30
0.0
 10
1076.539679060975
 20
894.8704711908246
 30
0.0
 10
1076.842729620468
 20
895.0401466713989
 30
0.0
 10
1077.154646062684
 20
895.1064631608097
 30
0.0
 10
1077.597046432599
 20
895.1635277721848
 30
0.0
 10
1078.583856053789
 20
895.248660038332
 30
0.0
 10
1080.378355612537
 20
895.351047301345
 30
0.0
 10
1083.453329442606
 20
895.484876336709
 30
0.0
 10
1085.883181326487
 20
895.5730936227941
 30
0.0
 10
1087.370328201039
 20
895.6271185666546
 30
0.0
  0
SPLINE
  5
F5
330
1F
100
AcDbEntity
  8
MAKE2D VISIBLE LINES
100
AcDbSpline
210
0.0
220
0.0
230
1.0
 70
    24
 71
     2
 72
     6
 73
     3
 74
     0
 42
0.0000000001
 43
0.0000000001
 40
0.0
 40
0.0
 40
0.0
 40
3.600000000000023
 40
3.600000000000023
 40
3.600000000000023
 10
1095.0
 20
962.3495168499705
 30
0.0
 10
1095.0
 20
960.5495168499706
 30
0.0
 10
1095.0
 20
958.7495168499705
 30
0.0
  0
SPLINE
  5
F6
330
1F
100
AcDbEntity
  8
MAKE2D VISIBLE LINES
100
AcDbSpline
210
0.0
220
0.0
230
1.0
 70
    12
 71
     2
 72
     6
 73
     3
 74
     0
 42
0.0000000001
 43
0.0000000001
 40
0.0
 40
0.0
 40
0.0
 40
0.2755844998400942
 40
0.2755844998400942
 40
0.2755844998400942
 10
1080.838016245752
 20
958.5533352488309
 30
0.0
 41
1.0
 10
1080.9997982085
 20
958.5847189795944
 30
0.0
 41
0.7713829949906466
 10
1080.999735384349
 20
958.7495168499705
 30
0.0
 41
1.0
  0
SPLINE
  5
F7
330
1F
100
AcDbEntity
  8
MAKE2D VISIBLE LINES
100
AcDbSpline
210
0.0
220
0.0
230
1.0
 70
    12
 71
     2
 72
     6
 73
     3
 74
     0
 42
0.0000000001
 43
0.0000000001
 40
0.0
 40
0.0
 40
0.0
 40
0.3124456520447932
 40
0.3124456520447932
 40
0.3124456520447932
 10
1097.402013846364
 20
958.5495099737723
 30
0.0
 41
1.0
 10
1097.600216632953
 20
958.5477275966158
 30
0.0
 41
0.7105386136853488
 10
1097.600362901466
 20
958.3495168499705
 30
0.0
 41
1.0
  0
SPLINE
  5
F8
330
1F
100
AcDbEntity
  8
MAKE2D VISIBLE LINES
100
AcDbSpline
210
0.0
220
0.0
230
1.0
 70
    24
 71
     2
 72
     6
 73
     3
 74
     0
 42
0.0000000001
 43
0.0000000001
 40
0.0
 40
0.0
 40
0.0
 40
0.2149829019521121
 40
0.2149829019521121
 40
0.2149829019521121
 10
1078.4
 20
958.1345339480184
 30
0.0
 10
1078.4
 20
958.2420253989944
 30
0.0
 10
1078.4
 20
958.3495168499705
 30
0.0
  0
SPLINE
  5
F9
330
1F
100
AcDbEntity
  8
MAKE2D VISIBLE LINES
100
AcDbSpline
210
0.0
220
0.0
230
1.0
 70
    24
 71
     2
 72
     6
 73
     3
 74
     0
 42
0.0000000001
 43
0.0000000001
 40
0.0
 40
0.0
 40
0.0
 40
0.2150047380908973
 40
0.2150047380908973
 40
0.2150047380908973
 10
1097.6
 20
958.3495168499705
 30
0.0
 10
1097.6
 20
958.242014480925
 30
0.0
 10
1097.6
 20
958.1345121118796
 30
0.0
  0
SPLINE
  5
FA
330
1F
100
AcDbEntity
  8
MAKE2D VISIBLE LINES
100
AcDbSpline
210
0.0
220
0.0
230
1.0
 70
    24
 71
     2
 72
     6
 73
     3
 74
     0
 42
0.0000000001
 43
0.0000000001
 40
0.0
 40
0.0
 40
0.0
 40
5.664797226506494
 40
5.664797226506494
 40
5.664797226506494
 10
1100.0
 20
923.714314076477
 30
0.0
 10
1100.0
 20
920.8819154632238
 30
0.0
 10
1100.0
 20
918.0495168499706
 30
0.0
  0
SPLINE
  5
FB
330
1F
100
AcDbEntity
  8
MAKE2D VISIBLE LINES
100
AcDbSpline
210
0.0
220
0.0
230
1.0
 70
    24
 71
     2
 72
     6
 73
     3
 74
     0
 42
0.0000000001
 43
0.0000000001
 40
0.0
 40
0.0
 40
0.0
 40
5.664846071410125
 40
5.664846071410125
 40
5.664846071410125
 10
1076.0
 20
918.0495168499706
 30
0.0
 10
1076.0
 20
920.8819398856756
 30
0.0
 10
1076.0
 20
923.7143629213806
 30
0.0
  0
SPLINE
  5
FC
330
1F
100
AcDbEntity
  8
MAKE2D VISIBLE LINES
100
AcDbSpline
210
0.0
220
0.0
230
1.0
 70
    24
 71
     2
 72
     6
 73
     3
 74
     0
 42
0.0000000001
 43
0.0000000001
 40
0.0
 40
0.0
 40
0.0
 40
0.2035928399640738
 40
0.2035928399640738
 40
0.2035928399640738
 10
948.2809638594317
 20
939.0276430724687
 30
0.0
 10
948.2809638594192
 20
939.1294394924507
 30
0.0
 10
948.2809638594068
 20
939.2312359124327
 30
0.0
  0
SPLINE
  5
FD
330
1F
100
AcDbEntity
  8
MAKE2D VISIBLE LINES
100
AcDbSpline
210
0.0
220
0.0
230
1.0
 70
    24
 71
     2
 72
     6
 73
     3
 74
     0
 42
0.0000000001
 43
0.0000000001
 40
0.0
 40
0.0
 40
0.0
 40
45.94870670511415
 40
45.94870670511415
 40
45.94870670511415
 10
951.0512932948858
 20
962.5495168499705
 30
0.0
 10
974.0256466474428
 20
962.5495168499705
 30
0.0
 10
996.9999999999999
 20
962.5495168499705
 30
0.0
  0
SPLINE
  5
FE
330
1F
100
AcDbEntity
  8
MAKE2D VISIBLE LINES
100
AcDbSpline
210
0.0
220
0.0
230
1.0
 70
    24
 71
     2
 72
     6
 73
     3
 74
     0
 42
0.0000000001
 43
0.0000000001
 40
0.0
 40
0.0
 40
0.0
 40
45.94870670510647
 40
45.94870670510647
 40
45.94870670510647
 10
997.0
 20
916.5495168499706
 30
0.0
 10
974.0256466474468
 20
916.5495168499706
 30
0.0
 10
951.0512932948935
 20
916.5495168499706
 30
0.0
  0
SPLINE
  5
FF
330
1F
100
AcDbEntity
  8
MAKE2D VISIBLE LINES
100
AcDbSpline
210
0.0
220
0.0
230
1.0
 70
    12
 71
     2
 72
     6
 73
     3
 74
     0
 42
0.0000000001
 43
0.0000000001
 40
0.0
 40
0.0
 40
0.0
 40
1.384851196086792
 40
1.384851196086792
 40
1.384851196086792
 10
951.0512932948934
 20
916.5495161265283
 30
0.0
 41
1.0
 10
950.2218730581133
 20
916.5495200281919
 30
0.0
 41
0.7697022688652408
 10
950.0685310536975
 20
917.3646422023949
 30
0.0
 41
1.0
  0
SPLINE
  5
100
330
1F
100
AcDbEntity
  8
MAKE2D VISIBLE LINES
100
AcDbSpline
210
0.0
220
0.0
230
1.0
 70
    12
 71
     2
 72
     6
 73
     3
 74
     0
 42
0.0000000001
 43
0.0000000001
 40
0.0
 40
0.0
 40
0.0
 40
1.38485228099578
 40
1.38485228099578
 40
1.38485228099578
 10
950.0685310536612
 20
961.7343955465234
 30
0.0
 41
1.0
 10
950.2218709518357
 20
962.5495202601596
 30
0.0
 41
0.7697003716023694
 10
951.0512932948858
 20
962.549521771359
 30
0.0
 41
1.0
  0
SPLINE
  5
101
330
1F
100
AcDbEntity
  8
MAKE2D VISIBLE LINES
100
AcDbSpline
210
0.0
220
0.0
230
1.0
 70
    12
 71
     2
 72
     6
 73
     3
 74
     0
 42
0.0000000001
 43
0.0000000001
 40
0.0
 40
0.0
 40
0.0
 40
0.0135502753277747
 40
0.0135502753277747
 40
0.0135502753277747
 10
948.281432882604
 20
931.3358273652614
 30
0.0
 41
1.0
 10
948.2809888635204
 20
931.3425901138302
 30
0.0
 41
0.9995194312894436
 10
948.2809647662782
 20
931.3493673802757
 30
0.0
 41
1.0
  0
SPLINE
  5
102
330
1F
100
AcDbEntity
  8
MAKE2D VISIBLE LINES
100
AcDbSpline
210
0.0
220
0.0
230
1.0
 70
    24
 71
     2
 72
     6
 73
     3
 74
     0
 42
0.0000000001
 43
0.0000000001
 40
0.0
 40
0.0
 40
0.0
 40
0.3170336036673689
 40
0.3170336036673689
 40
0.3170336036673689
 10
948.2809638594068
 20
939.2312359124325
 30
0.0
 10
948.2809638593584
 20
939.3897527142661
 30
0.0
 10
948.28096385931
 20
939.5482695160998
 30
0.0
  0
SPLINE
  5
103
330
1F
100
AcDbEntity
  8
MAKE2D VISIBLE LINES
100
AcDbSpline
210
0.0
220
0.0
230
1.0
 70
    24
 71
     2
 72
     6
 73
     3
 74
     0
 42
0.0000000001
 43
0.0000000001
 40
0.0
 40
0.0
 40
0.0
 40
7.638870163402373
 40
7.638870163402373
 40
7.638870163402373
 10
948.2809638594345
 20
931.3510850009131
 30
0.0
 10
948.280963859434
 20
935.1705200826143
 30
0.0
 10
948.2809638594334
 20
938.9899551643155
 30
0.0
  0
SPLINE
  5
104
330
1F
100
AcDbEntity
  8
MAKE2D VISIBLE LINES
100
AcDbSpline
210
0.0
220
0.0
230
1.0
 70
    12
 71
     2
 72
     6
 73
     3
 74
     0
 42
0.0000000001
 43
0.0000000001
 40
0.0
 40
0.0
 40
0.0
 40
1.437996019565745
 40
1.437996019565745
 40
1.437996019565745
 10
996.9999999999999
 20
962.5504883292663
 30
0.0
 41
1.0
 10
997.8752793272221
 20
962.5504502405561
 30
0.0
 41
0.7524868831493638
 10
997.9911924688184
 20
961.682880044135
 30
0.0
 41
1.0
  0
SPLINE
  5
105
330
1F
100
AcDbEntity
  8
MAKE2D VISIBLE LINES
100
AcDbSpline
210
0.0
220
0.0
230
1.0
 70
    12
 71
     2
 72
     6
 73
     3
 74
     0
 42
0.0000000001
 43
0.0000000001
 40
0.0
 40
0.0
 40
0.0
 40
2.871528478056292
 40
2.871528478056292
 40
2.871528478056292
 10
1078.99999718899
 20
971.0762089619205
 30
0.0
 41
1.0
 10
1079.000031696513
 20
972.8228468265943
 30
0.0
 41
0.7532112025527941
 10
1080.730766960274
 20
973.0580048123746
 30
0.0
 41
1.0
  0
SPLINE
  5
106
330
1F
100
AcDbEntity
  8
MAKE2D VISIBLE LINES
100
AcDbSpline
210
0.0
220
0.0
230
1.0
 70
    24
 71
     2
 72
     6
 73
     3
 74
     0
 42
0.0000000001
 43
0.0000000001
 40
0.0
 40
0.0
 40
0.0
 40
0.0376879081032371
 40
0.0376879081032371
 40
0.0376879081032371
 10
948.2809638594334
 20
938.9899551643914
 30
0.0
 10
948.2809638594315
 20
939.008799118443
 30
0.0
 10
948.2809638594294
 20
939.0276430724947
 30
0.0
  0
SPLINE
  5
107
330
1F
100
AcDbEntity
  8
MAKE2D VISIBLE LINES
100
AcDbSpline
210
0.0
220
0.0
230
1.0
 70
    12
 71
     2
 72
     6
 73
     3
 74
     0
 42
0.0000000001
 43
0.0000000001
 40
0.0
 40
0.0
 40
0.0
 40
1.437895587350868
 40
1.437895587350868
 40
1.437895587350868
 10
997.991179796617
 20
917.4161563354892
 30
0.0
 41
1.0
 10
997.8751896285743
 20
916.5486869305853
 30
0.0
 41
0.7525211761167764
 10
996.9999999999999
 20
916.5486473985452
 30
0.0
 41
1.0
  0
SPLINE
  5
108
330
1F
100
AcDbEntity
  8
MAKE2D VISIBLE LINES
100
AcDbSpline
210
0.0
220
0.0
230
1.0
 70
    12
 71
     2
 72
     6
 73
     3
 74
     0
 42
0.0000000001
 43
0.0000000001
 40
0.0
 40
0.0
 40
0.0
 40
0.3141188893812923
 40
0.3141188893812923
 40
0.3141188893812923
 10
1105.375799575838
 20
918.5495168499676
 30
0.0
 41
1.0
 10
1105.575661851565
 20
918.5493791003812
 30
0.0
 41
0.7076519852925696
 10
1105.575832422595
 20
918.3495168499705
 30
0.0
 41
1.0
  0
SPLINE
  5
109
330
1F
100
AcDbEntity
  8
MAKE2D VISIBLE LINES
100
AcDbSpline
210
0.0
220
0.0
230
1.0
 70
    24
 71
     2
 72
     6
 73
     3
 74
     0
 42
0.0000000001
 43
0.0000000001
 40
0.0
 40
0.0
 40
0.0
 40
72.42484575878129
 40
72.42484575878129
 40
72.42484575878129
 10
1070.424845758781
 20
916.5495168499705
 30
0.0
 10
1034.21242287939
 20
916.5495168499705
 30
0.0
 10
997.9999999999999
 20
916.5495168499705
 30
0.0
  0
SPLINE
  5
10A
330
1F
100
AcDbEntity
  8
MAKE2D VISIBLE LINES
100
AcDbSpline
210
0.0
220
0.0
230
1.0
 70
    12
 71
     2
 72
     6
 73
     3
 74
     0
 42
0.0000000001
 43
0.0000000001
 40
0.0
 40
0.0
 40
0.0
 40
13.25947710754757
 40
13.25947710754757
 40
13.25947710754757
 10
1023.342846502
 20
972.1141065209771
 30
0.0
 41
1.0
 10
1029.975227800789
 20
971.0278850300011
 30
0.0
 41
0.9798124159912137
 10
1035.651902955288
 20
967.4301471281672
 30
0.0
 41
1.0
  0
SPLINE
  5
10B
330
1F
100
AcDbEntity
  8
MAKE2D VISIBLE LINES
100
AcDbSpline
210
0.0
220
0.0
230
1.0
 70
    12
 71
     2
 72
     6
 73
     3
 74
     0
 42
0.0000000001
 43
0.0000000001
 40
0.0
 40
0.0
 40
0.0
 40
7.040208047948162
 40
7.040208047948162
 40
7.040208047948162
 10
999.741772064218
 20
912.0620685010136
 30
0.0
 41
1.0
 10
996.7972215740546
 20
914.0154968623976
 30
0.0
 41
0.9942849576770136
 10
994.3344989638601
 20
916.5495168499706
 30
0.0
 41
1.0
  0
SPLINE
  5
10C
330
1F
100
AcDbEntity
  8
MAKE2D VISIBLE LINES
100
AcDbSpline
210
0.0
220
0.0
230
1.0
 70
    12
 71
     2
 72
     6
 73
     3
 74
     0
 42
0.0000000001
 43
0.0000000001
 40
0.0
 40
0.0
 40
0.0
 40
12.47671397420124
 40
12.47671397420124
 40
12.47671397420124
 10
999.1962442211036
 20
966.6670910438338
 30
0.0
 41
1.0
 10
1004.382784722384
 20
970.268561914011
 30
0.0
 41
0.9820489920718618
 10
1010.534526222089
 20
971.6922442244186
 30
0.0
 41
1.0
  0
SPLINE
  5
10D
330
1F
100
AcDbEntity
  8
MAKE2D VISIBLE LINES
100
AcDbSpline
210
0.0
220
0.0
230
1.0
 70
    12
 71
     2
 72
     6
 73
     3
 74
     0
 42
0.0000000001
 43
0.0000000001
 40
0.0
 40
0.0
 40
0.0
 40
6.576825139295543
 40
6.576825139295543
 40
6.576825139295543
 10
1017.999999999972
 20
906.5495168499706
 30
0.0
 41
1.0
 10
1014.700661295913
 20
906.5497399022227
 30
0.0
 41
0.9950399709575201
 10
1011.466663671644
 20
907.2031121545241
 30
0.0
 41
1.0
  0
SPLINE
  5
10E
330
1F
100
AcDbEntity
  8
MAKE2D VISIBLE LINES
100
AcDbSpline
210
0.0
220
0.0
230
1.0
 70
    12
 71
     2
 72
     6
 73
     3
 74
     0
 42
0.0000000001
 43
0.0000000001
 40
0.0
 40
0.0
 40
0.0
 40
0.8019486302197113
 40
0.8019486302197113
 40
0.8019486302197113
 10
1077.87159018287
 20
958.0678467018237
 30
0.0
 41
1.0
 10
1078.271705943137
 20
958.0998649227606
 30
0.0
 41
0.998429389229927
 10
1078.665727992266
 20
958.1764443774905
 30
0.0
 41
1.0
  0
SPLINE
  5
10F
330
1F
100
AcDbEntity
  8
MAKE2D VISIBLE LINES
100
AcDbSpline
210
0.0
220
0.0
230
1.0
 70
    12
 71
     2
 72
     6
 73
     3
 74
     0
 42
0.0000000001
 43
0.0000000001
 40
0.0
 40
0.0
 40
0.0
 40
0.7492383771984514
 40
0.7492383771984514
 40
0.7492383771984514
 10
1097.386332746789
 20
958.1682240972796
 30
0.0
 41
1.0
 10
1097.75444661005
 20
958.0964790518777
 30
0.0
 41
0.9983168987569613
 10
1098.128391906649
 20
958.0678419602616
 30
0.0
 41
1.0
  0
SPLINE
  5
110
330
1F
100
AcDbEntity
  8
MAKE2D VISIBLE LINES
100
AcDbSpline
210
0.0
220
0.0
230
1.0
 70
    12
 71
     2
 72
     6
 73
     3
 74
     0
 42
0.0000000001
 43
0.0000000001
 40
0.0
 40
0.0
 40
0.0
 40
5.377432037735237
 40
5.377432037735237
 40
5.377432037735237
 10
1082.622667379586
 20
958.5191802376711
 30
0.0
 41
1.0
 10
1085.311256970902
 20
958.4904428668154
 30
0.0
 41
0.9999848537026023
 10
1088.000000002311
 20
958.4913019766677
 30
0.0
 41
1.0
  0
SPLINE
  5
111
330
1F
100
AcDbEntity
  8
MAKE2D VISIBLE LINES
100
AcDbSpline
210
0.0
220
0.0
230
1.0
 70
    12
 71
     2
 72
     6
 73
     3
 74
     0
 42
0.0000000001
 43
0.0000000001
 40
0.0
 40
0.0
 40
0.0
 40
0.3141081077315726
 40
0.3141081077315726
 40
0.3141081077315726
 10
1070.424167577284
 20
918.3495168499705
 30
0.0
 41
1.0
 10
1070.424363260559
 20
918.5493539845556
 30
0.0
 41
0.7077408434338848
 10
1070.624200424585
 20
918.5495168499676
 30
0.0
 41
1.0
  0
SPLINE
  5
112
330
1F
100
AcDbEntity
  8
MAKE2D VISIBLE LINES
100
AcDbSpline
210
0.0
220
0.0
230
1.0
 70
    12
 71
     2
 72
     6
 73
     3
 74
     0
 42
0.0000000001
 43
0.0000000001
 40
0.0
 40
0.0
 40
0.0
 40
5.377361666887329
 40
5.377361666887329
 40
5.377361666887329
 10
1088.000000002311
 20
958.4913019766677
 30
0.0
 41
1.0
 10
1090.688707846695
 20
958.4904431389294
 30
0.0
 41
0.9999848544443146
 10
1093.377262257869
 20
958.5191796699183
 30
0.0
 41
1.0
  0
SPLINE
  5
113
330
1F
100
AcDbEntity
  8
MAKE2D VISIBLE LINES
100
AcDbSpline
210
0.0
220
0.0
230
1.0
 70
    12
 71
     2
 72
     6
 73
     3
 74
     0
 42
0.0000000001
 43
0.0000000001
 40
0.0
 40
0.0
 40
0.0
 40
0.3138133561030654
 40
0.3138133561030654
 40
0.3138133561030654
 10
1079.199318809594
 20
962.549517153632
 30
0.0
 41
1.0
 10
1078.999671275823
 20
962.5498690064834
 30
0.0
 41
0.707749937630958
 10
1078.999659779876
 20
962.7495168499705
 30
0.0
 41
1.0
  0
SPLINE
  5
114
330
1F
100
AcDbEntity
  8
MAKE2D VISIBLE LINES
100
AcDbSpline
210
0.0
220
0.0
230
1.0
 70
    24
 71
     2
 72
     6
 73
     3
 74
     0
 42
0.0000000001
 43
0.0000000001
 40
0.0
 40
0.0
 40
0.0
 40
0.186033138301525
 40
0.186033138301525
 40
0.186033138301525
 10
948.2809638594324
 20
939.7116977583796
 30
0.0
 10
948.2809638594827
 20
939.8047143275303
 30
0.0
 10
948.2809638595329
 20
939.8977308966811
 30
0.0
  0
SPLINE
  5
115
330
1F
100
AcDbEntity
  8
MAKE2D VISIBLE LINES
100
AcDbSpline
210
0.0
220
0.0
230
1.0
 70
    12
 71
     2
 72
     6
 73
     3
 74
     0
 42
0.0000000001
 43
0.0000000001
 40
0.0
 40
0.0
 40
0.0
 40
9.10487192220438
 40
9.10487192220438
 40
9.10487192220438
 10
1026.989742554227
 20
907.7979096864939
 30
0.0
 41
1.0
 10
1022.581547167235
 20
906.5495556191468
 30
0.0
 41
0.9904961770780724
 10
1017.999999999972
 20
906.5495168499706
 30
0.0
 41
1.0
  0
SPLINE
  5
116
330
1F
100
AcDbEntity
  8
MAKE2D VISIBLE LINES
100
AcDbSpline
210
0.0
220
0.0
230
1.0
 70
    12
 71
     2
 72
     6
 73
     3
 74
     0
 42
0.0000000001
 43
0.0000000001
 40
0.0
 40
0.0
 40
0.0
 40
1.570285204504965
 40
1.570285204504965
 40
1.570285204504965
 10
1100.000993804451
 20
911.0495167040856
 30
0.0
 41
1.0
 10
1101.000471072633
 20
911.0489942544933
 30
0.0
 41
0.7072987663778756
 10
1101.000491429067
 20
910.0495168499705
 30
0.0
 41
1.0
  0
SPLINE
  5
117
330
1F
100
AcDbEntity
  8
MAKE2D VISIBLE LINES
100
AcDbSpline
210
0.0
220
0.0
230
1.0
 70
    24
 71
     2
 72
     6
 73
     3
 74
     0
 42
0.0000000001
 43
0.0000000001
 40
0.0
 40
0.0
 40
0.0
 40
7.794123353720977
 40
7.794123353720977
 40
7.794123353720977
 10
948.2809638595535
 20
939.9493595533186
 30
0.0
 10
948.2809638594792
 20
943.8464212301791
 30
0.0
 10
948.2809638594051
 20
947.7434829070396
 30
0.0
  0
SPLINE
  5
118
330
1F
100
AcDbEntity
  8
MAKE2D VISIBLE LINES
100
AcDbSpline
210
0.0
220
0.0
230
1.0
 70
    12
 71
     2
 72
     6
 73
     3
 74
     0
 42
0.0000000001
 43
0.0000000001
 40
0.0
 40
0.0
 40
0.0
 40
0.1151665032033663
 40
0.1151665032033663
 40
0.1151665032033663
 10
948.2809638585602
 20
931.830260260801
 30
0.0
 41
1.0
 10
948.2454681097561
 20
931.8776980086762
 30
0.0
 41
0.9583886451299816
 10
948.2417143398358
 20
931.9368266592446
 30
0.0
 41
1.0
  0
SPLINE
  5
119
330
1F
100
AcDbEntity
  8
MAKE2D VISIBLE LINES
100
AcDbSpline
210
0.0
220
0.0
230
1.0
 70
    12
 71
     2
 72
     6
 73
     3
 74
     0
 42
0.0000000001
 43
0.0000000001
 40
0.0
 40
0.0
 40
0.0
 40
0.115151328412495
 40
0.115151328412495
 40
0.115151328412495
 10
948.2417143398402
 20
947.1622050915028
 30
0.0
 41
1.0
 10
948.2457410604535
 20
947.2212511051376
 30
0.0
 41
0.9597515491081569
 10
948.2809638586651
 20
947.2688116002064
 30
0.0
 41
1.0
  0
SPLINE
  5
11A
330
1F
100
AcDbEntity
  8
MAKE2D VISIBLE LINES
100
AcDbSpline
210
0.0
220
0.0
230
1.0
 70
    12
 71
     2
 72
     6
 73
     3
 74
     0
 42
0.0000000001
 43
0.0000000001
 40
0.0
 40
0.0
 40
0.0
 40
2.871541346742289
 40
2.871541346742289
 40
2.871541346742289
 10
1095.269231178342
 20
973.0580048123833
 30
0.0
 41
1.0
 10
1096.999998571226
 20
972.8228748860519
 30
0.0
 41
0.7531990192412705
 10
1097.000000506519
 20
971.0762089619205
 30
0.0
 41
1.0
  0
SPLINE
  5
11B
330
1F
100
AcDbEntity
  8
MAKE2D VISIBLE LINES
100
AcDbSpline
210
0.0
220
0.0
230
1.0
 70
    24
 71
     2
 72
     6
 73
     3
 74
     0
 42
0.0000000001
 43
0.0000000001
 40
0.0
 40
0.0
 40
0.0
 40
0.0516286527883949
 40
0.0516286527883949
 40
0.0516286527883949
 10
948.2809638595286
 20
939.8977309005111
 30
0.0
 10
948.2809638595411
 20
939.9235452269053
 30
0.0
 10
948.2809638595536
 20
939.9493595532995
 30
0.0
  0
SPLINE
  5
11C
330
1F
100
AcDbEntity
  8
MAKE2D VISIBLE LINES
100
AcDbSpline
210
0.0
220
0.0
230
1.0
 70
    24
 71
     2
 72
     6
 73
     3
 74
     0
 42
0.0000000001
 43
0.0000000001
 40
0.0
 40
0.0
 40
0.0
 40
0.1621809084978736
 40
0.1621809084978736
 40
0.1621809084978736
 10
948.2809638593095
 20
939.5495168500083
 30
0.0
 10
948.2809638593735
 20
939.6306073042572
 30
0.0
 10
948.2809638594374
 20
939.7116977585061
 30
0.0
  0
SPLINE
  5
11D
330
1F
100
AcDbEntity
  8
MAKE2D VISIBLE LINES
100
AcDbSpline
210
0.0
220
0.0
230
1.0
 70
    12
 71
     2
 72
     6
 73
     3
 74
     0
 42
0.0000000001
 43
0.0000000001
 40
0.0
 40
0.0
 40
0.0
 40
1.570807595129582
 40
1.570807595129582
 40
1.570807595129582
 10
1075.99952856592
 20
899.0495168501291
 30
0.0
 41
1.0
 10
1074.999528902976
 20
899.0495171872337
 30
0.0
 41
0.7071140887984767
 10
1074.999508570934
 20
900.0495168499705
 30
0.0
 41
1.0
  0
SPLINE
  5
11E
330
1F
100
AcDbEntity
  8
MAKE2D VISIBLE LINES
100
AcDbSpline
210
0.0
220
0.0
230
1.0
 70
    24
 71
     2
 72
     6
 73
     3
 74
     0
 42
0.0000000001
 43
0.0000000001
 40
0.0
 40
0.0
 40
0.0
 40
10.0
 40
10.0
 40
10.0
 10
1101.0
 20
910.0495168499706
 30
0.0
 10
1101.0
 20
905.0495168499706
 30
0.0
 10
1101.0
 20
900.0495168499706
 30
0.0
  0
SPLINE
  5
11F
330
1F
100
AcDbEntity
  8
MAKE2D VISIBLE LINES
100
AcDbSpline
210
0.0
220
0.0
230
1.0
 70
    24
 71
     2
 72
     6
 73
     3
 74
     0
 42
0.0000000001
 43
0.0000000001
 40
0.0
 40
0.0
 40
0.0
 40
10.0
 40
10.0
 40
10.0
 10
1075.0
 20
900.0495168499706
 30
0.0
 10
1075.0
 20
905.0495168499706
 30
0.0
 10
1075.0
 20
910.0495168499706
 30
0.0
  0
SPLINE
  5
120
330
1F
100
AcDbEntity
  8
MAKE2D VISIBLE LINES
100
AcDbSpline
210
0.0
220
0.0
230
1.0
 70
    12
 71
     2
 72
     6
 73
     3
 74
     0
 42
0.0000000001
 43
0.0000000001
 40
0.0
 40
0.0
 40
0.0
 40
0.0135523455908362
 40
0.0135523455908362
 40
0.0135523455908362
 10
948.280964739921
 20
947.7496642543297
 30
0.0
 41
1.0
 10
948.2809887411552
 20
947.7564425566934
 30
0.0
 41
0.9995194074770044
 10
948.2814327389999
 20
947.7632063444566
 30
0.0
 41
1.0
  0
SPLINE
  5
121
330
1F
100
AcDbEntity
  8
MAKE2D VISIBLE LINES
100
AcDbSpline
210
0.0
220
0.0
230
1.0
 70
    12
 71
     2
 72
     6
 73
     3
 74
     0
 42
0.0000000001
 43
0.0000000001
 40
0.0
 40
0.0
 40
0.0
 40
0.1660786063701314
 40
0.1660786063701314
 40
0.1660786063701314
 10
1089.621888611736
 20
892.0080205404429
 30
0.0
 41
1.0
 10
1089.70487242178
 20
892.0110558579696
 30
0.0
 41
0.9999999990737962
 10
1089.787855970239
 20
892.0140983186661
 30
0.0
 41
1.0
  0
SPLINE
  5
122
330
1F
100
AcDbEntity
  8
MAKE2D VISIBLE LINES
100
AcDbSpline
210
0.0
220
0.0
230
1.0
 70
    12
 71
     2
 72
     6
 73
     3
 74
     0
 42
0.0000000001
 43
0.0000000001
 40
0.0
 40
0.0
 40
0.0
 40
0.120071695357509
 40
0.120071695357509
 40
0.120071695357509
 10
1089.08484958446
 20
894.4884395386198
 30
0.0
 41
1.0
 10
1089.144845789058
 20
894.4906209238262
 30
0.0
 41
0.9999999997887717
 10
1089.204841903933
 20
894.4928047753247
 30
0.0
 41
1.0
  0
SPLINE
  5
123
330
1F
100
AcDbEntity
  8
MAKE2D VISIBLE LINES
100
AcDbSpline
210
0.0
220
0.0
230
1.0
 70
    24
 71
     2
 72
     6
 73
     3
 74
     0
 42
0.0000000001
 43
0.0000000001
 40
0.0
 40
0.0
 40
0.0
 40
81.19962870909981
 40
81.19962870909981
 40
81.19962870909981
 10
1096.8003712909
 20
962.5495168499705
 30
0.0
 10
1137.40018564545
 20
962.5495168499705
 30
0.0
 10
1178.0
 20
962.5495168499705
 30
0.0
  0
SPLINE
  5
124
330
1F
100
AcDbEntity
  8
MAKE2D VISIBLE LINES
100
AcDbSpline
210
0.0
220
0.0
230
1.0
 70
    24
 71
     2
 72
     6
 73
     3
 74
     0
 42
0.0000000001
 43
0.0000000001
 40
0.0
 40
0.0
 40
0.0
 40
72.42484575877913
 40
72.42484575877913
 40
72.42484575877913
 10
1178.0
 20
916.5495168499705
 30
0.0
 10
1141.78757712061
 20
916.5495168499705
 30
0.0
 10
1105.575154241221
 20
916.5495168499705
 30
0.0
  0
SPLINE
  5
125
330
1F
100
AcDbEntity
  8
MAKE2D VISIBLE LINES
100
AcDbSpline
210
0.0
220
0.0
230
1.0
 70
     8
 71
     3
 72
    16
 73
    12
 74
     0
 42
0.0000000001
 43
0.0000000001
 40
0.0
 40
0.0
 40
0.0
 40
0.0
 40
0.5107360729972173
 40
0.9929024509887083
 40
1.468240681126111
 40
1.706361166307109
 40
1.996295259449848
 40
2.925021172772778
 40
4.691156251327331
 40
7.311356681278562
 40
11.1510343561266
 40
11.1510343561266
 40
11.1510343561266
 40
11.1510343561266
 10
1099.0
 20
896.3213506275824
 30
0.0
 10
1099.16442331721
 20
896.2879626027911
 30
0.0
 10
1099.487790027363
 20
896.1412129284527
 30
0.0
 10
1099.665550826518
 20
895.6391745604403
 30
0.0
 10
1099.481234868351
 20
895.2539925039611
 30
0.0
 10
1099.193270214475
 20
895.0708835992925
 30
0.0
 10
1098.717782362036
 20
894.9624626840134
 30
0.0
 10
1097.726292737801
 20
894.8740214237068
 30
0.0
 10
1095.958217483013
 20
894.7632335164903
 30
0.0
 10
1093.21857589259
 20
894.6431569060655
 30
0.0
 10
1091.067043940081
 20
894.5603211469495
 30
0.0
 10
1089.787932129896
 20
894.5140843309731
 30
0.0
  0
SPLINE
  5
126
330
1F
100
AcDbEntity
  8
MAKE2D VISIBLE LINES
100
AcDbSpline
210
0.0
220
0.0
230
1.0
 70
    24
 71
     2
 72
     6
 73
     3
 74
     0
 42
0.0000000001
 43
0.0000000001
 40
0.0
 40
0.0
 40
0.0
 40
81.19966723666076
 40
81.19966723666076
 40
81.19966723666076
 10
997.9999999999999
 20
962.5495168499705
 30
0.0
 10
1038.59983361833
 20
962.5495168499705
 30
0.0
 10
1079.199667236661
 20
962.5495168499705
 30
0.0
  0
ENDSEC
  0
SECTION
  2
OBJECTS
  0
DICTIONARY
  5
C
330
0
100
AcDbDictionary
281
     1
  3
ACAD_GROUP
350
D
  3
ACAD_LAYOUT
350
1A
  3
ACAD_MLEADERSTYLE
350
12A
  3
ACAD_MLINESTYLE
350
17
  3
ACAD_PLOTSETTINGS
350
19
  3
ACAD_PLOTSTYLENAME
350
E
  3
ACAD_SCALELIST
350
3D
  3
ACAD_TABLESTYLE
350
129
  3
ACAD_VISUALSTYLE
350
2A
  3
AcDbVariableDictionary
350
127
  0
DICTIONARY
  5
D
102
{ACAD_REACTORS
330
C
102
}
330
C
100
AcDbDictionary
281
     1
  0
DICTIONARY
  5
1A
102
{ACAD_REACTORS
330
C
102
}
330
C
100
AcDbDictionary
281
     1
  3
Layout1
350
1E
  3
Layout2
350
26
  3
Model
350
22
  0
DICTIONARY
  5
12A
102
{ACAD_REACTORS
330
C
102
}
330
C
100
AcDbDictionary
281
     1
  0
DICTIONARY
  5
17
102
{ACAD_REACTORS
330
C
102
}
330
C
100
AcDbDictionary
281
     1
  3
Standard
350
18
  0
DICTIONARY
  5
19
102
{ACAD_REACTORS
330
C
102
}
330
C
100
AcDbDictionary
281
     1
  0
ACDBDICTIONARYWDFLT
  5
E
102
{ACAD_REACTORS
330
C
102
}
330
C
100
AcDbDictionary
281
     1
  3
Normal
350
F
100
AcDbDictionaryWithDefault
340
F
  0
DICTIONARY
  5
3D
102
{ACAD_REACTORS
330
C
102
}
330
C
100
AcDbDictionary
281
     1
  3
A0
350
3E
  3
A1
350
3F
  3
A2
350
40
  3
A3
350
41
  3
A4
350
42
  3
A5
350
43
  3
A6
350
44
  3
A7
350
45
  3
A8
350
46
  3
A9
350
47
  3
B0
350
48
  3
B1
350
49
  3
B2
350
4A
  3
B3
350
4B
  3
B4
350
4C
  3
B5
350
4D
  3
B6
350
4E
  3
B7
350
4F
  3
B8
350
50
  3
B9
350
51
  3
C0
350
52
  3
C1
350
53
  3
C2
350
54
  3
C3
350
55
  3
C4
350
56
  3
C5
350
57
  3
C6
350
58
  3
C7
350
59
  3
C8
350
5A
  3
C9
350
5B
  3
D0
350
5C
  3
D1
350
5D
  3
D2
350
5E
  0
DICTIONARY
  5
129
102
{ACAD_REACTORS
330
C
102
}
330
C
100
AcDbDictionary
281
     1
  0
DICTIONARY
  5
2A
102
{ACAD_REACTORS
330
C
102
}
330
C
100
AcDbDictionary
281
     1
  3
2dWireframe
350
2F
  3
3D Hidden
350
31
  3
3dWireframe
350
30
  3
Basic
350
32
  3
Brighten
350
36
  3
ColorChange
350
3A
  3
Conceptual
350
34
  3
Dim
350
35
  3
Facepattern
350
39
  3
Flat
350
2B
  3
FlatWithEdges
350
2C
  3
Gouraud
350
2D
  3
GouraudWithEdges
350
2E
  3
Linepattern
350
38
  3
Realistic
350
33
  3
Thicken
350
37
  0
DICTIONARY
  5
127
102
{ACAD_REACTORS
330
C
102
}
330
C
100
AcDbDictionary
281
     1
  3
CANNOSCALE
350
128
  0
LAYOUT
  5
1E
102
{ACAD_REACTORS
330
1A
102
}
330
1A
100
AcDbPlotSettings
  1

  2
none_device
  4

  6

 40
0.0
 41
0.0
 42
0.0
 43
0.0
 44
0.0
 45
0.0
 46
0.0
 47
0.0
 48
0.0
 49
0.0
140
0.0
141
0.0
142
1.0
143
1.0
 70
   688
 72
     0
 73
     0
 74
     5
  7

 75
    16
 76
     0
 77
     2
 78
   300
147
1.0
148
0.0
149
0.0
100
AcDbLayout
  1
Layout1
 70
     1
 71
     1
 10
0.0
 20
0.0
 11
12.0
 21
9.0
 12
0.0
 22
0.0
 32
0.0
 14
1.000000000000000E+20
 24
1.000000000000000E+20
 34
1.000000000000000E+20
 15
-1.000000000000000E+20
 25
-1.000000000000000E+20
 35
-1.000000000000000E+20
146
0.0
 13
0.0
 23
0.0
 33
0.0
 16
1.0
 26
0.0
 36
0.0
 17
0.0
 27
1.0
 37
0.0
 76
     0
330
1B
  0
LAYOUT
  5
26
102
{ACAD_REACTORS
330
1A
102
}
330
1A
100
AcDbPlotSettings
  1

  2
none_device
  4

  6

 40
0.0
 41
0.0
 42
0.0
 43
0.0
 44
0.0
 45
0.0
 46
0.0
 47
0.0
 48
0.0
 49
0.0
140
0.0
141
0.0
142
1.0
143
1.0
 70
   688
 72
     0
 73
     0
 74
     5
  7

 75
    16
 76
     0
 77
     2
 78
   300
147
1.0
148
0.0
149
0.0
100
AcDbLayout
  1
Layout2
 70
     1
 71
     2
 10
0.0
 20
0.0
 11
0.0
 21
0.0
 12
0.0
 22
0.0
 32
0.0
 14
0.0
 24
0.0
 34
0.0
 15
0.0
 25
0.0
 35
0.0
146
0.0
 13
0.0
 23
0.0
 33
0.0
 16
1.0
 26
0.0
 36
0.0
 17
0.0
 27
1.0
 37
0.0
 76
     0
330
23
  0
LAYOUT
  5
22
102
{ACAD_REACTORS
330
1A
102
}
330
1A
100
AcDbPlotSettings
  1

  2
none_device
  4

  6

 40
0.0
 41
0.0
 42
0.0
 43
0.0
 44
0.0
 45
0.0
 46
0.0
 47
0.0
 48
0.0
 49
0.0
140
0.0
141
0.0
142
1.0
143
1.0
 70
  1712
 72
     0
 73
     0
 74
     0
  7

 75
     0
 76
     0
 77
     2
 78
   300
147
1.0
148
0.0
149
0.0
100
AcDbLayout
  1
Model
 70
     1
 71
     0
 10
0.0
 20
0.0
 11
12.0
 21
9.0
 12
0.0
 22
0.0
 32
0.0
 14
948.0000000000001
 24
889.0
 34
0.0
 15
1325.5
 25
1037.869516850004
 35
0.0
146
0.0
 13
0.0
 23
0.0
 33
0.0
 16
1.0
 26
0.0
 36
0.0
 17
0.0
 27
1.0
 37
0.0
 76
     0
330
1F
331
29
  0
MLINESTYLE
  5
18
102
{ACAD_REACTORS
330
17
102
}
330
17
100
AcDbMlineStyle
  2
Standard
 70
     0
  3

 62
   256
 51
90.0
 52
90.0
 71
     2
 49
0.5
 62
   256
  6
BYLAYER
 49
-0.5
 62
   256
  6
BYLAYER
  0
ACDBPLACEHOLDER
  5
F
102
{ACAD_REACTORS
330
E
102
}
330
E
  0
SCALE
  5
3E
102
{ACAD_REACTORS
330
3D
102
}
330
3D
100
AcDbScale
 70
     0
300
1:1
140
1.0
141
1.0
290
     1
  0
SCALE
  5
3F
102
{ACAD_REACTORS
330
3D
102
}
330
3D
100
AcDbScale
 70
     0
300
1:2
140
1.0
141
2.0
290
     0
  0
SCALE
  5
40
102
{ACAD_REACTORS
330
3D
102
}
330
3D
100
AcDbScale
 70
     0
300
1:4
140
1.0
141
4.0
290
     0
  0
SCALE
  5
41
102
{ACAD_REACTORS
330
3D
102
}
330
3D
100
AcDbScale
 70
     0
300
1:5
140
1.0
141
5.0
290
     0
  0
SCALE
  5
42
102
{ACAD_REACTORS
330
3D
102
}
330
3D
100
AcDbScale
 70
     0
300
1:8
140
1.0
141
8.0
290
     0
  0
SCALE
  5
43
102
{ACAD_REACTORS
330
3D
102
}
330
3D
100
AcDbScale
 70
     0
300
1:10
140
1.0
141
10.0
290
     0
  0
SCALE
  5
44
102
{ACAD_REACTORS
330
3D
102
}
330
3D
100
AcDbScale
 70
     0
300
1:16
140
1.0
141
16.0
290
     0
  0
SCALE
  5
45
102
{ACAD_REACTORS
330
3D
102
}
330
3D
100
AcDbScale
 70
     0
300
1:20
140
1.0
141
20.0
290
     0
  0
SCALE
  5
46
102
{ACAD_REACTORS
330
3D
102
}
330
3D
100
AcDbScale
 70
     0
300
1:30
140
1.0
141
30.0
290
     0
  0
SCALE
  5
47
102
{ACAD_REACTORS
330
3D
102
}
330
3D
100
AcDbScale
 70
     0
300
1:40
140
1.0
141
40.0
290
     0
  0
SCALE
  5
48
102
{ACAD_REACTORS
330
3D
102
}
330
3D
100
AcDbScale
 70
     0
300
1:50
140
1.0
141
50.0
290
     0
  0
SCALE
  5
49
102
{ACAD_REACTORS
330
3D
102
}
330
3D
100
AcDbScale
 70
     0
300
1:100
140
1.0
141
100.0
290
     0
  0
SCALE
  5
4A
102
{ACAD_REACTORS
330
3D
102
}
330
3D
100
AcDbScale
 70
     0
300
2:1
140
2.0
141
1.0
290
     0
  0
SCALE
  5
4B
102
{ACAD_REACTORS
330
3D
102
}
330
3D
100
AcDbScale
 70
     0
300
4:1
140
4.0
141
1.0
290
     0
  0
SCALE
  5
4C
102
{ACAD_REACTORS
330
3D
102
}
330
3D
100
AcDbScale
 70
     0
300
8:1
140
8.0
141
1.0
290
     0
  0
SCALE
  5
4D
102
{ACAD_REACTORS
330
3D
102
}
330
3D
100
AcDbScale
 70
     0
300
10:1
140
10.0
141
1.0
290
     0
  0
SCALE
  5
4E
102
{ACAD_REACTORS
330
3D
102
}
330
3D
100
AcDbScale
 70
     0
300
100:1
140
100.0
141
1.0
290
     0
  0
SCALE
  5
4F
102
{ACAD_REACTORS
330
3D
102
}
330
3D
100
AcDbScale
 70
     0
300
1/128" = 1'-0"
140
0.0078125
141
12.0
290
     0
  0
SCALE
  5
50
102
{ACAD_REACTORS
330
3D
102
}
330
3D
100
AcDbScale
 70
     0
300
1/64" = 1'-0"
140
0.015625
141
12.0
290
     0
  0
SCALE
  5
51
102
{ACAD_REACTORS
330
3D
102
}
330
3D
100
AcDbScale
 70
     0
300
1/32" = 1'-0"
140
0.03125
141
12.0
290
     0
  0
SCALE
  5
52
102
{ACAD_REACTORS
330
3D
102
}
330
3D
100
AcDbScale
 70
     0
300
1/16" = 1'-0"
140
0.0625
141
12.0
290
     0
  0
SCALE
  5
53
102
{ACAD_REACTORS
330
3D
102
}
330
3D
100
AcDbScale
 70
     0
300
3/32" = 1'-0"
140
0.09375
141
12.0
290
     0
  0
SCALE
  5
54
102
{ACAD_REACTORS
330
3D
102
}
330
3D
100
AcDbScale
 70
     0
300
1/8" = 1'-0"
140
0.125
141
12.0
290
     0
  0
SCALE
  5
55
102
{ACAD_REACTORS
330
3D
102
}
330
3D
100
AcDbScale
 70
     0
300
3/16" = 1'-0"
140
0.1875
141
12.0
290
     0
  0
SCALE
  5
56
102
{ACAD_REACTORS
330
3D
102
}
330
3D
100
AcDbScale
 70
     0
300
1/4" = 1'-0"
140
0.25
141
12.0
290
     0
  0
SCALE
  5
57
102
{ACAD_REACTORS
330
3D
102
}
330
3D
100
AcDbScale
 70
     0
300
3/8" = 1'-0"
140
0.375
141
12.0
290
     0
  0
SCALE
  5
58
102
{ACAD_REACTORS
330
3D
102
}
330
3D
100
AcDbScale
 70
     0
300
1/2" = 1'-0"
140
0.5
141
12.0
290
     0
  0
SCALE
  5
59
102
{ACAD_REACTORS
330
3D
102
}
330
3D
100
AcDbScale
 70
     0
300
3/4" = 1'-0"
140
0.75
141
12.0
290
     0
  0
SCALE
  5
5A
102
{ACAD_REACTORS
330
3D
102
}
330
3D
100
AcDbScale
 70
     0
300
1" = 1'-0"
140
1.0
141
12.0
290
     0
  0
SCALE
  5
5B
102
{ACAD_REACTORS
330
3D
102
}
330
3D
100
AcDbScale
 70
     0
300
1-1/2" = 1'-0"
140
1.5
141
12.0
290
     0
  0
SCALE
  5
5C
102
{ACAD_REACTORS
330
3D
102
}
330
3D
100
AcDbScale
 70
     0
300
3" = 1'-0"
140
3.0
141
12.0
290
     0
  0
SCALE
  5
5D
102
{ACAD_REACTORS
330
3D
102
}
330
3D
100
AcDbScale
 70
     0
300
6" = 1'-0"
140
6.0
141
12.0
290
     0
  0
SCALE
  5
5E
102
{ACAD_REACTORS
330
3D
102
}
330
3D
100
AcDbScale
 70
     0
300
1'-0" = 1'-0"
140
12.0
141
12.0
290
     0
  0
VISUALSTYLE
  5
2F
102
{ACAD_REACTORS
330
2A
102
}
330
2A
100
AcDbVisualStyle
  2
2dWireframe
 70
     4
 71
     0
 72
     2
 73
     0
 90
        0
 40
-0.6
 41
-30.0
 62
     5
 63
     7
421
 16777215
 74
     1
 91
        4
 64
     7
 65
   257
 75
     1
175
     1
 42
1.0
 92
        0
 66
   257
 43
1.0
 76
     1
 77
     6
 78
     2
 67
     7
 79
     5
170
     0
171
     0
290
     0
174
     0
 93
        1
 44
0.0
173
     0
291
     0
 45
0.0
1001
ACAD
1000
AcDbSavedByObjectVersion
1070
     0
  0
VISUALSTYLE
  5
31
102
{ACAD_REACTORS
330
2A
102
}
330
2A
100
AcDbVisualStyle
  2
3D Hidden
 70
     6
 71
     1
 72
     2
 73
     2
 90
        0
 40
-0.6
 41
-30.0
 62
     5
 63
     7
421
 16777215
 74
     2
 91
        2
 64
     7
 65
   257
 75
     2
175
     1
 42
40.0
 92
        0
 66
   257
 43
1.0
 76
     1
 77
     6
 78
     2
 67
     7
 79
     3
170
     0
171
     0
290
     0
174
     0
 93
        1
 44
0.0
173
     0
291
     0
 45
0.0
1001
ACAD
1000
AcDbSavedByObjectVersion
1070
     0
  0
VISUALSTYLE
  5
30
102
{ACAD_REACTORS
330
2A
102
}
330
2A
100
AcDbVisualStyle
  2
3dWireframe
 70
     5
 71
     0
 72
     2
 73
     0
 90
        0
 40
-0.6
 41
-30.0
 62
     5
 63
     7
421
 16777215
 74
     1
 91
        4
 64
     7
 65
   257
 75
     1
175
     1
 42
1.0
 92
        0
 66
   257
 43
1.0
 76
     1
 77
     6
 78
     2
 67
     7
 79
     5
170
     0
171
     0
290
     0
174
     0
 93
        1
 44
0.0
173
     0
291
     0
 45
0.0
1001
ACAD
1000
AcDbSavedByObjectVersion
1070
     0
  0
VISUALSTYLE
  5
32
102
{ACAD_REACTORS
330
2A
102
}
330
2A
100
AcDbVisualStyle
  2
Basic
 70
     7
 71
     1
 72
     0
 73
     1
 90
        0
 40
-0.6
 41
-30.0
 62
     5
 63
     7
421
 16777215
 74
     0
 91
        4
 64
     7
 65
   257
 75
     1
175
     1
 42
1.0
 92
        8
 66
     7
 43
1.0
 76
     1
 77
     6
 78
     2
 67
     7
 79
     5
170
     0
171
     0
290
     0
174
     0
 93
        1
 44
0.0
173
     0
291
     1
 45
0.0
1001
ACAD
1000
AcDbSavedByObjectVersion
1070
     0
  0
VISUALSTYLE
  5
36
102
{ACAD_REACTORS
330
2A
102
}
330
2A
100
AcDbVisualStyle
  2
Brighten
 70
    12
 71
     2
 72
     2
 73
     0
 90
        0
 40
-0.6
 41
-30.0
 62
     5
 63
     7
421
 16777215
 74
     1
 91
        4
 64
     7
 65
   257
 75
     1
175
     1
 42
1.0
 92
        8
 66
     7
 43
1.0
 76
     1
 77
     6
 78
     2
 67
     7
 79
     5
170
     0
171
     0
290
     0
174
     0
 93
        1
 44
50.0
173
     0
291
     1
 45
0.0
1001
ACAD
1000
AcDbSavedByObjectVersion
1070
     0
  0
VISUALSTYLE
  5
3A
102
{ACAD_REACTORS
330
2A
102
}
330
2A
100
AcDbVisualStyle
  2
ColorChange
 70
    16
 71
     2
 72
     2
 73
     3
 90
        0
 40
-0.6
 41
-30.0
 62
     5
 63
     8
421
  8421504
 74
     1
 91
        4
 64
     7
 65
   257
 75
     1
175
     1
 42
1.0
 92
        8
 66
     8
424
  8421504
 43
1.0
 76
     1
 77
     6
 78
     2
 67
     7
 79
     5
170
     0
171
     0
290
     0
174
     0
 93
        1
 44
0.0
173
     0
291
     1
 45
0.0
1001
ACAD
1000
AcDbSavedByObjectVersion
1070
     0
  0
VISUALSTYLE
  5
34
102
{ACAD_REACTORS
330
2A
102
}
330
2A
100
AcDbVisualStyle
  2
Conceptual
 70
     9
 71
     3
 72
     2
 73
     0
 90
        0
 40
-0.6
 41
-30.0
 62
     5
 63
     7
421
 16777215
 74
     2
 91
        2
 64
     7
 65
   257
 75
     1
175
     1
 42
40.0
 92
        8
 66
     7
 43
1.0
 76
     1
 77
     6
 78
     2
 67
     7
 79
     3
170
     0
171
     0
290
     0
174
     0
 93
        1
 44
0.0
173
     0
291
     0
 45
0.0
1001
ACAD
1000
AcDbSavedByObjectVersion
1070
     0
  0
VISUALSTYLE
  5
35
102
{ACAD_REACTORS
330
2A
102
}
330
2A
100
AcDbVisualStyle
  2
Dim
 70
    11
 71
     2
 72
     2
 73
     0
 90
        0
 40
-0.6
 41
-30.0
 62
     5
 63
     7
421
 16777215
 74
     1
 91
        4
 64
     7
 65
   257
 75
     1
175
     1
 42
1.0
 92
        8
 66
     7
 43
1.0
 76
     1
 77
     6
 78
     2
 67
     7
 79
     5
170
     0
171
     0
290
     0
174
     0
 93
        1
 44
-50.0
173
     0
291
     1
 45
0.0
1001
ACAD
1000
AcDbSavedByObjectVersion
1070
     0
  0
VISUALSTYLE
  5
39
102
{ACAD_REACTORS
330
2A
102
}
330
2A
100
AcDbVisualStyle
  2
Facepattern
 70
    15
 71
     2
 72
     2
 73
     0
 90
        0
 40
-0.6
 41
-30.0
 62
     5
 63
     7
421
 16777215
 74
     1
 91
        4
 64
     7
 65
   257
 75
     1
175
     1
 42
1.0
 92
        8
 66
     7
 43
1.0
 76
     1
 77
     6
 78
     2
 67
     7
 79
     5
170
     0
171
     0
290
     0
174
     0
 93
        1
 44
0.0
173
     0
291
     1
 45
0.0
1001
ACAD
1000
AcDbSavedByObjectVersion
1070
     0
  0
VISUALSTYLE
  5
2B
102
{ACAD_REACTORS
330
2A
102
}
330
2A
100
AcDbVisualStyle
  2
Flat
 70
     0
 71
     2
 72
     1
 73
     1
 90
        2
 40
-0.6
 41
30.0
 62
     5
 63
     7
421
 16777215
 74
     0
 91
        4
 64
     7
 65
   257
 75
     1
175
     1
 42
1.0
 92
        8
 66
     7
 43
1.0
 76
     1
 77
     6
 78
     2
 67
     7
 79
     5
170
     0
171
     0
290
     0
174
     0
 93
       13
 44
0.0
173
     0
291
     1
 45
0.0
1001
ACAD
1000
AcDbSavedByObjectVersion
1070
     0
  0
VISUALSTYLE
  5
2C
102
{ACAD_REACTORS
330
2A
102
}
330
2A
100
AcDbVisualStyle
  2
FlatWithEdges
 70
     1
 71
     2
 72
     1
 73
     1
 90
        2
 40
-0.6
 41
30.0
 62
     5
 63
     7
421
 16777215
 74
     1
 91
        4
 64
     7
 65
   257
 75
     1
175
     1
 42
1.0
 92
        0
 66
   257
 43
1.0
 76
     1
 77
     6
 78
     2
 67
     7
 79
     5
170
     0
171
     0
290
     0
174
     0
 93
       13
 44
0.0
173
     0
291
     1
 45
0.0
1001
ACAD
1000
AcDbSavedByObjectVersion
1070
     0
  0
VISUALSTYLE
  5
2D
102
{ACAD_REACTORS
330
2A
102
}
330
2A
100
AcDbVisualStyle
  2
Gouraud
 70
     2
 71
     2
 72
     2
 73
     1
 90
        2
 40
-0.6
 41
30.0
 62
     5
 63
     7
421
 16777215
 74
     0
 91
        4
 64
     7
 65
   257
 75
     1
175
     1
 42
1.0
 92
        0
 66
     7
 43
1.0
 76
     1
 77
     6
 78
     2
 67
     7
 79
     5
170
     0
171
     0
290
     0
174
     0
 93
       13
 44
0.0
173
     0
291
     1
 45
0.0
1001
ACAD
1000
AcDbSavedByObjectVersion
1070
     0
  0
VISUALSTYLE
  5
2E
102
{ACAD_REACTORS
330
2A
102
}
330
2A
100
AcDbVisualStyle
  2
GouraudWithEdges
 70
     3
 71
     2
 72
     2
 73
     1
 90
        2
 40
-0.6
 41
30.0
 62
     5
 63
     7
421
 16777215
 74
     1
 91
        4
 64
     7
 65
   257
 75
     1
175
     1
 42
1.0
 92
        0
 66
   257
 43
1.0
 76
     1
 77
     6
 78
     2
 67
     7
 79
     5
170
     0
171
     0
290
     0
174
     0
 93
       13
 44
0.0
173
     0
291
     1
 45
0.0
1001
ACAD
1000
AcDbSavedByObjectVersion
1070
     0
  0
VISUALSTYLE
  5
38
102
{ACAD_REACTORS
330
2A
102
}
330
2A
100
AcDbVisualStyle
  2
Linepattern
 70
    14
 71
     2
 72
     2
 73
     0
 90
        0
 40
-0.6
 41
-30.0
 62
     5
 63
     7
421
 16777215
 74
     1
 91
        4
 64
     7
 65
   257
 75
     7
175
     7
 42
1.0
 92
        8
 66
     7
 43
1.0
 76
     1
 77
     6
 78
     2
 67
     7
 79
     5
170
     0
171
     0
290
     0
174
     0
 93
        1
 44
0.0
173
     0
291
     1
 45
0.0
1001
ACAD
1000
AcDbSavedByObjectVersion
1070
     0
  0
VISUALSTYLE
  5
33
102
{ACAD_REACTORS
330
2A
102
}
330
2A
100
AcDbVisualStyle
  2
Realistic
 70
     8
 71
     2
 72
     2
 73
     0
 90
        0
 40
-0.6
 41
-30.0
 62
     5
 63
     7
421
 16777215
 74
     1
 91
        0
 64
     7
 65
   257
 75
     1
175
     1
 42
1.0
 92
        8
 66
     8
424
  7895160
 43
1.0
 76
     1
 77
     6
 78
     2
 67
     7
 79
     5
170
     0
171
     0
290
     0
174
     0
 93
       13
 44
0.0
173
     0
291
     0
 45
0.0
1001
ACAD
1000
AcDbSavedByObjectVersion
1070
     0
  0
VISUALSTYLE
  5
37
102
{ACAD_REACTORS
330
2A
102
}
330
2A
100
AcDbVisualStyle
  2
Thicken
 70
    13
 71
     2
 72
     2
 73
     0
 90
        0
 40
-0.6
 41
-30.0
 62
     5
 63
     7
421
 16777215
 74
     1
 91
        4
 64
     7
 65
   257
 75
     1
175
     1
 42
1.0
 92
       12
 66
     7
 43
1.0
 76
     1
 77
     6
 78
     2
 67
     7
 79
     5
170
     0
171
     0
290
     0
174
     0
 93
        1
 44
0.0
173
     0
291
     1
 45
0.0
1001
ACAD
1000
AcDbSavedByObjectVersion
1070
     0
  0
DICTIONARYVAR
  5
128
102
{ACAD_REACTORS
330
127
102
}
330
127
100
DictionaryVariables
280
     0
  1
1:1
  0
ENDSEC
  0
EOF
