  0
SECTION
  2
HEADER
  9
$ACADVER
  1
AC1018
  9
$ACADMAINTVER
 70
     0
  9
$DWGCODEPAGE
  3
ANSI_936
  9
$INSBASE
 10
0.0
 20
0.0
 30
0.0
  9
$EXTMIN
 10
1366.995329376978
 20
889.0495168499706
 30
0.0
  9
$EXTMAX
 10
1597.04951684997
 20
1037.04019941371
 30
0.0
  9
$LIMMIN
 10
0.0
 20
0.0
  9
$LIMMAX
 10
12.0
 20
9.0
  9
$ORTHOMODE
 70
     0
  9
$REGENMODE
 70
     1
  9
$FILLMODE
 70
     1
  9
$QTEXTMODE
 70
     0
  9
$MIRRTEXT
 70
     1
  9
$LTSCALE
 40
1.0
  9
$ATTMODE
 70
     1
  9
$TEXTSIZE
 40
0.2
  9
$TRACEWID
 40
0.05
  9
$TEXTSTYLE
  7
Standard
  9
$CLAYER
  8
E45714
  9
$CELTYPE
  6
ByLayer
  9
$CECOLOR
 62
   256
  9
$CELTSCALE
 40
1.0
  9
$DISPSILH
 70
     0
  9
$DIMSCALE
 40
1.0
  9
$DIMASZ
 40
0.18
  9
$DIMEXO
 40
0.0625
  9
$DIMDLI
 40
0.38
  9
$DIMRND
 40
0.0
  9
$DIMDLE
 40
0.0
  9
$DIMEXE
 40
0.18
  9
$DIMTP
 40
0.0
  9
$DIMTM
 40
0.0
  9
$DIMTXT
 40
0.18
  9
$DIMCEN
 40
0.09
  9
$DIMTSZ
 40
0.0
  9
$DIMTOL
 70
     0
  9
$DIMLIM
 70
     0
  9
$DIMTIH
 70
     1
  9
$DIMTOH
 70
     1
  9
$DIMSE1
 70
     0
  9
$DIMSE2
 70
     0
  9
$DIMTAD
 70
     0
  9
$DIMZIN
 70
     0
  9
$DIMBLK
  1

  9
$DIMASO
 70
     1
  9
$DIMSHO
 70
     1
  9
$DIMPOST
  1

  9
$DIMAPOST
  1

  9
$DIMALT
 70
     0
  9
$DIMALTD
 70
     2
  9
$DIMALTF
 40
25.4
  9
$DIMLFAC
 40
1.0
  9
$DIMTOFL
 70
     0
  9
$DIMTVP
 40
0.0
  9
$DIMTIX
 70
     0
  9
$DIMSOXD
 70
     0
  9
$DIMSAH
 70
     0
  9
$DIMBLK1
  1

  9
$DIMBLK2
  1

  9
$DIMSTYLE
  2
Standard
  9
$DIMCLRD
 70
     0
  9
$DIMCLRE
 70
     0
  9
$DIMCLRT
 70
     0
  9
$DIMTFAC
 40
1.0
  9
$DIMGAP
 40
0.09
  9
$DIMJUST
 70
     0
  9
$DIMSD1
 70
     0
  9
$DIMSD2
 70
     0
  9
$DIMTOLJ
 70
     1
  9
$DIMTZIN
 70
     0
  9
$DIMALTZ
 70
     0
  9
$DIMALTTZ
 70
     0
  9
$DIMUPT
 70
     0
  9
$DIMDEC
 70
     4
  9
$DIMTDEC
 70
     4
  9
$DIMALTU
 70
     2
  9
$DIMALTTD
 70
     2
  9
$DIMTXSTY
  7
Standard
  9
$DIMAUNIT
 70
     0
  9
$DIMADEC
 70
     0
  9
$DIMALTRND
 40
0.0
  9
$DIMAZIN
 70
     0
  9
$DIMDSEP
 70
    46
  9
$DIMATFIT
 70
     3
  9
$DIMFRAC
 70
     0
  9
$DIMLDRBLK
  1

  9
$DIMLUNIT
 70
     2
  9
$DIMLWD
 70
    -2
  9
$DIMLWE
 70
    -2
  9
$DIMTMOVE
 70
     2
  9
$LUNITS
 70
     2
  9
$LUPREC
 70
     2
  9
$SKETCHINC
 40
0.1
  9
$FILLETRAD
 40
0.5
  9
$AUNITS
 70
     0
  9
$AUPREC
 70
     0
  9
$MENU
  1
.
  9
$ELEVATION
 40
0.0
  9
$PELEVATION
 40
0.0
  9
$THICKNESS
 40
0.0
  9
$LIMCHECK
 70
     0
  9
$CHAMFERA
 40
0.5
  9
$CHAMFERB
 40
0.5
  9
$CHAMFERC
 40
1.0
  9
$CHAMFERD
 40
0.0
  9
$SKPOLY
 70
     0
  9
$TDCREATE
 40
2456449.704856771
  9
$TDUCREATE
 40
2456449.621523438
  9
$TDUPDATE
 40
2456449.704856782
  9
$TDUUPDATE
 40
2456449.621523449
  9
$TDINDWG
 40
0.0000000116
  9
$TDUSRTIMER
 40
0.0000000116
  9
$USRTIMER
 70
     1
  9
$ANGBASE
 50
0.0
  9
$ANGDIR
 70
     0
  9
$PDMODE
 70
     0
  9
$PDSIZE
 40
0.0
  9
$PLINEWID
 40
0.0
  9
$SPLFRAME
 70
     0
  9
$SPLINETYPE
 70
     6
  9
$SPLINESEGS
 70
     8
  9
$HANDSEED
  5
138
  9
$SURFTAB1
 70
     6
  9
$SURFTAB2
 70
     6
  9
$SURFTYPE
 70
     6
  9
$SURFU
 70
     6
  9
$SURFV
 70
     6
  9
$UCSBASE
  2

  9
$UCSNAME
  2

  9
$UCSORG
 10
0.0
 20
0.0
 30
0.0
  9
$UCSXDIR
 10
1.0
 20
0.0
 30
0.0
  9
$UCSYDIR
 10
0.0
 20
1.0
 30
0.0
  9
$UCSORTHOREF
  2

  9
$UCSORTHOVIEW
 70
     0
  9
$UCSORGTOP
 10
0.0
 20
0.0
 30
0.0
  9
$UCSORGBOTTOM
 10
0.0
 20
0.0
 30
0.0
  9
$UCSORGLEFT
 10
0.0
 20
0.0
 30
0.0
  9
$UCSORGRIGHT
 10
0.0
 20
0.0
 30
0.0
  9
$UCSORGFRONT
 10
0.0
 20
0.0
 30
0.0
  9
$UCSORGBACK
 10
0.0
 20
0.0
 30
0.0
  9
$PUCSBASE
  2

  9
$PUCSNAME
  2

  9
$PUCSORG
 10
0.0
 20
0.0
 30
0.0
  9
$PUCSXDIR
 10
1.0
 20
0.0
 30
0.0
  9
$PUCSYDIR
 10
0.0
 20
1.0
 30
0.0
  9
$PUCSORTHOREF
  2

  9
$PUCSORTHOVIEW
 70
     0
  9
$PUCSORGTOP
 10
0.0
 20
0.0
 30
0.0
  9
$PUCSORGBOTTOM
 10
0.0
 20
0.0
 30
0.0
  9
$PUCSORGLEFT
 10
0.0
 20
0.0
 30
0.0
  9
$PUCSORGRIGHT
 10
0.0
 20
0.0
 30
0.0
  9
$PUCSORGFRONT
 10
0.0
 20
0.0
 30
0.0
  9
$PUCSORGBACK
 10
0.0
 20
0.0
 30
0.0
  9
$USERI1
 70
     0
  9
$USERI2
 70
     0
  9
$USERI3
 70
     0
  9
$USERI4
 70
     0
  9
$USERI5
 70
     0
  9
$USERR1
 40
0.0
  9
$USERR2
 40
0.0
  9
$USERR3
 40
0.0
  9
$USERR4
 40
0.0
  9
$USERR5
 40
0.0
  9
$WORLDVIEW
 70
     1
  9
$SHADEDGE
 70
     3
  9
$SHADEDIF
 70
    70
  9
$TILEMODE
 70
     1
  9
$MAXACTVP
 70
    64
  9
$PINSBASE
 10
0.0
 20
0.0
 30
0.0
  9
$PLIMCHECK
 70
     0
  9
$PEXTMIN
 10
1.000000000000000E+20
 20
1.000000000000000E+20
 30
1.000000000000000E+20
  9
$PEXTMAX
 10
-1.000000000000000E+20
 20
-1.000000000000000E+20
 30
-1.000000000000000E+20
  9
$PLIMMIN
 10
0.0
 20
0.0
  9
$PLIMMAX
 10
12.0
 20
9.0
  9
$UNITMODE
 70
     0
  9
$VISRETAIN
 70
     1
  9
$PLINEGEN
 70
     0
  9
$PSLTSCALE
 70
     1
  9
$TREEDEPTH
 70
  3020
  9
$CMLSTYLE
  2
Standard
  9
$CMLJUST
 70
     0
  9
$CMLSCALE
 40
1.0
  9
$PROXYGRAPHICS
 70
     1
  9
$MEASUREMENT
 70
     0
  9
$CELWEIGHT
370
    -1
  9
$ENDCAPS
280
     0
  9
$JOINSTYLE
280
     0
  9
$LWDISPLAY
290
     0
  9
$INSUNITS
 70
     4
  9
$HYPERLINKBASE
  1

  9
$STYLESHEET
  1

  9
$XEDIT
290
     1
  9
$CEPSNTYPE
380
     0
  9
$PSTYLEMODE
290
     1
  9
$FINGERPRINTGUID
  2
{CD028BD1-4E63-41E0-9EB9-D6BE60A6B3BF}
  9
$VERSIONGUID
  2
{FAEB1C32-E019-11D5-929B-00C0DF256EC4}
  9
$EXTNAMES
290
     1
  9
$PSVPSCALE
 40
0.0
  9
$OLESTARTUP
290
     0
  9
$SORTENTS
280
   127
  9
$INDEXCTL
280
     0
  9
$HIDETEXT
280
     1
  9
$XCLIPFRAME
290
     0
  9
$HALOGAP
280
     0
  9
$OBSCOLOR
 70
   257
  9
$OBSLTYPE
280
     0
  9
$INTERSECTIONDISPLAY
280
     0
  9
$INTERSECTIONCOLOR
 70
   257
  9
$DIMASSOC
280
     2
  9
$PROJECTNAME
  1

  0
ENDSEC
  0
SECTION
  2
CLASSES
  0
CLASS
  1
ACDBDICTIONARYWDFLT
  2
AcDbDictionaryWithDefault
  3
ObjectDBX Classes
 90
        0
 91
        4
280
     0
281
     0
  0
CLASS
  1
VISUALSTYLE
  2
AcDbVisualStyle
  3
ObjectDBX Classes
 90
     4095
 91
        4
280
     0
281
     0
  0
CLASS
  1
SCALE
  2
AcDbScale
  3
ObjectDBX Classes
 90
     1153
 91
        4
280
     0
281
     0
  0
CLASS
  1
DICTIONARYVAR
  2
AcDbDictionaryVar
  3
ObjectDBX Classes
 90
        0
 91
        4
280
     0
281
     0
  0
ENDSEC
  0
SECTION
  2
TABLES
  0
TABLE
  2
VPORT
  5
8
330
0
100
AcDbSymbolTable
 70
     1
  0
VPORT
  5
29
330
8
100
AcDbSymbolTableRecord
100
AcDbViewportTableRecord
  2
*Active
 70
     0
 10
0.0
 20
0.0
 11
1.0
 21
1.0
 12
1482.022423113474
 22
963.0448581318403
 13
0.0
 23
0.0
 14
0.5
 24
0.5
 15
0.5
 25
0.5
 16
0.0
 26
0.0
 36
1.0
 17
0.0
 27
0.0
 37
0.0
 40
150.9504962150143
 41
1.554518051323321
 42
50.0
 43
0.0
 44
0.0
 50
0.0
 51
0.0
 71
     0
 72
   100
 73
     1
 74
     3
 75
     0
 76
     0
 77
     0
 78
     0
281
     0
 65
     1
110
0.0
120
0.0
130
0.0
111
1.0
121
0.0
131
0.0
112
0.0
122
1.0
132
0.0
 79
     0
146
0.0
  0
ENDTAB
  0
TABLE
  2
LTYPE
  5
5
330
0
100
AcDbSymbolTable
 70
     1
  0
LTYPE
  5
14
330
5
100
AcDbSymbolTableRecord
100
AcDbLinetypeTableRecord
  2
ByBlock
 70
     0
  3

 72
    65
 73
     0
 40
0.0
  0
LTYPE
  5
15
330
5
100
AcDbSymbolTableRecord
100
AcDbLinetypeTableRecord
  2
ByLayer
 70
     0
  3

 72
    65
 73
     0
 40
0.0
  0
LTYPE
  5
16
330
5
100
AcDbSymbolTableRecord
100
AcDbLinetypeTableRecord
  2
Continuous
 70
     0
  3
Solid line
 72
    65
 73
     0
 40
0.0
  0
ENDTAB
  0
TABLE
  2
LAYER
  5
2
330
0
100
AcDbSymbolTable
 70
     4
  0
LAYER
  5
10
330
2
100
AcDbSymbolTableRecord
100
AcDbLayerTableRecord
  2
0
 70
     0
 62
     7
  6
Continuous
370
    -3
390
F
  0
LAYER
  5
3B
330
2
100
AcDbSymbolTableRecord
100
AcDbLayerTableRecord
  2
E45714
 70
     0
 62
     7
  6
Continuous
370
    -3
390
F
  0
LAYER
  5
61
330
2
100
AcDbSymbolTableRecord
100
AcDbLayerTableRecord
  2
Defpoints
 70
     0
 62
     7
  6
Continuous
290
     0
370
    -3
390
F
  0
LAYER
  5
7B
330
2
100
AcDbSymbolTableRecord
100
AcDbLayerTableRecord
  2
MAKE2D VISIBLE LINES
 70
     0
 62
     7
  6
Continuous
370
    -3
390
F
  0
ENDTAB
  0
TABLE
  2
STYLE
  5
3
330
0
100
AcDbSymbolTable
 70
     2
  0
STYLE
  5
11
330
3
100
AcDbSymbolTableRecord
100
AcDbTextStyleTableRecord
  2
Standard
 70
     0
 40
0.0
 41
1.0
 50
0.0
 71
     0
 42
0.2
  3
txt
  4

  0
STYLE
  5
5F
330
3
100
AcDbSymbolTableRecord
100
AcDbTextStyleTableRecord
  2
ARIAL
 70
     0
 40
0.0
 41
1.0
 50
0.0
 71
     0
 42
0.0
  3

  4

1001
ACAD
1000
Arial
1071
      256
  0
ENDTAB
  0
TABLE
  2
VIEW
  5
6
330
0
100
AcDbSymbolTable
 70
     0
  0
ENDTAB
  0
TABLE
  2
UCS
  5
7
330
0
100
AcDbSymbolTable
 70
     0
  0
ENDTAB
  0
TABLE
  2
APPID
  5
9
330
0
100
AcDbSymbolTable
 70
     1
  0
APPID
  5
12
330
9
100
AcDbSymbolTableRecord
100
AcDbRegAppTableRecord
  2
ACAD
 70
     0
  0
ENDTAB
  0
TABLE
  2
DIMSTYLE
  5
A
330
0
100
AcDbSymbolTable
 70
     2
100
AcDbDimStyleTable
  0
DIMSTYLE
105
27
330
A
100
AcDbSymbolTableRecord
100
AcDbDimStyleTableRecord
  2
Standard
 70
     0
340
11
  0
DIMSTYLE
105
60
102
{ACAD_REACTORS
330
3C
330
6E
102
}
330
A
100
AcDbSymbolTableRecord
100
AcDbDimStyleTableRecord
  2
DEFAULT
 70
     0
 41
1.0
 42
0.5
 44
0.5
 73
     0
 77
     1
 78
     1
140
10.0
141
0.5
172
     1
174
     1
179
     2
271
     2
284
     1
340
5F
  0
ENDTAB
  0
TABLE
  2
BLOCK_RECORD
  5
1
330
0
100
AcDbSymbolTable
 70
     3
  0
BLOCK_RECORD
  5
1F
330
1
100
AcDbSymbolTableRecord
100
AcDbBlockTableRecord
  2
*Model_Space
340
22
  0
BLOCK_RECORD
  5
1B
330
1
100
AcDbSymbolTableRecord
100
AcDbBlockTableRecord
  2
*Paper_Space
340
1E
  0
BLOCK_RECORD
  5
23
330
1
100
AcDbSymbolTableRecord
100
AcDbBlockTableRecord
  2
*Paper_Space0
340
26
  0
BLOCK_RECORD
  5
62
330
1
100
AcDbSymbolTableRecord
100
AcDbBlockTableRecord
  2
*D1
340
0
  0
BLOCK_RECORD
  5
6F
330
1
100
AcDbSymbolTableRecord
100
AcDbBlockTableRecord
  2
*D2
340
0
  0
ENDTAB
  0
ENDSEC
  0
SECTION
  2
BLOCKS
  0
BLOCK
  5
20
330
1F
100
AcDbEntity
  8
0
100
AcDbBlockBegin
  2
*Model_Space
 70
     0
 10
0.0
 20
0.0
 30
0.0
  3
*Model_Space
  1

  0
ENDBLK
  5
21
330
1F
100
AcDbEntity
  8
0
100
AcDbBlockEnd
  0
BLOCK
  5
1C
330
1B
100
AcDbEntity
 67
     1
  8
0
100
AcDbBlockBegin
  2
*Paper_Space
 70
     0
 10
0.0
 20
0.0
 30
0.0
  3
*Paper_Space
  1

  0
ENDBLK
  5
1D
330
1B
100
AcDbEntity
 67
     1
  8
0
100
AcDbBlockEnd
  0
BLOCK
  5
24
330
23
100
AcDbEntity
  8
0
100
AcDbBlockBegin
  2
*Paper_Space0
 70
     0
 10
0.0
 20
0.0
 30
0.0
  3
*Paper_Space0
  1

  0
ENDBLK
  5
25
330
23
100
AcDbEntity
  8
0
100
AcDbBlockEnd
  0
BLOCK
  5
6C
330
62
100
AcDbEntity
  8
0
100
AcDbBlockBegin
  2
*D1
 70
     1
 10
0.0
 20
0.0
 30
0.0
  3
*D1
  1

  0
LINE
  5
63
330
62
100
AcDbEntity
  8
E45714
 62
     0
370
    -2
100
AcDbLine
 10
1401.049516849971
 20
987.0501994137101
 30
0.0
 11
1401.049516849971
 21
1036.05019941371
 31
0.0
  0
LINE
  5
64
330
62
100
AcDbEntity
  8
E45714
 62
     0
370
    -2
100
AcDbLine
 10
1597.04951684997
 20
987.0495168499705
 30
0.0
 11
1597.04951684997
 21
1036.05019941371
 31
0.0
  0
LINE
  5
65
330
62
100
AcDbEntity
  8
E45714
 62
     0
370
    -2
100
AcDbLine
 10
1402.049516849971
 20
1035.55019941371
 30
0.0
 11
1596.04951684997
 21
1035.55019941371
 31
0.0
  0
SOLID
  5
66
330
62
100
AcDbEntity
  8
E45714
 62
     0
100
AcDbTrace
 10
1402.049516849971
 20
1035.716866080377
 30
0.0
 11
1402.049516849971
 21
1035.383532747043
 31
0.0
 12
1401.049516849971
 22
1035.55019941371
 32
0.0
 13
1401.049516849971
 23
1035.55019941371
 33
0.0
  0
SOLID
  5
67
330
62
100
AcDbEntity
  8
E45714
 62
     0
100
AcDbTrace
 10
1596.04951684997
 20
1035.383532747043
 30
0.0
 11
1596.04951684997
 21
1035.716866080377
 31
0.0
 12
1597.04951684997
 22
1035.55019941371
 32
0.0
 13
1597.04951684997
 23
1035.55019941371
 33
0.0
  0
MTEXT
  5
68
330
62
100
AcDbEntity
  8
E45714
 62
     0
100
AcDbMText
 10
1499.049516849971
 20
1040.64019941371
 30
0.0
 40
10.0
 41
0.0
 71
     5
 72
     1
  1
\A1;.
  7
ARIAL
 73
     1
 44
1.0
  0
POINT
  5
69
330
62
100
AcDbEntity
  8
Defpoints
 62
     0
100
AcDbPoint
 10
1401.049516849971
 20
986.5501994137101
 30
0.0
  0
POINT
  5
6A
330
62
100
AcDbEntity
  8
Defpoints
 62
     0
100
AcDbPoint
 10
1597.04951684997
 20
986.5495168499705
 30
0.0
  0
POINT
  5
6B
330
62
100
AcDbEntity
  8
Defpoints
 62
     0
100
AcDbPoint
 10
1597.04951684997
 20
1035.55019941371
 30
0.0
  0
ENDBLK
  5
6D
330
62
100
AcDbEntity
  8
0
100
AcDbBlockEnd
  0
BLOCK
  5
79
330
6F
100
AcDbEntity
  8
0
100
AcDbBlockBegin
  2
*D2
 70
     1
 10
0.0
 20
0.0
 30
0.0
  3
*D2
  1

  0
LINE
  5
70
330
6F
100
AcDbEntity
  8
E45714
 62
     0
370
    -2
100
AcDbLine
 10
1396.815329376978
 20
972.5495168499705
 30
0.0
 11
1376.815329376978
 21
972.5495168499705
 31
0.0
  0
LINE
  5
71
330
6F
100
AcDbEntity
  8
E45714
 62
     0
370
    -2
100
AcDbLine
 10
1396.815329376978
 20
906.5495168499706
 30
0.0
 11
1376.815329376978
 21
906.5495168499706
 31
0.0
  0
LINE
  5
72
330
6F
100
AcDbEntity
  8
E45714
 62
     0
370
    -2
100
AcDbLine
 10
1377.315329376978
 20
971.5495168499705
 30
0.0
 11
1377.315329376978
 21
907.5495168499706
 31
0.0
  0
SOLID
  5
73
330
6F
100
AcDbEntity
  8
E45714
 62
     0
100
AcDbTrace
 10
1377.481996043645
 20
971.5495168499705
 30
0.0
 11
1377.148662710312
 21
971.5495168499705
 31
0.0
 12
1377.315329376978
 22
972.5495168499705
 32
0.0
 13
1377.315329376978
 23
972.5495168499705
 33
0.0
  0
SOLID
  5
74
330
6F
100
AcDbEntity
  8
E45714
 62
     0
100
AcDbTrace
 10
1377.148662710312
 20
907.5495168499706
 30
0.0
 11
1377.481996043645
 21
907.5495168499706
 31
0.0
 12
1377.315329376978
 22
906.5495168499706
 32
0.0
 13
1377.315329376978
 23
906.5495168499706
 33
0.0
  0
MTEXT
  5
75
330
6F
100
AcDbEntity
  8
E45714
 62
     0
100
AcDbMText
 10
1372.120329376978
 20
939.5495168499706
 30
0.0
 40
10.0
 41
0.0
 71
     5
 72
     1
  1
\A1;66.00
  7
ARIAL
 11
0.0
 21
1.0
 31
0.0
 73
     1
 44
1.0
  0
POINT
  5
76
330
6F
100
AcDbEntity
  8
Defpoints
 62
     0
100
AcDbPoint
 10
1397.315329376978
 20
972.5495168499705
 30
0.0
  0
POINT
  5
77
330
6F
100
AcDbEntity
  8
Defpoints
 62
     0
100
AcDbPoint
 10
1397.315329376978
 20
906.5495168499706
 30
0.0
  0
POINT
  5
78
330
6F
100
AcDbEntity
  8
Defpoints
 62
     0
100
AcDbPoint
 10
1377.315329376978
 20
906.5495168499706
 30
0.0
  0
ENDBLK
  5
7A
330
6F
100
AcDbEntity
  8
0
100
AcDbBlockEnd
  0
ENDSEC
  0
SECTION
  2
ENTITIES
  0
DIMENSION
  5
3C
330
1F
100
AcDbEntity
  8
E45714
100
AcDbDimension
  2
*D1
 10
1597.04951684997
 20
1035.55019941371
 30
0.0
 11
1499.049516849971
 21
1040.64019941371
 31
0.0
 70
    32
  1
.
 71
     5
 42
195.9999999999998
  3
DEFAULT
100
AcDbAlignedDimension
 13
1401.049516849971
 23
986.5501994137101
 33
0.0
 14
1597.04951684997
 24
986.5495168499705
 34
0.0
100
AcDbRotatedDimension
1001
ACAD
1000
DSTYLE
1002
{
1070
   279
1070
     1
1002
}
  0
DIMENSION
  5
6E
330
1F
100
AcDbEntity
  8
E45714
100
AcDbDimension
  2
*D2
 10
1377.315329376978
 20
906.5495168499706
 30
0.0
 11
1372.120329376978
 21
939.5495168499706
 31
0.0
 70
    32
  1
<>
 71
     5
 42
65.99999999999989
  3
DEFAULT
100
AcDbAlignedDimension
 13
1397.315329376978
 23
972.5495168499705
 33
0.0
 14
1397.315329376978
 24
906.5495168499706
 34
0.0
 50
90.0
100
AcDbRotatedDimension
1001
ACAD
1000
DSTYLE
1002
{
1070
   279
1070
     1
1002
}
  0
SPLINE
  5
7C
330
1F
100
AcDbEntity
  8
MAKE2D VISIBLE LINES
100
AcDbSpline
210
0.0
220
0.0
230
1.0
 70
    24
 71
     2
 72
     6
 73
     3
 74
     0
 42
0.0000000001
 43
0.0000000001
 40
0.0
 40
0.0
 40
0.0
 40
4.766905131648374
 40
4.766905131648374
 40
4.766905131648374
 10
1587.769614824587
 20
921.3807913585999
 30
0.0
 10
1590.152673528959
 20
921.4241196986794
 30
0.0
 10
1592.53573223333
 20
921.4674480387589
 30
0.0
  0
SPLINE
  5
7D
330
1F
100
AcDbEntity
  8
MAKE2D VISIBLE LINES
100
AcDbSpline
210
0.0
220
0.0
230
1.0
 70
    24
 71
     2
 72
     6
 73
     3
 74
     0
 42
0.0000000001
 43
0.0000000001
 40
0.0
 40
0.0
 40
0.0
 40
0.0387456905492596
 40
0.0387456905492596
 40
0.0387456905492596
 10
1592.548487113584
 20
957.6313537542685
 30
0.0
 10
1592.567856757529
 20
957.631001578924
 30
0.0
 10
1592.587226401474
 20
957.6306494035796
 30
0.0
  0
SPLINE
  5
7E
330
1F
100
AcDbEntity
  8
MAKE2D VISIBLE LINES
100
AcDbSpline
210
0.0
220
0.0
230
1.0
 70
    24
 71
     2
 72
     6
 73
     3
 74
     0
 42
0.0000000001
 43
0.0000000001
 40
0.0
 40
0.0
 40
0.0
 40
1.872727272727275
 40
1.872727272727275
 40
1.872727272727275
 10
1546.049516849971
 20
918.7495168499705
 30
0.0
 10
1546.049516849971
 20
919.6858804863341
 30
0.0
 10
1546.049516849971
 20
920.6222441226978
 30
0.0
  0
SPLINE
  5
7F
330
1F
100
AcDbEntity
  8
MAKE2D VISIBLE LINES
100
AcDbSpline
210
0.0
220
0.0
230
1.0
 70
    12
 71
     2
 72
     6
 73
     3
 74
     0
 42
0.0000000001
 43
0.0000000001
 40
0.0
 40
0.0
 40
0.0
 40
0.6907869014215626
 40
0.6907869014215626
 40
0.6907869014215626
 10
1497.948859677959
 20
919.2913179846703
 30
0.0
 41
1.0
 10
1498.260556529734
 20
919.441392129106
 30
0.0
 41
0.9976150159123703
 10
1498.589951313472
 20
919.5471099264712
 30
0.0
 41
1.0
  0
SPLINE
  5
80
330
1F
100
AcDbEntity
  8
MAKE2D VISIBLE LINES
100
AcDbSpline
210
0.0
220
0.0
230
1.0
 70
    12
 71
     2
 72
     6
 73
     3
 74
     0
 42
0.0000000001
 43
0.0000000001
 40
0.0
 40
0.0
 40
0.0
 40
0.6908049785316593
 40
0.6908049785316593
 40
0.6908049785316593
 10
1497.948843390423
 20
959.8077235573431
 30
0.0
 41
1.0
 10
1498.260547882361
 20
959.6576443461707
 30
0.0
 41
0.9976148911357178
 10
1498.589951313472
 20
959.5519237734699
 30
0.0
 41
1.0
  0
SPLINE
  5
81
330
1F
100
AcDbEntity
  8
MAKE2D VISIBLE LINES
100
AcDbSpline
210
0.0
220
0.0
230
1.0
 70
    12
 71
     2
 72
     6
 73
     3
 74
     0
 42
0.0000000001
 43
0.0000000001
 40
0.0
 40
0.0
 40
0.0
 40
0.0777732187478012
 40
0.0777732187478012
 40
0.0777732187478012
 10
1509.57056660713
 20
934.864815553814
 30
0.0
 41
1.0
 10
1509.559405183905
 20
934.8275404321636
 30
0.0
 41
0.9990866667342589
 10
1509.551467122993
 20
934.7894484480803
 30
0.0
 41
1.0
  0
SPLINE
  5
82
330
1F
100
AcDbEntity
  8
MAKE2D VISIBLE LINES
100
AcDbSpline
210
0.0
220
0.0
230
1.0
 70
    24
 71
     2
 72
     6
 73
     3
 74
     0
 42
0.0000000001
 43
0.0000000001
 40
0.0
 40
0.0
 40
0.0
 40
10.0
 40
10.0
 40
10.0
 10
1436.04951684997
 20
927.5495168499706
 30
0.0
 10
1431.04951684997
 20
927.5495168499706
 30
0.0
 10
1426.04951684997
 20
927.5495168499706
 30
0.0
  0
SPLINE
  5
83
330
1F
100
AcDbEntity
  8
MAKE2D VISIBLE LINES
100
AcDbSpline
210
0.0
220
0.0
230
1.0
 70
    12
 71
     2
 72
     6
 73
     3
 74
     0
 42
0.0000000001
 43
0.0000000001
 40
0.0
 40
0.0
 40
0.0
 40
0.3139324660334457
 40
0.3139324660334457
 40
0.3139324660334457
 10
1519.292663224307
 20
918.3495168499705
 30
0.0
 41
1.0
 10
1519.292853044269
 20
918.5491818962083
 30
0.0
 41
0.7080352798754749
 10
1519.492517899899
 20
918.5495167796905
 30
0.0
 41
1.0
  0
SPLINE
  5
84
330
1F
100
AcDbEntity
  8
MAKE2D VISIBLE LINES
100
AcDbSpline
210
0.0
220
0.0
230
1.0
 70
    12
 71
     2
 72
     6
 73
     3
 74
     0
 42
0.0000000001
 43
0.0000000001
 40
0.0
 40
0.0
 40
0.0
 40
0.2682579307493195
 40
0.2682579307493195
 40
0.2682579307493195
 10
1523.894448006741
 20
918.5549163883372
 30
0.0
 41
1.0
 10
1524.049102833424
 20
918.5907622111189
 30
0.0
 41
0.7827687432015372
 10
1524.04904742231
 20
918.7495168499705
 30
0.0
 41
1.0
  0
SPLINE
  5
85
330
1F
100
AcDbEntity
  8
MAKE2D VISIBLE LINES
100
AcDbSpline
210
0.0
220
0.0
230
1.0
 70
    12
 71
     2
 72
     6
 73
     3
 74
     0
 42
0.0000000001
 43
0.0000000001
 40
0.0
 40
0.0
 40
0.0
 40
0.2682840130465581
 40
0.2682840130465581
 40
0.2682840130465581
 10
1546.049517378503
 20
918.7495168499705
 30
0.0
 41
1.0
 10
1546.049899255529
 20
918.5910109940827
 30
0.0
 41
0.7846057687073018
 10
1546.204198419167
 20
918.5547340002491
 30
0.0
 41
1.0
  0
SPLINE
  5
86
330
1F
100
AcDbEntity
  8
MAKE2D VISIBLE LINES
100
AcDbSpline
210
0.0
220
0.0
230
1.0
 70
    12
 71
     2
 72
     6
 73
     3
 74
     0
 42
0.0000000001
 43
0.0000000001
 40
0.0
 40
0.0
 40
0.0
 40
0.3189841002249763
 40
0.3189841002249763
 40
0.3189841002249763
 10
1534.028398555263
 20
897.4879190272441
 30
0.0
 41
1.0
 10
1534.187785497832
 20
897.4937083807837
 30
0.0
 41
0.9999999992082923
 10
1534.347172900638
 20
897.4994850496062
 30
0.0
 41
1.0
  0
SPLINE
  5
87
330
1F
100
AcDbEntity
  8
MAKE2D VISIBLE LINES
100
AcDbSpline
210
0.0
220
0.0
230
1.0
 70
    12
 71
     2
 72
     6
 73
     3
 74
     0
 42
0.0000000001
 43
0.0000000001
 40
0.0
 40
0.0
 40
0.0
 40
0.5476983762990998
 40
0.5476983762990998
 40
0.5476983762990998
 10
1534.491136727265
 20
897.5047011516017
 30
0.0
 41
1.0
 10
1534.764806539628
 20
897.5146113319174
 30
0.0
 41
0.9999999997773371
 10
1535.038476770011
 20
897.5245099618603
 30
0.0
 41
1.0
  0
SPLINE
  5
88
330
1F
100
AcDbEntity
  8
MAKE2D VISIBLE LINES
100
AcDbSpline
210
0.0
220
0.0
230
1.0
 70
    12
 71
     2
 72
     6
 73
     3
 74
     0
 42
0.0000000001
 43
0.0000000001
 40
0.0
 40
0.0
 40
0.0
 40
0.312445826672023
 40
0.312445826672023
 40
0.312445826672023
 10
1550.608345143939
 20
918.5495097782089
 30
0.0
 41
1.0
 10
1550.806539939904
 20
918.5477196647772
 30
0.0
 41
0.710578275015089
 10
1550.806700738592
 20
918.3495168499705
 30
0.0
 41
1.0
  0
SPLINE
  5
89
330
1F
100
AcDbEntity
  8
MAKE2D VISIBLE LINES
100
AcDbSpline
210
0.0
220
0.0
230
1.0
 70
    12
 71
     2
 72
     6
 73
     3
 74
     0
 42
0.0000000001
 43
0.0000000001
 40
0.0
 40
0.0
 40
0.0
 40
1.570795564724101
 40
1.570795564724101
 40
1.570795564724101
 10
1402.04951684997
 20
906.5495072447447
 30
0.0
 41
1.0
 10
1401.049518994909
 20
906.5495096674431
 30
0.0
 41
0.7071083960916168
 10
1401.049516849971
 20
907.5495075225056
 30
0.0
 41
1.0
  0
SPLINE
  5
8A
330
1F
100
AcDbEntity
  8
MAKE2D VISIBLE LINES
100
AcDbSpline
210
0.0
220
0.0
230
1.0
 70
     8
 71
     3
 72
    17
 73
    13
 74
     0
 42
0.0000000001
 43
0.0000000001
 40
0.0
 40
0.0
 40
0.0
 40
0.0
 40
1.527306273636682
 40
2.343656854271267
 40
4.912990415711769
 40
6.520381838207443
 40
9.619313231940955
 40
12.88707141787155
 40
14.43977498297691
 40
16.69434262296686
 40
17.40902260489501
 40
18.5984680011614
 40
18.5984680011614
 40
18.5984680011614
 40
18.5984680011614
 10
1526.17281789353
 20
920.260849596217
 30
0.0
 10
1526.682027306199
 20
920.2720643981571
 30
0.0
 10
1527.46008984049
 20
920.3511514290524
 30
0.0
 10
1529.081747330908
 20
920.5774110870093
 30
0.0
 10
1530.725882635364
 20
920.8394783025394
 30
0.0
 10
1533.132954787279
 20
921.1343954281728
 30
0.0
 10
1535.787522122034
 20
921.3198606119738
 30
0.0
 10
1538.4292307301
 20
921.2265786446063
 30
0.0
 10
1540.776704259175
 20
921.0009780442049
 30
0.0
 10
1542.270973693477
 20
920.7993401526953
 30
0.0
 10
1543.647684351134
 20
920.6396293559451
 30
0.0
 10
1544.281436538965
 20
920.5923079653473
 30
0.0
 10
1544.678100195322
 20
920.5973092744314
 30
0.0
  0
SPLINE
  5
8B
330
1F
100
AcDbEntity
  8
MAKE2D VISIBLE LINES
100
AcDbSpline
210
0.0
220
0.0
230
1.0
 70
    12
 71
     2
 72
     6
 73
     3
 74
     0
 42
0.0000000001
 43
0.0000000001
 40
0.0
 40
0.0
 40
0.0
 40
33.91122238835483
 40
33.91122238835483
 40
33.91122238835483
 10
1594.456580167472
 20
922.8612061375178
 30
0.0
 41
1.0
 10
1599.770743885216
 20
939.5495168499705
 30
0.0
 41
0.9528556966818502
 10
1594.456580167472
 20
956.2378275624233
 30
0.0
 41
1.0
  0
SPLINE
  5
8C
330
1F
100
AcDbEntity
  8
MAKE2D VISIBLE LINES
100
AcDbSpline
210
0.0
220
0.0
230
1.0
 70
    24
 71
     2
 72
     6
 73
     3
 74
     0
 42
0.0000000001
 43
0.0000000001
 40
0.0
 40
0.0
 40
0.0
 40
0.0387456905668834
 40
0.0387456905668834
 40
0.0387456905668834
 10
1592.548487113566
 20
921.4676799456722
 30
0.0
 10
1592.56785675752
 20
921.4680321210169
 30
0.0
 10
1592.587226401474
 20
921.4683842963615
 30
0.0
  0
SPLINE
  5
8D
330
1F
100
AcDbEntity
  8
MAKE2D VISIBLE LINES
100
AcDbSpline
210
0.0
220
0.0
230
1.0
 70
    24
 71
     2
 72
     6
 73
     3
 74
     0
 42
0.0000000001
 43
0.0000000001
 40
0.0
 40
0.0
 40
0.0
 40
48.82481814413563
 40
48.82481814413563
 40
48.82481814413563
 10
1543.71898230674
 20
958.5191629325748
 30
0.0
 10
1568.127357270035
 20
958.0753742968784
 30
0.0
 10
1592.53573223333
 20
957.6315856611822
 30
0.0
  0
SPLINE
  5
8E
330
1F
100
AcDbEntity
  8
MAKE2D VISIBLE LINES
100
AcDbSpline
210
0.0
220
0.0
230
1.0
 70
    24
 71
     2
 72
     6
 73
     3
 74
     0
 42
0.0000000001
 43
0.0000000001
 40
0.0
 40
0.0
 40
0.0
 40
31.1136499957878
 40
31.1136499957878
 40
31.1136499957878
 10
1519.492684483631
 20
918.5495168499706
 30
0.0
 10
1535.049509481525
 20
918.5495168499706
 30
0.0
 10
1550.606334479419
 20
918.5495168499706
 30
0.0
  0
SPLINE
  5
8F
330
1F
100
AcDbEntity
  8
MAKE2D VISIBLE LINES
100
AcDbSpline
210
0.0
220
0.0
230
1.0
 70
    24
 71
     2
 72
     6
 73
     3
 74
     0
 42
0.0000000001
 43
0.0000000001
 40
0.0
 40
0.0
 40
0.0
 40
3.336363636363615
 40
3.336363636363615
 40
3.336363636363615
 10
1588.049516849971
 20
918.0495168499706
 30
0.0
 10
1588.049516849971
 20
919.7176986681524
 30
0.0
 10
1588.049516849971
 20
921.3858804863341
 30
0.0
  0
SPLINE
  5
90
330
1F
100
AcDbEntity
  8
MAKE2D VISIBLE LINES
100
AcDbSpline
210
0.0
220
0.0
230
1.0
 70
    24
 71
     2
 72
     6
 73
     3
 74
     0
 42
0.0000000001
 43
0.0000000001
 40
0.0
 40
0.0
 40
0.0
 40
0.9051202668435963
 40
0.9051202668435963
 40
0.9051202668435963
 10
1456.049516849971
 20
927.5495168499706
 30
0.0
 10
1455.596956716549
 20
927.5495168499706
 30
0.0
 10
1455.144396583127
 20
927.5495168499706
 30
0.0
  0
SPLINE
  5
91
330
1F
100
AcDbEntity
  8
MAKE2D VISIBLE LINES
100
AcDbSpline
210
0.0
220
0.0
230
1.0
 70
    12
 71
     2
 72
     6
 73
     3
 74
     0
 42
0.0000000001
 43
0.0000000001
 40
0.0
 40
0.0
 40
0.0
 40
2.797184667101029
 40
2.797184667101029
 40
2.797184667101029
 10
1454.676561053855
 20
924.791877480465
 30
0.0
 41
1.0
 10
1454.934586357575
 20
926.1666073036687
 30
0.0
 41
0.9998471866643751
 10
1455.14439658312
 20
927.5495168500318
 30
0.0
 41
1.0
  0
SPLINE
  5
92
330
1F
100
AcDbEntity
  8
MAKE2D VISIBLE LINES
100
AcDbSpline
210
0.0
220
0.0
230
1.0
 70
    12
 71
     2
 72
     6
 73
     3
 74
     0
 42
0.0000000001
 43
0.0000000001
 40
0.0
 40
0.0
 40
0.0
 40
2.797184667315767
 40
2.797184667315767
 40
2.797184667315767
 10
1455.14439658312
 20
951.5495168499092
 30
0.0
 41
1.0
 10
1454.934586357559
 20
952.9324263963784
 30
0.0
 41
0.99984718666435
 10
1454.676561053815
 20
954.3071562196869
 30
0.0
 41
1.0
  0
SPLINE
  5
93
330
1F
100
AcDbEntity
  8
MAKE2D VISIBLE LINES
100
AcDbSpline
210
0.0
220
0.0
230
1.0
 70
    28
 71
     3
 72
    25
 73
    21
 74
     0
 42
0.0000000001
 43
0.0000000001
 40
13.02490322829441
 40
13.02490322829441
 40
13.02490322829441
 40
13.02490322829441
 40
14.79272583509143
 40
17.30852872889765
 40
17.30852872889765
 40
17.30852872889765
 40
23.33297198920222
 40
29.74415775492639
 40
29.74415775492639
 40
29.74415775492639
 40
32.10125456398909
 40
34.6170574577953
 40
34.6170574577953
 40
34.6170574577953
 40
40.64150071809984
 40
47.052686483824
 40
47.052686483824
 40
47.052686483824
 40
49.40978329288673
 40
51.29663546324139
 40
51.29663546324139
 40
51.29663546324139
 40
51.29663546324139
 10
1436.04951684997
 20
954.8063037524965
 30
0.0
 41
1.0
 10
1436.04951684997
 20
954.8079527159969
 30
0.0
 41
1.0
 10
1436.04951684997
 20
954.4478316723023
 30
0.0
 41
1.0
 10
1436.04951684997
 20
953.2994448464543
 30
0.0
 41
1.0
 10
1436.04951684997
 20
952.5095427073612
 30
0.0
 41
1.0
 10
1436.04951684997
 20
950.6238728138837
 30
0.0
 41
1.0
 10
1436.04951684997
 20
946.8474498156147
 30
0.0
 41
1.0
 10
1436.04951684997
 20
943.4332076333585
 30
0.0
 41
1.0
 10
1436.04951684997
 20
941.7939463239854
 30
0.0
 41
1.0
 10
1436.04951684997
 20
941.1930034638108
 30
0.0
 41
1.0
 10
1436.049516849971
 20
939.5822292670784
 30
0.0
 41
1.0
 10
1436.049516849971
 20
937.9464509397137
 30
0.0
 41
1.0
 10
1436.04951684997
 20
937.3050873684188
 30
0.0
 41
1.0
 10
1436.04951684997
 20
935.7646217877877
 30
0.0
 41
1.0
 10
1436.049516849971
 20
932.3649069290908
 30
0.0
 41
1.0
 10
1436.04951684997
 20
928.5963058271147
 30
0.0
 41
1.0
 10
1436.04951684997
 20
926.5894909895204
 30
0.0
 41
1.0
 10
1436.04951684997
 20
925.850405060502
 30
0.0
 41
1.0
 10
1436.04951684997
 20
924.6968879044038
 30
0.0
 41
1.0
 10
1436.04951684997
 20
924.29813567934
 30
0.0
 41
1.0
 10
1436.04951684997
 20
924.2925629404263
 30
0.0
 41
1.0
  0
SPLINE
  5
94
330
1F
100
AcDbEntity
  8
MAKE2D VISIBLE LINES
100
AcDbSpline
210
0.0
220
0.0
230
1.0
 70
    12
 71
     2
 72
     6
 73
     3
 74
     0
 42
0.0000000001
 43
0.0000000001
 40
0.0
 40
0.0
 40
0.0
 40
0.3417021905685163
 40
0.3417021905685163
 40
0.3417021905685163
 10
1536.137248410082
 20
896.363535653948
 30
0.0
 41
1.0
 10
1535.966510036516
 20
896.3573304470942
 30
0.0
 41
0.999999998962072
 10
1535.79577109822
 20
896.3511407984797
 30
0.0
 41
1.0
  0
SPLINE
  5
95
330
1F
100
AcDbEntity
  8
MAKE2D VISIBLE LINES
100
AcDbSpline
210
0.0
220
0.0
230
1.0
 70
    12
 71
     2
 72
     6
 73
     3
 74
     0
 42
0.0000000001
 43
0.0000000001
 40
0.0
 40
0.0
 40
0.0
 40
0.5358068380542379
 40
0.5358068380542379
 40
0.5358068380542379
 10
1535.595692374303
 20
896.3438908401185
 30
0.0
 41
1.0
 10
1535.327964424153
 20
896.3341961686538
 30
0.0
 41
0.9999999997932935
 10
1535.060236079989
 20
896.3245123843869
 30
0.0
 41
1.0
  0
SPLINE
  5
96
330
1F
100
AcDbEntity
  8
MAKE2D VISIBLE LINES
100
AcDbSpline
210
0.0
220
0.0
230
1.0
 70
    12
 71
     2
 72
     6
 73
     3
 74
     0
 42
0.0000000001
 43
0.0000000001
 40
0.0
 40
0.0
 40
0.0
 40
0.2096325089675723
 40
0.2096325089675723
 40
0.2096325089675723
 10
1533.566465559738
 20
897.471102238502
 30
0.0
 41
1.0
 10
1533.671212081153
 20
897.4749249952134
 30
0.0
 41
0.9999999990783272
 10
1533.775958930437
 20
897.4787387574943
 30
0.0
 41
1.0
  0
SPLINE
  5
97
330
1F
100
AcDbEntity
  8
MAKE2D VISIBLE LINES
100
AcDbSpline
210
0.0
220
0.0
230
1.0
 70
    12
 71
     2
 72
     6
 73
     3
 74
     0
 42
0.0000000001
 43
0.0000000001
 40
0.0
 40
0.0
 40
0.0
 40
0.1433098854023
 40
0.1433098854023
 40
0.1433098854023
 10
1454.604088302058
 20
924.6111951215182
 30
0.0
 41
1.0
 10
1454.643470066531
 20
924.6716486914288
 30
0.0
 41
0.9897487012718658
 10
1454.664154331013
 20
924.7407697351916
 30
0.0
 41
1.0
  0
SPLINE
  5
98
330
1F
100
AcDbEntity
  8
MAKE2D VISIBLE LINES
100
AcDbSpline
210
0.0
220
0.0
230
1.0
 70
    12
 71
     2
 72
     6
 73
     3
 74
     0
 42
0.0000000001
 43
0.0000000001
 40
0.0
 40
0.0
 40
0.0
 40
0.1433020721715517
 40
0.1433020721715517
 40
0.1433020721715517
 10
1454.664157263335
 20
954.3582541654642
 30
0.0
 41
1.0
 10
1454.643475556127
 20
954.4273718117822
 30
0.0
 41
0.9897498171203609
 10
1454.604098149736
 20
954.4878234611517
 30
0.0
 41
1.0
  0
SPLINE
  5
99
330
1F
100
AcDbEntity
  8
MAKE2D VISIBLE LINES
100
AcDbSpline
210
0.0
220
0.0
230
1.0
 70
    12
 71
     2
 72
     6
 73
     3
 74
     0
 42
0.0000000001
 43
0.0000000001
 40
0.0
 40
0.0
 40
0.0
 40
0.785393812767711
 40
0.785393812767711
 40
0.785393812767711
 10
1588.04952034278
 20
918.0495168499706
 30
0.0
 41
1.0
 10
1588.04951159581
 20
917.549526193318
 30
0.0
 41
0.7071195730955776
 10
1587.549520939168
 20
917.549516849971
 30
0.0
 41
1.0
  0
SPLINE
  5
9A
330
1F
100
AcDbEntity
  8
MAKE2D VISIBLE LINES
100
AcDbSpline
210
0.0
220
0.0
230
1.0
 70
    12
 71
     2
 72
     6
 73
     3
 74
     0
 42
0.0000000001
 43
0.0000000001
 40
0.0
 40
0.0
 40
0.0
 40
0.7854136786328801
 40
0.7854136786328801
 40
0.7854136786328801
 10
1564.5490260341
 20
917.5495168499705
 30
0.0
 41
1.0
 10
1564.049018195177
 20
917.5495090111671
 30
0.0
 41
0.7071107475288188
 10
1564.049004747015
 20
918.0495168499705
 30
0.0
 41
1.0
  0
SPLINE
  5
9B
330
1F
100
AcDbEntity
  8
MAKE2D VISIBLE LINES
100
AcDbSpline
210
0.0
220
0.0
230
1.0
 70
    12
 71
     2
 72
     6
 73
     3
 74
     0
 42
0.0000000001
 43
0.0000000001
 40
0.0
 40
0.0
 40
0.0
 40
0.3735977008721283
 40
0.3735977008721283
 40
0.3735977008721283
 10
1533.970097505012
 20
892.485800561245
 30
0.0
 41
1.0
 10
1534.156773134856
 20
892.492584350844
 30
0.0
 41
0.999999998825143
 10
1534.343449421495
 20
892.4993500426383
 30
0.0
 41
1.0
  0
SPLINE
  5
9C
330
1F
100
AcDbEntity
  8
MAKE2D VISIBLE LINES
100
AcDbSpline
210
0.0
220
0.0
230
1.0
 70
    12
 71
     2
 72
     6
 73
     3
 74
     0
 42
0.0000000001
 43
0.0000000001
 40
0.0
 40
0.0
 40
0.0
 40
0.5304364104036873
 40
0.5304364104036873
 40
0.5304364104036873
 10
1534.508375043167
 20
892.5053254667928
 30
0.0
 41
1.0
 10
1534.773419546681
 20
892.5149227344265
 30
0.0
 41
0.9999999998017368
 10
1535.038464432206
 20
892.5245094464045
 30
0.0
 41
1.0
  0
SPLINE
  5
9D
330
1F
100
AcDbEntity
  8
MAKE2D VISIBLE LINES
100
AcDbSpline
210
0.0
220
0.0
230
1.0
 70
    12
 71
     2
 72
     6
 73
     3
 74
     0
 42
0.0000000001
 43
0.0000000001
 40
0.0
 40
0.0
 40
0.0
 40
4.188559220898304
 40
4.188559220898304
 40
4.188559220898304
 10
1540.911988199769
 20
899.0476418291571
 30
0.0
 41
1.0
 10
1538.819531832539
 20
898.9601252376387
 30
0.0
 41
0.9999956026632824
 10
1536.726593197857
 20
898.8850208169042
 30
0.0
 41
1.0
  0
SPLINE
  5
9E
330
1F
100
AcDbEntity
  8
MAKE2D VISIBLE LINES
100
AcDbSpline
210
0.0
220
0.0
230
1.0
 70
    12
 71
     2
 72
     6
 73
     3
 74
     0
 42
0.0000000001
 43
0.0000000001
 40
0.0
 40
0.0
 40
0.0
 40
0.7908928924230312
 40
0.7908928924230312
 40
0.7908928924230312
 10
1536.503545844702
 20
898.8768717992675
 30
0.0
 41
1.0
 10
1536.108362082602
 20
898.8624604299094
 30
0.0
 41
0.9999999924540522
 10
1535.713174791583
 20
898.8481461569065
 30
0.0
 41
1.0
  0
SPLINE
  5
9F
330
1F
100
AcDbEntity
  8
MAKE2D VISIBLE LINES
100
AcDbSpline
210
0.0
220
0.0
230
1.0
 70
    12
 71
     3
 72
    12
 73
     8
 74
     0
 42
0.0000000001
 43
0.0000000001
 40
-34.47199905115296
 40
-34.47199905115296
 40
-34.47199905115296
 40
-34.47199905115296
 40
-29.73426078252512
 40
-29.73426078252512
 40
-22.29738662109816
 40
-22.29738662109816
 40
-17.27365289076993
 40
-17.27365289076993
 40
-17.27365289076993
 40
-17.27365289076993
 10
1546.048950318499
 20
898.1458410877303
 30
0.0
 41
1.0
 10
1546.032854969585
 20
898.088967601734
 30
0.0
 41
1.0
 10
1545.679673283089
 20
898.0323787574541
 30
0.0
 41
1.0
 10
1543.934742283918
 20
897.8842622698908
 30
0.0
 41
1.0
 10
1542.129577345579
 20
897.7963917774009
 30
0.0
 41
1.0
 10
1538.365073053155
 20
897.6448014928626
 30
0.0
 41
1.0
 10
1536.707018816163
 20
897.5848610390085
 30
0.0
 41
1.0
 10
1535.038476752453
 20
897.5245106562327
 30
0.0
 41
1.0
  0
SPLINE
  5
A0
330
1F
100
AcDbEntity
  8
MAKE2D VISIBLE LINES
100
AcDbSpline
210
0.0
220
0.0
230
1.0
 70
    12
 71
     2
 72
     6
 73
     3
 74
     0
 42
0.0000000001
 43
0.0000000001
 40
0.0
 40
0.0
 40
0.0
 40
0.1440582922467912
 40
0.1440582922467912
 40
0.1440582922467912
 10
1534.49113661257
 20
897.5047043204231
 30
0.0
 41
1.0
 10
1534.41915466184
 20
897.5020972797467
 30
0.0
 41
0.9999999999034327
 10
1534.347172783599
 20
897.4994882383647
 30
0.0
 41
1.0
  0
SPLINE
  5
A1
330
1F
100
AcDbEntity
  8
MAKE2D VISIBLE LINES
100
AcDbSpline
210
0.0
220
0.0
230
1.0
 70
    12
 71
     2
 72
     6
 73
     3
 74
     0
 42
0.0000000001
 43
0.0000000001
 40
0.0
 40
0.0
 40
0.0
 40
0.2526064962466228
 40
0.2526064962466228
 40
0.2526064962466228
 10
1534.028398473875
 20
897.4879212802812
 30
0.0
 41
1.0
 10
1533.902178488877
 20
897.4833358801449
 30
0.0
 41
0.9999999990238028
 10
1533.775958909592
 20
897.4787393257377
 30
0.0
 41
1.0
  0
SPLINE
  5
A2
330
1F
100
AcDbEntity
  8
MAKE2D VISIBLE LINES
100
AcDbSpline
210
0.0
220
0.0
230
1.0
 70
    12
 71
     2
 72
     6
 73
     3
 74
     0
 42
0.0000000001
 43
0.0000000001
 40
0.0
 40
0.0
 40
0.0
 40
0.2715914747885066
 40
0.2715914747885066
 40
0.2715914747885066
 10
1533.566465612863
 20
897.4711008158656
 30
0.0
 41
1.0
 10
1533.430760267846
 20
897.4661468594472
 30
0.0
 41
0.9999999977240621
 10
1533.295055592528
 20
897.4611745916486
 30
0.0
 41
1.0
  0
SPLINE
  5
A3
330
1F
100
AcDbEntity
  8
MAKE2D VISIBLE LINES
100
AcDbSpline
210
0.0
220
0.0
230
1.0
 70
    12
 71
     2
 72
     6
 73
     3
 74
     0
 42
0.0000000001
 43
0.0000000001
 40
0.0
 40
0.0
 40
0.0
 40
0.136177507434258
 40
0.136177507434258
 40
0.136177507434258
 10
1533.970097560376
 20
892.4857990522155
 30
0.0
 41
1.0
 10
1533.902053736973
 20
892.4833259001292
 30
0.0
 41
0.9999999997267945
 10
1533.834010029268
 20
892.4808495669379
 30
0.0
 41
1.0
  0
SPLINE
  5
A4
330
1F
100
AcDbEntity
  8
MAKE2D VISIBLE LINES
100
AcDbSpline
210
0.0
220
0.0
230
1.0
 70
    12
 71
     2
 72
     6
 73
     3
 74
     0
 42
0.0000000001
 43
0.0000000001
 40
0.0
 40
0.0
 40
0.0
 40
0.1635101843457085
 40
0.1635101843457085
 40
0.1635101843457085
 10
1536.137248056189
 20
891.363544294215
 30
0.0
 41
1.0
 10
1536.218949161695
 20
891.3665148933023
 30
0.0
 41
0.9999999995909653
 10
1536.300650097138
 20
891.3694901660012
 30
0.0
 41
1.0
  0
SPLINE
  5
A5
330
1F
100
AcDbEntity
  8
MAKE2D VISIBLE LINES
100
AcDbSpline
210
0.0
220
0.0
230
1.0
 70
    24
 71
     2
 72
     6
 73
     3
 74
     0
 42
0.0000000001
 43
0.0000000001
 40
0.0
 40
0.0
 40
0.0
 40
1.252760669942745
 40
1.252760669942745
 40
1.252760669942745
 10
1524.04951684997
 20
898.1991243394831
 30
0.0
 10
1524.049516849971
 20
897.5727440045117
 30
0.0
 10
1524.049516849971
 20
896.9463636695403
 30
0.0
  0
SPLINE
  5
A6
330
1F
100
AcDbEntity
  8
MAKE2D VISIBLE LINES
100
AcDbSpline
210
0.0
220
0.0
230
1.0
 70
    24
 71
     2
 72
     6
 73
     3
 74
     0
 42
0.0000000001
 43
0.0000000001
 40
0.0
 40
0.0
 40
0.0
 40
1.649607489521202
 40
1.649607489521202
 40
1.649607489521202
 10
1524.049516849971
 20
890.6991243394917
 30
0.0
 10
1524.049516849971
 20
889.8743205947312
 30
0.0
 10
1524.049516849971
 20
889.0495168499706
 30
0.0
  0
SPLINE
  5
A7
330
1F
100
AcDbEntity
  8
MAKE2D VISIBLE LINES
100
AcDbSpline
210
0.0
220
0.0
230
1.0
 70
    12
 71
     2
 72
     6
 73
     3
 74
     0
 42
0.0000000001
 43
0.0000000001
 40
0.0
 40
0.0
 40
0.0
 40
0.1635098316904535
 40
0.1635098316904535
 40
0.1635098316904535
 10
1536.137248095729
 20
896.3635442956393
 30
0.0
 41
1.0
 10
1536.218949025024
 20
896.3665148883207
 30
0.0
 41
0.9999999995909671
 10
1536.300649784256
 20
896.3694901545923
 30
0.0
 41
1.0
  0
SPLINE
  5
A8
330
1F
100
AcDbEntity
  8
MAKE2D VISIBLE LINES
100
AcDbSpline
210
0.0
220
0.0
230
1.0
 70
    24
 71
     2
 72
     6
 73
     3
 74
     0
 42
0.0000000001
 43
0.0000000001
 40
0.0
 40
0.0
 40
0.0
 40
1.252751045100638
 40
1.252751045100638
 40
1.252751045100638
 10
1524.049516849971
 20
895.6991243394865
 30
0.0
 10
1524.049516849971
 20
895.0727488169362
 30
0.0
 10
1524.049516849971
 20
894.4463732943859
 30
0.0
  0
SPLINE
  5
A9
330
1F
100
AcDbEntity
  8
MAKE2D VISIBLE LINES
100
AcDbSpline
210
0.0
220
0.0
230
1.0
 70
    24
 71
     3
 72
     8
 73
     4
 74
     0
 42
0.0000000001
 43
0.0000000001
 40
0.0
 40
0.0
 40
0.0
 40
0.0
 40
20.99999999997749
 40
20.99999999997749
 40
20.99999999997749
 40
20.99999999997749
 10
1547.049516849971
 20
899.0495168499706
 30
0.0
 10
1540.049516849978
 20
899.0495168499704
 30
0.0
 10
1533.049516849986
 20
899.0495168499704
 30
0.0
 10
1526.049516849994
 20
899.0495168499706
 30
0.0
  0
SPLINE
  5
AA
330
1F
100
AcDbEntity
  8
MAKE2D VISIBLE LINES
100
AcDbSpline
210
0.0
220
0.0
230
1.0
 70
    24
 71
     2
 72
     6
 73
     3
 74
     0
 42
0.0000000001
 43
0.0000000001
 40
0.0
 40
0.0
 40
0.0
 40
0.4595913901052882
 40
0.4595913901052882
 40
0.4595913901052882
 10
1523.50859631727
 20
899.0495168499706
 30
0.0
 10
1523.278800622218
 20
899.0495168499706
 30
0.0
 10
1523.049004927165
 20
899.0495168499706
 30
0.0
  0
SPLINE
  5
AB
330
1F
100
AcDbEntity
  8
MAKE2D VISIBLE LINES
100
AcDbSpline
210
0.0
220
0.0
230
1.0
 70
    12
 71
     2
 72
     6
 73
     3
 74
     0
 42
0.0000000001
 43
0.0000000001
 40
0.0
 40
0.0
 40
0.0
 40
0.284466305709642
 40
0.284466305709642
 40
0.284466305709642
 10
1542.219932851195
 20
958.5517169839027
 30
0.0
 41
1.0
 10
1542.049516849971
 20
958.577205306376
 30
0.0
 41
0.7576014763298073
 10
1542.049516849971
 20
958.7495168499705
 30
0.0
 41
1.0
  0
SPLINE
  5
AC
330
1F
100
AcDbEntity
  8
MAKE2D VISIBLE LINES
100
AcDbSpline
210
0.0
220
0.0
230
1.0
 70
    24
 71
     2
 72
     6
 73
     3
 74
     0
 42
0.0000000001
 43
0.0000000001
 40
0.0
 40
0.0
 40
0.0
 40
8.32669211195298
 40
8.32669211195298
 40
8.32669211195298
 10
1544.049516849971
 20
971.0762089619235
 30
0.0
 10
1544.049516849971
 20
966.912862905947
 30
0.0
 10
1544.049516849971
 20
962.7495168499705
 30
0.0
  0
SPLINE
  5
AD
330
1F
100
AcDbEntity
  8
MAKE2D VISIBLE LINES
100
AcDbSpline
210
0.0
220
0.0
230
1.0
 70
    12
 71
     2
 72
     6
 73
     3
 74
     0
 42
0.0000000001
 43
0.0000000001
 40
0.0
 40
0.0
 40
0.0
 40
0.3141592653324032
 40
0.3141592653324032
 40
0.3141592653324032
 10
1544.049516849971
 20
962.7495168499705
 30
0.0
 41
1.0
 10
1544.049516850002
 20
962.5495168499789
 30
0.0
 41
0.7071067811449464
 10
1543.849516850011
 20
962.5495168499705
 30
0.0
 41
1.0
  0
SPLINE
  5
AE
330
1F
100
AcDbEntity
  8
MAKE2D VISIBLE LINES
100
AcDbSpline
210
0.0
220
0.0
230
1.0
 70
    12
 71
     2
 72
     6
 73
     3
 74
     0
 42
0.0000000001
 43
0.0000000001
 40
0.0
 40
0.0
 40
0.0
 40
2.987741940674319
 40
2.987741940674319
 40
2.987741940674319
 10
1510.432125545623
 20
943.53117612545
 30
0.0
 41
1.0
 10
1511.991830705824
 20
943.3798643201316
 30
0.0
 41
0.931421418596355
 10
1513.035772539075
 20
942.2112065866711
 30
0.0
 41
1.0
  0
SPLINE
  5
AF
330
1F
100
AcDbEntity
  8
MAKE2D VISIBLE LINES
100
AcDbSpline
210
0.0
220
0.0
230
1.0
 70
    12
 71
     2
 72
     6
 73
     3
 74
     0
 42
0.0000000001
 43
0.0000000001
 40
0.0
 40
0.0
 40
0.0
 40
1.0
 40
1.0
 40
1.0
 10
1510.432125545623
 20
935.5678575744911
 30
0.0
 41
1.0
 10
1510.675633802835
 20
935.5911283977708
 30
0.0
 41
0.7224928617966381
 10
1510.532215245463
 20
936.5376045274602
 30
0.0
 41
1.0
  0
SPLINE
  5
B0
330
1F
100
AcDbEntity
  8
MAKE2D VISIBLE LINES
100
AcDbSpline
210
0.0
220
0.0
230
1.0
 70
    12
 71
     2
 72
     6
 73
     3
 74
     0
 42
0.0000000001
 43
0.0000000001
 40
0.0
 40
0.0
 40
0.0
 40
1.0
 40
1.0
 40
1.0
 10
1510.532199084858
 20
942.5612596510778
 30
0.0
 41
1.0
 10
1510.643954102688
 20
943.5098921481116
 30
0.0
 41
0.722438648625489
 10
1510.432125545623
 20
943.53117612545
 30
0.0
 41
1.0
  0
SPLINE
  5
B1
330
1F
100
AcDbEntity
  8
MAKE2D VISIBLE LINES
100
AcDbSpline
210
0.0
220
0.0
230
1.0
 70
    12
 71
     2
 72
     6
 73
     3
 74
     0
 42
0.0000000001
 43
0.0000000001
 40
0.0
 40
0.0
 40
0.0
 40
0.1650338331521524
 40
0.1650338331521524
 40
0.1650338331521524
 10
1534.50837505413
 20
892.5053251642285
 30
0.0
 41
1.0
 10
1534.425912203644
 20
892.5023385588042
 30
0.0
 41
0.9999999998880107
 10
1534.34344944259
 20
892.4993494851167
 30
0.0
 41
1.0
  0
SPLINE
  5
B2
330
1F
100
AcDbEntity
  8
MAKE2D VISIBLE LINES
100
AcDbSpline
210
0.0
220
0.0
230
1.0
 70
    12
 71
     2
 72
     6
 73
     3
 74
     0
 42
0.0000000001
 43
0.0000000001
 40
0.0
 40
0.0
 40
0.0
 40
0.2002102332420828
 40
0.2002102332420828
 40
0.2002102332420828
 10
1535.595692256885
 20
891.3438932363033
 30
0.0
 41
1.0
 10
1535.695731753287
 20
891.3475172583817
 30
0.0
 41
0.9999999998081275
 10
1535.795771107626
 20
891.351145199887
 30
0.0
 41
1.0
  0
SPLINE
  5
B3
330
1F
100
AcDbEntity
  8
MAKE2D VISIBLE LINES
100
AcDbSpline
210
0.0
220
0.0
230
1.0
 70
    12
 71
     2
 72
     6
 73
     3
 74
     0
 42
0.0000000001
 43
0.0000000001
 40
0.0
 40
0.0
 40
0.0
 40
0.2002100179809486
 40
0.2002100179809486
 40
0.2002100179809486
 10
1535.595692295594
 20
896.3438932376976
 30
0.0
 41
1.0
 10
1535.695731684435
 20
896.3475172558786
 30
0.0
 41
0.9999999998081279
 10
1535.795770931215
 20
896.3511451934783
 30
0.0
 41
1.0
  0
SPLINE
  5
B4
330
1F
100
AcDbEntity
  8
MAKE2D VISIBLE LINES
100
AcDbSpline
210
0.0
220
0.0
230
1.0
 70
    12
 71
     2
 72
     6
 73
     3
 74
     0
 42
0.0000000001
 43
0.0000000001
 40
0.0
 40
0.0
 40
0.0
 40
0.2231961687725432
 40
0.2231961687725432
 40
0.2231961687725432
 10
1536.503545527129
 20
898.8768804461492
 30
0.0
 41
1.0
 10
1536.615069368801
 20
898.8809504831311
 30
0.0
 41
0.999999998575792
 10
1536.726592775398
 20
898.8850324242678
 30
0.0
 41
1.0
  0
SPLINE
  5
B5
330
1F
100
AcDbEntity
  8
MAKE2D VISIBLE LINES
100
AcDbSpline
210
0.0
220
0.0
230
1.0
 70
    12
 71
     2
 72
     6
 73
     3
 74
     0
 42
0.0000000001
 43
0.0000000001
 40
0.0
 40
0.0
 40
0.0
 40
0.5782007822722383
 40
0.5782007822722383
 40
0.5782007822722383
 10
1546.033128526167
 20
890.027805834318
 30
0.0
 41
1.0
 10
1546.033400464306
 20
889.7386333404472
 30
0.0
 41
0.9996253665990023
 10
1546.049495468021
 20
889.4499089805169
 30
0.0
 41
1.0
  0
SPLINE
  5
B6
330
1F
100
AcDbEntity
  8
MAKE2D VISIBLE LINES
100
AcDbSpline
210
0.0
220
0.0
230
1.0
 70
    12
 71
     2
 72
     6
 73
     3
 74
     0
 42
0.0000000001
 43
0.0000000001
 40
0.0
 40
0.0
 40
0.0
 40
0.6216136933389405
 40
0.6216136933389405
 40
0.6216136933389405
 10
1546.049495468021
 20
890.6491247194242
 30
0.0
 41
1.0
 10
1546.032716206749
 20
890.338691709391
 30
0.0
 41
0.9996174191471288
 10
1546.033128526167
 20
890.027805834318
 30
0.0
 41
1.0
  0
SPLINE
  5
B7
330
1F
100
AcDbEntity
  8
MAKE2D VISIBLE LINES
100
AcDbSpline
210
0.0
220
0.0
230
1.0
 70
    24
 71
     2
 72
     6
 73
     3
 74
     0
 42
0.0000000001
 43
0.0000000001
 40
0.0
 40
0.0
 40
0.0
 40
1.252751419406025
 40
1.252751419406025
 40
1.252751419406025
 10
1524.04951684997
 20
893.1991243394865
 30
0.0
 10
1524.049516849971
 20
892.5727486297835
 30
0.0
 10
1524.049516849971
 20
891.9463729200804
 30
0.0
  0
SPLINE
  5
B8
330
1F
100
AcDbEntity
  8
MAKE2D VISIBLE LINES
100
AcDbSpline
210
0.0
220
0.0
230
1.0
 70
    24
 71
     2
 72
     6
 73
     3
 74
     0
 42
0.0000000001
 43
0.0000000001
 40
0.0
 40
0.0
 40
0.0
 40
22.0
 40
22.0
 40
22.0
 10
1524.049516849971
 20
889.0495168499706
 30
0.0
 10
1535.049516849971
 20
889.0495168499706
 30
0.0
 10
1546.049516849971
 20
889.0495168499706
 30
0.0
  0
SPLINE
  5
B9
330
1F
100
AcDbEntity
  8
MAKE2D VISIBLE LINES
100
AcDbSpline
210
0.0
220
0.0
230
1.0
 70
    24
 71
     2
 72
     6
 73
     3
 74
     0
 42
0.0000000001
 43
0.0000000001
 40
0.0
 40
0.0
 40
0.0
 40
3.600000000000023
 40
3.600000000000023
 40
3.600000000000023
 10
1542.049516849971
 20
962.3495168499705
 30
0.0
 10
1542.049516849971
 20
960.5495168499706
 30
0.0
 10
1542.049516849971
 20
958.7495168499705
 30
0.0
  0
SPLINE
  5
BA
330
1F
100
AcDbEntity
  8
MAKE2D VISIBLE LINES
100
AcDbSpline
210
0.0
220
0.0
230
1.0
 70
    12
 71
     2
 72
     6
 73
     3
 74
     0
 42
0.0000000001
 43
0.0000000001
 40
0.0
 40
0.0
 40
0.0
 40
0.0753918043082419
 40
0.0753918043082419
 40
0.0753918043082419
 10
1542.249516849971
 20
962.5495168499705
 30
0.0
 41
1.0
 10
1542.211368136005
 20
962.5495168499704
 30
0.0
 41
0.9822902577813836
 10
1542.175897908058
 20
962.535474510183
 30
0.0
 41
1.0
  0
SPLINE
  5
BB
330
1F
100
AcDbEntity
  8
MAKE2D VISIBLE LINES
100
AcDbSpline
210
0.0
220
0.0
230
1.0
 70
    12
 71
     2
 72
     6
 73
     3
 74
     0
 42
0.0000000001
 43
0.0000000001
 40
0.0
 40
0.0
 40
0.0
 40
0.0758195417843978
 40
0.0758195417843978
 40
0.0758195417843978
 10
1509.549516849971
 20
944.3192128570554
 30
0.0
 41
1.0
 10
1509.556849393366
 20
944.2819964824611
 30
0.0
 41
0.9991273866173433
 10
1509.567262458738
 20
944.2455219324277
 30
0.0
 41
1.0
  0
SPLINE
  5
BC
330
1F
100
AcDbEntity
  8
MAKE2D VISIBLE LINES
100
AcDbSpline
210
0.0
220
0.0
230
1.0
 70
    12
 71
     2
 72
     6
 73
     3
 74
     0
 42
0.0000000001
 43
0.0000000001
 40
0.0
 40
0.0
 40
0.0
 40
3.074050424830602
 40
3.074050424830602
 40
3.074050424830602
 10
1485.446794188364
 20
947.3872346529508
 30
0.0
 41
1.0
 10
1483.921878817534
 20
947.0761333689661
 30
0.0
 41
0.9815010469230045
 10
1482.625678320136
 20
946.2147303461988
 30
0.0
 41
1.0
  0
SPLINE
  5
BD
330
1F
100
AcDbEntity
  8
MAKE2D VISIBLE LINES
100
AcDbSpline
210
0.0
220
0.0
230
1.0
 70
    12
 71
     2
 72
     8
 73
     5
 74
     0
 42
0.0000000001
 43
0.0000000001
 40
0.0
 40
0.0
 40
0.0
 40
6.283341888142386
 40
6.283341888142386
 40
12.56668377628477
 40
12.56668377628477
 40
12.56668377628477
 10
1487.04951684993
 20
931.5495168499706
 30
0.0
 41
1.0
 10
1490.363350521628
 20
931.54921463683
 30
0.0
 41
0.9238620816770622
 10
1492.706584792361
 20
933.8924489075509
 30
0.0
 41
1.0
 10
1495.049819063094
 20
936.2356831782716
 30
0.0
 41
0.9238620816770622
 10
1495.049516849971
 20
939.5495168499706
 30
0.0
 41
1.0
  0
SPLINE
  5
BE
330
1F
100
AcDbEntity
  8
MAKE2D VISIBLE LINES
100
AcDbSpline
210
0.0
220
0.0
230
1.0
 70
    12
 71
     2
 72
     8
 73
     5
 74
     0
 42
0.0000000001
 43
0.0000000001
 40
0.0
 40
0.0
 40
0.0
 40
6.283341888102581
 40
6.283341888102581
 40
12.56668377620516
 40
12.56668377620516
 40
12.56668377620516
 10
1495.049516849971
 20
939.5495168499706
 30
0.0
 41
1.0
 10
1495.049819063094
 20
942.8633505216461
 30
0.0
 41
0.9238620816780154
 10
1492.706584792389
 20
945.206584792362
 30
0.0
 41
1.0
 10
1490.363350521685
 20
947.5498190630782
 30
0.0
 41
0.9238620816780154
 10
1487.049516850009
 20
947.5495168499705
 30
0.0
 41
1.0
  0
SPLINE
  5
BF
330
1F
100
AcDbEntity
  8
MAKE2D VISIBLE LINES
100
AcDbSpline
210
0.0
220
0.0
230
1.0
 70
    12
 71
     2
 72
     6
 73
     3
 74
     0
 42
0.0000000001
 43
0.0000000001
 40
0.0
 40
0.0
 40
0.0
 40
2.996356843436696
 40
2.996356843436696
 40
2.996356843436696
 10
1485.486360751521
 20
931.9078444681145
 30
0.0
 41
1.0
 10
1484.000016477927
 20
932.2111783616243
 30
0.0
 41
0.9815113678033618
 10
1482.736549620618
 20
933.0507510214245
 30
0.0
 41
1.0
  0
SPLINE
  5
C0
330
1F
100
AcDbEntity
  8
MAKE2D VISIBLE LINES
100
AcDbSpline
210
0.0
220
0.0
230
1.0
 70
    12
 71
     2
 72
     6
 73
     3
 74
     0
 42
0.0000000001
 43
0.0000000001
 40
0.0
 40
0.0
 40
0.0
 40
5.410313836770063
 40
5.410313836770063
 40
5.410313836770063
 10
1480.547649613541
 20
935.2409863401714
 30
0.0
 41
1.0
 10
1478.990947009192
 20
937.5911240774116
 30
0.0
 41
0.940535460779497
 10
1479.295227443399
 20
940.3936022307154
 30
0.0
 41
1.0
  0
SPLINE
  5
C1
330
1F
100
AcDbEntity
  8
MAKE2D VISIBLE LINES
100
AcDbSpline
210
0.0
220
0.0
230
1.0
 70
    12
 71
     2
 72
     6
 73
     3
 74
     0
 42
0.0000000001
 43
0.0000000001
 40
0.0
 40
0.0
 40
0.0
 40
5.524284370790308
 40
5.524284370790308
 40
5.524284370790308
 10
1480.541538788163
 20
943.8486005909042
 30
0.0
 41
1.0
 10
1482.13102670031
 20
946.2546479888628
 30
0.0
 41
0.9379686375325471
 10
1484.90330836835
 20
947.0483672447294
 30
0.0
 41
1.0
  0
SPLINE
  5
C2
330
1F
100
AcDbEntity
  8
MAKE2D VISIBLE LINES
100
AcDbSpline
210
0.0
220
0.0
230
1.0
 70
    12
 71
     2
 72
     6
 73
     3
 74
     0
 42
0.0000000001
 43
0.0000000001
 40
0.0
 40
0.0
 40
0.0
 40
3.941674652466423
 40
3.941674652466423
 40
3.941674652466423
 10
1477.798184141411
 20
960.6073319963762
 30
0.0
 41
1.0
 10
1475.989964035248
 20
959.8114283560031
 30
0.0
 41
0.9963634681136568
 10
1474.343134931308
 20
958.7200638616636
 30
0.0
 41
1.0
  0
SPLINE
  5
C3
330
1F
100
AcDbEntity
  8
MAKE2D VISIBLE LINES
100
AcDbSpline
210
0.0
220
0.0
230
1.0
 70
    12
 71
     2
 72
     6
 73
     3
 74
     0
 42
0.0000000001
 43
0.0000000001
 40
0.0
 40
0.0
 40
0.0
 40
16.12185154913634
 40
16.12185154913634
 40
16.12185154913634
 10
1467.96158052095
 20
952.3803104211154
 30
0.0
 41
1.0
 10
1463.272443909045
 20
945.4017875359108
 30
0.0
 41
0.9392816429419819
 10
1464.186120280012
 20
937.0439780553374
 30
0.0
 41
1.0
  0
SPLINE
  5
C4
330
1F
100
AcDbEntity
  8
MAKE2D VISIBLE LINES
100
AcDbSpline
210
0.0
220
0.0
230
1.0
 70
    12
 71
     2
 72
     6
 73
     3
 74
     0
 42
0.0000000001
 43
0.0000000001
 40
0.0
 40
0.0
 40
0.0
 40
13.36248144394957
 40
13.36248144394957
 40
13.36248144394957
 10
1467.754724029277
 20
927.0325983303485
 30
0.0
 41
1.0
 10
1471.496056274048
 20
921.2638607582128
 30
0.0
 41
0.9581020132852531
 10
1477.789695230307
 20
918.4951049310937
 30
0.0
 41
1.0
  0
SPLINE
  5
C5
330
1F
100
AcDbEntity
  8
MAKE2D VISIBLE LINES
100
AcDbSpline
210
0.0
220
0.0
230
1.0
 70
    12
 71
     2
 72
     6
 73
     3
 74
     0
 42
0.0000000001
 43
0.0000000001
 40
0.0
 40
0.0
 40
0.0
 40
31.32399948877248
 40
31.32399948877248
 40
31.32399948877248
 10
1487.049516849859
 20
916.5495168499706
 30
0.0
 41
1.0
 10
1505.685445516789
 20
916.5488913437555
 30
0.0
 41
0.7769531572323289
 10
1509.54951684997
 20
934.7798208428857
 30
0.0
 41
1.0
  0
SPLINE
  5
C6
330
1F
100
AcDbEntity
  8
MAKE2D VISIBLE LINES
100
AcDbSpline
210
0.0
220
0.0
230
1.0
 70
    12
 71
     2
 72
     6
 73
     3
 74
     0
 42
0.0000000001
 43
0.0000000001
 40
0.0
 40
0.0
 40
0.0
 40
0.0258419045231436
 40
0.0258419045231436
 40
0.0258419045231436
 10
1513.921590525281
 20
938.5467266514706
 30
0.0
 41
1.0
 10
1513.91833386012
 20
938.5342228002254
 30
0.0
 41
0.9999948042344153
 10
1513.91499664859
 20
938.5217402050165
 30
0.0
 41
1.0
  0
SPLINE
  5
C7
330
1F
100
AcDbEntity
  8
MAKE2D VISIBLE LINES
100
AcDbSpline
210
0.0
220
0.0
230
1.0
 70
     8
 71
     3
 72
    17
 73
    13
 74
     0
 42
0.0000000001
 43
0.0000000001
 40
0.0
 40
0.0
 40
0.0
 40
0.0
 40
0.2853846711834448
 40
0.5318442682254569
 40
1.030310272546077
 40
1.516406668479712
 40
1.756910993042361
 40
2.07485339049865
 40
3.151983086372578
 40
5.208446796587335
 40
8.167948777643346
 40
12.92914720592027
 40
12.92914720592027
 40
12.92914720592027
 40
12.92914720592027
 10
1524.049516849974
 20
893.1526447575941
 30
0.0
 10
1523.956807701423
 20
893.1735020504966
 30
0.0
 10
1523.786127779308
 20
893.2284932615505
 30
0.0
 10
1523.512194772933
 20
893.4464700107841
 30
0.0
 10
1523.383384964223
 20
893.8736860504798
 30
0.0
 10
1523.599692909124
 20
894.2575791538065
 30
0.0
 10
1523.912730191493
 20
894.4227873665492
 30
0.0
 10
1524.44972109655
 20
894.5253155518596
 30
0.0
 10
1525.59658847976
 20
894.6208370012606
 30
0.0
 10
1527.624286951567
 20
894.7369323597925
 30
0.0
 10
1530.880569457743
 20
894.8739136742274
 30
0.0
 10
1533.452382715937
 20
894.9674664825293
 30
0.0
 10
1535.038444327811
 20
895.0245088296342
 30
0.0
  0
SPLINE
  5
C8
330
1F
100
AcDbEntity
  8
MAKE2D VISIBLE LINES
100
AcDbSpline
210
0.0
220
0.0
230
1.0
 70
     8
 71
     3
 72
    18
 73
    14
 74
     0
 42
0.0000000001
 43
0.0000000001
 40
0.0
 40
0.0
 40
0.0
 40
0.0
 40
0.2744580155890144
 40
0.5174282635287849
 40
1.007507993701474
 40
1.486743488427138
 40
1.722454157660245
 40
2.018672988961161
 40
2.419806709742824
 40
3.026632277588503
 40
4.845708553511956
 40
7.492762722754672
 40
11.68819779131821
 40
11.68819779131821
 40
11.68819779131821
 40
11.68819779131821
 10
1546.049516849971
 20
893.1963089558269
 30
0.0
 10
1546.138700103616
 20
893.1762004943176
 30
0.0
 10
1546.304785351604
 20
893.1236776428232
 30
0.0
 10
1546.576451966804
 20
892.9154994938249
 30
0.0
 10
1546.715573469363
 20
892.5009842019242
 30
0.0
 10
1546.519596531713
 20
892.1142230494685
 30
0.0
 10
1546.224554045723
 20
891.9407141645411
 30
0.0
 10
1545.91968108346
 20
891.8710617493175
 30
0.0
 10
1545.489003535138
 20
891.8144667360373
 30
0.0
 10
1544.549970585043
 20
891.7314824354149
 30
0.0
 10
1542.861889373625
 20
891.632988159912
 30
0.0
 10
1539.977463334338
 20
891.5042883681966
 30
0.0
 10
1537.698210674858
 20
891.4205807592903
 30
0.0
 10
1536.300650495727
 20
891.3694792112512
 30
0.0
  0
SPLINE
  5
C9
330
1F
100
AcDbEntity
  8
MAKE2D VISIBLE LINES
100
AcDbSpline
210
0.0
220
0.0
230
1.0
 70
    24
 71
     2
 72
     6
 73
     3
 74
     0
 42
0.0000000001
 43
0.0000000001
 40
0.0
 40
0.0
 40
0.0
 40
1.252639716883039
 40
1.252639716883039
 40
1.252639716883039
 10
1546.049516849971
 20
896.9026399282379
 30
0.0
 10
1546.049516849971
 20
896.2763200697964
 30
0.0
 10
1546.049516849971
 20
895.6500002113548
 30
0.0
  0
SPLINE
  5
CA
330
1F
100
AcDbEntity
  8
MAKE2D VISIBLE LINES
100
AcDbSpline
210
0.0
220
0.0
230
1.0
 70
    24
 71
     2
 72
     6
 73
     3
 74
     0
 42
0.0000000001
 43
0.0000000001
 40
0.0
 40
0.0
 40
0.0
 40
1.252721119187015
 40
1.252721119187015
 40
1.252721119187015
 10
1546.049516849971
 20
891.9026310966478
 30
0.0
 10
1546.049516849971
 20
891.2762705370543
 30
0.0
 10
1546.049516849971
 20
890.6499099774608
 30
0.0
  0
SPLINE
  5
CB
330
1F
100
AcDbEntity
  8
MAKE2D VISIBLE LINES
100
AcDbSpline
210
0.0
220
0.0
230
1.0
 70
    24
 71
     2
 72
     6
 73
     3
 74
     0
 42
0.0000000001
 43
0.0000000001
 40
0.0
 40
0.0
 40
0.0
 40
10.0
 40
10.0
 40
10.0
 10
1522.049516849971
 20
900.0495168499706
 30
0.0
 10
1522.049516849971
 20
905.0495168499706
 30
0.0
 10
1522.049516849971
 20
910.0495168499706
 30
0.0
  0
SPLINE
  5
CC
330
1F
100
AcDbEntity
  8
MAKE2D VISIBLE LINES
100
AcDbSpline
210
0.0
220
0.0
230
1.0
 70
    12
 71
     2
 72
     6
 73
     3
 74
     0
 42
0.0000000001
 43
0.0000000001
 40
0.0
 40
0.0
 40
0.0
 40
0.6310604261364137
 40
0.6310604261364137
 40
0.6310604261364137
 10
1550.512619808309
 20
912.2620384572433
 30
0.0
 41
1.0
 10
1550.244462151408
 20
912.0957513484391
 30
0.0
 41
0.9999953584482404
 10
1549.975296185737
 20
911.9311013729359
 30
0.0
 41
1.0
  0
SPLINE
  5
CD
330
1F
100
AcDbEntity
  8
MAKE2D VISIBLE LINES
100
AcDbSpline
210
0.0
220
0.0
230
1.0
 70
    12
 71
     2
 72
     6
 73
     3
 74
     0
 42
0.0000000001
 43
0.0000000001
 40
0.0
 40
0.0
 40
0.0
 40
0.5923122336610083
 40
0.5923122336610083
 40
0.5923122336610083
 10
1519.585466253204
 20
912.2626472583845
 30
0.0
 41
1.0
 10
1519.300280801611
 20
912.4208592866726
 30
0.0
 41
0.867665910881883
 10
1519.292557957477
 20
912.7468993844728
 30
0.0
 41
1.0
  0
SPLINE
  5
CE
330
1F
100
AcDbEntity
  8
MAKE2D VISIBLE LINES
100
AcDbSpline
210
0.0
220
0.0
230
1.0
 70
    12
 71
     2
 72
     6
 73
     3
 74
     0
 42
0.0000000001
 43
0.0000000001
 40
0.0
 40
0.0
 40
0.0
 40
0.3417019744752361
 40
0.3417019744752361
 40
0.3417019744752361
 10
1536.137248370542
 20
891.3635356525215
 30
0.0
 41
1.0
 10
1535.966510104951
 20
891.3573304495922
 30
0.0
 41
0.9999999989620734
 10
1535.795771274632
 20
891.3511408048839
 30
0.0
 41
1.0
  0
SPLINE
  5
CF
330
1F
100
AcDbEntity
  8
MAKE2D VISIBLE LINES
100
AcDbSpline
210
0.0
220
0.0
230
1.0
 70
    12
 71
     2
 72
     6
 73
     3
 74
     0
 42
0.0000000001
 43
0.0000000001
 40
0.0
 40
0.0
 40
0.0
 40
0.5358068092715829
 40
0.5358068092715829
 40
0.5358068092715829
 10
1535.595692335594
 20
891.3438908387216
 30
0.0
 41
1.0
 10
1535.327964399826
 20
891.3341961677767
 30
0.0
 41
0.9999999997932936
 10
1535.060236070045
 20
891.3245123840265
 30
0.0
 41
1.0
  0
SPLINE
  5
D0
330
1F
100
AcDbEntity
  8
MAKE2D VISIBLE LINES
100
AcDbSpline
210
0.0
220
0.0
230
1.0
 70
     8
 71
     3
 72
    18
 73
    14
 74
     0
 42
0.0000000001
 43
0.0000000001
 40
0.0
 40
0.0
 40
0.0
 40
0.0
 40
0.2793419422322097
 40
0.5238374593216819
 40
1.021423937984455
 40
1.503681321371632
 40
1.742284168283844
 40
2.052657665238338
 40
2.476532623415943
 40
3.116979642911792
 40
5.076151228238809
 40
7.887718629415846
 40
12.39369496119721
 40
12.39369496119721
 40
12.39369496119721
 40
12.39369496119721
 10
1546.04951684997
 20
895.696357141361
 30
0.0
 10
1546.140305978798
 20
895.6757972967496
 30
0.0
 10
1546.308351403688
 20
895.6223916171307
 30
0.0
 10
1546.582211427838
 20
895.4088420078574
 30
0.0
 10
1546.715952666932
 20
894.9869647343121
 30
0.0
 10
1546.507912293589
 20
894.6004759007144
 30
0.0
 10
1546.202203416911
 20
894.432367822423
 30
0.0
 10
1545.883305705177
 20
894.3654679830054
 30
0.0
 10
1545.429062611096
 20
894.3079666453204
 30
0.0
 10
1544.424496391681
 20
894.2226788786841
 30
0.0
 10
1542.623687534293
 20
894.1209075767302
 30
0.0
 10
1539.534248300628
 20
893.9866111997547
 30
0.0
 10
1537.09670956417
 20
893.8984424930854
 30
0.0
 10
1535.59569237198
 20
893.8438906623946
 30
0.0
  0
SPLINE
  5
D1
330
1F
100
AcDbEntity
  8
MAKE2D VISIBLE LINES
100
AcDbSpline
210
0.0
220
0.0
230
1.0
 70
    24
 71
     2
 72
     6
 73
     3
 74
     0
 42
0.0000000001
 43
0.0000000001
 40
0.0
 40
0.0
 40
0.0
 40
0.899297070992759
 40
0.899297070992759
 40
0.899297070992759
 10
1546.049516849971
 20
899.0495168499706
 30
0.0
 10
1546.049516849971
 20
898.5998683144742
 30
0.0
 10
1546.049516849971
 20
898.1502197789778
 30
0.0
  0
SPLINE
  5
D2
330
1F
100
AcDbEntity
  8
MAKE2D VISIBLE LINES
100
AcDbSpline
210
0.0
220
0.0
230
1.0
 70
    12
 71
     2
 72
     8
 73
     5
 74
     0
 42
0.0000000001
 43
0.0000000001
 40
0.0
 40
0.0
 40
0.0
 40
0.4812192077055751
 40
0.4812192077055751
 40
0.9624384154111503
 40
0.9624384154111503
 40
0.9624384154111503
 10
1546.64918398947
 20
890.0694884698582
 30
0.0
 41
1.0
 10
1546.657626842366
 20
889.8152376679708
 30
0.0
 41
0.9206854252580693
 10
1546.480768044186
 20
889.6323833064366
 30
0.0
 41
1.0
 10
1546.303909246007
 20
889.4495289449026
 30
0.0
 41
0.9206854252580693
 10
1546.049518305129
 20
889.449493948958
 30
0.0
 41
1.0
  0
SPLINE
  5
D3
330
1F
100
AcDbEntity
  8
MAKE2D VISIBLE LINES
100
AcDbSpline
210
0.0
220
0.0
230
1.0
 70
    24
 71
     2
 72
     6
 73
     3
 74
     0
 42
0.0000000001
 43
0.0000000001
 40
0.0
 40
0.0
 40
0.0
 40
1.252615075764481
 40
1.252615075764481
 40
1.252615075764481
 10
1546.049516849971
 20
894.4026152886639
 30
0.0
 10
1546.049516849971
 20
893.7763077507816
 30
0.0
 10
1546.049516849971
 20
893.1500002128994
 30
0.0
  0
SPLINE
  5
D4
330
1F
100
AcDbEntity
  8
MAKE2D VISIBLE LINES
100
AcDbSpline
210
0.0
220
0.0
230
1.0
 70
    24
 71
     2
 72
     6
 73
     3
 74
     0
 42
0.0000000001
 43
0.0000000001
 40
0.0
 40
0.0
 40
0.0
 40
0.3999617524661971
 40
0.3999617524661971
 40
0.3999617524661971
 10
1546.049516849971
 20
889.4494786024368
 30
0.0
 10
1546.049516849971
 20
889.2494977262037
 30
0.0
 10
1546.049516849971
 20
889.0495168499706
 30
0.0
  0
SPLINE
  5
D5
330
1F
100
AcDbEntity
  8
MAKE2D VISIBLE LINES
100
AcDbSpline
210
0.0
220
0.0
230
1.0
 70
    12
 71
     2
 72
     6
 73
     3
 74
     0
 42
0.0000000001
 43
0.0000000001
 40
0.0
 40
0.0
 40
0.0
 40
1.570826071280867
 40
1.570826071280867
 40
1.570826071280867
 10
1523.049001589168
 20
899.0495168499756
 30
0.0
 41
1.0
 10
1522.048984842225
 20
899.0495001031468
 30
0.0
 41
0.7071089108048827
 10
1522.048962071816
 20
900.0495168499706
 30
0.0
 41
1.0
  0
SPLINE
  5
D6
330
1F
100
AcDbEntity
  8
MAKE2D VISIBLE LINES
100
AcDbSpline
210
0.0
220
0.0
230
1.0
 70
    12
 71
     2
 72
     6
 73
     3
 74
     0
 42
0.0000000001
 43
0.0000000001
 40
0.0
 40
0.0
 40
0.0
 40
1.570509909147835
 40
1.570509909147835
 40
1.570509909147835
 10
1548.0495174746
 20
900.0495168499706
 30
0.0
 41
1.0
 10
1548.049515214033
 20
899.0498045166463
 30
0.0
 41
0.7072092935981695
 10
1547.049802922083
 20
899.0495168907244
 30
0.0
 41
1.0
  0
SPLINE
  5
D7
330
1F
100
AcDbEntity
  8
MAKE2D VISIBLE LINES
100
AcDbSpline
210
0.0
220
0.0
230
1.0
 70
    12
 71
     2
 72
     6
 73
     3
 74
     0
 42
0.0000000001
 43
0.0000000001
 40
0.0
 40
0.0
 40
0.0
 40
0.1847511388348796
 40
0.1847511388348796
 40
0.1847511388348796
 10
1549.974686490276
 20
911.9307299419897
 30
0.0
 41
1.0
 10
1549.894849002857
 20
911.882185276752
 30
0.0
 41
0.9830355737568736
 10
1549.80287760819
 20
911.8656967509341
 30
0.0
 41
1.0
  0
SPLINE
  5
D8
330
1F
100
AcDbEntity
  8
MAKE2D VISIBLE LINES
100
AcDbSpline
210
0.0
220
0.0
230
1.0
 70
    12
 71
     2
 72
     6
 73
     3
 74
     0
 42
0.0000000001
 43
0.0000000001
 40
0.0
 40
0.0
 40
0.0
 40
1.570795686634145
 40
1.570795686634145
 40
1.570795686634145
 10
1547.049520605897
 20
911.0495168499705
 30
0.0
 41
1.0
 10
1548.049519077219
 20
911.0495153212923
 30
0.0
 41
0.7071078720077987
 10
1548.049520633847
 20
910.0495168499706
 30
0.0
 41
1.0
  0
SPLINE
  5
D9
330
1F
100
AcDbEntity
  8
MAKE2D VISIBLE LINES
100
AcDbSpline
210
0.0
220
0.0
230
1.0
 70
    12
 71
     2
 72
     6
 73
     3
 74
     0
 42
0.0000000001
 43
0.0000000001
 40
0.0
 40
0.0
 40
0.0
 40
1.570828753427816
 40
1.570828753427816
 40
1.570828753427816
 10
1522.048962071817
 20
910.0495168499706
 30
0.0
 41
1.0
 10
1522.048985715272
 20
911.0495357805713
 30
0.0
 41
0.7071084473989729
 10
1523.049004645974
 20
911.0495168499705
 30
0.0
 41
1.0
  0
SPLINE
  5
DA
330
1F
100
AcDbEntity
  8
MAKE2D VISIBLE LINES
100
AcDbSpline
210
0.0
220
0.0
230
1.0
 70
    12
 71
     2
 72
     6
 73
     3
 74
     0
 42
0.0000000001
 43
0.0000000001
 40
0.0
 40
0.0
 40
0.0
 40
0.5936993171093379
 40
0.5936993171093379
 40
0.5936993171093379
 10
1550.806830431518
 20
912.7469063344818
 30
0.0
 41
1.0
 10
1550.799059331161
 20
912.4199254428871
 30
0.0
 41
0.8669836377610737
 10
1550.512603990303
 20
912.2620640126322
 30
0.0
 41
1.0
  0
SPLINE
  5
DB
330
1F
100
AcDbEntity
  8
MAKE2D VISIBLE LINES
100
AcDbSpline
210
0.0
220
0.0
230
1.0
 70
    12
 71
     2
 72
     6
 73
     3
 74
     0
 42
0.0000000001
 43
0.0000000001
 40
0.0
 40
0.0
 40
0.0
 40
1.57082912820203
 40
1.57082912820203
 40
1.57082912820203
 10
1401.04951684997
 20
971.5508825588197
 30
0.0
 41
1.0
 10
1401.049497046167
 20
972.5509023626867
 30
0.0
 41
0.707107829976456
 10
1402.04951684997
 20
972.5509251329769
 30
0.0
 41
1.0
  0
SPLINE
  5
DC
330
1F
100
AcDbEntity
  8
MAKE2D VISIBLE LINES
100
AcDbSpline
210
0.0
220
0.0
230
1.0
 70
    12
 71
     2
 72
     6
 73
     3
 74
     0
 42
0.0000000001
 43
0.0000000001
 40
0.0
 40
0.0
 40
0.0
 40
0.8759833436661658
 40
0.8759833436661658
 40
0.8759833436661658
 10
1410.581141903904
 20
972.5509251329787
 30
0.0
 41
1.0
 10
1411.049382509465
 20
972.5506229680265
 30
0.0
 41
0.9058560052907781
 10
1411.349363183501
 20
972.1910941775175
 30
0.0
 41
1.0
  0
SPLINE
  5
DD
330
1F
100
AcDbEntity
  8
MAKE2D VISIBLE LINES
100
AcDbSpline
210
0.0
220
0.0
230
1.0
 70
    12
 71
     2
 72
     6
 73
     3
 74
     0
 42
0.0000000001
 43
0.0000000001
 40
0.0
 40
0.0
 40
0.0
 40
0.8760011198089197
 40
0.8760011198089197
 40
0.8760011198089197
 10
1411.349363183144
 20
906.9093308814702
 30
0.0
 41
1.0
 10
1411.049420425644
 20
906.5497211501357
 30
0.0
 41
0.9057758124557997
 10
1410.581141903547
 20
906.5495152643732
 30
0.0
 41
1.0
  0
SPLINE
  5
DE
330
1F
100
AcDbEntity
  8
MAKE2D VISIBLE LINES
100
AcDbSpline
210
0.0
220
0.0
230
1.0
 70
    12
 71
     2
 72
     6
 73
     3
 74
     0
 42
0.0000000001
 43
0.0000000001
 40
0.0
 40
0.0
 40
0.0
 40
0.6947428268204837
 40
0.6947428268204837
 40
0.6947428268204837
 10
1426.049516849968
 20
924.911560487964
 30
0.0
 41
1.0
 10
1426.049560001847
 20
924.5494976656557
 30
0.0
 41
0.9402312646389553
 10
1425.817740316702
 20
924.2713805630906
 30
0.0
 41
1.0
  0
SPLINE
  5
DF
330
1F
100
AcDbEntity
  8
MAKE2D VISIBLE LINES
100
AcDbSpline
210
0.0
220
0.0
230
1.0
 70
    12
 71
     2
 72
     6
 73
     3
 74
     0
 42
0.0000000001
 43
0.0000000001
 40
0.0
 40
0.0
 40
0.0
 40
0.6942470616672881
 40
0.6942470616672881
 40
0.6942470616672881
 10
1425.818058819926
 20
954.8279182703849
 30
0.0
 41
1.0
 10
1426.049469458857
 20
954.5498557299697
 30
0.0
 41
0.9404051849428523
 10
1426.049516849958
 20
954.1880966140563
 30
0.0
 41
1.0
  0
SPLINE
  5
E0
330
1F
100
AcDbEntity
  8
MAKE2D VISIBLE LINES
100
AcDbSpline
210
0.0
220
0.0
230
1.0
 70
    24
 71
     2
 72
     6
 73
     3
 74
     0
 42
0.0000000001
 43
0.0000000001
 40
0.0
 40
0.0
 40
0.0
 40
17.2264414942178
 40
17.2264414942178
 40
17.2264414942178
 10
1453.775958344188
 20
923.7930884167818
 30
0.0
 10
1445.162737597079
 20
923.7930884167818
 30
0.0
 10
1436.54951684997
 20
923.7930884167818
 30
0.0
  0
SPLINE
  5
E1
330
1F
100
AcDbEntity
  8
MAKE2D VISIBLE LINES
100
AcDbSpline
210
0.0
220
0.0
230
1.0
 70
    24
 71
     2
 72
     6
 73
     3
 74
     0
 42
0.0000000001
 43
0.0000000001
 40
0.0
 40
0.0
 40
0.0
 40
17.2264843362525
 40
17.2264843362525
 40
17.2264843362525
 10
1436.54951684997
 20
955.3059452831567
 30
0.0
 10
1445.162759018096
 20
955.3059452831567
 30
0.0
 10
1453.776001186223
 20
955.3059452831567
 30
0.0
  0
SPLINE
  5
E2
330
1F
100
AcDbEntity
  8
MAKE2D VISIBLE LINES
100
AcDbSpline
210
0.0
220
0.0
230
1.0
 70
    12
 71
     2
 72
     6
 73
     3
 74
     0
 42
0.0000000001
 43
0.0000000001
 40
0.0
 40
0.0
 40
0.0
 40
0.7854672413136188
 40
0.7854672413136188
 40
0.7854672413136188
 10
1436.54951684997
 20
923.7923329613059
 30
0.0
 41
1.0
 10
1436.049479754167
 20
923.7923889836311
 30
0.0
 41
0.7071201631376984
 10
1436.049516849972
 20
924.2924260811972
 30
0.0
 41
1.0
  0
SPLINE
  5
E3
330
1F
100
AcDbEntity
  8
MAKE2D VISIBLE LINES
100
AcDbSpline
210
0.0
220
0.0
230
1.0
 70
    12
 71
     2
 72
     6
 73
     3
 74
     0
 42
0.0000000001
 43
0.0000000001
 40
0.0
 40
0.0
 40
0.0
 40
0.785437890404666
 40
0.785437890404666
 40
0.785437890404666
 10
1436.049516849971
 20
954.8063181475302
 30
0.0
 41
1.0
 10
1436.049493883872
 20
955.3063411139638
 30
0.0
 41
0.7071113033638252
 10
1436.54951684997
 20
955.3063704757017
 30
0.0
 41
1.0
  0
SPLINE
  5
E4
330
1F
100
AcDbEntity
  8
MAKE2D VISIBLE LINES
100
AcDbSpline
210
0.0
220
0.0
230
1.0
 70
    12
 71
     2
 72
     6
 73
     3
 74
     0
 42
0.0000000001
 43
0.0000000001
 40
0.0
 40
0.0
 40
0.0
 40
0.052598320295053
 40
0.052598320295053
 40
0.052598320295053
 10
1454.676561083779
 20
924.7918774747329
 30
0.0
 41
1.0
 10
1454.671702413974
 20
924.7660064173633
 30
0.0
 41
0.9986226559167191
 10
1454.664159477128
 20
924.7407869331214
 30
0.0
 41
1.0
  0
SPLINE
  5
E5
330
1F
100
AcDbEntity
  8
MAKE2D VISIBLE LINES
100
AcDbSpline
210
0.0
220
0.0
230
1.0
 70
    12
 71
     2
 72
     6
 73
     3
 74
     0
 42
0.0000000001
 43
0.0000000001
 40
0.0
 40
0.0
 40
0.0
 40
0.0525881046942428
 40
0.0525881046942428
 40
0.0525881046942428
 10
1454.664162405315
 20
954.3582369799238
 30
0.0
 41
1.0
 10
1454.671703363504
 20
954.3330222498242
 30
0.0
 41
0.998623182796753
 10
1454.676561083279
 20
954.3071562253328
 30
0.0
 41
1.0
  0
SPLINE
  5
E6
330
1F
100
AcDbEntity
  8
MAKE2D VISIBLE LINES
100
AcDbSpline
210
0.0
220
0.0
230
1.0
 70
    12
 71
     2
 72
     6
 73
     3
 74
     0
 42
0.0000000001
 43
0.0000000001
 40
0.0
 40
0.0
 40
0.0
 40
0.6419657630335892
 40
0.6419657630335892
 40
0.6419657630335892
 10
1454.604066158202
 20
924.6111769814489
 30
0.0
 41
1.0
 10
1454.430700320074
 20
924.3410377384657
 30
0.0
 41
0.9999933451837721
 10
1454.255368049292
 20
924.0721706351387
 30
0.0
 41
1.0
  0
SPLINE
  5
E7
330
1F
100
AcDbEntity
  8
MAKE2D VISIBLE LINES
100
AcDbSpline
210
0.0
220
0.0
230
1.0
 70
    12
 71
     2
 72
     6
 73
     3
 74
     0
 42
0.0000000001
 43
0.0000000001
 40
0.0
 40
0.0
 40
0.0
 40
0.6375740919392461
 40
0.6375740919392461
 40
0.6375740919392461
 10
1454.25777464547
 20
955.0231679901558
 30
0.0
 41
1.0
 10
1454.431894734659
 20
954.7561319179781
 30
0.0
 41
0.9999934419463796
 10
1454.604076067588
 20
954.4878416686317
 30
0.0
 41
1.0
  0
SPLINE
  5
E8
330
1F
100
AcDbEntity
  8
MAKE2D VISIBLE LINES
100
AcDbSpline
210
0.0
220
0.0
230
1.0
 70
    12
 71
     2
 72
     6
 73
     3
 74
     0
 42
0.0000000001
 43
0.0000000001
 40
0.0
 40
0.0
 40
0.0
 40
0.579129683116128
 40
0.579129683116128
 40
0.579129683116128
 10
1454.255380730106
 20
924.0721624725536
 30
0.0
 41
1.0
 10
1454.093566113253
 20
923.799416107918
 30
0.0
 41
0.8745566534148693
 10
1453.77651350556
 20
923.792191593803
 30
0.0
 41
1.0
  0
SPLINE
  5
E9
330
1F
100
AcDbEntity
  8
MAKE2D VISIBLE LINES
100
AcDbSpline
210
0.0
220
0.0
230
1.0
 70
    12
 71
     2
 72
     6
 73
     3
 74
     0
 42
0.0000000001
 43
0.0000000001
 40
0.0
 40
0.0
 40
0.0
 40
0.5832696667897512
 40
0.5832696667897512
 40
0.5832696667897512
 10
1453.776521568789
 20
955.3064839038674
 30
0.0
 41
1.0
 10
1454.096120907668
 20
955.2989716036763
 30
0.0
 41
0.8734251415046711
 10
1454.257757719464
 20
955.0231569682088
 30
0.0
 41
1.0
  0
SPLINE
  5
EA
330
1F
100
AcDbEntity
  8
MAKE2D VISIBLE LINES
100
AcDbSpline
210
0.0
220
0.0
230
1.0
 70
    12
 71
     2
 72
     6
 73
     3
 74
     0
 42
0.0000000001
 43
0.0000000001
 40
0.0
 40
0.0
 40
0.0
 40
2.488662296071513
 40
2.488662296071513
 40
2.488662296071513
 10
1592.587226758553
 20
957.6306493970872
 30
0.0
 41
1.0
 10
1594.021352937428
 20
957.6045665535684
 30
0.0
 41
0.8126210046803207
 10
1594.456580395034
 20
956.2378276348986
 30
0.0
 41
1.0
  0
SPLINE
  5
EB
330
1F
100
AcDbEntity
  8
MAKE2D VISIBLE LINES
100
AcDbSpline
210
0.0
220
0.0
230
1.0
 70
    12
 71
     2
 72
     6
 73
     3
 74
     0
 42
0.0000000001
 43
0.0000000001
 40
0.0
 40
0.0
 40
0.0
 40
2.488662942426401
 40
2.488662942426401
 40
2.488662942426401
 10
1594.456580395037
 20
922.8612060650527
 30
0.0
 41
1.0
 10
1594.021356933385
 20
921.494463040404
 30
0.0
 41
0.8126191292903953
 10
1592.58722797907
 20
921.4683843250455
 30
0.0
 41
1.0
  0
SPLINE
  5
EC
330
1F
100
AcDbEntity
  8
MAKE2D VISIBLE LINES
100
AcDbSpline
210
0.0
220
0.0
230
1.0
 70
    12
 71
     2
 72
     6
 73
     3
 74
     0
 42
0.0000000001
 43
0.0000000001
 40
0.0
 40
0.0
 40
0.0
 40
5.711325383354809
 40
5.711325383354809
 40
5.711325383354809
 10
1549.802874831204
 20
911.8657122670478
 30
0.0
 41
1.0
 10
1546.990860548836
 20
911.3621338785186
 30
0.0
 41
0.9994296456902785
 10
1544.151267970075
 20
911.0495166936419
 30
0.0
 41
1.0
  0
SPLINE
  5
ED
330
1F
100
AcDbEntity
  8
MAKE2D VISIBLE LINES
100
AcDbSpline
210
0.0
220
0.0
230
1.0
 70
    12
 71
     2
 72
     6
 73
     3
 74
     0
 42
0.0000000001
 43
0.0000000001
 40
0.0
 40
0.0
 40
0.0
 40
0.1380113855078969
 40
0.1380113855078969
 40
0.1380113855078969
 10
1544.449519977903
 20
958.5495168499701
 30
0.0
 41
1.0
 10
1544.521307427546
 20
958.5490429292362
 30
0.0
 41
0.942845569572617
 10
1544.576854202894
 20
958.503565261357
 30
0.0
 41
1.0
  0
SPLINE
  5
EE
330
1F
100
AcDbEntity
  8
MAKE2D VISIBLE LINES
100
AcDbSpline
210
0.0
220
0.0
230
1.0
 70
    12
 71
     2
 72
     6
 73
     3
 74
     0
 42
0.0000000001
 43
0.0000000001
 40
0.0
 40
0.0
 40
0.0
 40
5.711329905408829
 40
5.711329905408829
 40
5.711329905408829
 10
1525.947765768822
 20
911.0495170477761
 30
0.0
 41
1.0
 10
1523.108171382273
 20
911.3621387905476
 30
0.0
 41
0.999429627944132
 10
1520.296156133172
 20
911.8657248040481
 30
0.0
 41
1.0
  0
SPLINE
  5
EF
330
1F
100
AcDbEntity
  8
MAKE2D VISIBLE LINES
100
AcDbSpline
210
0.0
220
0.0
230
1.0
 70
    24
 71
     2
 72
     6
 73
     3
 74
     0
 42
0.0000000001
 43
0.0000000001
 40
0.0
 40
0.0
 40
0.0
 40
2.90000020386185
 40
2.90000020386185
 40
2.90000020386185
 10
1564.049516849971
 20
918.0495168499706
 30
0.0
 10
1564.049516849971
 20
919.4995169519015
 30
0.0
 10
1564.049516849971
 20
920.9495170538323
 30
0.0
  0
SPLINE
  5
F0
330
1F
100
AcDbEntity
  8
MAKE2D VISIBLE LINES
100
AcDbSpline
210
0.0
220
0.0
230
1.0
 70
    24
 71
     2
 72
     6
 73
     3
 74
     0
 42
0.0000000001
 43
0.0000000001
 40
0.0
 40
0.0
 40
0.0
 40
3.577939079947782
 40
3.577939079947782
 40
3.577939079947782
 10
1528.049516849971
 20
958.7715777700228
 30
0.0
 10
1528.049516849971
 20
960.5605473099967
 30
0.0
 10
1528.049516849971
 20
962.3495168499705
 30
0.0
  0
SPLINE
  5
F1
330
1F
100
AcDbEntity
  8
MAKE2D VISIBLE LINES
100
AcDbSpline
210
0.0
220
0.0
230
1.0
 70
    12
 71
     2
 72
     6
 73
     3
 74
     0
 42
0.0000000001
 43
0.0000000001
 40
0.0
 40
0.0
 40
0.0
 40
0.2844231031296935
 40
0.2844231031296935
 40
0.2844231031296935
 10
1542.219957428865
 20
962.5472287512748
 30
0.0
 41
1.0
 10
1542.049535074625
 20
962.5218225483894
 30
0.0
 41
0.7574765131062066
 10
1542.049518887443
 20
962.3495168499705
 30
0.0
 41
1.0
  0
SPLINE
  5
F2
330
1F
100
AcDbEntity
  8
MAKE2D VISIBLE LINES
100
AcDbSpline
210
0.0
220
0.0
230
1.0
 70
    12
 71
     2
 72
     6
 73
     3
 74
     0
 42
0.0000000001
 43
0.0000000001
 40
0.0
 40
0.0
 40
0.0
 40
0.2755056841048618
 40
0.2755056841048618
 40
0.2755056841048618
 10
1528.049218123274
 20
962.3495168499705
 30
0.0
 41
1.0
 10
1528.048871786623
 20
962.5140055988908
 30
0.0
 41
0.7731072096464555
 10
1527.8874857694
 20
962.5458053145388
 30
0.0
 41
1.0
  0
SPLINE
  5
F3
330
1F
100
AcDbEntity
  8
MAKE2D VISIBLE LINES
100
AcDbSpline
210
0.0
220
0.0
230
1.0
 70
    24
 71
     2
 72
     6
 73
     3
 74
     0
 42
0.0000000001
 43
0.0000000001
 40
0.0
 40
0.0
 40
0.0
 40
9.999999999999943
 40
9.999999999999943
 40
9.999999999999943
 10
1426.04951684997
 20
951.5495168499705
 30
0.0
 10
1431.04951684997
 20
951.5495168499705
 30
0.0
 10
1436.04951684997
 20
951.5495168499705
 30
0.0
  0
SPLINE
  5
F4
330
1F
100
AcDbEntity
  8
MAKE2D VISIBLE LINES
100
AcDbSpline
210
0.0
220
0.0
230
1.0
 70
    24
 71
     2
 72
     6
 73
     3
 74
     0
 42
0.0000000001
 43
0.0000000001
 40
0.0
 40
0.0
 40
0.0
 40
8.531625054015592
 40
8.531625054015592
 40
8.531625054015592
 10
1402.04951684997
 20
972.5495168499705
 30
0.0
 10
1406.315329376978
 20
972.5495168499705
 30
0.0
 10
1410.581141903986
 20
972.5495168499705
 30
0.0
  0
SPLINE
  5
F5
330
1F
100
AcDbEntity
  8
MAKE2D VISIBLE LINES
100
AcDbSpline
210
0.0
220
0.0
230
1.0
 70
     8
 71
     3
 72
    17
 73
    13
 74
     0
 42
0.0000000001
 43
0.0000000001
 40
0.0
 40
0.0
 40
0.0
 40
0.0
 40
1.310645054095147
 40
2.019911843320548
 40
4.288618888294944
 40
5.807517491321809
 40
8.52010605582657
 40
11.39385089009589
 40
12.92738032149489
 40
14.89744236804601
 40
15.48279318725039
 40
16.58805640947668
 40
16.58805640947668
 40
16.58805640947668
 40
16.58805640947668
 10
1527.160915338961
 20
958.8202730396756
 30
0.0
 10
1527.597796507359
 20
958.811822905712
 30
0.0
 10
1528.269530944721
 20
958.758387884881
 30
0.0
 10
1529.689403540329
 20
958.594467803951
 30
0.0
 10
1531.176216345468
 20
958.400724797006
 30
0.0
 10
1533.331435894959
 20
958.1805945891965
 30
0.0
 10
1535.69700191217
 20
958.0303664941769
 30
0.0
 10
1538.071657862632
 20
958.0944030064763
 30
0.0
 10
1540.191813160104
 20
958.245788286295
 30
0.0
 10
1541.547911609845
 20
958.386968574252
 30
0.0
 10
1542.76297095095
 20
958.4957624726818
 30
0.0
 10
1543.326329961867
 20
958.5256148497851
 30
0.0
 10
1543.694785406183
 20
958.5196880787612
 30
0.0
  0
SPLINE
  5
F6
330
1F
100
AcDbEntity
  8
MAKE2D VISIBLE LINES
100
AcDbSpline
210
0.0
220
0.0
230
1.0
 70
    12
 71
     2
 72
     6
 73
     3
 74
     0
 42
0.0000000001
 43
0.0000000001
 40
0.0
 40
0.0
 40
0.0
 40
0.0127173936667578
 40
0.0127173936667578
 40
0.0127173936667578
 10
1592.5484467085
 20
921.467719409241
 30
0.0
 41
1.0
 10
1592.542089902955
 20
921.4675634824757
 30
0.0
 41
0.9999950941341702
 10
1592.535732245317
 20
921.4674473822395
 30
0.0
 41
1.0
  0
SPLINE
  5
F7
330
1F
100
AcDbEntity
  8
MAKE2D VISIBLE LINES
100
AcDbSpline
210
0.0
220
0.0
230
1.0
 70
    12
 71
     2
 72
     6
 73
     3
 74
     0
 42
0.0000000001
 43
0.0000000001
 40
0.0
 40
0.0
 40
0.0
 40
0.0127173936572072
 40
0.0127173936572072
 40
0.0127173936572072
 10
1592.535732245317
 20
957.6315863177017
 30
0.0
 41
1.0
 10
1592.54208990295
 20
957.631470217465
 30
0.0
 41
0.9999950941343309
 10
1592.548446708491
 20
957.6313142907003
 30
0.0
 41
1.0
  0
SPLINE
  5
F8
330
1F
100
AcDbEntity
  8
MAKE2D VISIBLE LINES
100
AcDbSpline
210
0.0
220
0.0
230
1.0
 70
    12
 71
     2
 72
     6
 73
     3
 74
     0
 42
0.0000000001
 43
0.0000000001
 40
0.0
 40
0.0
 40
0.0
 40
1.458802986369627
 40
1.458802986369627
 40
1.458802986369627
 10
1500.026601465541
 20
919.7854535176228
 30
0.0
 41
1.0
 10
1499.292102505401
 20
919.7720540167369
 30
0.0
 41
0.9893760951433952
 10
1498.592505342699
 20
919.5479288753268
 30
0.0
 41
1.0
  0
SPLINE
  5
F9
330
1F
100
AcDbEntity
  8
MAKE2D VISIBLE LINES
100
AcDbSpline
210
0.0
220
0.0
230
1.0
 70
    12
 71
     2
 72
     6
 73
     3
 74
     0
 42
0.0000000001
 43
0.0000000001
 40
0.0
 40
0.0
 40
0.0
 40
1.458802682475202
 40
1.458802682475202
 40
1.458802682475202
 10
1498.592505342719
 20
959.5511048246082
 30
0.0
 41
1.0
 10
1499.292103024357
 20
959.3269828164274
 30
0.0
 41
0.9893767169575667
 10
1500.026601465541
 20
959.3135801823182
 30
0.0
 41
1.0
  0
SPLINE
  5
FA
330
1F
100
AcDbEntity
  8
MAKE2D VISIBLE LINES
100
AcDbSpline
210
0.0
220
0.0
230
1.0
 70
    24
 71
     2
 72
     6
 73
     3
 74
     0
 42
0.0000000001
 43
0.0000000001
 40
0.0
 40
0.0
 40
0.0
 40
8.326692111954799
 40
8.326692111954799
 40
8.326692111954799
 10
1526.049516849971
 20
962.7495168499705
 30
0.0
 10
1526.049516849971
 20
966.9128629059479
 30
0.0
 10
1526.049516849971
 20
971.0762089619253
 30
0.0
  0
SPLINE
  5
FB
330
1F
100
AcDbEntity
  8
MAKE2D VISIBLE LINES
100
AcDbSpline
210
0.0
220
0.0
230
1.0
 70
    12
 71
     2
 72
     6
 73
     3
 74
     0
 42
0.0000000001
 43
0.0000000001
 40
0.0
 40
0.0
 40
0.0
 40
0.3141626210003148
 40
0.3141626210003148
 40
0.3141626210003148
 10
1526.249141307824
 20
962.5495168499705
 30
0.0
 41
1.0
 10
1526.049144840177
 20
962.5495203826565
 30
0.0
 41
0.707134358418294
 10
1526.049132772796
 20
962.7495168499705
 30
0.0
 41
1.0
  0
SPLINE
  5
FC
330
1F
100
AcDbEntity
  8
MAKE2D VISIBLE LINES
100
AcDbSpline
210
0.0
220
0.0
230
1.0
 70
    12
 71
     2
 72
     6
 73
     3
 74
     0
 42
0.0000000001
 43
0.0000000001
 40
0.0
 40
0.0
 40
0.0
 40
7.291642224003933
 40
7.291642224003933
 40
7.291642224003933
 10
1527.780012749586
 20
973.0579680793269
 30
0.0
 41
1.0
 10
1531.398146033658
 20
973.5495170361061
 30
0.0
 41
0.9977217143590084
 10
1535.049516849971
 20
973.5495168499705
 30
0.0
 41
1.0
  0
SPLINE
  5
FD
330
1F
100
AcDbEntity
  8
MAKE2D VISIBLE LINES
100
AcDbSpline
210
0.0
220
0.0
230
1.0
 70
    12
 71
     2
 72
     6
 73
     3
 74
     0
 42
0.0000000001
 43
0.0000000001
 40
0.0
 40
0.0
 40
0.0
 40
7.291366285008285
 40
7.291366285008285
 40
7.291366285008285
 10
1535.049516849971
 20
973.5495168499705
 30
0.0
 41
1.0
 10
1538.700748961014
 20
973.5495143624746
 30
0.0
 41
0.9977219297253798
 10
1542.318747580753
 20
973.0580045291135
 30
0.0
 41
1.0
  0
SPLINE
  5
FE
330
1F
100
AcDbEntity
  8
MAKE2D VISIBLE LINES
100
AcDbSpline
210
0.0
220
0.0
230
1.0
 70
    12
 71
     2
 72
     6
 73
     3
 74
     0
 42
0.0000000001
 43
0.0000000001
 40
0.0
 40
0.0
 40
0.0
 40
2.871541346717853
 40
2.871541346717853
 40
2.871541346717853
 10
1542.318748028345
 20
973.0580048123788
 30
0.0
 41
1.0
 10
1544.049515421211
 20
972.8228748860339
 30
0.0
 41
0.7531990192413448
 10
1544.04951735649
 20
971.0762089619175
 30
0.0
 41
1.0
  0
SPLINE
  5
FF
330
1F
100
AcDbEntity
  8
MAKE2D VISIBLE LINES
100
AcDbSpline
210
0.0
220
0.0
230
1.0
 70
    12
 71
     2
 72
     6
 73
     3
 74
     0
 42
0.0000000001
 43
0.0000000001
 40
0.0
 40
0.0
 40
0.0
 40
2.871577509714808
 40
2.871577509714808
 40
2.871577509714808
 10
1526.049172155873
 20
971.0762089619225
 30
0.0
 41
1.0
 10
1526.049235040767
 20
972.8228794615875
 30
0.0
 41
0.7532095093358252
 10
1527.780007673948
 20
973.0580048123807
 30
0.0
 41
1.0
  0
SPLINE
  5
100
330
1F
100
AcDbEntity
  8
MAKE2D VISIBLE LINES
100
AcDbSpline
210
0.0
220
0.0
230
1.0
 70
    12
 71
     2
 72
     6
 73
     3
 74
     0
 42
0.0000000001
 43
0.0000000001
 40
0.0
 40
0.0
 40
0.0
 40
6.421505729410261
 40
6.421505729410261
 40
6.421505729410261
 10
1487.049516849865
 20
916.5495168499706
 30
0.0
 41
1.0
 10
1483.817738398425
 20
916.5495600591697
 30
0.0
 41
0.9902696782176765
 10
1480.711144868989
 20
917.4403286059471
 30
0.0
 41
1.0
  0
SPLINE
  5
101
330
1F
100
AcDbEntity
  8
MAKE2D VISIBLE LINES
100
AcDbSpline
210
0.0
220
0.0
230
1.0
 70
    12
 71
     2
 72
     6
 73
     3
 74
     0
 42
0.0000000001
 43
0.0000000001
 40
0.0
 40
0.0
 40
0.0
 40
4.676909203958099
 40
4.676909203958099
 40
4.676909203958099
 10
1482.404793445289
 20
962.0753862649807
 30
0.0
 41
1.0
 10
1484.70297564641
 20
962.549321101193
 30
0.0
 41
0.9948387332610904
 10
1487.049516850013
 20
962.5495168499705
 30
0.0
 41
1.0
  0
SPLINE
  5
102
330
1F
100
AcDbEntity
  8
MAKE2D VISIBLE LINES
100
AcDbSpline
210
0.0
220
0.0
230
1.0
 70
    12
 71
     2
 72
     6
 73
     3
 74
     0
 42
0.0000000001
 43
0.0000000001
 40
0.0
 40
0.0
 40
0.0
 40
9.05406365182878
 40
9.05406365182878
 40
9.05406365182878
 10
1467.961582509227
 20
952.3803133777337
 30
0.0
 41
1.0
 10
1470.518320474143
 20
956.1884074763399
 30
0.0
 41
0.9805769159453962
 10
1474.343134931308
 20
958.7200638616636
 30
0.0
 41
1.0
  0
SPLINE
  5
103
330
1F
100
AcDbEntity
  8
MAKE2D VISIBLE LINES
100
AcDbSpline
210
0.0
220
0.0
230
1.0
 70
    12
 71
     2
 72
     6
 73
     3
 74
     0
 42
0.0000000001
 43
0.0000000001
 40
0.0
 40
0.0
 40
0.0
 40
10.72553951671587
 40
10.72553951671587
 40
10.72553951671587
 10
1467.754723880196
 20
927.0325985602599
 30
0.0
 41
1.0
 10
1464.780179873235
 20
931.6140208402962
 30
0.0
 41
0.9728757428400681
 10
1464.186120280014
 20
937.0439780553268
 30
0.0
 41
1.0
  0
SPLINE
  5
104
330
1F
100
AcDbEntity
  8
MAKE2D VISIBLE LINES
100
AcDbSpline
210
0.0
220
0.0
230
1.0
 70
    12
 71
     2
 72
     6
 73
     3
 74
     0
 42
0.0000000001
 43
0.0000000001
 40
0.0
 40
0.0
 40
0.0
 40
6.32506474134681
 40
6.32506474134681
 40
6.32506474134681
 10
1487.049516850013
 20
962.5495168499705
 30
0.0
 41
1.0
 10
1490.232117022374
 20
962.5492925506755
 30
0.0
 41
0.9905685675795434
 10
1493.295156591386
 20
961.6851556945655
 30
0.0
 41
1.0
  0
SPLINE
  5
105
330
1F
100
AcDbEntity
  8
MAKE2D VISIBLE LINES
100
AcDbSpline
210
0.0
220
0.0
230
1.0
 70
    12
 71
     2
 72
     6
 73
     3
 74
     0
 42
0.0000000001
 43
0.0000000001
 40
0.0
 40
0.0
 40
0.0
 40
8.00264062265802
 40
8.00264062265802
 40
8.00264062265802
 10
1506.574229412811
 20
951.7045345905543
 30
0.0
 41
1.0
 10
1508.712614770832
 20
948.2740347375543
 30
0.0
 41
0.9848251167854316
 10
1509.549530818097
 20
944.3192158149407
 30
0.0
 41
1.0
  0
SPLINE
  5
106
330
1F
100
AcDbEntity
  8
MAKE2D VISIBLE LINES
100
AcDbSpline
210
0.0
220
0.0
230
1.0
 70
    12
 71
     2
 72
     6
 73
     3
 74
     0
 42
0.0000000001
 43
0.0000000001
 40
0.0
 40
0.0
 40
0.0
 40
1.818202880105807
 40
1.818202880105807
 40
1.818202880105807
 10
1512.14136765387
 20
936.1411046177127
 30
0.0
 41
1.0
 10
1511.352261430351
 20
935.6592494112465
 30
0.0
 41
0.9750552195986074
 10
1510.432337876541
 20
935.5664392440167
 30
0.0
 41
1.0
  0
SPLINE
  5
107
330
1F
100
AcDbEntity
  8
MAKE2D VISIBLE LINES
100
AcDbSpline
210
0.0
220
0.0
230
1.0
 70
    12
 71
     2
 72
     6
 73
     3
 74
     0
 42
0.0000000001
 43
0.0000000001
 40
0.0
 40
0.0
 40
0.0
 40
0.2526621310210581
 40
0.2526621310210581
 40
0.2526621310210581
 10
1513.977496260818
 20
938.7930836698997
 30
0.0
 41
1.0
 10
1513.953427513189
 20
938.6690237509612
 30
0.0
 41
0.9995007802907105
 10
1513.921571594465
 20
938.5467316067255
 30
0.0
 41
1.0
  0
SPLINE
  5
108
330
1F
100
AcDbEntity
  8
MAKE2D VISIBLE LINES
100
AcDbSpline
210
0.0
220
0.0
230
1.0
 70
    12
 71
     2
 72
     6
 73
     3
 74
     0
 42
0.0000000001
 43
0.0000000001
 40
0.0
 40
0.0
 40
0.0
 40
1.50096337528929
 40
1.50096337528929
 40
1.50096337528929
 10
1513.914978247646
 20
938.5217451598447
 30
0.0
 41
1.0
 10
1513.718695537899
 20
937.7883627698739
 30
0.0
 41
0.9828735459916923
 10
1513.270076123371
 20
937.1758946050086
 30
0.0
 41
1.0
  0
SPLINE
  5
109
330
1F
100
AcDbEntity
  8
MAKE2D VISIBLE LINES
100
AcDbSpline
210
0.0
220
0.0
230
1.0
 70
    12
 71
     2
 72
     6
 73
     3
 74
     0
 42
0.0000000001
 43
0.0000000001
 40
0.0
 40
0.0
 40
0.0
 40
0.2352075912184144
 40
0.2352075912184144
 40
0.2352075912184144
 10
1513.254792892056
 20
937.1551879498388
 30
0.0
 41
1.0
 10
1513.184634964882
 20
937.0607601729404
 30
0.0
 41
0.9995617101655492
 10
1513.109011608865
 20
936.970649974737
 30
0.0
 41
1.0
  0
SPLINE
  5
10A
330
1F
100
AcDbEntity
  8
MAKE2D VISIBLE LINES
100
AcDbSpline
210
0.0
220
0.0
230
1.0
 70
    12
 71
     2
 72
     6
 73
     3
 74
     0
 42
0.0000000001
 43
0.0000000001
 40
0.0
 40
0.0
 40
0.0
 40
2.912033179624959
 40
2.912033179624959
 40
2.912033179624959
 10
1513.035780650957
 20
942.2112138575721
 30
0.0
 41
1.0
 10
1514.049425145405
 20
941.0733766450231
 30
0.0
 41
0.9345376035079576
 10
1514.049516849971
 20
939.5495168499706
 30
0.0
 41
1.0
  0
SPLINE
  5
10B
330
1F
100
AcDbEntity
  8
MAKE2D VISIBLE LINES
100
AcDbSpline
210
0.0
220
0.0
230
1.0
 70
    12
 71
     2
 72
     6
 73
     3
 74
     0
 42
0.0000000001
 43
0.0000000001
 40
0.0
 40
0.0
 40
0.0
 40
2.219590166339959
 40
2.219590166339959
 40
2.219590166339959
 10
1484.858306127423
 20
931.855528152289
 30
0.0
 41
1.0
 10
1485.932544867107
 20
931.5495256348865
 30
0.0
 41
0.9903898321080408
 10
1487.049516849932
 20
931.5495168499706
 30
0.0
 41
1.0
  0
SPLINE
  5
10C
330
1F
100
AcDbEntity
  8
MAKE2D VISIBLE LINES
100
AcDbSpline
210
0.0
220
0.0
230
1.0
 70
    12
 71
     2
 72
     6
 73
     3
 74
     0
 42
0.0000000001
 43
0.0000000001
 40
0.0
 40
0.0
 40
0.0
 40
1.613650489791723
 40
1.613650489791723
 40
1.613650489791723
 10
1487.049516850009
 20
947.5495168499706
 30
0.0
 41
1.0
 10
1486.239946140092
 20
947.5494527774083
 30
0.0
 41
0.9949208591520817
 10
1485.446794188346
 20
947.3872346529472
 30
0.0
 41
1.0
  0
SPLINE
  5
10D
330
1F
100
AcDbEntity
  8
MAKE2D VISIBLE LINES
100
AcDbSpline
210
0.0
220
0.0
230
1.0
 70
    12
 71
     2
 72
     6
 73
     3
 74
     0
 42
0.0000000001
 43
0.0000000001
 40
0.0
 40
0.0
 40
0.0
 40
3.194696541363656
 40
3.194696541363656
 40
3.194696541363656
 10
1482.625674979136
 20
946.2147281295433
 30
0.0
 41
1.0
 10
1481.276162483355
 20
945.3202302775703
 30
0.0
 41
0.9800182500717496
 10
1480.382169254278
 20
943.9703834381776
 30
0.0
 41
1.0
  0
SPLINE
  5
10E
330
1F
100
AcDbEntity
  8
MAKE2D VISIBLE LINES
100
AcDbSpline
210
0.0
220
0.0
230
1.0
 70
    12
 71
     2
 72
     6
 73
     3
 74
     0
 42
0.0000000001
 43
0.0000000001
 40
0.0
 40
0.0
 40
0.0
 40
3.803034403638491
 40
3.803034403638491
 40
3.803034403638491
 10
1479.096181450594
 20
938.6857870446792
 30
0.0
 41
1.0
 10
1479.305231195264
 20
936.7588747828436
 30
0.0
 41
0.9718368231075449
 10
1480.37365780925
 20
935.1417300054393
 30
0.0
 41
1.0
  0
SPLINE
  5
10F
330
1F
100
AcDbEntity
  8
MAKE2D VISIBLE LINES
100
AcDbSpline
210
0.0
220
0.0
230
1.0
 70
    12
 71
     2
 72
     6
 73
     3
 74
     0
 42
0.0000000001
 43
0.0000000001
 40
0.0
 40
0.0
 40
0.0
 40
2.164972190967775
 40
2.164972190967775
 40
2.164972190967775
 10
1484.91224789393
 20
947.0509172368793
 30
0.0
 41
1.0
 10
1485.960024823035
 20
947.3495078991392
 30
0.0
 41
0.9903821676447897
 10
1487.049516849933
 20
947.3495168499705
 30
0.0
 41
1.0
  0
SPLINE
  5
110
330
1F
100
AcDbEntity
  8
MAKE2D VISIBLE LINES
100
AcDbSpline
210
0.0
220
0.0
230
1.0
 70
    12
 71
     2
 72
     6
 73
     3
 74
     0
 42
0.0000000001
 43
0.0000000001
 40
0.0
 40
0.0
 40
0.0
 40
1.573821091498
 40
1.573821091498
 40
1.573821091498
 10
1487.049516850008
 20
931.7495168499705
 30
0.0
 41
1.0
 10
1486.259926868443
 20
931.7495794826226
 30
0.0
 41
0.994917581410243
 10
1485.486360751504
 20
931.9078444681179
 30
0.0
 41
1.0
  0
SPLINE
  5
111
330
1F
100
AcDbEntity
  8
MAKE2D VISIBLE LINES
100
AcDbSpline
210
0.0
220
0.0
230
1.0
 70
    12
 71
     2
 72
     6
 73
     3
 74
     0
 42
0.0000000001
 43
0.0000000001
 40
0.0
 40
0.0
 40
0.0
 40
3.117320204279492
 40
3.117320204279492
 40
3.117320204279492
 10
1482.736546331819
 20
933.0507532032468
 30
0.0
 41
1.0
 10
1481.419712326831
 20
933.9236161515098
 30
0.0
 41
0.9799974559045846
 10
1480.547652423374
 20
935.2409821021581
 30
0.0
 41
1.0
  0
SPLINE
  5
112
330
1F
100
AcDbEntity
  8
MAKE2D VISIBLE LINES
100
AcDbSpline
210
0.0
220
0.0
230
1.0
 70
    12
 71
     2
 72
     6
 73
     3
 74
     0
 42
0.0000000001
 43
0.0000000001
 40
0.0
 40
0.0
 40
0.0
 40
3.707802407866049
 40
3.707802407866049
 40
3.707802407866049
 10
1479.295228029486
 20
940.3936075966892
 30
0.0
 41
1.0
 10
1479.499375133094
 20
942.2722518740487
 30
0.0
 41
0.9718216002335498
 10
1480.541538788118
 20
943.8486005908353
 30
0.0
 41
1.0
  0
SPLINE
  5
113
330
1F
100
AcDbEntity
  8
MAKE2D VISIBLE LINES
100
AcDbSpline
210
0.0
220
0.0
230
1.0
 70
    24
 71
     2
 72
     6
 73
     3
 74
     0
 42
0.0000000001
 43
0.0000000001
 40
0.0
 40
0.0
 40
0.0
 40
0.9051202668435963
 40
0.9051202668435963
 40
0.9051202668435963
 10
1455.144396583127
 20
951.5495168499705
 30
0.0
 10
1455.596956716548
 20
951.5495168499705
 30
0.0
 10
1456.04951684997
 20
951.5495168499705
 30
0.0
  0
SPLINE
  5
114
330
1F
100
AcDbEntity
  8
MAKE2D VISIBLE LINES
100
AcDbSpline
210
0.0
220
0.0
230
1.0
 70
    24
 71
     2
 72
     6
 73
     3
 74
     0
 42
0.0000000001
 43
0.0000000001
 40
0.0
 40
0.0
 40
0.0
 40
22.6003241472419
 40
22.6003241472419
 40
22.6003241472419
 10
1411.349363183143
 20
972.1897012501635
 30
0.0
 10
1418.583550656355
 20
963.5086762823087
 30
0.0
 10
1425.817738129568
 20
954.8276513144539
 30
0.0
  0
SPLINE
  5
115
330
1F
100
AcDbEntity
  8
MAKE2D VISIBLE LINES
100
AcDbSpline
210
0.0
220
0.0
230
1.0
 70
     8
 71
     3
 72
    18
 73
    14
 74
     0
 42
0.0000000001
 43
0.0000000001
 40
0.0
 40
0.0
 40
0.0
 40
0.0
 40
0.2796437518938054
 40
0.5189059277696115
 40
1.003758941395972
 40
1.483872075576099
 40
1.720249298839892
 40
2.018766682259101
 40
2.419905110271406
 40
3.026729429154099
 40
4.845805835047389
 40
7.492860341054049
 40
11.68829408211842
 40
11.68829408211842
 40
11.68829408211842
 40
11.68829408211842
 10
1546.049516849963
 20
898.1963494911181
 30
0.0
 10
1546.140304861517
 20
898.1757274984877
 30
0.0
 10
1546.307059183854
 20
898.1229155637665
 30
0.0
 10
1546.576151636763
 20
897.9139040830798
 30
0.0
 10
1546.715006733048
 20
897.5030322662867
 30
0.0
 10
1546.522070833725
 20
897.1163198389996
 30
0.0
 10
1546.226220885527
 20
896.9411753778516
 30
0.0
 10
1545.920478514932
 20
896.8711433303661
 30
0.0
 10
1545.488985752525
 20
896.8144740666462
 30
0.0
 10
1544.549979850828
 20
896.7314777562182
 30
0.0
 10
1542.861879990978
 20
896.6329914462665
 30
0.0
 10
1539.977468665821
 20
896.5042856436412
 30
0.0
 10
1537.698206566544
 20
896.4205821337925
 30
0.0
 10
1536.300650182845
 20
896.3694791998503
 30
0.0
  0
SPLINE
  5
116
330
1F
100
AcDbEntity
  8
MAKE2D VISIBLE LINES
100
AcDbSpline
210
0.0
220
0.0
230
1.0
 70
     8
 71
     3
 72
    18
 73
    14
 74
     0
 42
0.0000000001
 43
0.0000000001
 40
0.0
 40
0.0
 40
0.0
 40
0.0
 40
0.2780419421495923
 40
0.5179802089640891
 40
1.005705181758933
 40
1.483623126363082
 40
1.716984101329713
 40
2.021896859590563
 40
2.420990679526818
 40
3.015389041869202
 40
4.862266823596921
 40
7.636880897709859
 40
11.72398382332553
 40
11.72398382332553
 40
11.72398382332553
 40
11.72398382332553
 10
1524.049516849971
 20
890.6526621274312
 30
0.0
 10
1523.959173156684
 20
890.6731112437417
 30
0.0
 10
1523.792928732455
 20
890.7257575474646
 30
0.0
 10
1523.522547560501
 20
890.9345474222587
 30
0.0
 10
1523.384112825983
 20
891.3464943442273
 30
0.0
 10
1523.576983752097
 20
891.7316826341726
 30
0.0
 10
1523.872506682538
 20
891.9081630333416
 30
0.0
 10
1524.178865200071
 20
891.9777646518768
 30
0.0
 10
1524.607648324278
 20
892.0341258859712
 30
0.0
 10
1525.551078557999
 20
892.117919609452
 30
0.0
 10
1527.286742694984
 20
892.2187845152558
 30
0.0
 10
1530.18688381476
 20
892.3472019119167
 30
0.0
 10
1532.472532771047
 20
892.4311085104036
 30
0.0
 10
1533.834009955615
 20
892.4808515932086
 30
0.0
  0
SPLINE
  5
117
330
1F
100
AcDbEntity
  8
MAKE2D VISIBLE LINES
100
AcDbSpline
210
0.0
220
0.0
230
1.0
 70
     8
 71
     3
 72
    17
 73
    13
 74
     0
 42
0.0000000001
 43
0.0000000001
 40
0.0
 40
0.0
 40
0.0
 40
0.0
 40
0.5091963496899536
 40
0.9945395858847547
 40
1.469094172536306
 40
1.704632679318754
 40
1.996491710668374
 40
2.373837818685958
 40
2.934425209791148
 40
4.712091051717547
 40
7.288290168788579
 40
11.18462224639638
 40
11.18462224639638
 40
11.18462224639638
 40
11.18462224639638
 10
1524.049516849972
 20
895.6526573303004
 30
0.0
 10
1523.885528697704
 20
895.6859888943061
 30
0.0
 10
1523.561777732965
 20
895.832721784705
 30
0.0
 10
1523.383559381703
 20
896.3349049483804
 30
0.0
 10
1523.568537003912
 20
896.7208208552884
 30
0.0
 10
1523.856049418835
 20
896.9017724733014
 30
0.0
 10
1524.150969818658
 20
896.9729426431311
 30
0.0
 10
1524.556823536342
 20
897.0284341770658
 30
0.0
 10
1525.45857948068
 20
897.111436801212
 30
0.0
 10
1527.09381547279
 20
897.2088006345591
 30
0.0
 10
1529.841157497979
 20
897.3331255617646
 30
0.0
 10
1531.997142691588
 20
897.4134467616105
 30
0.0
 10
1533.295055421074
 20
897.4611792908042
 30
0.0
  0
SPLINE
  5
118
330
1F
100
AcDbEntity
  8
MAKE2D VISIBLE LINES
100
AcDbSpline
210
0.0
220
0.0
230
1.0
 70
     8
 71
     3
 72
    13
 73
     9
 74
     0
 42
0.0000000001
 43
0.0000000001
 40
0.0
 40
0.0
 40
0.0
 40
0.0
 40
0.0481793327379418
 40
0.1910898177624132
 40
0.7038132580244322
 40
2.662415892636035
 40
6.036846062902332
 40
11.58381494573171
 40
11.58381494573171
 40
11.58381494573171
 40
11.58381494573171
 10
1524.04951684997
 20
893.1991243394865
 30
0.0
 10
1524.053664703491
 20
893.2163801384072
 30
0.0
 10
1524.111896049864
 20
893.2456317835481
 30
0.0
 10
1524.341034578536
 20
893.2980457010381
 30
0.0
 10
1525.207604257473
 20
893.3939505091139
 30
0.0
 10
1527.152737908716
 20
893.5131983320804
 30
0.0
 10
1530.775948081392
 20
893.6717269632238
 30
0.0
 10
1533.747933654483
 20
893.7767066704484
 30
0.0
 10
1535.595692277325
 20
893.8438932370357
 30
0.0
  0
SPLINE
  5
119
330
1F
100
AcDbEntity
  8
MAKE2D VISIBLE LINES
100
AcDbSpline
210
0.0
220
0.0
230
1.0
 70
    24
 71
     2
 72
     6
 73
     3
 74
     0
 42
0.0000000001
 43
0.0000000001
 40
0.0
 40
0.0
 40
0.0
 40
20.0757941958293
 40
20.0757941958293
 40
20.0757941958293
 10
1544.678101175034
 20
920.5973092922443
 30
0.0
 10
1554.714339527652
 20
920.779786353201
 30
0.0
 10
1564.750577880269
 20
920.9622634141576
 30
0.0
  0
SPLINE
  5
11A
330
1F
100
AcDbEntity
  8
MAKE2D VISIBLE LINES
100
AcDbSpline
210
0.0
220
0.0
230
1.0
 70
     8
 71
     3
 72
    20
 73
    16
 74
     0
 42
0.0000000001
 43
0.0000000001
 40
0.0
 40
0.0
 40
0.0
 40
0.0
 40
0.5895900097472737
 40
1.351529151086608
 40
2.257823336005143
 40
5.603657789964058
 40
7.947466802872969
 40
12.33220708211087
 40
16.83056903448138
 40
19.14347190659052
 40
20.18078395358212
 40
22.17722975921328
 40
22.89452889439216
 40
23.36865074387608
 40
23.70814005942197
 40
23.70814005942197
 40
23.70814005942197
 40
23.70814005942197
 10
1564.750578020494
 20
920.9622634167073
 30
0.0
 10
1564.947793860656
 20
920.9658656313219
 30
0.0
 10
1565.39308147469
 20
921.0357402878957
 30
0.0
 10
1566.123867080767
 20
921.2214847332547
 30
0.0
 10
1567.713701022194
 20
921.73356512406
 30
0.0
 10
1569.788493047032
 20
922.4688146511453
 30
0.0
 10
1573.019707188223
 20
923.379714778647
 30
0.0
 10
1576.745038712934
 20
923.9309388682568
 30
0.0
 10
1580.48716988847
 20
923.5434068866325
 30
0.0
 10
1583.01333872292
 20
922.8638121336329
 30
0.0
 10
1584.711817519619
 20
922.3196492972121
 30
0.0
 10
1585.886630114789
 20
921.8931522799454
 30
0.0
 10
1586.894552289039
 20
921.5551246019577
 30
0.0
 10
1587.387335736103
 20
921.4218613742521
 30
0.0
 10
1587.656103561691
 20
921.3796095637692
 30
0.0
 10
1587.769614824587
 20
921.3807913585999
 30
0.0
  0
SPLINE
  5
11B
330
1F
100
AcDbEntity
  8
MAKE2D VISIBLE LINES
100
AcDbSpline
210
0.0
220
0.0
230
1.0
 70
     8
 71
     3
 72
    13
 73
     9
 74
     0
 42
0.0000000001
 43
0.0000000001
 40
0.0
 40
0.0
 40
0.0
 40
0.0
 40
0.0481301417159481
 40
0.1544241777954102
 40
0.6311641474155448
 40
2.527224303300046
 40
5.666712879526786
 40
11.04845081402036
 40
11.04845081402036
 40
11.04845081402036
 40
11.04845081402036
 10
1546.049516682233
 20
895.6500002113548
 30
0.0
 10
1546.045384683051
 20
895.6331427813985
 30
0.0
 10
1545.998666496962
 20
895.6081044062803
 30
0.0
 10
1545.794183966609
 20
895.5566343051235
 30
0.0
 10
1544.972788459539
 20
895.4613936538565
 30
0.0
 10
1543.138761705852
 20
895.3464046383862
 30
0.0
 10
1539.669836543094
 20
895.1903985694383
 30
0.0
 10
1536.831148760155
 20
895.0898949104562
 30
0.0
 10
1535.038444328791
 20
895.0245087869207
 30
0.0
  0
SPLINE
  5
11C
330
1F
100
AcDbEntity
  8
MAKE2D VISIBLE LINES
100
AcDbSpline
210
0.0
220
0.0
230
1.0
 70
    24
 71
     3
 72
     8
 73
     4
 74
     0
 42
0.0000000001
 43
0.0000000001
 40
0.0
 40
0.0
 40
0.0
 40
0.0
 40
23.00049059273294
 40
23.00049059273294
 40
23.00049059273294
 40
23.00049059273294
 10
1564.54902625729
 20
917.5495168499705
 30
0.0
 10
1572.215856454868
 20
917.5495168499706
 30
0.0
 10
1579.882686652446
 20
917.5495168499706
 30
0.0
 10
1587.549516850023
 20
917.5495168499706
 30
0.0
  0
SPLINE
  5
11D
330
1F
100
AcDbEntity
  8
MAKE2D VISIBLE LINES
100
AcDbSpline
210
0.0
220
0.0
230
1.0
 70
     8
 71
     3
 72
    11
 73
     7
 74
     0
 42
0.0000000001
 43
0.0000000001
 40
0.0
 40
0.0
 40
0.0
 40
0.0
 40
0.1384052633310522
 40
0.2602992215098311
 40
0.4853128579642183
 40
0.9401099032651842
 40
0.9401099032651842
 40
0.9401099032651842
 40
0.9401099032651842
 10
1546.04951684997
 20
890.696211729967
 30
0.0
 10
1546.094421134961
 20
890.6858734634391
 30
0.0
 10
1546.178377726631
 20
890.662923728941
 30
0.0
 10
1546.328215993169
 20
890.6016081805712
 30
0.0
 10
1546.548525734249
 20
890.4429437745964
 30
0.0
 10
1546.644925955849
 20
890.2213783635684
 30
0.0
 10
1546.649183934775
 20
890.069488468169
 30
0.0
  0
SPLINE
  5
11E
330
1F
100
AcDbEntity
  8
MAKE2D VISIBLE LINES
100
AcDbSpline
210
0.0
220
0.0
230
1.0
 70
    24
 71
     2
 72
     6
 73
     3
 74
     0
 42
0.0000000001
 43
0.0000000001
 40
0.0
 40
0.0
 40
0.0
 40
5.602100204735734
 40
5.602100204735734
 40
5.602100204735734
 10
1550.805945283157
 20
918.3495168499705
 30
0.0
 10
1550.805945283157
 20
915.5484667476027
 30
0.0
 10
1550.805945283157
 20
912.7474166452348
 30
0.0
  0
SPLINE
  5
11F
330
1F
100
AcDbEntity
  8
MAKE2D VISIBLE LINES
100
AcDbSpline
210
0.0
220
0.0
230
1.0
 70
    24
 71
     2
 72
     6
 73
     3
 74
     0
 42
0.0000000001
 43
0.0000000001
 40
0.0
 40
0.0
 40
0.0
 40
27.11596185114117
 40
27.11596185114117
 40
27.11596185114117
 10
1500.027018858109
 20
959.3135622680044
 30
0.0
 10
1513.582759350561
 20
959.0670942590507
 30
0.0
 10
1527.138499843012
 20
958.820626250097
 30
0.0
  0
SPLINE
  5
120
330
1F
100
AcDbEntity
  8
MAKE2D VISIBLE LINES
100
AcDbSpline
210
0.0
220
0.0
230
1.0
 70
    24
 71
     2
 72
     6
 73
     3
 74
     0
 42
0.0000000001
 43
0.0000000001
 40
0.0
 40
0.0
 40
0.0
 40
26.15012029799638
 40
26.15012029799638
 40
26.15012029799638
 10
1500.027018858109
 20
919.7854714319367
 30
0.0
 10
1513.099918375819
 20
920.0231605140768
 30
0.0
 10
1526.17281789353
 20
920.260849596217
 30
0.0
  0
SPLINE
  5
121
330
1F
100
AcDbEntity
  8
MAKE2D VISIBLE LINES
100
AcDbSpline
210
0.0
220
0.0
230
1.0
 70
     8
 71
     3
 72
    13
 73
     9
 74
     0
 42
0.0000000001
 43
0.0000000001
 40
0.0
 40
0.0
 40
0.0
 40
0.0
 40
0.048179332849316
 40
0.1544478803103834
 40
0.6306398940638231
 40
2.523706519363987
 40
5.655580318811378
 40
11.03820235523142
 40
11.03820235523142
 40
11.03820235523142
 40
11.03820235523142
 10
1524.049516849971
 20
895.6991243394865
 30
0.0
 10
1524.053742039256
 20
895.7159688816015
 30
0.0
 10
1524.100477204119
 20
895.7409432590136
 30
0.0
 10
1524.304788758421
 20
895.792406542339
 30
0.0
 10
1525.125006003055
 20
895.887453048702
 30
0.0
 10
1526.955298406231
 20
896.0024888220032
 30
0.0
 10
1530.421007467484
 20
896.1581277294242
 30
0.0
 10
1533.257428867199
 20
896.2588918522558
 30
0.0
 10
1535.050436737038
 20
896.3241576185037
 30
0.0
  0
SPLINE
  5
122
330
1F
100
AcDbEntity
  8
MAKE2D VISIBLE LINES
100
AcDbSpline
210
0.0
220
0.0
230
1.0
 70
    24
 71
     3
 72
     8
 73
     4
 74
     0
 42
0.0000000001
 43
0.0000000001
 40
0.0
 40
0.0
 40
0.0
 40
0.0
 40
64.00136512748236
 40
64.00136512748236
 40
64.00136512748236
 40
64.00136512748236
 10
1401.04951684997
 20
971.5508819774512
 30
0.0
 10
1401.049516849971
 20
950.2170936016232
 30
0.0
 10
1401.04951684997
 20
928.883305225796
 30
0.0
 10
1401.049516849971
 20
907.5495168499689
 30
0.0
  0
SPLINE
  5
123
330
1F
100
AcDbEntity
  8
MAKE2D VISIBLE LINES
100
AcDbSpline
210
0.0
220
0.0
230
1.0
 70
    24
 71
     3
 72
     8
 73
     4
 74
     0
 42
0.0000000001
 43
0.0000000001
 40
0.0
 40
0.0
 40
0.0
 40
0.0
 40
17.60037541010922
 40
17.60037541010922
 40
17.60037541010922
 40
17.60037541010922
 10
1543.849516850011
 20
962.5495168499705
 30
0.0
 10
1537.982725046641
 20
962.5495168499704
 30
0.0
 10
1532.115933243272
 20
962.5495168499708
 30
0.0
 10
1526.249141439901
 20
962.5495168499706
 30
0.0
  0
SPLINE
  5
124
330
1F
100
AcDbEntity
  8
MAKE2D VISIBLE LINES
100
AcDbSpline
210
0.0
220
0.0
230
1.0
 70
     8
 71
     3
 72
    13
 73
     9
 74
     0
 42
0.0000000001
 43
0.0000000001
 40
0.0
 40
0.0
 40
0.0
 40
0.0
 40
0.0481793325095735
 40
0.1544478793275547
 40
0.6306398900827673
 40
2.523706507719822
 40
5.655580296159302
 40
11.03820231735124
 40
11.03820231735124
 40
11.03820231735124
 40
11.03820231735124
 10
1524.049516849971
 20
890.6991243394917
 30
0.0
 10
1524.053742039257
 20
890.7159688815232
 30
0.0
 10
1524.100477203802
 20
890.7409432586333
 30
0.0
 10
1524.3047887567
 20
890.7924065423774
 30
0.0
 10
1525.125005997619
 20
890.8874530478738
 30
0.0
 10
1526.95529839355
 20
891.0024888213504
 30
0.0
 10
1530.421007443496
 20
891.1581277286598
 30
0.0
 10
1533.257428834484
 20
891.2588918508912
 30
0.0
 10
1535.050436699243
 20
891.324157617136
 30
0.0
  0
SPLINE
  5
125
330
1F
100
AcDbEntity
  8
MAKE2D VISIBLE LINES
100
AcDbSpline
210
0.0
220
0.0
230
1.0
 70
     8
 71
     3
 72
    13
 73
     9
 74
     0
 42
0.0000000001
 43
0.0000000001
 40
0.0
 40
0.0
 40
0.0
 40
0.0
 40
0.0481301395894132
 40
0.1544241726991104
 40
0.6311641359809802
 40
2.527224283894841
 40
5.666712857112937
 40
11.04843070200653
 40
11.04843070200653
 40
11.04843070200653
 40
11.04843070200653
 10
1546.049516682213
 20
893.1500002128995
 30
0.0
 10
1546.045384684923
 20
893.1331427830787
 30
0.0
 10
1545.998666500724
 20
893.1081044073092
 30
0.0
 10
1545.794183974263
 20
893.0566343067312
 30
0.0
 10
1544.972788473082
 20
892.9613936539362
 30
0.0
 10
1543.138761724982
 20
892.846404641339
 30
0.0
 10
1539.669843256151
 20
892.6903988660947
 30
0.0
 10
1536.831162168527
 20
892.5898953927426
 30
0.0
 10
1535.038464429193
 20
892.5245095140982
 30
0.0
  0
SPLINE
  5
126
330
1F
100
AcDbEntity
  8
MAKE2D VISIBLE LINES
100
AcDbSpline
210
0.0
220
0.0
230
1.0
 70
     8
 71
     3
 72
    11
 73
     7
 74
     0
 42
0.0000000001
 43
0.0000000001
 40
0.0
 40
0.0
 40
0.0
 40
0.0
 40
0.1785930083837169
 40
0.3285565658497953
 40
0.624423920316323
 40
1.217763206162181
 40
1.217763206162181
 40
1.217763206162181
 40
1.217763206162181
 10
1524.049516849973
 20
898.152634889514
 30
0.0
 10
1523.991760360792
 20
898.166036576162
 30
0.0
 10
1523.88540914349
 20
898.195771429204
 30
0.0
 10
1523.698425551407
 20
898.2875842529634
 30
0.0
 10
1523.444909565048
 20
898.5393538326816
 30
0.0
 10
1523.419691352409
 20
898.8687155705868
 30
0.0
 10
1523.502687521719
 20
899.0494700762304
 30
0.0
  0
SPLINE
  5
127
330
1F
100
AcDbEntity
  8
MAKE2D VISIBLE LINES
100
AcDbSpline
210
0.0
220
0.0
230
1.0
 70
     8
 71
     3
 72
    10
 73
     6
 74
     0
 42
0.0000000001
 43
0.0000000001
 40
0.0
 40
0.0
 40
0.0
 40
0.0
 40
0.0825843381071782
 40
0.16656385848646
 40
0.8176513287337659
 40
0.8176513287337659
 40
0.8176513287337659
 40
0.8176513287337659
 10
1520.296151401433
 20
911.8656983659143
 30
0.0
 10
1520.27018983344
 20
911.8725545979407
 30
0.0
 10
1520.213443596277
 20
911.8817158180321
 30
0.0
 10
1519.97385586175
 20
912.0116410937692
 30
0.0
 10
1519.773160917612
 20
912.1539137615143
 30
0.0
 10
1519.585456522801
 20
912.2626315378836
 30
0.0
  0
SPLINE
  5
128
330
1F
100
AcDbEntity
  8
MAKE2D VISIBLE LINES
100
AcDbSpline
210
0.0
220
0.0
230
1.0
 70
    24
 71
     2
 72
     6
 73
     3
 74
     0
 42
0.0000000001
 43
0.0000000001
 40
0.0
 40
0.0
 40
0.0
 40
5.602132058277789
 40
5.602132058277789
 40
5.602132058277789
 10
1519.293088416782
 20
912.7473847916928
 30
0.0
 10
1519.293088416782
 20
915.5484508208317
 30
0.0
 10
1519.293088416782
 20
918.3495168499705
 30
0.0
  0
SPLINE
  5
129
330
1F
100
AcDbEntity
  8
MAKE2D VISIBLE LINES
100
AcDbSpline
210
0.0
220
0.0
230
1.0
 70
    24
 71
     2
 72
     6
 73
     3
 74
     0
 42
0.0000000001
 43
0.0000000001
 40
0.0
 40
0.0
 40
0.0
 40
8.531625054015592
 40
8.531625054015592
 40
8.531625054015592
 10
1402.04951684997
 20
906.5495168499706
 30
0.0
 10
1406.315329376978
 20
906.5495168499706
 30
0.0
 10
1410.581141903986
 20
906.5495168499706
 30
0.0
  0
SPLINE
  5
12A
330
1F
100
AcDbEntity
  8
MAKE2D VISIBLE LINES
100
AcDbSpline
210
0.0
220
0.0
230
1.0
 70
    24
 71
     2
 72
     6
 73
     3
 74
     0
 42
0.0000000001
 43
0.0000000001
 40
0.0
 40
0.0
 40
0.0
 40
22.60032414655406
 40
22.60032414655406
 40
22.60032414655406
 10
1411.349363183583
 20
906.909332450306
 30
0.0
 10
1418.583550656575
 20
915.5903574178966
 30
0.0
 10
1425.817738129568
 20
924.2713823854872
 30
0.0
  0
SPLINE
  5
12B
330
1F
100
AcDbEntity
  8
MAKE2D VISIBLE LINES
100
AcDbSpline
210
0.0
220
0.0
230
1.0
 70
    24
 71
     3
 72
     8
 73
     4
 74
     0
 42
0.0000000001
 43
0.0000000001
 40
0.0
 40
0.0
 40
0.0
 40
0.0
 40
29.27652459518009
 40
29.27652459518009
 40
29.27652459518009
 40
29.27652459518009
 10
1426.049516849971
 20
954.1880913742652
 30
0.0
 10
1426.049516849971
 20
944.4292498425382
 30
0.0
 10
1426.04951684997
 20
934.6704083108116
 30
0.0
 10
1426.049516849971
 20
924.9115667790852
 30
0.0
  0
SPLINE
  5
12C
330
1F
100
AcDbEntity
  8
MAKE2D VISIBLE LINES
100
AcDbSpline
210
0.0
220
0.0
230
1.0
 70
    24
 71
     2
 72
     6
 73
     3
 74
     0
 42
0.0000000001
 43
0.0000000001
 40
0.0
 40
0.0
 40
0.0
 40
14.35782912926197
 40
14.35782912926197
 40
14.35782912926197
 10
1530.091687720751
 20
958.5495168499706
 30
0.0
 10
1537.270602285382
 20
958.5495168499706
 30
0.0
 10
1544.449516850013
 20
958.5495168499705
 30
0.0
  0
SPLINE
  5
12D
330
1F
100
AcDbEntity
  8
MAKE2D VISIBLE LINES
100
AcDbSpline
210
0.0
220
0.0
230
1.0
 70
    24
 71
     2
 72
     6
 73
     3
 74
     0
 42
0.0000000001
 43
0.0000000001
 40
0.0
 40
0.0
 40
0.0
 40
1.471728539873652
 40
1.471728539873652
 40
1.471728539873652
 10
1524.049516849971
 20
918.7495168499705
 30
0.0
 10
1524.049516849971
 20
919.4853811199073
 30
0.0
 10
1524.049516849971
 20
920.2212453898442
 30
0.0
  0
SPLINE
  5
12E
330
1F
100
AcDbEntity
  8
MAKE2D VISIBLE LINES
100
AcDbSpline
210
0.0
220
0.0
230
1.0
 70
    24
 71
     2
 72
     6
 73
     3
 74
     0
 42
0.0000000001
 43
0.0000000001
 40
0.0
 40
0.0
 40
0.0
 40
23.55946794071635
 40
23.55946794071635
 40
23.55946794071635
 10
1477.796718026016
 20
960.610850673323
 30
0.0
 10
1466.923117437993
 20
956.0801837616467
 30
0.0
 10
1456.04951684997
 20
951.5495168499705
 30
0.0
  0
SPLINE
  5
12F
330
1F
100
AcDbEntity
  8
MAKE2D VISIBLE LINES
100
AcDbSpline
210
0.0
220
0.0
230
1.0
 70
    24
 71
     3
 72
     8
 73
     4
 74
     0
 42
0.0000000001
 43
0.0000000001
 40
0.0
 40
0.0
 40
0.0
 40
0.0
 40
24.0005119228058
 40
24.0005119228058
 40
24.0005119228058
 40
24.0005119228058
 10
1523.049004927165
 20
911.0495168499705
 30
0.0
 10
1531.049175568101
 20
911.0495168499706
 30
0.0
 10
1539.049346209036
 20
911.0495168499707
 30
0.0
 10
1547.049516849971
 20
911.0495168499706
 30
0.0
  0
SPLINE
  5
130
330
1F
100
AcDbEntity
  8
MAKE2D VISIBLE LINES
100
AcDbSpline
210
0.0
220
0.0
230
1.0
 70
    24
 71
     2
 72
     6
 73
     3
 74
     0
 42
0.0000000001
 43
0.0000000001
 40
0.0
 40
0.0
 40
0.0
 40
10.0
 40
10.0
 40
10.0
 10
1548.049516849971
 20
910.0495168499706
 30
0.0
 10
1548.049516849971
 20
905.0495168499706
 30
0.0
 10
1548.049516849971
 20
900.0495168499706
 30
0.0
  0
SPLINE
  5
131
330
1F
100
AcDbEntity
  8
MAKE2D VISIBLE LINES
100
AcDbSpline
210
0.0
220
0.0
230
1.0
 70
    24
 71
     2
 72
     6
 73
     3
 74
     0
 42
0.0000000001
 43
0.0000000001
 40
0.0
 40
0.0
 40
0.0
 40
23.55032308910954
 40
23.55032308910954
 40
23.55032308910954
 10
1456.04951684997
 20
927.5495168499706
 30
0.0
 10
1466.918896737252
 20
923.0206085636033
 30
0.0
 10
1477.788276624533
 20
918.4917002772361
 30
0.0
  0
SPLINE
  5
132
330
1F
100
AcDbEntity
  8
MAKE2D VISIBLE LINES
100
AcDbSpline
210
0.0
220
0.0
230
1.0
 70
     8
 71
     3
 72
    15
 73
    11
 74
     0
 42
0.0000000001
 43
0.0000000001
 40
0.0
 40
0.0
 40
0.0
 40
0.0
 40
0.0497580858522851
 40
0.1604765017271258
 40
0.3384730256354332
 40
0.6803377285607585
 40
1.413130573285182
 40
2.580007500569244
 40
6.000448811169352
 40
11.70122573617563
 40
11.70122573617563
 40
11.70122573617563
 40
11.70122573617563
 10
1524.04951684997
 20
898.1991243394831
 30
0.0
 10
1524.053980380221
 20
898.2166415362792
 30
0.0
 10
1524.103424836848
 20
898.2416782616679
 30
0.0
 10
1524.212301126118
 20
898.2696469518677
 30
0.0
 10
1524.419829280061
 20
898.3051559004065
 30
0.0
 10
1524.834571754132
 20
898.3532476912358
 30
0.0
 10
1525.57928772898
 20
898.415251305247
 30
0.0
 10
1527.349465111666
 20
898.5224272527848
 30
0.0
 10
1530.775690405061
 20
898.6713277175832
 30
0.0
 10
1533.814151557579
 20
898.7793612433506
 30
0.0
 10
1535.713174737201
 20
898.8481476741031
 30
0.0
  0
SPLINE
  5
133
330
1F
100
AcDbEntity
  8
MAKE2D VISIBLE LINES
100
AcDbSpline
210
0.0
220
0.0
230
1.0
 70
    24
 71
     2
 72
     6
 73
     3
 74
     0
 42
0.0000000001
 43
0.0000000001
 40
0.0
 40
0.0
 40
0.0
 40
23.99999999999994
 40
23.99999999999994
 40
23.99999999999994
 10
1456.04951684997
 20
951.5495168499705
 30
0.0
 10
1456.04951684997
 20
939.5495168499706
 30
0.0
 10
1456.04951684997
 20
927.5495168499706
 30
0.0
  0
ENDSEC
  0
SECTION
  2
OBJECTS
  0
DICTIONARY
  5
C
330
0
100
AcDbDictionary
281
     1
  3
ACAD_GROUP
350
D
  3
ACAD_LAYOUT
350
1A
  3
ACAD_MLEADERSTYLE
350
137
  3
ACAD_MLINESTYLE
350
17
  3
ACAD_PLOTSETTINGS
350
19
  3
ACAD_PLOTSTYLENAME
350
E
  3
ACAD_SCALELIST
350
3D
  3
ACAD_TABLESTYLE
350
136
  3
ACAD_VISUALSTYLE
350
2A
  3
AcDbVariableDictionary
350
134
  0
DICTIONARY
  5
D
102
{ACAD_REACTORS
330
C
102
}
330
C
100
AcDbDictionary
281
     1
  0
DICTIONARY
  5
1A
102
{ACAD_REACTORS
330
C
102
}
330
C
100
AcDbDictionary
281
     1
  3
Layout1
350
1E
  3
Layout2
350
26
  3
Model
350
22
  0
DICTIONARY
  5
137
102
{ACAD_REACTORS
330
C
102
}
330
C
100
AcDbDictionary
281
     1
  0
DICTIONARY
  5
17
102
{ACAD_REACTORS
330
C
102
}
330
C
100
AcDbDictionary
281
     1
  3
Standard
350
18
  0
DICTIONARY
  5
19
102
{ACAD_REACTORS
330
C
102
}
330
C
100
AcDbDictionary
281
     1
  0
ACDBDICTIONARYWDFLT
  5
E
102
{ACAD_REACTORS
330
C
102
}
330
C
100
AcDbDictionary
281
     1
  3
Normal
350
F
100
AcDbDictionaryWithDefault
340
F
  0
DICTIONARY
  5
3D
102
{ACAD_REACTORS
330
C
102
}
330
C
100
AcDbDictionary
281
     1
  3
A0
350
3E
  3
A1
350
3F
  3
A2
350
40
  3
A3
350
41
  3
A4
350
42
  3
A5
350
43
  3
A6
350
44
  3
A7
350
45
  3
A8
350
46
  3
A9
350
47
  3
B0
350
48
  3
B1
350
49
  3
B2
350
4A
  3
B3
350
4B
  3
B4
350
4C
  3
B5
350
4D
  3
B6
350
4E
  3
B7
350
4F
  3
B8
350
50
  3
B9
350
51
  3
C0
350
52
  3
C1
350
53
  3
C2
350
54
  3
C3
350
55
  3
C4
350
56
  3
C5
350
57
  3
C6
350
58
  3
C7
350
59
  3
C8
350
5A
  3
C9
350
5B
  3
D0
350
5C
  3
D1
350
5D
  3
D2
350
5E
  0
DICTIONARY
  5
136
102
{ACAD_REACTORS
330
C
102
}
330
C
100
AcDbDictionary
281
     1
  0
DICTIONARY
  5
2A
102
{ACAD_REACTORS
330
C
102
}
330
C
100
AcDbDictionary
281
     1
  3
2dWireframe
350
2F
  3
3D Hidden
350
31
  3
3dWireframe
350
30
  3
Basic
350
32
  3
Brighten
350
36
  3
ColorChange
350
3A
  3
Conceptual
350
34
  3
Dim
350
35
  3
Facepattern
350
39
  3
Flat
350
2B
  3
FlatWithEdges
350
2C
  3
Gouraud
350
2D
  3
GouraudWithEdges
350
2E
  3
Linepattern
350
38
  3
Realistic
350
33
  3
Thicken
350
37
  0
DICTIONARY
  5
134
102
{ACAD_REACTORS
330
C
102
}
330
C
100
AcDbDictionary
281
     1
  3
CANNOSCALE
350
135
  0
LAYOUT
  5
1E
102
{ACAD_REACTORS
330
1A
102
}
330
1A
100
AcDbPlotSettings
  1

  2
none_device
  4

  6

 40
0.0
 41
0.0
 42
0.0
 43
0.0
 44
0.0
 45
0.0
 46
0.0
 47
0.0
 48
0.0
 49
0.0
140
0.0
141
0.0
142
1.0
143
1.0
 70
   688
 72
     0
 73
     0
 74
     5
  7

 75
    16
 76
     0
 77
     2
 78
   300
147
1.0
148
0.0
149
0.0
100
AcDbLayout
  1
Layout1
 70
     1
 71
     1
 10
0.0
 20
0.0
 11
12.0
 21
9.0
 12
0.0
 22
0.0
 32
0.0
 14
1.000000000000000E+20
 24
1.000000000000000E+20
 34
1.000000000000000E+20
 15
-1.000000000000000E+20
 25
-1.000000000000000E+20
 35
-1.000000000000000E+20
146
0.0
 13
0.0
 23
0.0
 33
0.0
 16
1.0
 26
0.0
 36
0.0
 17
0.0
 27
1.0
 37
0.0
 76
     0
330
1B
  0
LAYOUT
  5
26
102
{ACAD_REACTORS
330
1A
102
}
330
1A
100
AcDbPlotSettings
  1

  2
none_device
  4

  6

 40
0.0
 41
0.0
 42
0.0
 43
0.0
 44
0.0
 45
0.0
 46
0.0
 47
0.0
 48
0.0
 49
0.0
140
0.0
141
0.0
142
1.0
143
1.0
 70
   688
 72
     0
 73
     0
 74
     5
  7

 75
    16
 76
     0
 77
     2
 78
   300
147
1.0
148
0.0
149
0.0
100
AcDbLayout
  1
Layout2
 70
     1
 71
     2
 10
0.0
 20
0.0
 11
0.0
 21
0.0
 12
0.0
 22
0.0
 32
0.0
 14
0.0
 24
0.0
 34
0.0
 15
0.0
 25
0.0
 35
0.0
146
0.0
 13
0.0
 23
0.0
 33
0.0
 16
1.0
 26
0.0
 36
0.0
 17
0.0
 27
1.0
 37
0.0
 76
     0
330
23
  0
LAYOUT
  5
22
102
{ACAD_REACTORS
330
1A
102
}
330
1A
100
AcDbPlotSettings
  1

  2
none_device
  4

  6

 40
0.0
 41
0.0
 42
0.0
 43
0.0
 44
0.0
 45
0.0
 46
0.0
 47
0.0
 48
0.0
 49
0.0
140
0.0
141
0.0
142
1.0
143
1.0
 70
  1712
 72
     0
 73
     0
 74
     0
  7

 75
     0
 76
     0
 77
     2
 78
   300
147
1.0
148
0.0
149
0.0
100
AcDbLayout
  1
Model
 70
     1
 71
     0
 10
0.0
 20
0.0
 11
12.0
 21
9.0
 12
0.0
 22
0.0
 32
0.0
 14
1366.995329376978
 24
889.0495168499706
 34
0.0
 15
1597.04951684997
 25
1037.04019941371
 35
0.0
146
0.0
 13
0.0
 23
0.0
 33
0.0
 16
1.0
 26
0.0
 36
0.0
 17
0.0
 27
1.0
 37
0.0
 76
     0
330
1F
331
29
  0
MLINESTYLE
  5
18
102
{ACAD_REACTORS
330
17
102
}
330
17
100
AcDbMlineStyle
  2
Standard
 70
     0
  3

 62
   256
 51
90.0
 52
90.0
 71
     2
 49
0.5
 62
   256
  6
BYLAYER
 49
-0.5
 62
   256
  6
BYLAYER
  0
ACDBPLACEHOLDER
  5
F
102
{ACAD_REACTORS
330
E
102
}
330
E
  0
SCALE
  5
3E
102
{ACAD_REACTORS
330
3D
102
}
330
3D
100
AcDbScale
 70
     0
300
1:1
140
1.0
141
1.0
290
     1
  0
SCALE
  5
3F
102
{ACAD_REACTORS
330
3D
102
}
330
3D
100
AcDbScale
 70
     0
300
1:2
140
1.0
141
2.0
290
     0
  0
SCALE
  5
40
102
{ACAD_REACTORS
330
3D
102
}
330
3D
100
AcDbScale
 70
     0
300
1:4
140
1.0
141
4.0
290
     0
  0
SCALE
  5
41
102
{ACAD_REACTORS
330
3D
102
}
330
3D
100
AcDbScale
 70
     0
300
1:5
140
1.0
141
5.0
290
     0
  0
SCALE
  5
42
102
{ACAD_REACTORS
330
3D
102
}
330
3D
100
AcDbScale
 70
     0
300
1:8
140
1.0
141
8.0
290
     0
  0
SCALE
  5
43
102
{ACAD_REACTORS
330
3D
102
}
330
3D
100
AcDbScale
 70
     0
300
1:10
140
1.0
141
10.0
290
     0
  0
SCALE
  5
44
102
{ACAD_REACTORS
330
3D
102
}
330
3D
100
AcDbScale
 70
     0
300
1:16
140
1.0
141
16.0
290
     0
  0
SCALE
  5
45
102
{ACAD_REACTORS
330
3D
102
}
330
3D
100
AcDbScale
 70
     0
300
1:20
140
1.0
141
20.0
290
     0
  0
SCALE
  5
46
102
{ACAD_REACTORS
330
3D
102
}
330
3D
100
AcDbScale
 70
     0
300
1:30
140
1.0
141
30.0
290
     0
  0
SCALE
  5
47
102
{ACAD_REACTORS
330
3D
102
}
330
3D
100
AcDbScale
 70
     0
300
1:40
140
1.0
141
40.0
290
     0
  0
SCALE
  5
48
102
{ACAD_REACTORS
330
3D
102
}
330
3D
100
AcDbScale
 70
     0
300
1:50
140
1.0
141
50.0
290
     0
  0
SCALE
  5
49
102
{ACAD_REACTORS
330
3D
102
}
330
3D
100
AcDbScale
 70
     0
300
1:100
140
1.0
141
100.0
290
     0
  0
SCALE
  5
4A
102
{ACAD_REACTORS
330
3D
102
}
330
3D
100
AcDbScale
 70
     0
300
2:1
140
2.0
141
1.0
290
     0
  0
SCALE
  5
4B
102
{ACAD_REACTORS
330
3D
102
}
330
3D
100
AcDbScale
 70
     0
300
4:1
140
4.0
141
1.0
290
     0
  0
SCALE
  5
4C
102
{ACAD_REACTORS
330
3D
102
}
330
3D
100
AcDbScale
 70
     0
300
8:1
140
8.0
141
1.0
290
     0
  0
SCALE
  5
4D
102
{ACAD_REACTORS
330
3D
102
}
330
3D
100
AcDbScale
 70
     0
300
10:1
140
10.0
141
1.0
290
     0
  0
SCALE
  5
4E
102
{ACAD_REACTORS
330
3D
102
}
330
3D
100
AcDbScale
 70
     0
300
100:1
140
100.0
141
1.0
290
     0
  0
SCALE
  5
4F
102
{ACAD_REACTORS
330
3D
102
}
330
3D
100
AcDbScale
 70
     0
300
1/128" = 1'-0"
140
0.0078125
141
12.0
290
     0
  0
SCALE
  5
50
102
{ACAD_REACTORS
330
3D
102
}
330
3D
100
AcDbScale
 70
     0
300
1/64" = 1'-0"
140
0.015625
141
12.0
290
     0
  0
SCALE
  5
51
102
{ACAD_REACTORS
330
3D
102
}
330
3D
100
AcDbScale
 70
     0
300
1/32" = 1'-0"
140
0.03125
141
12.0
290
     0
  0
SCALE
  5
52
102
{ACAD_REACTORS
330
3D
102
}
330
3D
100
AcDbScale
 70
     0
300
1/16" = 1'-0"
140
0.0625
141
12.0
290
     0
  0
SCALE
  5
53
102
{ACAD_REACTORS
330
3D
102
}
330
3D
100
AcDbScale
 70
     0
300
3/32" = 1'-0"
140
0.09375
141
12.0
290
     0
  0
SCALE
  5
54
102
{ACAD_REACTORS
330
3D
102
}
330
3D
100
AcDbScale
 70
     0
300
1/8" = 1'-0"
140
0.125
141
12.0
290
     0
  0
SCALE
  5
55
102
{ACAD_REACTORS
330
3D
102
}
330
3D
100
AcDbScale
 70
     0
300
3/16" = 1'-0"
140
0.1875
141
12.0
290
     0
  0
SCALE
  5
56
102
{ACAD_REACTORS
330
3D
102
}
330
3D
100
AcDbScale
 70
     0
300
1/4" = 1'-0"
140
0.25
141
12.0
290
     0
  0
SCALE
  5
57
102
{ACAD_REACTORS
330
3D
102
}
330
3D
100
AcDbScale
 70
     0
300
3/8" = 1'-0"
140
0.375
141
12.0
290
     0
  0
SCALE
  5
58
102
{ACAD_REACTORS
330
3D
102
}
330
3D
100
AcDbScale
 70
     0
300
1/2" = 1'-0"
140
0.5
141
12.0
290
     0
  0
SCALE
  5
59
102
{ACAD_REACTORS
330
3D
102
}
330
3D
100
AcDbScale
 70
     0
300
3/4" = 1'-0"
140
0.75
141
12.0
290
     0
  0
SCALE
  5
5A
102
{ACAD_REACTORS
330
3D
102
}
330
3D
100
AcDbScale
 70
     0
300
1" = 1'-0"
140
1.0
141
12.0
290
     0
  0
SCALE
  5
5B
102
{ACAD_REACTORS
330
3D
102
}
330
3D
100
AcDbScale
 70
     0
300
1-1/2" = 1'-0"
140
1.5
141
12.0
290
     0
  0
SCALE
  5
5C
102
{ACAD_REACTORS
330
3D
102
}
330
3D
100
AcDbScale
 70
     0
300
3" = 1'-0"
140
3.0
141
12.0
290
     0
  0
SCALE
  5
5D
102
{ACAD_REACTORS
330
3D
102
}
330
3D
100
AcDbScale
 70
     0
300
6" = 1'-0"
140
6.0
141
12.0
290
     0
  0
SCALE
  5
5E
102
{ACAD_REACTORS
330
3D
102
}
330
3D
100
AcDbScale
 70
     0
300
1'-0" = 1'-0"
140
12.0
141
12.0
290
     0
  0
VISUALSTYLE
  5
2F
102
{ACAD_REACTORS
330
2A
102
}
330
2A
100
AcDbVisualStyle
  2
2dWireframe
 70
     4
 71
     0
 72
     2
 73
     0
 90
        0
 40
-0.6
 41
-30.0
 62
     5
 63
     7
421
 16777215
 74
     1
 91
        4
 64
     7
 65
   257
 75
     1
175
     1
 42
1.0
 92
        0
 66
   257
 43
1.0
 76
     1
 77
     6
 78
     2
 67
     7
 79
     5
170
     0
171
     0
290
     0
174
     0
 93
        1
 44
0.0
173
     0
291
     0
 45
0.0
1001
ACAD
1000
AcDbSavedByObjectVersion
1070
     0
  0
VISUALSTYLE
  5
31
102
{ACAD_REACTORS
330
2A
102
}
330
2A
100
AcDbVisualStyle
  2
3D Hidden
 70
     6
 71
     1
 72
     2
 73
     2
 90
        0
 40
-0.6
 41
-30.0
 62
     5
 63
     7
421
 16777215
 74
     2
 91
        2
 64
     7
 65
   257
 75
     2
175
     1
 42
40.0
 92
        0
 66
   257
 43
1.0
 76
     1
 77
     6
 78
     2
 67
     7
 79
     3
170
     0
171
     0
290
     0
174
     0
 93
        1
 44
0.0
173
     0
291
     0
 45
0.0
1001
ACAD
1000
AcDbSavedByObjectVersion
1070
     0
  0
VISUALSTYLE
  5
30
102
{ACAD_REACTORS
330
2A
102
}
330
2A
100
AcDbVisualStyle
  2
3dWireframe
 70
     5
 71
     0
 72
     2
 73
     0
 90
        0
 40
-0.6
 41
-30.0
 62
     5
 63
     7
421
 16777215
 74
     1
 91
        4
 64
     7
 65
   257
 75
     1
175
     1
 42
1.0
 92
        0
 66
   257
 43
1.0
 76
     1
 77
     6
 78
     2
 67
     7
 79
     5
170
     0
171
     0
290
     0
174
     0
 93
        1
 44
0.0
173
     0
291
     0
 45
0.0
1001
ACAD
1000
AcDbSavedByObjectVersion
1070
     0
  0
VISUALSTYLE
  5
32
102
{ACAD_REACTORS
330
2A
102
}
330
2A
100
AcDbVisualStyle
  2
Basic
 70
     7
 71
     1
 72
     0
 73
     1
 90
        0
 40
-0.6
 41
-30.0
 62
     5
 63
     7
421
 16777215
 74
     0
 91
        4
 64
     7
 65
   257
 75
     1
175
     1
 42
1.0
 92
        8
 66
     7
 43
1.0
 76
     1
 77
     6
 78
     2
 67
     7
 79
     5
170
     0
171
     0
290
     0
174
     0
 93
        1
 44
0.0
173
     0
291
     1
 45
0.0
1001
ACAD
1000
AcDbSavedByObjectVersion
1070
     0
  0
VISUALSTYLE
  5
36
102
{ACAD_REACTORS
330
2A
102
}
330
2A
100
AcDbVisualStyle
  2
Brighten
 70
    12
 71
     2
 72
     2
 73
     0
 90
        0
 40
-0.6
 41
-30.0
 62
     5
 63
     7
421
 16777215
 74
     1
 91
        4
 64
     7
 65
   257
 75
     1
175
     1
 42
1.0
 92
        8
 66
     7
 43
1.0
 76
     1
 77
     6
 78
     2
 67
     7
 79
     5
170
     0
171
     0
290
     0
174
     0
 93
        1
 44
50.0
173
     0
291
     1
 45
0.0
1001
ACAD
1000
AcDbSavedByObjectVersion
1070
     0
  0
VISUALSTYLE
  5
3A
102
{ACAD_REACTORS
330
2A
102
}
330
2A
100
AcDbVisualStyle
  2
ColorChange
 70
    16
 71
     2
 72
     2
 73
     3
 90
        0
 40
-0.6
 41
-30.0
 62
     5
 63
     8
421
  8421504
 74
     1
 91
        4
 64
     7
 65
   257
 75
     1
175
     1
 42
1.0
 92
        8
 66
     8
424
  8421504
 43
1.0
 76
     1
 77
     6
 78
     2
 67
     7
 79
     5
170
     0
171
     0
290
     0
174
     0
 93
        1
 44
0.0
173
     0
291
     1
 45
0.0
1001
ACAD
1000
AcDbSavedByObjectVersion
1070
     0
  0
VISUALSTYLE
  5
34
102
{ACAD_REACTORS
330
2A
102
}
330
2A
100
AcDbVisualStyle
  2
Conceptual
 70
     9
 71
     3
 72
     2
 73
     0
 90
        0
 40
-0.6
 41
-30.0
 62
     5
 63
     7
421
 16777215
 74
     2
 91
        2
 64
     7
 65
   257
 75
     1
175
     1
 42
40.0
 92
        8
 66
     7
 43
1.0
 76
     1
 77
     6
 78
     2
 67
     7
 79
     3
170
     0
171
     0
290
     0
174
     0
 93
        1
 44
0.0
173
     0
291
     0
 45
0.0
1001
ACAD
1000
AcDbSavedByObjectVersion
1070
     0
  0
VISUALSTYLE
  5
35
102
{ACAD_REACTORS
330
2A
102
}
330
2A
100
AcDbVisualStyle
  2
Dim
 70
    11
 71
     2
 72
     2
 73
     0
 90
        0
 40
-0.6
 41
-30.0
 62
     5
 63
     7
421
 16777215
 74
     1
 91
        4
 64
     7
 65
   257
 75
     1
175
     1
 42
1.0
 92
        8
 66
     7
 43
1.0
 76
     1
 77
     6
 78
     2
 67
     7
 79
     5
170
     0
171
     0
290
     0
174
     0
 93
        1
 44
-50.0
173
     0
291
     1
 45
0.0
1001
ACAD
1000
AcDbSavedByObjectVersion
1070
     0
  0
VISUALSTYLE
  5
39
102
{ACAD_REACTORS
330
2A
102
}
330
2A
100
AcDbVisualStyle
  2
Facepattern
 70
    15
 71
     2
 72
     2
 73
     0
 90
        0
 40
-0.6
 41
-30.0
 62
     5
 63
     7
421
 16777215
 74
     1
 91
        4
 64
     7
 65
   257
 75
     1
175
     1
 42
1.0
 92
        8
 66
     7
 43
1.0
 76
     1
 77
     6
 78
     2
 67
     7
 79
     5
170
     0
171
     0
290
     0
174
     0
 93
        1
 44
0.0
173
     0
291
     1
 45
0.0
1001
ACAD
1000
AcDbSavedByObjectVersion
1070
     0
  0
VISUALSTYLE
  5
2B
102
{ACAD_REACTORS
330
2A
102
}
330
2A
100
AcDbVisualStyle
  2
Flat
 70
     0
 71
     2
 72
     1
 73
     1
 90
        2
 40
-0.6
 41
30.0
 62
     5
 63
     7
421
 16777215
 74
     0
 91
        4
 64
     7
 65
   257
 75
     1
175
     1
 42
1.0
 92
        8
 66
     7
 43
1.0
 76
     1
 77
     6
 78
     2
 67
     7
 79
     5
170
     0
171
     0
290
     0
174
     0
 93
       13
 44
0.0
173
     0
291
     1
 45
0.0
1001
ACAD
1000
AcDbSavedByObjectVersion
1070
     0
  0
VISUALSTYLE
  5
2C
102
{ACAD_REACTORS
330
2A
102
}
330
2A
100
AcDbVisualStyle
  2
FlatWithEdges
 70
     1
 71
     2
 72
     1
 73
     1
 90
        2
 40
-0.6
 41
30.0
 62
     5
 63
     7
421
 16777215
 74
     1
 91
        4
 64
     7
 65
   257
 75
     1
175
     1
 42
1.0
 92
        0
 66
   257
 43
1.0
 76
     1
 77
     6
 78
     2
 67
     7
 79
     5
170
     0
171
     0
290
     0
174
     0
 93
       13
 44
0.0
173
     0
291
     1
 45
0.0
1001
ACAD
1000
AcDbSavedByObjectVersion
1070
     0
  0
VISUALSTYLE
  5
2D
102
{ACAD_REACTORS
330
2A
102
}
330
2A
100
AcDbVisualStyle
  2
Gouraud
 70
     2
 71
     2
 72
     2
 73
     1
 90
        2
 40
-0.6
 41
30.0
 62
     5
 63
     7
421
 16777215
 74
     0
 91
        4
 64
     7
 65
   257
 75
     1
175
     1
 42
1.0
 92
        0
 66
     7
 43
1.0
 76
     1
 77
     6
 78
     2
 67
     7
 79
     5
170
     0
171
     0
290
     0
174
     0
 93
       13
 44
0.0
173
     0
291
     1
 45
0.0
1001
ACAD
1000
AcDbSavedByObjectVersion
1070
     0
  0
VISUALSTYLE
  5
2E
102
{ACAD_REACTORS
330
2A
102
}
330
2A
100
AcDbVisualStyle
  2
GouraudWithEdges
 70
     3
 71
     2
 72
     2
 73
     1
 90
        2
 40
-0.6
 41
30.0
 62
     5
 63
     7
421
 16777215
 74
     1
 91
        4
 64
     7
 65
   257
 75
     1
175
     1
 42
1.0
 92
        0
 66
   257
 43
1.0
 76
     1
 77
     6
 78
     2
 67
     7
 79
     5
170
     0
171
     0
290
     0
174
     0
 93
       13
 44
0.0
173
     0
291
     1
 45
0.0
1001
ACAD
1000
AcDbSavedByObjectVersion
1070
     0
  0
VISUALSTYLE
  5
38
102
{ACAD_REACTORS
330
2A
102
}
330
2A
100
AcDbVisualStyle
  2
Linepattern
 70
    14
 71
     2
 72
     2
 73
     0
 90
        0
 40
-0.6
 41
-30.0
 62
     5
 63
     7
421
 16777215
 74
     1
 91
        4
 64
     7
 65
   257
 75
     7
175
     7
 42
1.0
 92
        8
 66
     7
 43
1.0
 76
     1
 77
     6
 78
     2
 67
     7
 79
     5
170
     0
171
     0
290
     0
174
     0
 93
        1
 44
0.0
173
     0
291
     1
 45
0.0
1001
ACAD
1000
AcDbSavedByObjectVersion
1070
     0
  0
VISUALSTYLE
  5
33
102
{ACAD_REACTORS
330
2A
102
}
330
2A
100
AcDbVisualStyle
  2
Realistic
 70
     8
 71
     2
 72
     2
 73
     0
 90
        0
 40
-0.6
 41
-30.0
 62
     5
 63
     7
421
 16777215
 74
     1
 91
        0
 64
     7
 65
   257
 75
     1
175
     1
 42
1.0
 92
        8
 66
     8
424
  7895160
 43
1.0
 76
     1
 77
     6
 78
     2
 67
     7
 79
     5
170
     0
171
     0
290
     0
174
     0
 93
       13
 44
0.0
173
     0
291
     0
 45
0.0
1001
ACAD
1000
AcDbSavedByObjectVersion
1070
     0
  0
VISUALSTYLE
  5
37
102
{ACAD_REACTORS
330
2A
102
}
330
2A
100
AcDbVisualStyle
  2
Thicken
 70
    13
 71
     2
 72
     2
 73
     0
 90
        0
 40
-0.6
 41
-30.0
 62
     5
 63
     7
421
 16777215
 74
     1
 91
        4
 64
     7
 65
   257
 75
     1
175
     1
 42
1.0
 92
       12
 66
     7
 43
1.0
 76
     1
 77
     6
 78
     2
 67
     7
 79
     5
170
     0
171
     0
290
     0
174
     0
 93
        1
 44
0.0
173
     0
291
     1
 45
0.0
1001
ACAD
1000
AcDbSavedByObjectVersion
1070
     0
  0
DICTIONARYVAR
  5
135
102
{ACAD_REACTORS
330
134
102
}
330
134
100
DictionaryVariables
280
     0
  1
1:1
  0
ENDSEC
  0
EOF
