  0
SECTION
  2
HEADER
  9
$ACADVER
  1
AC1018
  9
$ACADMAINTVER
 70
     0
  9
$DWGCODEPAGE
  3
ANSI_936
  9
$INSBASE
 10
0.0
 20
0.0
 30
0.0
  9
$EXTMIN
 10
1516.049516849971
 20
-0.0000000000000039
 30
0.0
  9
$EXTMAX
 10
1663.549516849971
 20
362.320070909071
 30
0.0
  9
$LIMMIN
 10
0.0
 20
0.0
  9
$LIMMAX
 10
12.0
 20
9.0
  9
$ORTHOMODE
 70
     0
  9
$REGENMODE
 70
     1
  9
$FILLMODE
 70
     1
  9
$QTEXTMODE
 70
     0
  9
$MIRRTEXT
 70
     1
  9
$LTSCALE
 40
1.0
  9
$ATTMODE
 70
     1
  9
$TEXTSIZE
 40
0.2
  9
$TRACEWID
 40
0.05
  9
$TEXTSTYLE
  7
Standard
  9
$CLAYER
  8
E8455
  9
$CELTYPE
  6
ByLayer
  9
$CECOLOR
 62
   256
  9
$CELTSCALE
 40
1.0
  9
$DISPSILH
 70
     0
  9
$DIMSCALE
 40
1.0
  9
$DIMASZ
 40
0.18
  9
$DIMEXO
 40
0.0625
  9
$DIMDLI
 40
0.38
  9
$DIMRND
 40
0.0
  9
$DIMDLE
 40
0.0
  9
$DIMEXE
 40
0.18
  9
$DIMTP
 40
0.0
  9
$DIMTM
 40
0.0
  9
$DIMTXT
 40
0.18
  9
$DIMCEN
 40
0.09
  9
$DIMTSZ
 40
0.0
  9
$DIMTOL
 70
     0
  9
$DIMLIM
 70
     0
  9
$DIMTIH
 70
     1
  9
$DIMTOH
 70
     1
  9
$DIMSE1
 70
     0
  9
$DIMSE2
 70
     0
  9
$DIMTAD
 70
     0
  9
$DIMZIN
 70
     0
  9
$DIMBLK
  1

  9
$DIMASO
 70
     1
  9
$DIMSHO
 70
     1
  9
$DIMPOST
  1

  9
$DIMAPOST
  1

  9
$DIMALT
 70
     0
  9
$DIMALTD
 70
     2
  9
$DIMALTF
 40
25.4
  9
$DIMLFAC
 40
1.0
  9
$DIMTOFL
 70
     0
  9
$DIMTVP
 40
0.0
  9
$DIMTIX
 70
     0
  9
$DIMSOXD
 70
     0
  9
$DIMSAH
 70
     0
  9
$DIMBLK1
  1

  9
$DIMBLK2
  1

  9
$DIMSTYLE
  2
Standard
  9
$DIMCLRD
 70
     0
  9
$DIMCLRE
 70
     0
  9
$DIMCLRT
 70
     0
  9
$DIMTFAC
 40
1.0
  9
$DIMGAP
 40
0.09
  9
$DIMJUST
 70
     0
  9
$DIMSD1
 70
     0
  9
$DIMSD2
 70
     0
  9
$DIMTOLJ
 70
     1
  9
$DIMTZIN
 70
     0
  9
$DIMALTZ
 70
     0
  9
$DIMALTTZ
 70
     0
  9
$DIMUPT
 70
     0
  9
$DIMDEC
 70
     4
  9
$DIMTDEC
 70
     4
  9
$DIMALTU
 70
     2
  9
$DIMALTTD
 70
     2
  9
$DIMTXSTY
  7
Standard
  9
$DIMAUNIT
 70
     0
  9
$DIMADEC
 70
     0
  9
$DIMALTRND
 40
0.0
  9
$DIMAZIN
 70
     0
  9
$DIMDSEP
 70
    46
  9
$DIMATFIT
 70
     3
  9
$DIMFRAC
 70
     0
  9
$DIMLDRBLK
  1

  9
$DIMLUNIT
 70
     2
  9
$DIMLWD
 70
    -2
  9
$DIMLWE
 70
    -2
  9
$DIMTMOVE
 70
     2
  9
$LUNITS
 70
     2
  9
$LUPREC
 70
     2
  9
$SKETCHINC
 40
0.1
  9
$FILLETRAD
 40
0.5
  9
$AUNITS
 70
     0
  9
$AUPREC
 70
     0
  9
$MENU
  1
.
  9
$ELEVATION
 40
0.0
  9
$PELEVATION
 40
0.0
  9
$THICKNESS
 40
0.0
  9
$LIMCHECK
 70
     0
  9
$CHAMFERA
 40
0.5
  9
$CHAMFERB
 40
0.5
  9
$CHAMFERC
 40
1.0
  9
$CHAMFERD
 40
0.0
  9
$SKPOLY
 70
     0
  9
$TDCREATE
 40
2456449.66964934
  9
$TDUCREATE
 40
2456449.586316007
  9
$TDUPDATE
 40
2456449.669649352
  9
$TDUUPDATE
 40
2456449.586316018
  9
$TDINDWG
 40
0.0000000116
  9
$TDUSRTIMER
 40
0.0000000116
  9
$USRTIMER
 70
     1
  9
$ANGBASE
 50
0.0
  9
$ANGDIR
 70
     0
  9
$PDMODE
 70
     0
  9
$PDSIZE
 40
0.0
  9
$PLINEWID
 40
0.0
  9
$SPLFRAME
 70
     0
  9
$SPLINETYPE
 70
     6
  9
$SPLINESEGS
 70
     8
  9
$HANDSEED
  5
171
  9
$SURFTAB1
 70
     6
  9
$SURFTAB2
 70
     6
  9
$SURFTYPE
 70
     6
  9
$SURFU
 70
     6
  9
$SURFV
 70
     6
  9
$UCSBASE
  2

  9
$UCSNAME
  2

  9
$UCSORG
 10
0.0
 20
0.0
 30
0.0
  9
$UCSXDIR
 10
1.0
 20
0.0
 30
0.0
  9
$UCSYDIR
 10
0.0
 20
1.0
 30
0.0
  9
$UCSORTHOREF
  2

  9
$UCSORTHOVIEW
 70
     0
  9
$UCSORGTOP
 10
0.0
 20
0.0
 30
0.0
  9
$UCSORGBOTTOM
 10
0.0
 20
0.0
 30
0.0
  9
$UCSORGLEFT
 10
0.0
 20
0.0
 30
0.0
  9
$UCSORGRIGHT
 10
0.0
 20
0.0
 30
0.0
  9
$UCSORGFRONT
 10
0.0
 20
0.0
 30
0.0
  9
$UCSORGBACK
 10
0.0
 20
0.0
 30
0.0
  9
$PUCSBASE
  2

  9
$PUCSNAME
  2

  9
$PUCSORG
 10
0.0
 20
0.0
 30
0.0
  9
$PUCSXDIR
 10
1.0
 20
0.0
 30
0.0
  9
$PUCSYDIR
 10
0.0
 20
1.0
 30
0.0
  9
$PUCSORTHOREF
  2

  9
$PUCSORTHOVIEW
 70
     0
  9
$PUCSORGTOP
 10
0.0
 20
0.0
 30
0.0
  9
$PUCSORGBOTTOM
 10
0.0
 20
0.0
 30
0.0
  9
$PUCSORGLEFT
 10
0.0
 20
0.0
 30
0.0
  9
$PUCSORGRIGHT
 10
0.0
 20
0.0
 30
0.0
  9
$PUCSORGFRONT
 10
0.0
 20
0.0
 30
0.0
  9
$PUCSORGBACK
 10
0.0
 20
0.0
 30
0.0
  9
$USERI1
 70
     0
  9
$USERI2
 70
     0
  9
$USERI3
 70
     0
  9
$USERI4
 70
     0
  9
$USERI5
 70
     0
  9
$USERR1
 40
0.0
  9
$USERR2
 40
0.0
  9
$USERR3
 40
0.0
  9
$USERR4
 40
0.0
  9
$USERR5
 40
0.0
  9
$WORLDVIEW
 70
     1
  9
$SHADEDGE
 70
     3
  9
$SHADEDIF
 70
    70
  9
$TILEMODE
 70
     1
  9
$MAXACTVP
 70
    64
  9
$PINSBASE
 10
0.0
 20
0.0
 30
0.0
  9
$PLIMCHECK
 70
     0
  9
$PEXTMIN
 10
1.000000000000000E+20
 20
1.000000000000000E+20
 30
1.000000000000000E+20
  9
$PEXTMAX
 10
-1.000000000000000E+20
 20
-1.000000000000000E+20
 30
-1.000000000000000E+20
  9
$PLIMMIN
 10
0.0
 20
0.0
  9
$PLIMMAX
 10
12.0
 20
9.0
  9
$UNITMODE
 70
     0
  9
$VISRETAIN
 70
     1
  9
$PLINEGEN
 70
     0
  9
$PSLTSCALE
 70
     1
  9
$TREEDEPTH
 70
  3020
  9
$CMLSTYLE
  2
Standard
  9
$CMLJUST
 70
     0
  9
$CMLSCALE
 40
1.0
  9
$PROXYGRAPHICS
 70
     1
  9
$MEASUREMENT
 70
     0
  9
$CELWEIGHT
370
    -1
  9
$ENDCAPS
280
     0
  9
$JOINSTYLE
280
     0
  9
$LWDISPLAY
290
     0
  9
$INSUNITS
 70
     4
  9
$HYPERLINKBASE
  1

  9
$STYLESHEET
  1

  9
$XEDIT
290
     1
  9
$CEPSNTYPE
380
     0
  9
$PSTYLEMODE
290
     1
  9
$FINGERPRINTGUID
  2
{67406A0D-7397-4C91-A7CF-9174A810BE65}
  9
$VERSIONGUID
  2
{FAEB1C32-E019-11D5-929B-00C0DF256EC4}
  9
$EXTNAMES
290
     1
  9
$PSVPSCALE
 40
0.0
  9
$OLESTARTUP
290
     0
  9
$SORTENTS
280
   127
  9
$INDEXCTL
280
     0
  9
$HIDETEXT
280
     1
  9
$XCLIPFRAME
290
     0
  9
$HALOGAP
280
     0
  9
$OBSCOLOR
 70
   257
  9
$OBSLTYPE
280
     0
  9
$INTERSECTIONDISPLAY
280
     0
  9
$INTERSECTIONCOLOR
 70
   257
  9
$DIMASSOC
280
     2
  9
$PROJECTNAME
  1

  0
ENDSEC
  0
SECTION
  2
CLASSES
  0
CLASS
  1
ACDBDICTIONARYWDFLT
  2
AcDbDictionaryWithDefault
  3
ObjectDBX Classes
 90
        0
 91
        4
280
     0
281
     0
  0
CLASS
  1
VISUALSTYLE
  2
AcDbVisualStyle
  3
ObjectDBX Classes
 90
     4095
 91
        4
280
     0
281
     0
  0
CLASS
  1
SCALE
  2
AcDbScale
  3
ObjectDBX Classes
 90
     1153
 91
        4
280
     0
281
     0
  0
CLASS
  1
DICTIONARYVAR
  2
AcDbDictionaryVar
  3
ObjectDBX Classes
 90
        0
 91
        4
280
     0
281
     0
  0
ENDSEC
  0
SECTION
  2
TABLES
  0
TABLE
  2
VPORT
  5
8
330
0
100
AcDbSymbolTable
 70
     1
  0
VPORT
  5
29
330
8
100
AcDbSymbolTableRecord
100
AcDbViewportTableRecord
  2
*Active
 70
     0
 10
0.0
 20
0.0
 11
1.0
 21
1.0
 12
1589.799516849971
 22
181.1600354545355
 13
0.0
 23
0.0
 14
0.5
 24
0.5
 15
0.5
 25
0.5
 16
0.0
 26
0.0
 36
1.0
 17
0.0
 27
0.0
 37
0.0
 40
369.5664723272525
 41
0.4070986176115455
 42
50.0
 43
0.0
 44
0.0
 50
0.0
 51
0.0
 71
     0
 72
   100
 73
     1
 74
     3
 75
     0
 76
     0
 77
     0
 78
     0
281
     0
 65
     1
110
0.0
120
0.0
130
0.0
111
1.0
121
0.0
131
0.0
112
0.0
122
1.0
132
0.0
 79
     0
146
0.0
  0
ENDTAB
  0
TABLE
  2
LTYPE
  5
5
330
0
100
AcDbSymbolTable
 70
     1
  0
LTYPE
  5
14
330
5
100
AcDbSymbolTableRecord
100
AcDbLinetypeTableRecord
  2
ByBlock
 70
     0
  3

 72
    65
 73
     0
 40
0.0
  0
LTYPE
  5
15
330
5
100
AcDbSymbolTableRecord
100
AcDbLinetypeTableRecord
  2
ByLayer
 70
     0
  3

 72
    65
 73
     0
 40
0.0
  0
LTYPE
  5
16
330
5
100
AcDbSymbolTableRecord
100
AcDbLinetypeTableRecord
  2
Continuous
 70
     0
  3
Solid line
 72
    65
 73
     0
 40
0.0
  0
ENDTAB
  0
TABLE
  2
LAYER
  5
2
330
0
100
AcDbSymbolTable
 70
     4
  0
LAYER
  5
10
330
2
100
AcDbSymbolTableRecord
100
AcDbLayerTableRecord
  2
0
 70
     0
 62
     7
  6
Continuous
370
    -3
390
F
  0
LAYER
  5
3B
330
2
100
AcDbSymbolTableRecord
100
AcDbLayerTableRecord
  2
E8455
 70
     0
 62
     7
  6
Continuous
370
    -3
390
F
  0
LAYER
  5
61
330
2
100
AcDbSymbolTableRecord
100
AcDbLayerTableRecord
  2
Defpoints
 70
     0
 62
     7
  6
Continuous
290
     0
370
    -3
390
F
  0
LAYER
  5
7B
330
2
100
AcDbSymbolTableRecord
100
AcDbLayerTableRecord
  2
MAKE2D VISIBLE LINES
 70
     0
 62
     7
  6
Continuous
370
    -3
390
F
  0
ENDTAB
  0
TABLE
  2
STYLE
  5
3
330
0
100
AcDbSymbolTable
 70
     2
  0
STYLE
  5
11
330
3
100
AcDbSymbolTableRecord
100
AcDbTextStyleTableRecord
  2
Standard
 70
     0
 40
0.0
 41
1.0
 50
0.0
 71
     0
 42
0.2
  3
txt
  4

  0
STYLE
  5
5F
330
3
100
AcDbSymbolTableRecord
100
AcDbTextStyleTableRecord
  2
ARIAL
 70
     0
 40
0.0
 41
1.0
 50
0.0
 71
     0
 42
0.0
  3

  4

1001
ACAD
1000
Arial
1071
      256
  0
ENDTAB
  0
TABLE
  2
VIEW
  5
6
330
0
100
AcDbSymbolTable
 70
     0
  0
ENDTAB
  0
TABLE
  2
UCS
  5
7
330
0
100
AcDbSymbolTable
 70
     0
  0
ENDTAB
  0
TABLE
  2
APPID
  5
9
330
0
100
AcDbSymbolTable
 70
     1
  0
APPID
  5
12
330
9
100
AcDbSymbolTableRecord
100
AcDbRegAppTableRecord
  2
ACAD
 70
     0
  0
ENDTAB
  0
TABLE
  2
DIMSTYLE
  5
A
330
0
100
AcDbSymbolTable
 70
     2
100
AcDbDimStyleTable
  0
DIMSTYLE
105
27
330
A
100
AcDbSymbolTableRecord
100
AcDbDimStyleTableRecord
  2
Standard
 70
     0
340
11
  0
DIMSTYLE
105
60
102
{ACAD_REACTORS
330
3C
330
6E
102
}
330
A
100
AcDbSymbolTableRecord
100
AcDbDimStyleTableRecord
  2
DEFAULT
 70
     0
 41
1.0
 42
0.5
 44
0.5
 73
     0
 77
     1
 78
     1
140
10.0
141
0.5
172
     1
174
     1
179
     2
271
     2
284
     1
340
5F
  0
ENDTAB
  0
TABLE
  2
BLOCK_RECORD
  5
1
330
0
100
AcDbSymbolTable
 70
     3
  0
BLOCK_RECORD
  5
1F
330
1
100
AcDbSymbolTableRecord
100
AcDbBlockTableRecord
  2
*Model_Space
340
22
  0
BLOCK_RECORD
  5
1B
330
1
100
AcDbSymbolTableRecord
100
AcDbBlockTableRecord
  2
*Paper_Space
340
1E
  0
BLOCK_RECORD
  5
23
330
1
100
AcDbSymbolTableRecord
100
AcDbBlockTableRecord
  2
*Paper_Space0
340
26
  0
BLOCK_RECORD
  5
62
330
1
100
AcDbSymbolTableRecord
100
AcDbBlockTableRecord
  2
*D1
340
0
  0
BLOCK_RECORD
  5
6F
330
1
100
AcDbSymbolTableRecord
100
AcDbBlockTableRecord
  2
*D2
340
0
  0
ENDTAB
  0
ENDSEC
  0
SECTION
  2
BLOCKS
  0
BLOCK
  5
20
330
1F
100
AcDbEntity
  8
0
100
AcDbBlockBegin
  2
*Model_Space
 70
     0
 10
0.0
 20
0.0
 30
0.0
  3
*Model_Space
  1

  0
ENDBLK
  5
21
330
1F
100
AcDbEntity
  8
0
100
AcDbBlockEnd
  0
BLOCK
  5
1C
330
1B
100
AcDbEntity
 67
     1
  8
0
100
AcDbBlockBegin
  2
*Paper_Space
 70
     0
 10
0.0
 20
0.0
 30
0.0
  3
*Paper_Space
  1

  0
ENDBLK
  5
1D
330
1B
100
AcDbEntity
 67
     1
  8
0
100
AcDbBlockEnd
  0
BLOCK
  5
24
330
23
100
AcDbEntity
  8
0
100
AcDbBlockBegin
  2
*Paper_Space0
 70
     0
 10
0.0
 20
0.0
 30
0.0
  3
*Paper_Space0
  1

  0
ENDBLK
  5
25
330
23
100
AcDbEntity
  8
0
100
AcDbBlockEnd
  0
BLOCK
  5
6C
330
62
100
AcDbEntity
  8
0
100
AcDbBlockBegin
  2
*D1
 70
     1
 10
0.0
 20
0.0
 30
0.0
  3
*D1
  1

  0
LINE
  5
63
330
62
100
AcDbEntity
  8
E8455
 62
     0
370
    -2
100
AcDbLine
 10
1602.549516849971
 20
280.0
 30
0.0
 11
1663.549516849971
 21
280.0
 31
0.0
  0
LINE
  5
64
330
62
100
AcDbEntity
  8
E8455
 62
     0
370
    -2
100
AcDbLine
 10
1602.549516849971
 20
0.0
 30
0.0
 11
1663.549516849971
 21
-0.0000000000000038
 31
0.0
  0
LINE
  5
65
330
62
100
AcDbEntity
  8
E8455
 62
     0
370
    -2
100
AcDbLine
 10
1663.049516849971
 20
279.0
 30
0.0
 11
1663.049516849971
 21
0.9999999999999962
 31
0.0
  0
SOLID
  5
66
330
62
100
AcDbEntity
  8
E8455
 62
     0
100
AcDbTrace
 10
1663.216183516637
 20
279.0
 30
0.0
 11
1662.882850183304
 21
279.0
 31
0.0
 12
1663.049516849971
 22
280.0
 32
0.0
 13
1663.049516849971
 23
280.0
 33
0.0
  0
SOLID
  5
67
330
62
100
AcDbEntity
  8
E8455
 62
     0
100
AcDbTrace
 10
1662.882850183304
 20
0.9999999999999962
 30
0.0
 11
1663.216183516637
 21
0.9999999999999962
 31
0.0
 12
1663.049516849971
 22
-0.0000000000000037
 32
0.0
 13
1663.049516849971
 23
-0.0000000000000037
 33
0.0
  0
MTEXT
  5
68
330
62
100
AcDbEntity
  8
E8455
 62
     0
100
AcDbMText
 10
1657.854516849971
 20
140.0
 30
0.0
 40
10.0
 41
0.0
 71
     5
 72
     1
  1
\A1;280.00
  7
ARIAL
 11
0.0
 21
1.0
 31
0.0
 73
     1
 44
1.0
  0
POINT
  5
69
330
62
100
AcDbEntity
  8
Defpoints
 62
     0
100
AcDbPoint
 10
1602.049516849971
 20
280.0
 30
0.0
  0
POINT
  5
6A
330
62
100
AcDbEntity
  8
Defpoints
 62
     0
100
AcDbPoint
 10
1602.049516849971
 20
0.0
 30
0.0
  0
POINT
  5
6B
330
62
100
AcDbEntity
  8
Defpoints
 62
     0
100
AcDbPoint
 10
1663.049516849971
 20
-0.0000000000000037
 30
0.0
  0
ENDBLK
  5
6D
330
62
100
AcDbEntity
  8
0
100
AcDbBlockEnd
  0
BLOCK
  5
79
330
6F
100
AcDbEntity
  8
0
100
AcDbBlockBegin
  2
*D2
 70
     1
 10
0.0
 20
0.0
 30
0.0
  3
*D2
  1

  0
LINE
  5
70
330
6F
100
AcDbEntity
  8
E8455
 62
     0
370
    -2
100
AcDbLine
 10
1516.049516849971
 20
253.5000709090711
 30
0.0
 11
1516.049516849971
 21
352.5000709090711
 31
0.0
  0
LINE
  5
71
330
6F
100
AcDbEntity
  8
E8455
 62
     0
370
    -2
100
AcDbLine
 10
1629.049525977539
 20
303.8714833560028
 30
0.0
 11
1629.049525977539
 21
352.5000709090711
 31
0.0
  0
LINE
  5
72
330
6F
100
AcDbEntity
  8
E8455
 62
     0
370
    -2
100
AcDbLine
 10
1517.049516849971
 20
352.0000709090711
 30
0.0
 11
1628.049525977539
 21
352.0000709090711
 31
0.0
  0
SOLID
  5
73
330
6F
100
AcDbEntity
  8
E8455
 62
     0
100
AcDbTrace
 10
1517.049516849971
 20
352.1667375757378
 30
0.0
 11
1517.049516849971
 21
351.8334042424044
 31
0.0
 12
1516.049516849971
 22
352.0000709090711
 32
0.0
 13
1516.049516849971
 23
352.0000709090711
 33
0.0
  0
SOLID
  5
74
330
6F
100
AcDbEntity
  8
E8455
 62
     0
100
AcDbTrace
 10
1628.049525977539
 20
351.8334042424044
 30
0.0
 11
1628.049525977539
 21
352.1667375757378
 31
0.0
 12
1629.049525977539
 22
352.0000709090711
 32
0.0
 13
1629.049525977539
 23
352.0000709090711
 33
0.0
  0
MTEXT
  5
75
330
6F
100
AcDbEntity
  8
E8455
 62
     0
100
AcDbMText
 10
1572.549521413755
 20
357.1950709090711
 30
0.0
 40
10.0
 41
0.0
 71
     5
 72
     1
  1
\A1;113.00
  7
ARIAL
 73
     1
 44
1.0
  0
POINT
  5
76
330
6F
100
AcDbEntity
  8
Defpoints
 62
     0
100
AcDbPoint
 10
1516.049516849971
 20
253.0000709090711
 30
0.0
  0
POINT
  5
77
330
6F
100
AcDbEntity
  8
Defpoints
 62
     0
100
AcDbPoint
 10
1629.049525977539
 20
303.3714833560028
 30
0.0
  0
POINT
  5
78
330
6F
100
AcDbEntity
  8
Defpoints
 62
     0
100
AcDbPoint
 10
1629.049525977539
 20
352.0000709090711
 30
0.0
  0
ENDBLK
  5
7A
330
6F
100
AcDbEntity
  8
0
100
AcDbBlockEnd
  0
ENDSEC
  0
SECTION
  2
ENTITIES
  0
DIMENSION
  5
3C
330
1F
100
AcDbEntity
  8
E8455
100
AcDbDimension
  2
*D1
 10
1663.049516849971
 20
-0.0000000000000037
 30
0.0
 11
1657.854516849971
 21
140.0
 31
0.0
 70
    32
  1
<>
 71
     5
 42
280.0
  3
DEFAULT
100
AcDbAlignedDimension
 13
1602.049516849971
 23
280.0
 33
0.0
 14
1602.049516849971
 24
0.0
 34
0.0
 50
90.0
100
AcDbRotatedDimension
1001
ACAD
1000
DSTYLE
1002
{
1070
   279
1070
     1
1002
}
  0
DIMENSION
  5
6E
330
1F
100
AcDbEntity
  8
E8455
100
AcDbDimension
  2
*D2
 10
1629.049525977539
 20
352.0000709090711
 30
0.0
 11
1572.549521413755
 21
357.1950709090711
 31
0.0
 70
    32
  1
<>
 71
     5
 42
113.0000091275685
  3
DEFAULT
100
AcDbAlignedDimension
 13
1516.049516849971
 23
253.0000709090711
 33
0.0
 14
1629.049525977539
 24
303.3714833560028
 34
0.0
100
AcDbRotatedDimension
1001
ACAD
1000
DSTYLE
1002
{
1070
   279
1070
     1
1002
}
  0
SPLINE
  5
7C
330
1F
100
AcDbEntity
  8
MAKE2D VISIBLE LINES
100
AcDbSpline
210
0.0
220
0.0
230
1.0
 70
    24
 71
     2
 72
     6
 73
     3
 74
     0
 42
0.0000000001
 43
0.0000000001
 40
0.0
 40
0.0
 40
0.0
 40
9.999999999999943
 40
9.999999999999943
 40
9.999999999999943
 10
1551.04951684997
 20
58.0
 30
0.0
 10
1546.049516849971
 20
58.0
 30
0.0
 10
1541.049516849971
 20
58.0
 30
0.0
  0
SPLINE
  5
7D
330
1F
100
AcDbEntity
  8
MAKE2D VISIBLE LINES
100
AcDbSpline
210
0.0
220
0.0
230
1.0
 70
    12
 71
     2
 72
     6
 73
     3
 74
     0
 42
0.0000000001
 43
0.0000000001
 40
0.00010153938585
 40
0.00010153938585
 40
0.00010153938585
 40
0.9994284978775226
 40
0.9994284978775226
 40
0.9994284978775226
 10
1625.532215478883
 20
277.6413676742691
 30
0.0
 41
0.9999436389051436
 10
1625.643835980089
 20
277.593487711967
 30
0.0
 41
0.7226254267223152
 10
1625.432300451325
 20
276.6594008006517
 30
0.0
 41
0.9996829275083653
  0
SPLINE
  5
7E
330
1F
100
AcDbEntity
  8
MAKE2D VISIBLE LINES
100
AcDbSpline
210
0.0
220
0.0
230
1.0
 70
    24
 71
     2
 72
     6
 73
     3
 74
     0
 42
0.0000000001
 43
0.0000000001
 40
0.0
 40
0.0
 40
0.0
 40
9.999999999999943
 40
9.999999999999943
 40
9.999999999999943
 10
1541.049516849971
 20
222.0
 30
0.0
 10
1546.049516849971
 20
222.0
 30
0.0
 10
1551.04951684997
 20
222.0
 30
0.0
  0
SPLINE
  5
7F
330
1F
100
AcDbEntity
  8
MAKE2D VISIBLE LINES
100
AcDbSpline
210
0.0
220
0.0
230
1.0
 70
    24
 71
     2
 72
     6
 73
     3
 74
     0
 42
0.0000000001
 43
0.0000000001
 40
0.0
 40
0.0
 40
0.0
 40
10.00000000000006
 40
10.00000000000006
 40
10.00000000000006
 10
1551.049516849971
 20
198.0
 30
0.0
 10
1546.049516849971
 20
198.0
 30
0.0
 10
1541.049516849971
 20
198.0
 30
0.0
  0
SPLINE
  5
80
330
1F
100
AcDbEntity
  8
MAKE2D VISIBLE LINES
100
AcDbSpline
210
0.0
220
0.0
230
1.0
 70
    12
 71
     2
 72
     6
 73
     3
 74
     0
 42
0.0000000001
 43
0.0000000001
 40
0.0001015393858181
 40
0.0001015393858181
 40
0.0001015393858181
 40
0.9994284978775326
 40
0.9994284978775326
 40
0.9994284978775326
 10
1625.532215478883
 20
2.358632325730815
 30
0.0
 41
0.9999436389051612
 10
1625.643835980089
 20
2.406512288032907
 30
0.0
 41
0.7226254267223036
 10
1625.432300451325
 20
3.340599199348246
 30
0.0
 41
0.9996829275083708
  0
SPLINE
  5
81
330
1F
100
AcDbEntity
  8
MAKE2D VISIBLE LINES
100
AcDbSpline
210
0.0
220
0.0
230
1.0
 70
    24
 71
     2
 72
     6
 73
     3
 74
     0
 42
0.0000000001
 43
0.0000000001
 40
-10.00000000000006
 40
-10.00000000000006
 40
-10.00000000000006
 40
0.0
 40
0.0
 40
0.0
 10
1551.049516849971
 20
82.0
 30
0.0
 10
1546.049516849971
 20
82.00000000060624
 30
0.0
 10
1541.049516849971
 20
82.00000000121247
 30
0.0
  0
SPLINE
  5
82
330
1F
100
AcDbEntity
  8
MAKE2D VISIBLE LINES
100
AcDbSpline
210
0.0
220
0.0
230
1.0
 70
    24
 71
     2
 72
     6
 73
     3
 74
     0
 42
0.0000000001
 43
0.0000000001
 40
0.0
 40
0.0
 40
0.0
 40
26.63856812360441
 40
26.63856812360441
 40
26.63856812360441
 10
1541.049516849971
 20
82.00000000121247
 30
0.0
 10
1541.04951684997
 20
68.68071530486546
 30
0.0
 10
1541.049516849969
 20
55.36143060851846
 30
0.0
  0
SPLINE
  5
83
330
1F
100
AcDbEntity
  8
MAKE2D VISIBLE LINES
100
AcDbSpline
210
0.0
220
0.0
230
1.0
 70
    12
 71
     2
 72
     6
 73
     3
 74
     0
 42
0.0000000001
 43
0.0000000001
 40
0.0
 40
0.0
 40
0.0
 40
0.6942750180253103
 40
0.6942750180253103
 40
0.6942750180253103
 10
1541.049516849969
 20
55.36143060851846
 30
0.0
 41
1.0
 10
1541.049561460605
 20
54.99963298343191
 30
0.0
 41
0.9403182158918529
 10
1540.817896832571
 20
54.72173342314503
 30
0.0
 41
1.0
  0
SPLINE
  5
84
330
1F
100
AcDbEntity
  8
MAKE2D VISIBLE LINES
100
AcDbSpline
210
0.0
220
0.0
230
1.0
 70
    24
 71
     2
 72
     6
 73
     3
 74
     0
 42
0.0000000001
 43
0.0000000001
 40
0.0
 40
0.0
 40
0.0
 40
22.60032414724192
 40
22.60032414724192
 40
22.60032414724192
 10
1540.817896832571
 20
54.72173342314503
 30
0.0
 10
1533.583630007949
 20
46.04046604359978
 30
0.0
 10
1526.349363183327
 20
37.35919866405453
 30
0.0
  0
SPLINE
  5
85
330
1F
100
AcDbEntity
  8
MAKE2D VISIBLE LINES
100
AcDbSpline
210
0.0
220
0.0
230
1.0
 70
    12
 71
     2
 72
     6
 73
     3
 74
     0
 42
0.0000000001
 43
0.0000000001
 40
0.0
 40
0.0
 40
0.0
 40
0.8760082891180536
 40
0.8760082891180536
 40
0.8760082891180536
 10
1526.349363183327
 20
37.35919866405453
 30
0.0
 41
1.0
 10
1526.049425777343
 20
36.99896092557002
 30
0.0
 41
0.9057718525812518
 10
1525.58114190395
 20
36.99937626310735
 30
0.0
 41
0.9999999383266568
  0
SPLINE
  5
86
330
1F
100
AcDbEntity
  8
MAKE2D VISIBLE LINES
100
AcDbSpline
210
0.0
220
0.0
230
1.0
 70
    24
 71
     2
 72
     6
 73
     3
 74
     0
 42
0.0000000001
 43
0.0000000001
 40
0.0
 40
0.0
 40
0.0
 40
8.531625054015535
 40
8.531625054015535
 40
8.531625054015535
 10
1525.58114190395
 20
36.99937626310735
 30
0.0
 10
1521.31532937696
 20
36.99933966615382
 30
0.0
 10
1517.049516849971
 20
36.99930306920029
 30
0.0
  0
SPLINE
  5
87
330
1F
100
AcDbEntity
  8
MAKE2D VISIBLE LINES
100
AcDbSpline
210
0.0
220
0.0
230
1.0
 70
    12
 71
     2
 72
     6
 73
     3
 74
     0
 42
0.0000000001
 43
0.0000000001
 40
0.0
 40
0.0
 40
0.0
 40
1.570827529853718
 40
1.570827529853718
 40
1.570827529853718
 10
1517.049516849971
 20
36.99930306920029
 30
0.0
 41
0.9999999932334548
 10
1516.049499017941
 20
36.99862957921274
 30
0.0
 41
0.7071087617598114
 10
1516.049516849971
 20
37.99864813253768
 30
0.0
 41
1.0
  0
SPLINE
  5
88
330
1F
100
AcDbEntity
  8
MAKE2D VISIBLE LINES
100
AcDbSpline
210
0.0
220
0.0
230
1.0
 70
    24
 71
     3
 72
     8
 73
     4
 74
     0
 42
0.0000000001
 43
0.0000000001
 40
-64.00256036931879
 40
-64.00256036931879
 40
-64.00256036931879
 40
-64.00256036931879
 40
0.0
 40
0.0
 40
0.0
 40
0.0
 10
1516.049516849971
 20
37.99864813253768
 30
0.0
 10
1516.04951684997
 20
59.33283565982634
 30
0.0
 10
1516.049516849971
 20
80.66702244959929
 30
0.0
 10
1516.049516849971
 20
102.0012100493201
 30
0.0
  0
SPLINE
  5
89
330
1F
100
AcDbEntity
  8
MAKE2D VISIBLE LINES
100
AcDbSpline
210
0.0
220
0.0
230
1.0
 70
    12
 71
     2
 72
     6
 73
     3
 74
     0
 42
0.0000000001
 43
0.0000000001
 40
0.0
 40
0.0
 40
0.0
 40
1.57082421529818
 40
1.57082421529818
 40
1.57082421529818
 10
1516.049516849971
 20
102.0012100493201
 30
0.0
 41
1.0
 10
1516.049500566807
 20
103.0012271298161
 30
0.0
 41
0.7071082150146722
 10
1517.049516849971
 20
103.0006237368922
 30
0.0
 41
0.9999999947441341
  0
SPLINE
  5
8A
330
1F
100
AcDbEntity
  8
MAKE2D VISIBLE LINES
100
AcDbSpline
210
0.0
220
0.0
230
1.0
 70
    24
 71
     2
 72
     6
 73
     3
 74
     0
 42
0.0000000001
 43
0.0000000001
 40
0.0
 40
0.0
 40
0.0
 40
8.531625054015535
 40
8.531625054015535
 40
8.531625054015535
 10
1517.049516849971
 20
103.0006237368922
 30
0.0
 10
1521.315329376961
 20
103.0006603338462
 30
0.0
 10
1525.581141903952
 20
103.0006969308003
 30
0.0
  0
SPLINE
  5
8B
330
1F
100
AcDbEntity
  8
MAKE2D VISIBLE LINES
100
AcDbSpline
210
0.0
220
0.0
230
1.0
 70
    12
 71
     2
 72
     6
 73
     3
 74
     0
 42
0.0000000001
 43
0.0000000001
 40
0.0
 40
0.0
 40
0.0
 40
0.8759833196609541
 40
0.8759833196609541
 40
0.8759833196609541
 10
1525.581141903952
 20
103.0006969308003
 30
0.0
 41
0.9999999001798904
 10
1526.049382724309
 20
103.0010917271739
 30
0.0
 41
0.9058559083160945
 10
1526.349363183329
 20
102.6408737317829
 30
0.0
 41
1.0
  0
SPLINE
  5
8C
330
1F
100
AcDbEntity
  8
MAKE2D VISIBLE LINES
100
AcDbSpline
210
0.0
220
0.0
230
1.0
 70
    24
 71
     2
 72
     6
 73
     3
 74
     0
 42
0.0000000001
 43
0.0000000001
 40
0.0
 40
0.0
 40
0.0
 40
22.60032414724192
 40
22.60032414724192
 40
22.60032414724192
 10
1526.349363183329
 20
102.6408737317829
 30
0.0
 10
1533.583621673344
 20
93.95956322260614
 30
0.0
 10
1540.817880163359
 20
85.27825271342934
 30
0.0
  0
SPLINE
  5
8D
330
1F
100
AcDbEntity
  8
MAKE2D VISIBLE LINES
100
AcDbSpline
210
0.0
220
0.0
230
1.0
 70
    12
 71
     2
 72
     6
 73
     3
 74
     0
 42
0.0000000001
 43
0.0000000001
 40
0.0
 40
0.0
 40
0.0
 40
0.6943071000402298
 40
0.6943071000402298
 40
0.6943071000402298
 10
1540.81788016336
 20
85.27825271342934
 30
0.0
 41
0.9999999965183838
 10
1541.049477717497
 20
85.00029918684712
 30
0.0
 41
0.9403878625616672
 10
1541.04951684997
 20
84.63850428039588
 30
0.0
 41
1.0
  0
SPLINE
  5
8E
330
1F
100
AcDbEntity
  8
MAKE2D VISIBLE LINES
100
AcDbSpline
210
0.0
220
0.0
230
1.0
 70
    24
 71
     2
 72
     6
 73
     3
 74
     0
 42
0.0000000001
 43
0.0000000001
 40
-0.066043256616922
 40
-0.066043256616922
 40
-0.066043256616922
 40
0.0
 40
0.0
 40
0.0
 10
1624.049523253554
 20
50.0
 30
0.0
 10
1624.016501625254
 20
49.99999999999999
 30
0.0
 10
1623.983479996955
 20
49.99999999999999
 30
0.0
  0
SPLINE
  5
8F
330
1F
100
AcDbEntity
  8
MAKE2D VISIBLE LINES
100
AcDbSpline
210
0.0
220
0.0
230
1.0
 70
    24
 71
     2
 72
     6
 73
     3
 74
     0
 42
0.0000000001
 43
0.0000000001
 40
0.0
 40
0.0
 40
0.0
 40
0.0330505714587161
 40
0.0330505714587161
 40
0.0330505714587161
 10
1623.983479996955
 20
49.99999999999999
 30
0.0
 10
1623.966954711758
 20
49.99999999999999
 30
0.0
 10
1623.950429426561
 20
49.99999999999999
 30
0.0
  0
SPLINE
  5
90
330
1F
100
AcDbEntity
  8
MAKE2D VISIBLE LINES
100
AcDbSpline
210
0.0
220
0.0
230
1.0
 70
    24
 71
     2
 72
     6
 73
     3
 74
     0
 42
0.0000000001
 43
0.0000000001
 40
-0.1778047290010818
 40
-0.1778047290010818
 40
-0.1778047290010818
 40
0.0
 40
0.0
 40
0.0
 10
1623.950429426561
 20
49.99999999999999
 30
0.0
 10
1623.861527064928
 20
49.99999999999999
 30
0.0
 10
1623.772624703294
 20
49.99999999999999
 30
0.0
  0
SPLINE
  5
91
330
1F
100
AcDbEntity
  8
MAKE2D VISIBLE LINES
100
AcDbSpline
210
0.0
220
0.0
230
1.0
 70
    24
 71
     2
 72
     6
 73
     3
 74
     0
 42
0.0000000001
 43
0.0000000001
 40
0.0
 40
0.0
 40
0.0
 40
0.2644775373631774
 40
0.2644775373631774
 40
0.2644775373631774
 10
1623.772624703294
 20
49.99999999999999
 30
0.0
 10
1623.640385936995
 20
49.99999999999999
 30
0.0
 10
1623.508147170696
 20
49.99999999999999
 30
0.0
  0
SPLINE
  5
92
330
1F
100
AcDbEntity
  8
MAKE2D VISIBLE LINES
100
AcDbSpline
210
0.0
220
0.0
230
1.0
 70
    24
 71
     2
 72
     6
 73
     3
 74
     0
 42
0.0000000001
 43
0.0000000001
 40
-0.0538790648749909
 40
-0.0538790648749909
 40
-0.0538790648749909
 40
0.0
 40
0.0
 40
0.0
 10
1623.508147170696
 20
49.99999999999999
 30
0.0
 10
1623.481207638295
 20
49.99999999999999
 30
0.0
 10
1623.454268105894
 20
49.99999999999999
 30
0.0
  0
SPLINE
  5
93
330
1F
100
AcDbEntity
  8
MAKE2D VISIBLE LINES
100
AcDbSpline
210
0.0
220
0.0
230
1.0
 70
    24
 71
     2
 72
     6
 73
     3
 74
     0
 42
0.0000000001
 43
0.0000000001
 40
0.0
 40
0.0
 40
0.0
 40
0.0922013098960406
 40
0.0922013098960406
 40
0.0922013098960406
 10
1623.454268105894
 20
49.99999999999999
 30
0.0
 10
1623.408167451075
 20
49.99999999999999
 30
0.0
 10
1623.362066796255
 20
49.99999999999999
 30
0.0
  0
SPLINE
  5
94
330
1F
100
AcDbEntity
  8
MAKE2D VISIBLE LINES
100
AcDbSpline
210
0.0
220
0.0
230
1.0
 70
    24
 71
     2
 72
     6
 73
     3
 74
     0
 42
0.0000000001
 43
0.0000000001
 40
-0.0464753047373279
 40
-0.0464753047373279
 40
-0.0464753047373279
 40
0.0
 40
0.0
 40
0.0
 10
1623.362066796255
 20
49.99999999999999
 30
0.0
 10
1623.338829144005
 20
49.99999999999999
 30
0.0
 10
1623.315591491755
 20
49.99999999999999
 30
0.0
  0
SPLINE
  5
95
330
1F
100
AcDbEntity
  8
MAKE2D VISIBLE LINES
100
AcDbSpline
210
0.0
220
0.0
230
1.0
 70
    24
 71
     2
 72
     6
 73
     3
 74
     0
 42
0.0000000001
 43
0.0000000001
 40
0.0
 40
0.0
 40
0.0
 40
0.2319117550664487
 40
0.2319117550664487
 40
0.2319117550664487
 10
1623.315591491755
 20
49.99999999999999
 30
0.0
 10
1623.199635614121
 20
49.99999999999999
 30
0.0
 10
1623.083679736487
 20
49.99999999999999
 30
0.0
  0
SPLINE
  5
96
330
1F
100
AcDbEntity
  8
MAKE2D VISIBLE LINES
100
AcDbSpline
210
0.0
220
0.0
230
1.0
 70
    24
 71
     2
 72
     6
 73
     3
 74
     0
 42
0.0000000001
 43
0.0000000001
 40
-0.1436083167466222
 40
-0.1436083167466222
 40
-0.1436083167466222
 40
0.0
 40
0.0
 40
0.0
 10
1623.083679736487
 20
49.99999999999999
 30
0.0
 10
1623.011875578042
 20
49.99999999999999
 30
0.0
 10
1622.940071419598
 20
49.99999999999999
 30
0.0
  0
SPLINE
  5
97
330
1F
100
AcDbEntity
  8
MAKE2D VISIBLE LINES
100
AcDbSpline
210
0.0
220
0.0
230
1.0
 70
    24
 71
     2
 72
     6
 73
     3
 74
     0
 42
0.0000000001
 43
0.0000000001
 40
0.0
 40
0.0
 40
0.0
 40
0.0569866114727802
 40
0.0569866114727802
 40
0.0569866114727802
 10
1622.940071419598
 20
49.99999999999999
 30
0.0
 10
1622.911578113876
 20
49.99999999999999
 30
0.0
 10
1622.883084808154
 20
49.99999999999999
 30
0.0
  0
SPLINE
  5
98
330
1F
100
AcDbEntity
  8
MAKE2D VISIBLE LINES
100
AcDbSpline
210
0.0
220
0.0
230
1.0
 70
    24
 71
     2
 72
     6
 73
     3
 74
     0
 42
0.0000000001
 43
0.0000000001
 40
-0.2788982688366559
 40
-0.2788982688366559
 40
-0.2788982688366559
 40
0.0
 40
0.0
 40
0.0
 10
1622.883084808154
 20
49.99999999999999
 30
0.0
 10
1622.743635673717
 20
49.99999999999999
 30
0.0
 10
1622.604186539279
 20
49.99999999999999
 30
0.0
  0
SPLINE
  5
99
330
1F
100
AcDbEntity
  8
MAKE2D VISIBLE LINES
100
AcDbSpline
210
0.0
220
0.0
230
1.0
 70
    24
 71
     2
 72
     6
 73
     3
 74
     0
 42
0.0000000001
 43
0.0000000001
 40
0.0
 40
0.0
 40
0.0
 40
0.3954111564485174
 40
0.3954111564485174
 40
0.3954111564485174
 10
1622.604186539279
 20
49.99999999999999
 30
0.0
 10
1622.406480961052
 20
49.99999999999999
 30
0.0
 10
1622.208775382824
 20
49.99999999999999
 30
0.0
  0
SPLINE
  5
9A
330
1F
100
AcDbEntity
  8
MAKE2D VISIBLE LINES
100
AcDbSpline
210
0.0
220
0.0
230
1.0
 70
    24
 71
     2
 72
     6
 73
     3
 74
     0
 42
0.0000000001
 43
0.0000000001
 40
-0.4787063990216893
 40
-0.4787063990216893
 40
-0.4787063990216893
 40
0.0
 40
0.0
 40
0.0
 10
1622.208775382824
 20
49.99999999999999
 30
0.0
 10
1621.969422186261
 20
49.99999999999999
 30
0.0
 10
1621.730068989699
 20
49.99999999999999
 30
0.0
  0
SPLINE
  5
9B
330
1F
100
AcDbEntity
  8
MAKE2D VISIBLE LINES
100
AcDbSpline
210
0.0
220
0.0
230
1.0
 70
    24
 71
     2
 72
     6
 73
     3
 74
     0
 42
0.0000000001
 43
0.0000000001
 40
0.0
 40
0.0
 40
0.0
 40
0.1183647255306823
 40
0.1183647255306823
 40
0.1183647255306823
 10
1621.730068989699
 20
49.99999999999999
 30
0.0
 10
1621.670886629879
 20
49.99999999999999
 30
0.0
 10
1621.611704270059
 20
49.99999999999999
 30
0.0
  0
SPLINE
  5
9C
330
1F
100
AcDbEntity
  8
MAKE2D VISIBLE LINES
100
AcDbSpline
210
0.0
220
0.0
230
1.0
 70
    24
 71
     2
 72
     6
 73
     3
 74
     0
 42
0.0000000001
 43
0.0000000001
 40
-0.3912016505387328
 40
-0.3912016505387328
 40
-0.3912016505387328
 40
0.0
 40
0.0
 40
0.0
 10
1621.611704270059
 20
49.99999999999999
 30
0.0
 10
1621.416103446556
 20
49.99999999999999
 30
0.0
 10
1621.220502623052
 20
49.99999999999999
 30
0.0
  0
SPLINE
  5
9D
330
1F
100
AcDbEntity
  8
MAKE2D VISIBLE LINES
100
AcDbSpline
210
0.0
220
0.0
230
1.0
 70
    24
 71
     2
 72
     6
 73
     3
 74
     0
 42
0.0000000001
 43
0.0000000001
 40
0.0
 40
0.0
 40
0.0
 40
0.5560262191916081
 40
0.5560262191916081
 40
0.5560262191916081
 10
1621.220502623052
 20
49.99999999999999
 30
0.0
 10
1620.942489515459
 20
49.99999999999999
 30
0.0
 10
1620.664476407866
 20
49.99999999999999
 30
0.0
  0
SPLINE
  5
9E
330
1F
100
AcDbEntity
  8
MAKE2D VISIBLE LINES
100
AcDbSpline
210
0.0
220
0.0
230
1.0
 70
    24
 71
     2
 72
     6
 73
     3
 74
     0
 42
0.0000000001
 43
0.0000000001
 40
-0.0133404083685491
 40
-0.0133404083685491
 40
-0.0133404083685491
 40
0.0
 40
0.0
 40
0.0
 10
1620.664476407866
 20
49.99999999999999
 30
0.0
 10
1620.657806203928
 20
49.99999999999999
 30
0.0
 10
1620.651135999989
 20
49.99999999999999
 30
0.0
  0
SPLINE
  5
9F
330
1F
100
AcDbEntity
  8
MAKE2D VISIBLE LINES
100
AcDbSpline
210
0.0
220
0.0
230
1.0
 70
    24
 71
     2
 72
     6
 73
     3
 74
     0
 42
0.0000000001
 43
0.0000000001
 40
0.0
 40
0.0
 40
0.0
 40
0.0891120128381999
 40
0.0891120128381999
 40
0.0891120128381999
 10
1620.651135999989
 20
49.99999999999999
 30
0.0
 10
1620.606579993569
 20
49.99999999999999
 30
0.0
 10
1620.562023987149
 20
49.99999999999999
 30
0.0
  0
SPLINE
  5
A0
330
1F
100
AcDbEntity
  8
MAKE2D VISIBLE LINES
100
AcDbSpline
210
0.0
220
0.0
230
1.0
 70
    24
 71
     2
 72
     6
 73
     3
 74
     0
 42
0.0000000001
 43
0.0000000001
 40
-0.3075387291294192
 40
-0.3075387291294192
 40
-0.3075387291294192
 40
0.0
 40
0.0
 40
0.0
 10
1620.562023987149
 20
49.99999999999999
 30
0.0
 10
1620.408254622585
 20
49.99999999999999
 30
0.0
 10
1620.25448525802
 20
49.99999999999999
 30
0.0
  0
SPLINE
  5
A1
330
1F
100
AcDbEntity
  8
MAKE2D VISIBLE LINES
100
AcDbSpline
210
0.0
220
0.0
230
1.0
 70
    24
 71
     2
 72
     6
 73
     3
 74
     0
 42
0.0000000001
 43
0.0000000001
 40
0.0
 40
0.0
 40
0.0
 40
0.0790221375717692
 40
0.0790221375717692
 40
0.0790221375717692
 10
1620.25448525802
 20
49.99999999999999
 30
0.0
 10
1620.214974189234
 20
49.99999999999999
 30
0.0
 10
1620.175463120448
 20
49.99999999999999
 30
0.0
  0
SPLINE
  5
A2
330
1F
100
AcDbEntity
  8
MAKE2D VISIBLE LINES
100
AcDbSpline
210
0.0
220
0.0
230
1.0
 70
    24
 71
     2
 72
     6
 73
     3
 74
     0
 42
0.0000000001
 43
0.0000000001
 40
-3.375269617145477
 40
-3.375269617145477
 40
-3.375269617145477
 40
0.0
 40
0.0
 40
0.0
 10
1620.175463120448
 20
49.99999999999999
 30
0.0
 10
1618.487828311875
 20
49.99999999999999
 30
0.0
 10
1616.800193503302
 20
49.99999999999999
 30
0.0
  0
SPLINE
  5
A3
330
1F
100
AcDbEntity
  8
MAKE2D VISIBLE LINES
100
AcDbSpline
210
0.0
220
0.0
230
1.0
 70
    24
 71
     2
 72
     6
 73
     3
 74
     0
 42
0.0000000001
 43
0.0000000001
 40
0.0
 40
0.0
 40
0.0
 40
0.331436588309316
 40
0.331436588309316
 40
0.331436588309316
 10
1616.800193503302
 20
49.99999999999999
 30
0.0
 10
1616.634475210618
 20
49.99999999999999
 30
0.0
 10
1616.468756917934
 20
49.99999999999999
 30
0.0
  0
SPLINE
  5
A4
330
1F
100
AcDbEntity
  8
MAKE2D VISIBLE LINES
100
AcDbSpline
210
0.0
220
0.0
230
1.0
 70
    24
 71
     2
 72
     6
 73
     3
 74
     0
 42
0.0000000001
 43
0.0000000001
 40
-0.4922205603226075
 40
-0.4922205603226075
 40
-0.4922205603226075
 40
0.0
 40
0.0
 40
0.0
 10
1616.468756917934
 20
49.99999999999999
 30
0.0
 10
1616.222646639507
 20
49.99999999999999
 30
0.0
 10
1615.97653636108
 20
49.99999999999999
 30
0.0
  0
SPLINE
  5
A5
330
1F
100
AcDbEntity
  8
MAKE2D VISIBLE LINES
100
AcDbSpline
210
0.0
220
0.0
230
1.0
 70
    24
 71
     2
 72
     6
 73
     3
 74
     0
 42
0.0000000001
 43
0.0000000001
 40
0.0
 40
0.0
 40
0.0
 40
0.1415363764399444
 40
0.1415363764399444
 40
0.1415363764399444
 10
1615.97653636108
 20
49.99999999999999
 30
0.0
 10
1615.905768173124
 20
49.99999999999999
 30
0.0
 10
1615.834999985168
 20
49.99999999999999
 30
0.0
  0
SPLINE
  5
A6
330
1F
100
AcDbEntity
  8
MAKE2D VISIBLE LINES
100
AcDbSpline
210
0.0
220
0.0
230
1.0
 70
    24
 71
     2
 72
     6
 73
     3
 74
     0
 42
0.0000000001
 43
0.0000000001
 40
-0.2831946447283826
 40
-0.2831946447283826
 40
-0.2831946447283826
 40
0.0
 40
0.0
 40
0.0
 10
1615.834999985168
 20
49.99999999999999
 30
0.0
 10
1615.693402656894
 20
49.99999999999999
 30
0.0
 10
1615.55180532862
 20
49.99999999999999
 30
0.0
  0
SPLINE
  5
A7
330
1F
100
AcDbEntity
  8
MAKE2D VISIBLE LINES
100
AcDbSpline
210
0.0
220
0.0
230
1.0
 70
    24
 71
     2
 72
     6
 73
     3
 74
     0
 42
0.0000000001
 43
0.0000000001
 40
0.0
 40
0.0
 40
0.0
 40
0.2323042794686216
 40
0.2323042794686216
 40
0.2323042794686216
 10
1615.55180532862
 20
49.99999999999999
 30
0.0
 10
1615.435653180218
 20
49.99999999999999
 30
0.0
 10
1615.319501031815
 20
49.99999999999999
 30
0.0
  0
SPLINE
  5
A8
330
1F
100
AcDbEntity
  8
MAKE2D VISIBLE LINES
100
AcDbSpline
210
0.0
220
0.0
230
1.0
 70
    24
 71
     2
 72
     6
 73
     3
 74
     0
 42
0.0000000001
 43
0.0000000001
 40
-0.2006524399857881
 40
-0.2006524399857881
 40
-0.2006524399857881
 40
0.0
 40
0.0
 40
0.0
 10
1615.319501031815
 20
49.99999999999999
 30
0.0
 10
1615.219174809064
 20
49.99999999999999
 30
0.0
 10
1615.118848586312
 20
49.99999999999999
 30
0.0
  0
SPLINE
  5
A9
330
1F
100
AcDbEntity
  8
MAKE2D VISIBLE LINES
100
AcDbSpline
210
0.0
220
0.0
230
1.0
 70
    24
 71
     2
 72
     6
 73
     3
 74
     0
 42
0.0000000001
 43
0.0000000001
 40
0.0
 40
0.0
 40
0.0
 40
2.260876977649332
 40
2.260876977649332
 40
2.260876977649332
 10
1615.118848586312
 20
49.99999999999999
 30
0.0
 10
1613.988410100082
 20
49.99999999999999
 30
0.0
 10
1612.857971613851
 20
49.99999999999999
 30
0.0
  0
SPLINE
  5
AA
330
1F
100
AcDbEntity
  8
MAKE2D VISIBLE LINES
100
AcDbSpline
210
0.0
220
0.0
230
1.0
 70
    24
 71
     2
 72
     6
 73
     3
 74
     0
 42
0.0000000001
 43
0.0000000001
 40
-0.0174254785611083
 40
-0.0174254785611083
 40
-0.0174254785611083
 40
0.0
 40
0.0
 40
0.0
 10
1612.857971613851
 20
49.99999999999999
 30
0.0
 10
1612.849258870228
 20
49.99999999999999
 30
0.0
 10
1612.840546126605
 20
49.99999999999999
 30
0.0
  0
SPLINE
  5
AB
330
1F
100
AcDbEntity
  8
MAKE2D VISIBLE LINES
100
AcDbSpline
210
0.0
220
0.0
230
1.0
 70
    24
 71
     2
 72
     6
 73
     3
 74
     0
 42
0.0000000001
 43
0.0000000001
 40
0.0
 40
0.0
 40
0.0
 40
0.3802836206417624
 40
0.3802836206417624
 40
0.3802836206417624
 10
1612.840546126605
 20
49.99999999999999
 30
0.0
 10
1612.650404310713
 20
49.99999999999999
 30
0.0
 10
1612.460262494821
 20
49.99999999999999
 30
0.0
  0
SPLINE
  5
AC
330
1F
100
AcDbEntity
  8
MAKE2D VISIBLE LINES
100
AcDbSpline
210
0.0
220
0.0
230
1.0
 70
    24
 71
     2
 72
     6
 73
     3
 74
     0
 42
0.0000000001
 43
0.0000000001
 40
-0.0961071142762648
 40
-0.0961071142762648
 40
-0.0961071142762648
 40
0.0
 40
0.0
 40
0.0
 10
1612.460262494821
 20
49.99999999999999
 30
0.0
 10
1612.412208936373
 20
50.0
 30
0.0
 10
1612.364155377925
 20
50.0
 30
0.0
  0
SPLINE
  5
AD
330
1F
100
AcDbEntity
  8
MAKE2D VISIBLE LINES
100
AcDbSpline
210
0.0
220
0.0
230
1.0
 70
    24
 71
     2
 72
     6
 73
     3
 74
     0
 42
0.0000000001
 43
0.0000000001
 40
0.0
 40
0.0
 40
0.0
 40
0.3682691731868317
 40
0.3682691731868317
 40
0.3682691731868317
 10
1612.364155377925
 20
50.0
 30
0.0
 10
1612.180020789314
 20
50.0
 30
0.0
 10
1611.995886200702
 20
50.0
 30
0.0
  0
SPLINE
  5
AE
330
1F
100
AcDbEntity
  8
MAKE2D VISIBLE LINES
100
AcDbSpline
210
0.0
220
0.0
230
1.0
 70
    24
 71
     2
 72
     6
 73
     3
 74
     0
 42
0.0000000001
 43
0.0000000001
 40
-1.613419248154514
 40
-1.613419248154514
 40
-1.613419248154514
 40
0.0
 40
0.0
 40
0.0
 10
1611.995886200702
 20
50.0
 30
0.0
 10
1611.18917657752
 20
50.0
 30
0.0
 10
1610.382466954338
 20
50.0
 30
0.0
  0
SPLINE
  5
AF
330
1F
100
AcDbEntity
  8
MAKE2D VISIBLE LINES
100
AcDbSpline
210
0.0
220
0.0
230
1.0
 70
    24
 71
     2
 72
     6
 73
     3
 74
     0
 42
0.0000000001
 43
0.0000000001
 40
0.0
 40
0.0
 40
0.0
 40
0.1751891099276008
 40
0.1751891099276008
 40
0.1751891099276008
 10
1610.382466954338
 20
50.0
 30
0.0
 10
1610.294872402671
 20
50.0
 30
0.0
 10
1610.207277851004
 20
50.0
 30
0.0
  0
SPLINE
  5
B0
330
1F
100
AcDbEntity
  8
MAKE2D VISIBLE LINES
100
AcDbSpline
210
0.0
220
0.0
230
1.0
 70
    24
 71
     2
 72
     6
 73
     3
 74
     0
 42
0.0000000001
 43
0.0000000001
 40
-2.267404035444201
 40
-2.267404035444201
 40
-2.267404035444201
 40
0.0
 40
0.0
 40
0.0
 10
1610.207277851004
 20
50.0
 30
0.0
 10
1609.07357583635
 20
50.0
 30
0.0
 10
1607.939873821696
 20
50.0
 30
0.0
  0
SPLINE
  5
B1
330
1F
100
AcDbEntity
  8
MAKE2D VISIBLE LINES
100
AcDbSpline
210
0.0
220
0.0
230
1.0
 70
    24
 71
     2
 72
     6
 73
     3
 74
     0
 42
0.0000000001
 43
0.0000000001
 40
0.0
 40
0.0
 40
0.0
 40
0.2151742429194883
 40
0.2151742429194883
 40
0.2151742429194883
 10
1607.939873821696
 20
50.0
 30
0.0
 10
1607.832286700624
 20
50.0
 30
0.0
 10
1607.724699579552
 20
50.0
 30
0.0
  0
SPLINE
  5
B2
330
1F
100
AcDbEntity
  8
MAKE2D VISIBLE LINES
100
AcDbSpline
210
0.0
220
0.0
230
1.0
 70
    24
 71
     2
 72
     6
 73
     3
 74
     0
 42
0.0000000001
 43
0.0000000001
 40
-0.5939624770387582
 40
-0.5939624770387582
 40
-0.5939624770387582
 40
0.0
 40
0.0
 40
0.0
 10
1607.724699579552
 20
50.0
 30
0.0
 10
1607.427718333728
 20
50.0
 30
0.0
 10
1607.130737087903
 20
50.0
 30
0.0
  0
SPLINE
  5
B3
330
1F
100
AcDbEntity
  8
MAKE2D VISIBLE LINES
100
AcDbSpline
210
0.0
220
0.0
230
1.0
 70
    24
 71
     2
 72
     6
 73
     3
 74
     0
 42
0.0000000001
 43
0.0000000001
 40
0.0
 40
0.0
 40
0.0
 40
0.0404510096363992
 40
0.0404510096363992
 40
0.0404510096363992
 10
1607.130737087903
 20
50.0
 30
0.0
 10
1607.110511575416
 20
50.0
 30
0.0
 10
1607.090286062928
 20
50.0
 30
0.0
  0
SPLINE
  5
B4
330
1F
100
AcDbEntity
  8
MAKE2D VISIBLE LINES
100
AcDbSpline
210
0.0
220
0.0
230
1.0
 70
    24
 71
     2
 72
     6
 73
     3
 74
     0
 42
0.0000000001
 43
0.0000000001
 40
-0.5607643837647629
 40
-0.5607643837647629
 40
-0.5607643837647629
 40
0.0
 40
0.0
 40
0.0
 10
1607.090286062928
 20
50.0
 30
0.0
 10
1606.809903871077
 20
50.0
 30
0.0
 10
1606.529521679225
 20
50.0
 30
0.0
  0
SPLINE
  5
B5
330
1F
100
AcDbEntity
  8
MAKE2D VISIBLE LINES
100
AcDbSpline
210
0.0
220
0.0
230
1.0
 70
    24
 71
     2
 72
     6
 73
     3
 74
     0
 42
0.0000000001
 43
0.0000000001
 40
0.0
 40
0.0
 40
0.0
 40
0.078049872167071
 40
0.078049872167071
 40
0.078049872167071
 10
1606.529521679225
 20
50.0
 30
0.0
 10
1606.490496743459
 20
50.0
 30
0.0
 10
1606.451471807694
 20
50.0
 30
0.0
  0
SPLINE
  5
B6
330
1F
100
AcDbEntity
  8
MAKE2D VISIBLE LINES
100
AcDbSpline
210
0.0
220
0.0
230
1.0
 70
    24
 71
     2
 72
     6
 73
     3
 74
     0
 42
0.0000000001
 43
0.0000000001
 40
-0.435757656097735
 40
-0.435757656097735
 40
-0.435757656097735
 40
0.0
 40
0.0
 40
0.0
 10
1606.451471807694
 20
50.0
 30
0.0
 10
1606.233592980018
 20
50.0
 30
0.0
 10
1606.015714152342
 20
50.0
 30
0.0
  0
SPLINE
  5
B7
330
1F
100
AcDbEntity
  8
MAKE2D VISIBLE LINES
100
AcDbSpline
210
0.0
220
0.0
230
1.0
 70
    24
 71
     2
 72
     6
 73
     3
 74
     0
 42
0.0000000001
 43
0.0000000001
 40
0.0
 40
0.0
 40
0.0
 40
0.2069039211985455
 40
0.2069039211985455
 40
0.2069039211985455
 10
1606.015714152342
 20
50.0
 30
0.0
 10
1605.912262191959
 20
50.0
 30
0.0
 10
1605.808810231576
 20
49.99999999999999
 30
0.0
  0
SPLINE
  5
B8
330
1F
100
AcDbEntity
  8
MAKE2D VISIBLE LINES
100
AcDbSpline
210
0.0
220
0.0
230
1.0
 70
    24
 71
     2
 72
     6
 73
     3
 74
     0
 42
0.0000000001
 43
0.0000000001
 40
-0.354752703931581
 40
-0.354752703931581
 40
-0.354752703931581
 40
0.0
 40
0.0
 40
0.0
 10
1605.808810231576
 20
49.99999999999999
 30
0.0
 10
1605.631433879833
 20
49.99999999999999
 30
0.0
 10
1605.454057528089
 20
49.99999999999999
 30
0.0
  0
SPLINE
  5
B9
330
1F
100
AcDbEntity
  8
MAKE2D VISIBLE LINES
100
AcDbSpline
210
0.0
220
0.0
230
1.0
 70
    24
 71
     2
 72
     6
 73
     3
 74
     0
 42
0.0000000001
 43
0.0000000001
 40
0.0
 40
0.0
 40
0.0
 40
0.2912027728386875
 40
0.2912027728386875
 40
0.2912027728386875
 10
1605.454057528089
 20
49.99999999999999
 30
0.0
 10
1605.308456141759
 20
49.99999999999999
 30
0.0
 10
1605.162854755429
 20
49.99999999999999
 30
0.0
  0
SPLINE
  5
BA
330
1F
100
AcDbEntity
  8
MAKE2D VISIBLE LINES
100
AcDbSpline
210
0.0
220
0.0
230
1.0
 70
    24
 71
     2
 72
     6
 73
     3
 74
     0
 42
0.0000000001
 43
0.0000000001
 40
-0.115202354016219
 40
-0.115202354016219
 40
-0.115202354016219
 40
0.0
 40
0.0
 40
0.0
 10
1605.162854755429
 20
49.99999999999999
 30
0.0
 10
1605.105253578434
 20
49.99999999999999
 30
0.0
 10
1605.04765240144
 20
49.99999999999999
 30
0.0
  0
SPLINE
  5
BB
330
1F
100
AcDbEntity
  8
MAKE2D VISIBLE LINES
100
AcDbSpline
210
0.0
220
0.0
230
1.0
 70
    24
 71
     2
 72
     6
 73
     3
 74
     0
 42
0.0000000001
 43
0.0000000001
 40
0.0
 40
0.0
 40
0.0
 40
0.7233222659327794
 40
0.7233222659327794
 40
0.7233222659327794
 10
1605.04765240144
 20
49.99999999999999
 30
0.0
 10
1604.68599126843
 20
49.99999999999999
 30
0.0
 10
1604.32433013542
 20
49.99999999999999
 30
0.0
  0
SPLINE
  5
BC
330
1F
100
AcDbEntity
  8
MAKE2D VISIBLE LINES
100
AcDbSpline
210
0.0
220
0.0
230
1.0
 70
    24
 71
     2
 72
     6
 73
     3
 74
     0
 42
0.0000000001
 43
0.0000000001
 40
-0.2727279379539596
 40
-0.2727279379539596
 40
-0.2727279379539596
 40
0.0
 40
0.0
 40
0.0
 10
1604.32433013542
 20
49.99999999999999
 30
0.0
 10
1604.187966166552
 20
50.0
 30
0.0
 10
1604.051602197683
 20
50.0
 30
0.0
  0
SPLINE
  5
BD
330
1F
100
AcDbEntity
  8
MAKE2D VISIBLE LINES
100
AcDbSpline
210
0.0
220
0.0
230
1.0
 70
    24
 71
     2
 72
     6
 73
     3
 74
     0
 42
0.0000000001
 43
0.0000000001
 40
0.0
 40
0.0
 40
0.0
 40
0.2945923686245351
 40
0.2945923686245351
 40
0.2945923686245351
 10
1604.051602197683
 20
50.0
 30
0.0
 10
1603.904306012617
 20
50.0
 30
0.0
 10
1603.757009827551
 20
50.0
 30
0.0
  0
SPLINE
  5
BE
330
1F
100
AcDbEntity
  8
MAKE2D VISIBLE LINES
100
AcDbSpline
210
0.0
220
0.0
230
1.0
 70
    24
 71
     2
 72
     6
 73
     3
 74
     0
 42
0.0000000001
 43
0.0000000001
 40
-0.2050982405046398
 40
-0.2050982405046398
 40
-0.2050982405046398
 40
0.0
 40
0.0
 40
0.0
 10
1603.757009827551
 20
50.0
 30
0.0
 10
1603.654460706409
 20
50.0
 30
0.0
 10
1603.551911585267
 20
50.0
 30
0.0
  0
SPLINE
  5
BF
330
1F
100
AcDbEntity
  8
MAKE2D VISIBLE LINES
100
AcDbSpline
210
0.0
220
0.0
230
1.0
 70
    24
 71
     2
 72
     6
 73
     3
 74
     0
 42
0.0000000001
 43
0.0000000001
 40
0.0
 40
0.0
 40
0.0
 40
0.4271889964344382
 40
0.4271889964344382
 40
0.4271889964344382
 10
1603.551911585267
 20
50.0
 30
0.0
 10
1603.33831708818
 20
50.0
 30
0.0
 10
1603.124722591093
 20
50.0
 30
0.0
  0
SPLINE
  5
C0
330
1F
100
AcDbEntity
  8
MAKE2D VISIBLE LINES
100
AcDbSpline
210
0.0
220
0.0
230
1.0
 70
    24
 71
     2
 72
     6
 73
     3
 74
     0
 42
0.0000000001
 43
0.0000000001
 40
-2.077196675290566
 40
-2.077196675290566
 40
-2.077196675290566
 40
0.0
 40
0.0
 40
0.0
 10
1603.124722591093
 20
50.0
 30
0.0
 10
1602.086124261451
 20
50.0
 30
0.0
 10
1601.047525931808
 20
50.0
 30
0.0
  0
SPLINE
  5
C1
330
1F
100
AcDbEntity
  8
MAKE2D VISIBLE LINES
100
AcDbSpline
210
0.0
220
0.0
230
1.0
 70
    24
 71
     2
 72
     6
 73
     3
 74
     0
 42
0.0000000001
 43
0.0000000001
 40
0.0
 40
0.0
 40
0.0
 40
0.0134160851300749
 40
0.0134160851300749
 40
0.0134160851300749
 10
1601.047525931808
 20
50.0
 30
0.0
 10
1601.040817887892
 20
50.0
 30
0.0
 10
1601.034109843977
 20
49.99999999999999
 30
0.0
  0
SPLINE
  5
C2
330
1F
100
AcDbEntity
  8
MAKE2D VISIBLE LINES
100
AcDbSpline
210
0.0
220
0.0
230
1.0
 70
    24
 71
     2
 72
     6
 73
     3
 74
     0
 42
0.0000000001
 43
0.0000000001
 40
-1.389929357455344
 40
-1.389929357455344
 40
-1.389929357455344
 40
0.0
 40
0.0
 40
0.0
 10
1601.034109843977
 20
49.99999999999999
 30
0.0
 10
1600.339145157016
 20
49.99999999999999
 30
0.0
 10
1599.644180470055
 20
49.99999999999999
 30
0.0
  0
SPLINE
  5
C3
330
1F
100
AcDbEntity
  8
MAKE2D VISIBLE LINES
100
AcDbSpline
210
0.0
220
0.0
230
1.0
 70
    24
 71
     2
 72
     6
 73
     3
 74
     0
 42
0.0000000001
 43
0.0000000001
 40
0.0
 40
0.0
 40
0.0
 40
0.3852624351467284
 40
0.3852624351467284
 40
0.3852624351467284
 10
1599.644180470055
 20
49.99999999999999
 30
0.0
 10
1599.451549252631
 20
49.99999999999999
 30
0.0
 10
1599.258918035207
 20
49.99999999999999
 30
0.0
  0
SPLINE
  5
C4
330
1F
100
AcDbEntity
  8
MAKE2D VISIBLE LINES
100
AcDbSpline
210
0.0
220
0.0
230
1.0
 70
    24
 71
     2
 72
     6
 73
     3
 74
     0
 42
0.0000000001
 43
0.0000000001
 40
-0.2518349704997718
 40
-0.2518349704997718
 40
-0.2518349704997718
 40
0.0
 40
0.0
 40
0.0
 10
1599.258918035207
 20
49.99999999999999
 30
0.0
 10
1599.133000553623
 20
50.0
 30
0.0
 10
1599.007083072039
 20
50.0
 30
0.0
  0
SPLINE
  5
C5
330
1F
100
AcDbEntity
  8
MAKE2D VISIBLE LINES
100
AcDbSpline
210
0.0
220
0.0
230
1.0
 70
    24
 71
     2
 72
     6
 73
     3
 74
     0
 42
0.0000000001
 43
0.0000000001
 40
0.0
 40
0.0
 40
0.0
 40
0.3620362459176931
 40
0.3620362459176931
 40
0.3620362459176931
 10
1599.007083072039
 20
50.0
 30
0.0
 10
1598.826064952879
 20
50.0
 30
0.0
 10
1598.645046833719
 20
50.0
 30
0.0
  0
SPLINE
  5
C6
330
1F
100
AcDbEntity
  8
MAKE2D VISIBLE LINES
100
AcDbSpline
210
0.0
220
0.0
230
1.0
 70
    24
 71
     2
 72
     6
 73
     3
 74
     0
 42
0.0000000001
 43
0.0000000001
 40
-0.3812513834799347
 40
-0.3812513834799347
 40
-0.3812513834799347
 40
0.0
 40
0.0
 40
0.0
 10
1598.645046833719
 20
50.0
 30
0.0
 10
1598.454421142585
 20
50.0
 30
0.0
 10
1598.263795451452
 20
50.0
 30
0.0
  0
SPLINE
  5
C7
330
1F
100
AcDbEntity
  8
MAKE2D VISIBLE LINES
100
AcDbSpline
210
0.0
220
0.0
230
1.0
 70
    24
 71
     2
 72
     6
 73
     3
 74
     0
 42
0.0000000001
 43
0.0000000001
 40
0.0
 40
0.0
 40
0.0
 40
0.180390788729369
 40
0.180390788729369
 40
0.180390788729369
 10
1598.263795451452
 20
50.0
 30
0.0
 10
1598.173600057545
 20
50.0
 30
0.0
 10
1598.083404663638
 20
50.0
 30
0.0
  0
SPLINE
  5
C8
330
1F
100
AcDbEntity
  8
MAKE2D VISIBLE LINES
100
AcDbSpline
210
0.0
220
0.0
230
1.0
 70
    24
 71
     2
 72
     6
 73
     3
 74
     0
 42
0.0000000001
 43
0.0000000001
 40
-0.1168608515412188
 40
-0.1168608515412188
 40
-0.1168608515412188
 40
0.0
 40
0.0
 40
0.0
 10
1598.083404663638
 20
50.0
 30
0.0
 10
1598.024974237571
 20
50.0
 30
0.0
 10
1597.966543811503
 20
50.0
 30
0.0
  0
SPLINE
  5
C9
330
1F
100
AcDbEntity
  8
MAKE2D VISIBLE LINES
100
AcDbSpline
210
0.0
220
0.0
230
1.0
 70
    24
 71
     2
 72
     6
 73
     3
 74
     0
 42
0.0000000001
 43
0.0000000001
 40
0.0
 40
0.0
 40
0.0
 40
1.550746709056511
 40
1.550746709056511
 40
1.550746709056511
 10
1597.966543811503
 20
50.0
 30
0.0
 10
1597.191170459292
 20
50.0
 30
0.0
 10
1596.415797107081
 20
50.0
 30
0.0
  0
SPLINE
  5
CA
330
1F
100
AcDbEntity
  8
MAKE2D VISIBLE LINES
100
AcDbSpline
210
0.0
220
0.0
230
1.0
 70
    24
 71
     2
 72
     6
 73
     3
 74
     0
 42
0.0000000001
 43
0.0000000001
 40
-0.1925064350774619
 40
-0.1925064350774619
 40
-0.1925064350774619
 40
0.0
 40
0.0
 40
0.0
 10
1596.415797107081
 20
50.0
 30
0.0
 10
1596.319543892659
 20
50.0
 30
0.0
 10
1596.223290678237
 20
50.0
 30
0.0
  0
SPLINE
  5
CB
330
1F
100
AcDbEntity
  8
MAKE2D VISIBLE LINES
100
AcDbSpline
210
0.0
220
0.0
230
1.0
 70
    24
 71
     2
 72
     6
 73
     3
 74
     0
 42
0.0000000001
 43
0.0000000001
 40
0.0
 40
0.0
 40
0.0
 40
0.3563404536441794
 40
0.3563404536441794
 40
0.3563404536441794
 10
1596.223290678237
 20
50.0
 30
0.0
 10
1596.045120454364
 20
50.0
 30
0.0
 10
1595.866950230492
 20
50.0
 30
0.0
  0
SPLINE
  5
CC
330
1F
100
AcDbEntity
  8
MAKE2D VISIBLE LINES
100
AcDbSpline
210
0.0
220
0.0
230
1.0
 70
    24
 71
     2
 72
     6
 73
     3
 74
     0
 42
0.0000000001
 43
0.0000000001
 40
-0.2396988177662251
 40
-0.2396988177662251
 40
-0.2396988177662251
 40
0.0
 40
0.0
 40
0.0
 10
1595.866950230492
 20
50.0
 30
0.0
 10
1595.747100821987
 20
50.0
 30
0.0
 10
1595.627251413483
 20
50.0
 30
0.0
  0
SPLINE
  5
CD
330
1F
100
AcDbEntity
  8
MAKE2D VISIBLE LINES
100
AcDbSpline
210
0.0
220
0.0
230
1.0
 70
    24
 71
     2
 72
     6
 73
     3
 74
     0
 42
0.0000000001
 43
0.0000000001
 40
0.0
 40
0.0
 40
0.0
 40
0.305012242286125
 40
0.305012242286125
 40
0.305012242286125
 10
1595.627251413483
 20
50.0
 30
0.0
 10
1595.47474529151
 20
50.0
 30
0.0
 10
1595.322239169538
 20
50.0
 30
0.0
  0
SPLINE
  5
CE
330
1F
100
AcDbEntity
  8
MAKE2D VISIBLE LINES
100
AcDbSpline
210
0.0
220
0.0
230
1.0
 70
    24
 71
     2
 72
     6
 73
     3
 74
     0
 42
0.0000000001
 43
0.0000000001
 40
-0.1727921579417853
 40
-0.1727921579417853
 40
-0.1727921579417853
 40
0.0
 40
0.0
 40
0.0
 10
1595.322239169538
 20
50.0
 30
0.0
 10
1595.235843087846
 20
50.0
 30
0.0
 10
1595.149447006155
 20
50.0
 30
0.0
  0
SPLINE
  5
CF
330
1F
100
AcDbEntity
  8
MAKE2D VISIBLE LINES
100
AcDbSpline
210
0.0
220
0.0
230
1.0
 70
    24
 71
     2
 72
     6
 73
     3
 74
     0
 42
0.0000000001
 43
0.0000000001
 40
0.0
 40
0.0
 40
0.0
 40
0.3674082804524232
 40
0.3674082804524232
 40
0.3674082804524232
 10
1595.149447006155
 20
50.0
 30
0.0
 10
1594.965742862092
 20
50.0
 30
0.0
 10
1594.782038718029
 20
50.0
 30
0.0
  0
SPLINE
  5
D0
330
1F
100
AcDbEntity
  8
MAKE2D VISIBLE LINES
100
AcDbSpline
210
0.0
220
0.0
230
1.0
 70
    24
 71
     2
 72
     6
 73
     3
 74
     0
 42
0.0000000001
 43
0.0000000001
 40
-0.1067839377138853
 40
-0.1067839377138853
 40
-0.1067839377138853
 40
0.0
 40
0.0
 40
0.0
 10
1594.782038718029
 20
50.0
 30
0.0
 10
1594.728646748008
 20
50.0
 30
0.0
 10
1594.675254777986
 20
50.0
 30
0.0
  0
SPLINE
  5
D1
330
1F
100
AcDbEntity
  8
MAKE2D VISIBLE LINES
100
AcDbSpline
210
0.0
220
0.0
230
1.0
 70
    24
 71
     2
 72
     6
 73
     3
 74
     0
 42
0.0000000001
 43
0.0000000001
 40
0.0
 40
0.0
 40
0.0
 40
0.9585859140056527
 40
0.9585859140056527
 40
0.9585859140056527
 10
1594.675254777986
 20
50.0
 30
0.0
 10
1594.19596181034
 20
50.0
 30
0.0
 10
1593.716668842694
 20
50.0
 30
0.0
  0
SPLINE
  5
D2
330
1F
100
AcDbEntity
  8
MAKE2D VISIBLE LINES
100
AcDbSpline
210
0.0
220
0.0
230
1.0
 70
    24
 71
     2
 72
     6
 73
     3
 74
     0
 42
0.0000000001
 43
0.0000000001
 40
-0.128690445577945
 40
-0.128690445577945
 40
-0.128690445577945
 40
0.0
 40
0.0
 40
0.0
 10
1593.716668842694
 20
50.0
 30
0.0
 10
1593.652323613119
 20
50.0
 30
0.0
 10
1593.587978383543
 20
50.0
 30
0.0
  0
SPLINE
  5
D3
330
1F
100
AcDbEntity
  8
MAKE2D VISIBLE LINES
100
AcDbSpline
210
0.0
220
0.0
230
1.0
 70
    24
 71
     2
 72
     6
 73
     3
 74
     0
 42
0.0000000001
 43
0.0000000001
 40
0.0
 40
0.0
 40
0.0
 40
19.07692307692275
 40
19.07692307692275
 40
19.07692307692275
 10
1593.587978383543
 20
50.0
 30
0.0
 10
1584.049516847526
 20
50.0
 30
0.0
 10
1574.511055311509
 20
50.0
 30
0.0
  0
SPLINE
  5
D4
330
1F
100
AcDbEntity
  8
MAKE2D VISIBLE LINES
100
AcDbSpline
210
0.0
220
0.0
230
1.0
 70
    28
 71
     3
 72
     9
 73
     5
 74
     0
 42
0.0000000001
 43
0.0000000001
 40
-4.703933196946934
 40
-4.703933196946934
 40
-4.703933196946934
 40
-4.703933196946934
 40
-2.274797948580491
 40
-0.0000000000000001
 40
-0.0000000000000001
 40
-0.0000000000000001
 40
-0.0000000000000001
 10
1574.511055311509
 20
50.0
 30
0.0
 41
1.0
 10
1573.762658172324
 20
49.99999999999999
 30
0.0
 41
1.0
 10
1572.509643961602
 20
50.0
 30
0.0
 41
1.0
 10
1572.04823490457
 20
49.99999999999997
 30
0.0
 41
1.0
 10
1572.049510912753
 20
50.00000000000006
 30
0.0
 41
1.0
  0
SPLINE
  5
D5
330
1F
100
AcDbEntity
  8
MAKE2D VISIBLE LINES
100
AcDbSpline
210
0.0
220
0.0
230
1.0
 70
    12
 71
     2
 72
     6
 73
     3
 74
     0
 42
0.0000000001
 43
0.0000000001
 40
0.0
 40
0.0
 40
0.0
 40
1.570797460304468
 40
1.570797460304468
 40
1.570797460304468
 10
1572.049510912753
 20
50.00000000000006
 30
0.0
 41
1.0
 10
1571.049505460059
 20
50.0000004845073
 30
0.0
 41
0.7071079546928197
 10
1571.049509737675
 20
51.0
 30
0.0
 41
0.9999999999916489
  0
SPLINE
  5
D6
330
1F
100
AcDbEntity
  8
MAKE2D VISIBLE LINES
100
AcDbSpline
210
0.0
220
0.0
230
1.0
 70
    24
 71
     2
 72
     6
 73
     3
 74
     0
 42
0.0000000001
 43
0.0000000001
 40
0.0
 40
0.0
 40
0.0
 40
7.000000000000007
 40
7.000000000000007
 40
7.000000000000007
 10
1571.049509737675
 20
51.0
 30
0.0
 10
1571.049513293823
 20
54.5
 30
0.0
 10
1571.049516849971
 20
58.0
 30
0.0
  0
SPLINE
  5
D7
330
1F
100
AcDbEntity
  8
MAKE2D VISIBLE LINES
100
AcDbSpline
210
0.0
220
0.0
230
1.0
 70
    24
 71
     2
 72
     6
 73
     3
 74
     0
 42
0.0000000001
 43
0.0000000001
 40
0.0
 40
0.0
 40
0.0
 40
0.9051205144020287
 40
0.9051205144020287
 40
0.9051205144020287
 10
1571.049516849971
 20
58.0
 30
0.0
 10
1570.596956592763
 20
57.99999999987724
 30
0.0
 10
1570.144396335555
 20
57.99999999975448
 30
0.0
  0
SPLINE
  5
D8
330
1F
100
AcDbEntity
  8
MAKE2D VISIBLE LINES
100
AcDbSpline
210
0.0
220
0.0
230
1.0
 70
    12
 71
     2
 72
     6
 73
     3
 74
     0
 42
0.0000000001
 43
0.0000000001
 40
0.0
 40
0.0
 40
0.0
 40
5.272645634414196
 40
5.272645634414196
 40
5.272645634414196
 10
1570.144396335555
 20
57.99999999975448
 30
0.0
 41
1.0
 10
1569.748799364007
 20
55.39256153964176
 30
0.0
 41
0.9994571302177857
 10
1569.182357388092
 20
52.81683282441362
 30
0.0
 41
1.0
  0
SPLINE
  5
D9
330
1F
100
AcDbEntity
  8
MAKE2D VISIBLE LINES
100
AcDbSpline
210
0.0
220
0.0
230
1.0
 70
    12
 71
     2
 72
     6
 73
     3
 74
     0
 42
0.0000000001
 43
0.0000000001
 40
0.0
 40
0.0
 40
0.0
 40
0.6777026221013255
 40
0.6777026221013255
 40
0.6777026221013255
 10
1569.182357388092
 20
52.81683282441362
 30
0.0
 41
1.0
 10
1569.097051268772
 20
52.42295091522161
 30
0.0
 41
0.7774408819392716
 10
1568.69403987953
 20
52.42449065090194
 30
0.0
 41
1.0
  0
SPLINE
  5
DA
330
1F
100
AcDbEntity
  8
MAKE2D VISIBLE LINES
100
AcDbSpline
210
0.0
220
0.0
230
1.0
 70
    24
 71
     2
 72
     6
 73
     3
 74
     0
 42
0.0000000001
 43
0.0000000001
 40
0.0
 40
0.0
 40
0.0
 40
17.14452311893871
 40
17.14452311893871
 40
17.14452311893871
 10
1568.69403987953
 20
52.42449065090194
 30
0.0
 10
1560.12177836475
 20
52.42449865949897
 30
0.0
 10
1551.549516849971
 20
52.42450666809598
 30
0.0
  0
SPLINE
  5
DB
330
1F
100
AcDbEntity
  8
MAKE2D VISIBLE LINES
100
AcDbSpline
210
0.0
220
0.0
230
1.0
 70
    12
 71
     2
 72
     6
 73
     3
 74
     0
 42
0.0000000001
 43
0.0000000001
 40
0.0
 40
0.0
 40
0.0
 40
0.7854602530941595
 40
0.7854602530941595
 40
0.7854602530941595
 10
1551.549516849971
 20
52.42450666809599
 30
0.0
 41
0.999999971232929
 10
1551.049483976584
 20
52.42421879035408
 30
0.0
 41
0.7071197380669021
 10
1551.049516849971
 20
52.9246849906104
 30
0.0
 41
1.0
  0
SPLINE
  5
DC
330
1F
100
AcDbEntity
  8
MAKE2D VISIBLE LINES
100
AcDbSpline
210
0.0
220
0.0
230
1.0
 70
    24
 71
     2
 72
     6
 73
     3
 74
     0
 42
0.0000000001
 43
0.0000000001
 40
-23.26153410145105
 40
-23.26153410145105
 40
-23.26153410145105
 40
0.0
 40
0.0
 40
0.0
 10
1551.049516849971
 20
52.9246849906104
 30
0.0
 10
1551.049516849971
 20
64.55566872136419
 30
0.0
 10
1551.049516849971
 20
76.18665245211798
 30
0.0
  0
SPLINE
  5
DD
330
1F
100
AcDbEntity
  8
MAKE2D VISIBLE LINES
100
AcDbSpline
210
0.0
220
0.0
230
1.0
 70
    28
 71
     3
 72
    16
 73
    12
 74
     0
 42
0.0000000001
 43
0.0000000001
 40
-103.8511723734252
 40
-103.8511723734252
 40
-103.8511723734252
 40
-103.8511723734252
 40
-101.3325067431607
 40
-98.97272776629677
 40
-98.97272776629677
 40
-98.97272776629677
 40
-92.55424667735181
 40
-86.52294816749426
 40
-86.52294816749426
 40
-86.52294816749426
 40
-84.02684076120204
 40
-84.02684076120204
 40
-84.02684076120204
 40
-84.02684076120204
 10
1551.049516849971
 20
76.18665245211798
 30
0.0
 41
1.0
 10
1551.049516849971
 20
77.01299409459757
 30
0.0
 41
1.0
 10
1551.049516849971
 20
78.71164072042234
 30
0.0
 41
1.0
 10
1551.049516849971
 20
79.8069207549866
 30
0.0
 41
1.0
 10
1551.049516849971
 20
80.07411834816787
 30
0.0
 41
1.0
 10
1551.049516849971
 20
80.8083391676446
 30
0.0
 41
1.0
 10
1551.049516849971
 20
82.57496360041972
 30
0.0
 41
1.0
 10
1551.049516849971
 20
84.97277497542325
 30
0.0
 41
1.0
 10
1551.049516849971
 20
86.26077080029104
 30
0.0
 41
1.0
 10
1551.049516849971
 20
86.79772712589234
 30
0.0
 41
1.0
 10
1551.049516849971
 20
87.088549575641
 30
0.0
 41
1.0
 10
1551.049516849971
 20
87.07531500966044
 30
0.0
 41
1.0
  0
SPLINE
  5
DE
330
1F
100
AcDbEntity
  8
MAKE2D VISIBLE LINES
100
AcDbSpline
210
0.0
220
0.0
230
1.0
 70
    12
 71
     2
 72
     6
 73
     3
 74
     0
 42
0.0000000001
 43
0.0000000001
 40
0.0
 40
0.0
 40
0.0
 40
0.785462826434474
 40
0.785462826434474
 40
0.785462826434474
 10
1551.049516849971
 20
87.07531500966044
 30
0.0
 41
1.0
 10
1551.049477980411
 20
87.57578720903844
 30
0.0
 41
0.7071112577929035
 10
1551.549516849971
 20
87.575493331969
 30
0.0
 41
0.9999999746023697
  0
SPLINE
  5
DF
330
1F
100
AcDbEntity
  8
MAKE2D VISIBLE LINES
100
AcDbSpline
210
0.0
220
0.0
230
1.0
 70
    24
 71
     2
 72
     6
 73
     3
 74
     0
 42
0.0000000001
 43
0.0000000001
 40
0.0
 40
0.0
 40
0.0
 40
17.14456406482032
 40
17.14456406482032
 40
17.14456406482032
 10
1551.549516849971
 20
87.57549333196901
 30
0.0
 10
1560.12179808881
 20
87.57550138326715
 30
0.0
 10
1568.694079327649
 20
87.5755094345653
 30
0.0
  0
SPLINE
  5
E0
330
1F
100
AcDbEntity
  8
MAKE2D VISIBLE LINES
100
AcDbSpline
210
0.0
220
0.0
230
1.0
 70
    12
 71
     2
 72
     6
 73
     3
 74
     0
 42
0.0000000001
 43
0.0000000001
 40
0.0
 40
0.0
 40
0.0
 40
0.6775771141411042
 40
0.6775771141411042
 40
0.6775771141411042
 10
1568.694079327649
 20
87.5755094345653
 30
0.0
 41
0.9999995977737922
 10
1569.096987982178
 20
87.57702255027311
 30
0.0
 41
0.7775137816290784
 10
1569.182339066207
 20
87.18325514588557
 30
0.0
 41
1.0
  0
SPLINE
  5
E1
330
1F
100
AcDbEntity
  8
MAKE2D VISIBLE LINES
100
AcDbSpline
210
0.0
220
0.0
230
1.0
 70
    12
 71
     2
 72
     6
 73
     3
 74
     0
 42
0.0000000001
 43
0.0000000001
 40
0.0
 40
0.0
 40
0.0
 40
5.272737226395543
 40
5.272737226395543
 40
5.272737226395543
 10
1569.182339066207
 20
87.18325514588557
 30
0.0
 41
0.9999999999998865
 10
1569.748803794912
 20
84.60748483756697
 30
0.0
 41
0.9994570161256245
 10
1570.144401770973
 20
81.99999999364752
 30
0.0
 41
0.9999999999987246
  0
SPLINE
  5
E2
330
1F
100
AcDbEntity
  8
MAKE2D VISIBLE LINES
100
AcDbSpline
210
0.0
220
0.0
230
1.0
 70
    24
 71
     2
 72
     6
 73
     3
 74
     0
 42
0.0000000001
 43
0.0000000001
 40
0.0
 40
0.0
 40
0.0
 40
0.9051150784005131
 40
0.9051150784005131
 40
0.9051150784005131
 10
1570.144401770973
 20
81.99999999364752
 30
0.0
 10
1570.596959310472
 20
81.99999999682376
 30
0.0
 10
1571.049516849971
 20
82.0
 30
0.0
  0
SPLINE
  5
E3
330
1F
100
AcDbEntity
  8
MAKE2D VISIBLE LINES
100
AcDbSpline
210
0.0
220
0.0
230
1.0
 70
    24
 71
     2
 72
     6
 73
     3
 74
     0
 42
0.0000000001
 43
0.0000000001
 40
0.0
 40
0.0
 40
0.0
 40
116.0
 40
116.0
 40
116.0
 10
1571.049516849971
 20
82.0
 30
0.0
 10
1571.049516849971
 20
140.0
 30
0.0
 10
1571.049516849971
 20
198.0
 30
0.0
  0
SPLINE
  5
E4
330
1F
100
AcDbEntity
  8
MAKE2D VISIBLE LINES
100
AcDbSpline
210
0.0
220
0.0
230
1.0
 70
    24
 71
     2
 72
     6
 73
     3
 74
     0
 42
0.0000000001
 43
0.0000000001
 40
0.0
 40
0.0
 40
0.0
 40
0.9051150784005131
 40
0.9051150784005131
 40
0.9051150784005131
 10
1571.049516849971
 20
198.0
 30
0.0
 10
1570.596959310472
 20
198.0000000031762
 30
0.0
 10
1570.144401770973
 20
198.0000000063525
 30
0.0
  0
SPLINE
  5
E5
330
1F
100
AcDbEntity
  8
MAKE2D VISIBLE LINES
100
AcDbSpline
210
0.0
220
0.0
230
1.0
 70
    12
 71
     2
 72
     6
 73
     3
 74
     0
 42
0.0000000001
 43
0.0000000001
 40
0.0
 40
0.0
 40
0.0
 40
5.272737226395526
 40
5.272737226395526
 40
5.272737226395526
 10
1570.144401770973
 20
198.0000000063525
 30
0.0
 41
0.9999999999987246
 10
1569.74880379491
 20
195.3925151624258
 30
0.0
 41
0.9994570161256231
 10
1569.182339066185
 20
192.8167448541042
 30
0.0
 41
0.9999999999998894
  0
SPLINE
  5
E6
330
1F
100
AcDbEntity
  8
MAKE2D VISIBLE LINES
100
AcDbSpline
210
0.0
220
0.0
230
1.0
 70
    12
 71
     2
 72
     6
 73
     3
 74
     0
 42
0.0000000001
 43
0.0000000001
 40
0.0
 40
0.0
 40
0.0
 40
0.6775753003682078
 40
0.6775753003682078
 40
0.6775753003682078
 10
1569.182339066185
 20
192.8167448541042
 30
0.0
 41
1.0
 10
1569.09698426985
 20
192.4229820710884
 30
0.0
 41
0.777520974169979
 10
1568.694079327972
 20
192.4244905654429
 30
0.0
 41
0.9999995951289242
  0
SPLINE
  5
E7
330
1F
100
AcDbEntity
  8
MAKE2D VISIBLE LINES
100
AcDbSpline
210
0.0
220
0.0
230
1.0
 70
    24
 71
     2
 72
     6
 73
     3
 74
     0
 42
0.0000000001
 43
0.0000000001
 40
0.0
 40
0.0
 40
0.0
 40
17.14456406482032
 40
17.14456406482032
 40
17.14456406482032
 10
1568.694079327972
 20
192.4244905654429
 30
0.0
 10
1560.121798088971
 20
192.424498616737
 30
0.0
 10
1551.549516849971
 20
192.424506668031
 30
0.0
  0
SPLINE
  5
E8
330
1F
100
AcDbEntity
  8
MAKE2D VISIBLE LINES
100
AcDbSpline
210
0.0
220
0.0
230
1.0
 70
    12
 71
     2
 72
     6
 73
     3
 74
     0
 42
0.0000000001
 43
0.0000000001
 40
0.0
 40
0.0
 40
0.0
 40
0.7854602530894023
 40
0.7854602530894023
 40
0.7854602530894023
 10
1551.549516849971
 20
192.424506668031
 30
0.0
 41
0.9999999712329943
 10
1551.049483976516
 20
192.4242187901006
 30
0.0
 41
0.7071197379305951
 10
1551.049516849971
 20
192.9246849903396
 30
0.0
 41
1.0
  0
SPLINE
  5
E9
330
1F
100
AcDbEntity
  8
MAKE2D VISIBLE LINES
100
AcDbSpline
210
0.0
220
0.0
230
1.0
 70
    28
 71
     3
 72
    16
 73
    12
 74
     0
 42
0.0000000001
 43
0.0000000001
 40
84.02684076120204
 40
84.02684076120204
 40
84.02684076120204
 40
84.02684076120204
 40
86.52294816749686
 40
86.52294816749686
 40
86.52294816749686
 40
92.55424667735352
 40
98.9727277662975
 40
98.9727277662975
 40
98.9727277662975
 40
101.332506743161
 40
103.8511723734252
 40
103.8511723734252
 40
103.8511723734252
 40
103.8511723734252
 10
1551.049516849971
 20
192.9246849903396
 30
0.0
 41
1.0
 10
1551.049516849971
 20
192.9114504243583
 30
0.0
 41
1.0
 10
1551.049516849971
 20
193.202272874107
 30
0.0
 41
1.0
 10
1551.049516849971
 20
193.739229199709
 30
0.0
 41
1.0
 10
1551.049516849971
 20
195.0272250245768
 30
0.0
 41
1.0
 10
1551.049516849971
 20
197.4250363995803
 30
0.0
 41
1.0
 10
1551.049516849971
 20
199.1916608323554
 30
0.0
 41
1.0
 10
1551.049516849971
 20
199.9258816518321
 30
0.0
 41
1.0
 10
1551.049516849971
 20
200.1930792450134
 30
0.0
 41
1.0
 10
1551.049516849971
 20
201.2883592795777
 30
0.0
 41
1.0
 10
1551.049516849971
 20
202.9870059054024
 30
0.0
 41
1.0
 10
1551.049516849971
 20
203.813347547882
 30
0.0
 41
1.0
  0
SPLINE
  5
EA
330
1F
100
AcDbEntity
  8
MAKE2D VISIBLE LINES
100
AcDbSpline
210
0.0
220
0.0
230
1.0
 70
    24
 71
     2
 72
     6
 73
     3
 74
     0
 42
0.0000000001
 43
0.0000000001
 40
0.0
 40
0.0
 40
0.0
 40
23.26153410145105
 40
23.26153410145105
 40
23.26153410145105
 10
1551.049516849971
 20
203.813347547882
 30
0.0
 10
1551.049516849971
 20
215.4443312786358
 30
0.0
 10
1551.049516849971
 20
227.0753150093896
 30
0.0
  0
SPLINE
  5
EB
330
1F
100
AcDbEntity
  8
MAKE2D VISIBLE LINES
100
AcDbSpline
210
0.0
220
0.0
230
1.0
 70
    12
 71
     2
 72
     6
 73
     3
 74
     0
 42
0.0000000001
 43
0.0000000001
 40
0.0
 40
0.0
 40
0.0
 40
0.7854628264386426
 40
0.7854628264386426
 40
0.7854628264386426
 10
1551.049516849971
 20
227.0753150093896
 30
0.0
 41
1.0
 10
1551.049477980479
 20
227.5757872087835
 30
0.0
 41
0.7071112579310807
 10
1551.549516849971
 20
227.5754933319041
 30
0.0
 41
0.9999999746023029
  0
SPLINE
  5
EC
330
1F
100
AcDbEntity
  8
MAKE2D VISIBLE LINES
100
AcDbSpline
210
0.0
220
0.0
230
1.0
 70
    24
 71
     2
 72
     6
 73
     3
 74
     0
 42
0.0000000001
 43
0.0000000001
 40
0.0
 40
0.0
 40
0.0
 40
17.14452311893871
 40
17.14452311893871
 40
17.14452311893871
 10
1551.549516849971
 20
227.5754933319041
 30
0.0
 10
1560.12177836475
 20
227.5755013405011
 30
0.0
 10
1568.69403987953
 20
227.5755093490981
 30
0.0
  0
SPLINE
  5
ED
330
1F
100
AcDbEntity
  8
MAKE2D VISIBLE LINES
100
AcDbSpline
210
0.0
220
0.0
230
1.0
 70
    12
 71
     2
 72
     6
 73
     3
 74
     0
 42
0.0000000001
 43
0.0000000001
 40
0.0
 40
0.0
 40
0.0
 40
0.6777044300100266
 40
0.6777044300100266
 40
0.6777044300100266
 10
1568.69403987953
 20
227.5755093490981
 30
0.0
 41
1.0
 10
1569.09705497141
 20
227.5770536891528
 30
0.0
 41
0.7774337132294125
 10
1569.182357388092
 20
227.1831671755864
 30
0.0
 41
1.0
  0
SPLINE
  5
EE
330
1F
100
AcDbEntity
  8
MAKE2D VISIBLE LINES
100
AcDbSpline
210
0.0
220
0.0
230
1.0
 70
    12
 71
     2
 72
     6
 73
     3
 74
     0
 42
0.0000000001
 43
0.0000000001
 40
0.0
 40
0.0
 40
0.0
 40
5.272645634414208
 40
5.272645634414208
 40
5.272645634414208
 10
1569.182357388092
 20
227.1831671755864
 30
0.0
 41
1.0
 10
1569.748799364007
 20
224.6074384603583
 30
0.0
 41
0.9994571302177865
 10
1570.144396335555
 20
222.0000000002455
 30
0.0
 41
1.0
  0
SPLINE
  5
EF
330
1F
100
AcDbEntity
  8
MAKE2D VISIBLE LINES
100
AcDbSpline
210
0.0
220
0.0
230
1.0
 70
    24
 71
     2
 72
     6
 73
     3
 74
     0
 42
0.0000000001
 43
0.0000000001
 40
0.0
 40
0.0
 40
0.0
 40
0.9051205144020287
 40
0.9051205144020287
 40
0.9051205144020287
 10
1570.144396335555
 20
222.0000000002455
 30
0.0
 10
1570.596956592763
 20
222.0000000001228
 30
0.0
 10
1571.049516849971
 20
222.0
 30
0.0
  0
SPLINE
  5
F0
330
1F
100
AcDbEntity
  8
MAKE2D VISIBLE LINES
100
AcDbSpline
210
0.0
220
0.0
230
1.0
 70
    24
 71
     2
 72
     6
 73
     3
 74
     0
 42
0.0000000001
 43
0.0000000001
 40
0.0
 40
0.0
 40
0.0
 40
6.999999999999943
 40
6.999999999999943
 40
6.999999999999943
 10
1571.049516849971
 20
222.0
 30
0.0
 10
1571.049510824754
 20
225.5
 30
0.0
 10
1571.049504799538
 20
229.0
 30
0.0
  0
SPLINE
  5
F1
330
1F
100
AcDbEntity
  8
MAKE2D VISIBLE LINES
100
AcDbSpline
210
0.0
220
0.0
230
1.0
 70
    12
 71
     2
 72
     6
 73
     3
 74
     0
 42
0.0000000001
 43
0.0000000001
 40
0.0
 40
0.0
 40
0.0
 40
1.570798088001879
 40
1.570798088001879
 40
1.570798088001879
 10
1571.049504799538
 20
229.0
 30
0.0
 41
0.9999999999765874
 10
1571.049497439677
 20
229.9999990838676
 30
0.0
 41
0.7071087634466372
 10
1572.049506686734
 20
229.9999999999997
 30
0.0
 41
1.0
  0
SPLINE
  5
F2
330
1F
100
AcDbEntity
  8
MAKE2D VISIBLE LINES
100
AcDbSpline
210
0.0
220
0.0
230
1.0
 70
    24
 71
     2
 72
     6
 73
     3
 74
     0
 42
0.0000000001
 43
0.0000000001
 40
-2.461538461539305
 40
-2.461538461539305
 40
-2.461538461539305
 40
0.0
 40
0.0
 40
0.0
 10
1572.049506686734
 20
229.9999999999997
 30
0.0
 10
1573.280280999122
 20
229.9999999999999
 30
0.0
 10
1574.511055311509
 20
230.0
 30
0.0
  0
SPLINE
  5
F3
330
1F
100
AcDbEntity
  8
MAKE2D VISIBLE LINES
100
AcDbSpline
210
0.0
220
0.0
230
1.0
 70
    24
 71
     2
 72
     6
 73
     3
 74
     0
 42
0.0000000001
 43
0.0000000001
 40
0.0
 40
0.0
 40
0.0
 40
19.07692307692298
 40
19.07692307692298
 40
19.07692307692298
 10
1574.511055311509
 20
230.0
 30
0.0
 10
1584.049516847526
 20
230.0
 30
0.0
 10
1593.587978383543
 20
230.0
 30
0.0
  0
SPLINE
  5
F4
330
1F
100
AcDbEntity
  8
MAKE2D VISIBLE LINES
100
AcDbSpline
210
0.0
220
0.0
230
1.0
 70
    24
 71
     2
 72
     6
 73
     3
 74
     0
 42
0.0000000001
 43
0.0000000001
 40
0.0
 40
0.0
 40
0.0
 40
1.194060339869793
 40
1.194060339869793
 40
1.194060339869793
 10
1593.587978383543
 20
230.0
 30
0.0
 10
1594.185008551017
 20
230.0
 30
0.0
 10
1594.78203871849
 20
230.0
 30
0.0
  0
SPLINE
  5
F5
330
1F
100
AcDbEntity
  8
MAKE2D VISIBLE LINES
100
AcDbSpline
210
0.0
220
0.0
230
1.0
 70
    24
 71
     2
 72
     6
 73
     3
 74
     0
 42
0.0000000001
 43
0.0000000001
 40
0.0
 40
0.0
 40
0.0
 40
0.3674082893455761
 40
0.3674082893455761
 40
0.3674082893455761
 10
1594.78203871849
 20
230.0
 30
0.0
 10
1594.965742864776
 20
230.0
 30
0.0
 10
1595.149447011062
 20
230.0
 30
0.0
  0
SPLINE
  5
F6
330
1F
100
AcDbEntity
  8
MAKE2D VISIBLE LINES
100
AcDbSpline
210
0.0
220
0.0
230
1.0
 70
    24
 71
     2
 72
     6
 73
     3
 74
     0
 42
0.0000000001
 43
0.0000000001
 40
0.0
 40
0.0
 40
0.0
 40
0.1727921579417853
 40
0.1727921579417853
 40
0.1727921579417853
 10
1595.149447011062
 20
230.0
 30
0.0
 10
1595.235843091491
 20
229.9999999999999
 30
0.0
 10
1595.322239171919
 20
229.9999999999999
 30
0.0
  0
SPLINE
  5
F7
330
1F
100
AcDbEntity
  8
MAKE2D VISIBLE LINES
100
AcDbSpline
210
0.0
220
0.0
230
1.0
 70
    24
 71
     2
 72
     6
 73
     3
 74
     0
 42
0.0000000001
 43
0.0000000001
 40
0.0
 40
0.0
 40
0.0
 40
0.3050122365490324
 40
0.3050122365490324
 40
0.3050122365490324
 10
1595.322239171919
 20
229.9999999999999
 30
0.0
 10
1595.474745292457
 20
229.9999999999999
 30
0.0
 10
1595.627251412995
 20
229.9999999999999
 30
0.0
  0
SPLINE
  5
F8
330
1F
100
AcDbEntity
  8
MAKE2D VISIBLE LINES
100
AcDbSpline
210
0.0
220
0.0
230
1.0
 70
    24
 71
     2
 72
     6
 73
     3
 74
     0
 42
0.0000000001
 43
0.0000000001
 40
0.0
 40
0.0
 40
0.0
 40
0.2396988177662251
 40
0.2396988177662251
 40
0.2396988177662251
 10
1595.627251412995
 20
229.9999999999999
 30
0.0
 10
1595.747100823735
 20
229.9999999999999
 30
0.0
 10
1595.866950234474
 20
229.9999999999999
 30
0.0
  0
SPLINE
  5
F9
330
1F
100
AcDbEntity
  8
MAKE2D VISIBLE LINES
100
AcDbSpline
210
0.0
220
0.0
230
1.0
 70
    24
 71
     2
 72
     6
 73
     3
 74
     0
 42
0.0000000001
 43
0.0000000001
 40
0.0
 40
0.0
 40
0.0
 40
0.2414590955198719
 40
0.2414590955198719
 40
0.2414590955198719
 10
1595.866950234474
 20
229.9999999999999
 30
0.0
 10
1595.987679782124
 20
229.9999999999999
 30
0.0
 10
1596.108409329774
 20
229.9999999999999
 30
0.0
  0
SPLINE
  5
FA
330
1F
100
AcDbEntity
  8
MAKE2D VISIBLE LINES
100
AcDbSpline
210
0.0
220
0.0
230
1.0
 70
    24
 71
     2
 72
     6
 73
     3
 74
     0
 42
0.0000000001
 43
0.0000000001
 40
0.0
 40
0.0
 40
0.0
 40
0.4842527611682499
 40
0.4842527611682499
 40
0.4842527611682499
 10
1596.108409329774
 20
229.9999999999999
 30
0.0
 10
1596.35053571183
 20
229.9999999999999
 30
0.0
 10
1596.592662093887
 20
229.9999999999999
 30
0.0
  0
SPLINE
  5
FB
330
1F
100
AcDbEntity
  8
MAKE2D VISIBLE LINES
100
AcDbSpline
210
0.0
220
0.0
230
1.0
 70
    24
 71
     2
 72
     6
 73
     3
 74
     0
 42
0.0000000001
 43
0.0000000001
 40
0.0
 40
0.0
 40
0.0
 40
0.3757429062977735
 40
0.3757429062977735
 40
0.3757429062977735
 10
1596.592662093887
 20
229.9999999999999
 30
0.0
 10
1596.78053354923
 20
229.9999999999999
 30
0.0
 10
1596.968405004573
 20
229.9999999999999
 30
0.0
  0
SPLINE
  5
FC
330
1F
100
AcDbEntity
  8
MAKE2D VISIBLE LINES
100
AcDbSpline
210
0.0
220
0.0
230
1.0
 70
    24
 71
     2
 72
     6
 73
     3
 74
     0
 42
0.0000000001
 43
0.0000000001
 40
0.0
 40
0.0
 40
0.0
 40
0.1113460330871021
 40
0.1113460330871021
 40
0.1113460330871021
 10
1596.968405004573
 20
229.9999999999999
 30
0.0
 10
1597.024078022581
 20
229.9999999999999
 30
0.0
 10
1597.079751040589
 20
229.9999999999999
 30
0.0
  0
SPLINE
  5
FD
330
1F
100
AcDbEntity
  8
MAKE2D VISIBLE LINES
100
AcDbSpline
210
0.0
220
0.0
230
1.0
 70
    24
 71
     2
 72
     6
 73
     3
 74
     0
 42
0.0000000001
 43
0.0000000001
 40
0.0
 40
0.0
 40
0.0
 40
0.4446480773962094
 40
0.4446480773962094
 40
0.4446480773962094
 10
1597.079751040589
 20
229.9999999999999
 30
0.0
 10
1597.302075080617
 20
229.9999999999999
 30
0.0
 10
1597.524399120645
 20
230.0
 30
0.0
  0
SPLINE
  5
FE
330
1F
100
AcDbEntity
  8
MAKE2D VISIBLE LINES
100
AcDbSpline
210
0.0
220
0.0
230
1.0
 70
    24
 71
     2
 72
     6
 73
     3
 74
     0
 42
0.0000000001
 43
0.0000000001
 40
0.0
 40
0.0
 40
0.0
 40
0.4421446895869394
 40
0.4421446895869394
 40
0.4421446895869394
 10
1597.524399120645
 20
230.0
 30
0.0
 10
1597.745471466528
 20
230.0
 30
0.0
 10
1597.966543812412
 20
230.0
 30
0.0
  0
SPLINE
  5
FF
330
1F
100
AcDbEntity
  8
MAKE2D VISIBLE LINES
100
AcDbSpline
210
0.0
220
0.0
230
1.0
 70
    24
 71
     2
 72
     6
 73
     3
 74
     0
 42
0.0000000001
 43
0.0000000001
 40
0.0
 40
0.0
 40
0.0
 40
0.0948590349680671
 40
0.0948590349680671
 40
0.0948590349680671
 10
1597.966543812412
 20
230.0
 30
0.0
 10
1598.013973328726
 20
230.0
 30
0.0
 10
1598.06140284504
 20
230.0
 30
0.0
  0
SPLINE
  5
100
330
1F
100
AcDbEntity
  8
MAKE2D VISIBLE LINES
100
AcDbSpline
210
0.0
220
0.0
230
1.0
 70
    24
 71
     2
 72
     6
 73
     3
 74
     0
 42
0.0000000001
 43
0.0000000001
 40
0.0
 40
0.0
 40
0.0
 40
0.4940455441040967
 40
0.4940455441040967
 40
0.4940455441040967
 10
1598.06140284504
 20
230.0
 30
0.0
 10
1598.308425625299
 20
230.0
 30
0.0
 10
1598.555448405558
 20
230.0
 30
0.0
  0
SPLINE
  5
101
330
1F
100
AcDbEntity
  8
MAKE2D VISIBLE LINES
100
AcDbSpline
210
0.0
220
0.0
230
1.0
 70
    24
 71
     2
 72
     6
 73
     3
 74
     0
 42
0.0000000001
 43
0.0000000001
 40
0.0
 40
0.0
 40
0.0
 40
0.0895984091889659
 40
0.0895984091889659
 40
0.0895984091889659
 10
1598.555448405558
 20
230.0
 30
0.0
 10
1598.600247619737
 20
230.0
 30
0.0
 10
1598.645046833916
 20
230.0
 30
0.0
  0
SPLINE
  5
102
330
1F
100
AcDbEntity
  8
MAKE2D VISIBLE LINES
100
AcDbSpline
210
0.0
220
0.0
230
1.0
 70
    24
 71
     2
 72
     6
 73
     3
 74
     0
 42
0.0000000001
 43
0.0000000001
 40
0.0
 40
0.0
 40
0.0
 40
1.264025436678025
 40
1.264025436678025
 40
1.264025436678025
 10
1598.645046833916
 20
230.0
 30
0.0
 10
1599.277059552488
 20
230.0
 30
0.0
 10
1599.909072271059
 20
230.0
 30
0.0
  0
SPLINE
  5
103
330
1F
100
AcDbEntity
  8
MAKE2D VISIBLE LINES
100
AcDbSpline
210
0.0
220
0.0
230
1.0
 70
    24
 71
     2
 72
     6
 73
     3
 74
     0
 42
0.0000000001
 43
0.0000000001
 40
0.0
 40
0.0
 40
0.0
 40
0.1382873236854039
 40
0.1382873236854039
 40
0.1382873236854039
 10
1599.909072271059
 20
230.0
 30
0.0
 10
1599.978215933002
 20
230.0
 30
0.0
 10
1600.047359594945
 20
230.0
 30
0.0
  0
SPLINE
  5
104
330
1F
100
AcDbEntity
  8
MAKE2D VISIBLE LINES
100
AcDbSpline
210
0.0
220
0.0
230
1.0
 70
    24
 71
     2
 72
     6
 73
     3
 74
     0
 42
0.0000000001
 43
0.0000000001
 40
0.0
 40
0.0
 40
0.0
 40
0.4996997308735445
 40
0.4996997308735445
 40
0.4996997308735445
 10
1600.047359594945
 20
230.0
 30
0.0
 10
1600.297209460318
 20
230.0
 30
0.0
 10
1600.547059325691
 20
230.0
 30
0.0
  0
SPLINE
  5
105
330
1F
100
AcDbEntity
  8
MAKE2D VISIBLE LINES
100
AcDbSpline
210
0.0
220
0.0
230
1.0
 70
    24
 71
     2
 72
     6
 73
     3
 74
     0
 42
0.0000000001
 43
0.0000000001
 40
0.0
 40
0.0
 40
0.0
 40
0.0140318062465212
 40
0.0140318062465212
 40
0.0140318062465212
 10
1600.547059325691
 20
230.0
 30
0.0
 10
1600.554075228692
 20
230.0
 30
0.0
 10
1600.561091131693
 20
230.0
 30
0.0
  0
SPLINE
  5
106
330
1F
100
AcDbEntity
  8
MAKE2D VISIBLE LINES
100
AcDbSpline
210
0.0
220
0.0
230
1.0
 70
    24
 71
     2
 72
     6
 73
     3
 74
     0
 42
0.0000000001
 43
0.0000000001
 40
0.0
 40
0.0
 40
0.0
 40
0.4864347863671128
 40
0.4864347863671128
 40
0.4864347863671128
 10
1600.561091131693
 20
230.0
 30
0.0
 10
1600.804308528018
 20
230.0
 30
0.0
 10
1601.047525924343
 20
230.0
 30
0.0
  0
SPLINE
  5
107
330
1F
100
AcDbEntity
  8
MAKE2D VISIBLE LINES
100
AcDbSpline
210
0.0
220
0.0
230
1.0
 70
    24
 71
     2
 72
     6
 73
     3
 74
     0
 42
0.0000000001
 43
0.0000000001
 40
0.0
 40
0.0
 40
0.0
 40
0.1668635938558509
 40
0.1668635938558509
 40
0.1668635938558509
 10
1601.047525924343
 20
230.0
 30
0.0
 10
1601.130957718721
 20
230.0
 30
0.0
 10
1601.214389513098
 20
230.0
 30
0.0
  0
SPLINE
  5
108
330
1F
100
AcDbEntity
  8
MAKE2D VISIBLE LINES
100
AcDbSpline
210
0.0
220
0.0
230
1.0
 70
    24
 71
     2
 72
     6
 73
     3
 74
     0
 42
0.0000000001
 43
0.0000000001
 40
0.0
 40
0.0
 40
0.0
 40
0.3341112889121405
 40
0.3341112889121405
 40
0.3341112889121405
 10
1601.214389513098
 20
230.0
 30
0.0
 10
1601.381445154733
 20
230.0
 30
0.0
 10
1601.548500796367
 20
230.0
 30
0.0
  0
SPLINE
  5
109
330
1F
100
AcDbEntity
  8
MAKE2D VISIBLE LINES
100
AcDbSpline
210
0.0
220
0.0
230
1.0
 70
    24
 71
     2
 72
     6
 73
     3
 74
     0
 42
0.0000000001
 43
0.0000000001
 40
0.0
 40
0.0
 40
0.0
 40
0.5012244412781683
 40
0.5012244412781683
 40
0.5012244412781683
 10
1601.548500796367
 20
230.0
 30
0.0
 10
1601.799113019873
 20
230.0
 30
0.0
 10
1602.049725243379
 20
230.0
 30
0.0
  0
SPLINE
  5
10A
330
1F
100
AcDbEntity
  8
MAKE2D VISIBLE LINES
100
AcDbSpline
210
0.0
220
0.0
230
1.0
 70
    24
 71
     2
 72
     6
 73
     3
 74
     0
 42
0.0000000001
 43
0.0000000001
 40
0.0
 40
0.0
 40
0.0
 40
0.4727592920617099
 40
0.4727592920617099
 40
0.4727592920617099
 10
1602.049725243379
 20
230.0
 30
0.0
 10
1602.286104889289
 20
230.0
 30
0.0
 10
1602.522484535198
 20
230.0
 30
0.0
  0
SPLINE
  5
10B
330
1F
100
AcDbEntity
  8
MAKE2D VISIBLE LINES
100
AcDbSpline
210
0.0
220
0.0
230
1.0
 70
    24
 71
     2
 72
     6
 73
     3
 74
     0
 42
0.0000000001
 43
0.0000000001
 40
0.0
 40
0.0
 40
0.0
 40
1.529117662499289
 40
1.529117662499289
 40
1.529117662499289
 10
1602.522484535198
 20
230.0
 30
0.0
 10
1603.287043366316
 20
230.0
 30
0.0
 10
1604.051602197434
 20
230.0
 30
0.0
  0
SPLINE
  5
10C
330
1F
100
AcDbEntity
  8
MAKE2D VISIBLE LINES
100
AcDbSpline
210
0.0
220
0.0
230
1.0
 70
    24
 71
     2
 72
     6
 73
     3
 74
     0
 42
0.0000000001
 43
0.0000000001
 40
0.0
 40
0.0
 40
0.0
 40
0.2727279379539596
 40
0.2727279379539596
 40
0.2727279379539596
 10
1604.051602197434
 20
230.0
 30
0.0
 10
1604.187966166521
 20
230.0
 30
0.0
 10
1604.324330135608
 20
230.0
 30
0.0
  0
SPLINE
  5
10D
330
1F
100
AcDbEntity
  8
MAKE2D VISIBLE LINES
100
AcDbSpline
210
0.0
220
0.0
230
1.0
 70
    24
 71
     2
 72
     6
 73
     3
 74
     0
 42
0.0000000001
 43
0.0000000001
 40
0.0
 40
0.0
 40
0.0
 40
0.5658076432342796
 40
0.5658076432342796
 40
0.5658076432342796
 10
1604.324330135608
 20
230.0
 30
0.0
 10
1604.607233957214
 20
230.0
 30
0.0
 10
1604.890137778821
 20
230.0
 30
0.0
  0
SPLINE
  5
10E
330
1F
100
AcDbEntity
  8
MAKE2D VISIBLE LINES
100
AcDbSpline
210
0.0
220
0.0
230
1.0
 70
    24
 71
     2
 72
     6
 73
     3
 74
     0
 42
0.0000000001
 43
0.0000000001
 40
0.0
 40
0.0
 40
0.0
 40
0.1575146229160964
 40
0.1575146229160964
 40
0.1575146229160964
 10
1604.890137778821
 20
230.0
 30
0.0
 10
1604.968895090514
 20
230.0
 30
0.0
 10
1605.047652402207
 20
230.0
 30
0.0
  0
SPLINE
  5
10F
330
1F
100
AcDbEntity
  8
MAKE2D VISIBLE LINES
100
AcDbSpline
210
0.0
220
0.0
230
1.0
 70
    24
 71
     2
 72
     6
 73
     3
 74
     0
 42
0.0000000001
 43
0.0000000001
 40
0.0
 40
0.0
 40
0.0
 40
0.4064051250443299
 40
0.4064051250443299
 40
0.4064051250443299
 10
1605.047652402207
 20
230.0
 30
0.0
 10
1605.250854965093
 20
230.0
 30
0.0
 10
1605.454057527979
 20
230.0
 30
0.0
  0
SPLINE
  5
110
330
1F
100
AcDbEntity
  8
MAKE2D VISIBLE LINES
100
AcDbSpline
210
0.0
220
0.0
230
1.0
 70
    24
 71
     2
 72
     6
 73
     3
 74
     0
 42
0.0000000001
 43
0.0000000001
 40
0.0
 40
0.0
 40
0.0
 40
0.447576892508323
 40
0.447576892508323
 40
0.447576892508323
 10
1605.454057527979
 20
230.0
 30
0.0
 10
1605.677845973988
 20
230.0
 30
0.0
 10
1605.901634419999
 20
230.0
 30
0.0
  0
SPLINE
  5
111
330
1F
100
AcDbEntity
  8
MAKE2D VISIBLE LINES
100
AcDbSpline
210
0.0
220
0.0
230
1.0
 70
    24
 71
     2
 72
     6
 73
     3
 74
     0
 42
0.0000000001
 43
0.0000000001
 40
0.0
 40
0.0
 40
0.0
 40
0.1140797324427467
 40
0.1140797324427467
 40
0.1140797324427467
 10
1605.901634419999
 20
230.0
 30
0.0
 10
1605.958674286048
 20
230.0
 30
0.0
 10
1606.015714152098
 20
230.0
 30
0.0
  0
SPLINE
  5
112
330
1F
100
AcDbEntity
  8
MAKE2D VISIBLE LINES
100
AcDbSpline
210
0.0
220
0.0
230
1.0
 70
    24
 71
     2
 72
     6
 73
     3
 74
     0
 42
0.0000000001
 43
0.0000000001
 40
0.0
 40
0.0
 40
0.0
 40
0.559018243174819
 40
0.559018243174819
 40
0.559018243174819
 10
1606.015714152098
 20
230.0
 30
0.0
 10
1606.295223280261
 20
230.0
 30
0.0
 10
1606.574732408423
 20
230.0
 30
0.0
  0
SPLINE
  5
113
330
1F
100
AcDbEntity
  8
MAKE2D VISIBLE LINES
100
AcDbSpline
210
0.0
220
0.0
230
1.0
 70
    24
 71
     2
 72
     6
 73
     3
 74
     0
 42
0.0000000001
 43
0.0000000001
 40
0.0
 40
0.0
 40
0.0
 40
0.0110561404411555
 40
0.0110561404411555
 40
0.0110561404411555
 10
1606.574732408423
 20
230.0
 30
0.0
 10
1606.5802604831
 20
230.0
 30
0.0
 10
1606.585788557777
 20
230.0
 30
0.0
  0
SPLINE
  5
114
330
1F
100
AcDbEntity
  8
MAKE2D VISIBLE LINES
100
AcDbSpline
210
0.0
220
0.0
230
1.0
 70
    24
 71
     2
 72
     6
 73
     3
 74
     0
 42
0.0000000001
 43
0.0000000001
 40
0.0
 40
0.0
 40
0.0
 40
5.793658551008662
 40
5.793658551008662
 40
5.793658551008662
 10
1606.585788557777
 20
230.0
 30
0.0
 10
1609.48261783629
 20
230.0000000000001
 30
0.0
 10
1612.379447114803
 20
230.0000000000001
 30
0.0
  0
SPLINE
  5
115
330
1F
100
AcDbEntity
  8
MAKE2D VISIBLE LINES
100
AcDbSpline
210
0.0
220
0.0
230
1.0
 70
    24
 71
     2
 72
     6
 73
     3
 74
     0
 42
0.0000000001
 43
0.0000000001
 40
0.0
 40
0.0
 40
0.0
 40
0.4610990155184709
 40
0.4610990155184709
 40
0.4610990155184709
 10
1612.379447114803
 20
230.0000000000001
 30
0.0
 10
1612.60999662764
 20
230.0000000000001
 30
0.0
 10
1612.840546140478
 20
230.0000000000001
 30
0.0
  0
SPLINE
  5
116
330
1F
100
AcDbEntity
  8
MAKE2D VISIBLE LINES
100
AcDbSpline
210
0.0
220
0.0
230
1.0
 70
    24
 71
     2
 72
     6
 73
     3
 74
     0
 42
0.0000000001
 43
0.0000000001
 40
0.0
 40
0.0
 40
0.0
 40
0.0174254785611083
 40
0.0174254785611083
 40
0.0174254785611083
 10
1612.840546140478
 20
230.0000000000001
 30
0.0
 10
1612.849258882619
 20
230.0000000000001
 30
0.0
 10
1612.85797162476
 20
230.0000000000001
 30
0.0
  0
SPLINE
  5
117
330
1F
100
AcDbEntity
  8
MAKE2D VISIBLE LINES
100
AcDbSpline
210
0.0
220
0.0
230
1.0
 70
    24
 71
     2
 72
     6
 73
     3
 74
     0
 42
0.0000000001
 43
0.0000000001
 40
0.0
 40
0.0
 40
0.0
 40
0.4524310487000776
 40
0.4524310487000776
 40
0.4524310487000776
 10
1612.85797162476
 20
230.0000000000001
 30
0.0
 10
1613.084187158879
 20
230.0000000000001
 30
0.0
 10
1613.310402692997
 20
230.0000000000001
 30
0.0
  0
SPLINE
  5
118
330
1F
100
AcDbEntity
  8
MAKE2D VISIBLE LINES
100
AcDbSpline
210
0.0
220
0.0
230
1.0
 70
    24
 71
     2
 72
     6
 73
     3
 74
     0
 42
0.0000000001
 43
0.0000000001
 40
0.0
 40
0.0
 40
0.0
 40
0.0194643505111571
 40
0.0194643505111571
 40
0.0194643505111571
 10
1613.310402692997
 20
230.0000000000001
 30
0.0
 10
1613.320134870445
 20
230.0000000000001
 30
0.0
 10
1613.329867047893
 20
230.0000000000001
 30
0.0
  0
SPLINE
  5
119
330
1F
100
AcDbEntity
  8
MAKE2D VISIBLE LINES
100
AcDbSpline
210
0.0
220
0.0
230
1.0
 70
    24
 71
     2
 72
     6
 73
     3
 74
     0
 42
0.0000000001
 43
0.0000000001
 40
0.0
 40
0.0
 40
0.0
 40
1.78898154784838
 40
1.78898154784838
 40
1.78898154784838
 10
1613.329867047893
 20
230.0000000000001
 30
0.0
 10
1614.224357817103
 20
230.0000000000001
 30
0.0
 10
1615.118848586312
 20
230.0000000000001
 30
0.0
  0
SPLINE
  5
11A
330
1F
100
AcDbEntity
  8
MAKE2D VISIBLE LINES
100
AcDbSpline
210
0.0
220
0.0
230
1.0
 70
    24
 71
     2
 72
     6
 73
     3
 74
     0
 42
0.0000000001
 43
0.0000000001
 40
0.0
 40
0.0
 40
0.0
 40
0.0267677282892009
 40
0.0267677282892009
 40
0.0267677282892009
 10
1615.118848586312
 20
230.0000000000001
 30
0.0
 10
1615.132232450417
 20
230.0000000000001
 30
0.0
 10
1615.145616314521
 20
230.0000000000001
 30
0.0
  0
SPLINE
  5
11B
330
1F
100
AcDbEntity
  8
MAKE2D VISIBLE LINES
100
AcDbSpline
210
0.0
220
0.0
230
1.0
 70
    24
 71
     2
 72
     6
 73
     3
 74
     0
 42
0.0000000001
 43
0.0000000001
 40
0.0
 40
0.0
 40
0.0
 40
0.4061890259987422
 40
0.4061890259987422
 40
0.4061890259987422
 10
1615.145616314521
 20
230.0000000000001
 30
0.0
 10
1615.34871082748
 20
230.0000000000001
 30
0.0
 10
1615.551805340439
 20
230.0000000000001
 30
0.0
  0
SPLINE
  5
11C
330
1F
100
AcDbEntity
  8
MAKE2D VISIBLE LINES
100
AcDbSpline
210
0.0
220
0.0
230
1.0
 70
    24
 71
     2
 72
     6
 73
     3
 74
     0
 42
0.0000000001
 43
0.0000000001
 40
0.0
 40
0.0
 40
0.0
 40
0.0284047446634759
 40
0.0284047446634759
 40
0.0284047446634759
 10
1615.551805340439
 20
230.0000000000001
 30
0.0
 10
1615.566007712713
 20
230.0000000000001
 30
0.0
 10
1615.580210084986
 20
230.0000000000001
 30
0.0
  0
SPLINE
  5
11D
330
1F
100
AcDbEntity
  8
MAKE2D VISIBLE LINES
100
AcDbSpline
210
0.0
220
0.0
230
1.0
 70
    24
 71
     2
 72
     6
 73
     3
 74
     0
 42
0.0000000001
 43
0.0000000001
 40
0.0
 40
0.0
 40
0.0
 40
0.3963262465603066
 40
0.3963262465603066
 40
0.3963262465603066
 10
1615.580210084986
 20
230.0000000000001
 30
0.0
 10
1615.778373215489
 20
230.0000000000001
 30
0.0
 10
1615.976536345991
 20
230.0000000000001
 30
0.0
  0
SPLINE
  5
11E
330
1F
100
AcDbEntity
  8
MAKE2D VISIBLE LINES
100
AcDbSpline
210
0.0
220
0.0
230
1.0
 70
    24
 71
     2
 72
     6
 73
     3
 74
     0
 42
0.0000000001
 43
0.0000000001
 40
0.0
 40
0.0
 40
0.0
 40
0.4477094091530489
 40
0.4477094091530489
 40
0.4477094091530489
 10
1615.976536345991
 20
230.0000000000001
 30
0.0
 10
1616.200391058298
 20
230.0000000000001
 30
0.0
 10
1616.424245770605
 20
230.0000000000001
 30
0.0
  0
SPLINE
  5
11F
330
1F
100
AcDbEntity
  8
MAKE2D VISIBLE LINES
100
AcDbSpline
210
0.0
220
0.0
230
1.0
 70
    24
 71
     2
 72
     6
 73
     3
 74
     0
 42
0.0000000001
 43
0.0000000001
 40
0.0
 40
0.0
 40
0.0
 40
0.4088877667543329
 40
0.4088877667543329
 40
0.4088877667543329
 10
1616.424245770605
 20
230.0000000000001
 30
0.0
 10
1616.628689647691
 20
230.0000000000001
 30
0.0
 10
1616.833133524777
 20
230.0000000000001
 30
0.0
  0
SPLINE
  5
120
330
1F
100
AcDbEntity
  8
MAKE2D VISIBLE LINES
100
AcDbSpline
210
0.0
220
0.0
230
1.0
 70
    24
 71
     2
 72
     6
 73
     3
 74
     0
 42
0.0000000001
 43
0.0000000001
 40
0.0
 40
0.0
 40
0.0
 40
2.585546576480397
 40
2.585546576480397
 40
2.585546576480397
 10
1616.833133524777
 20
230.0000000000001
 30
0.0
 10
1618.125906806059
 20
230.0000000000001
 30
0.0
 10
1619.418680087341
 20
230.0000000000001
 30
0.0
  0
SPLINE
  5
121
330
1F
100
AcDbEntity
  8
MAKE2D VISIBLE LINES
100
AcDbSpline
210
0.0
220
0.0
230
1.0
 70
    24
 71
     2
 72
     6
 73
     3
 74
     0
 42
0.0000000001
 43
0.0000000001
 40
0.0
 40
0.0
 40
0.0
 40
0.3074230070020576
 40
0.3074230070020576
 40
0.3074230070020576
 10
1619.418680087341
 20
230.0000000000001
 30
0.0
 10
1619.572391590625
 20
230.0000000000001
 30
0.0
 10
1619.726103093909
 20
230.0000000000001
 30
0.0
  0
SPLINE
  5
122
330
1F
100
AcDbEntity
  8
MAKE2D VISIBLE LINES
100
AcDbSpline
210
0.0
220
0.0
230
1.0
 70
    24
 71
     2
 72
     6
 73
     3
 74
     0
 42
0.0000000001
 43
0.0000000001
 40
0.0
 40
0.0
 40
0.0
 40
0.0203037771053687
 40
0.0203037771053687
 40
0.0203037771053687
 10
1619.726103093909
 20
230.0000000000001
 30
0.0
 10
1619.73625498227
 20
230.0000000000001
 30
0.0
 10
1619.746406870631
 20
230.0000000000001
 30
0.0
  0
SPLINE
  5
123
330
1F
100
AcDbEntity
  8
MAKE2D VISIBLE LINES
100
AcDbSpline
210
0.0
220
0.0
230
1.0
 70
    24
 71
     2
 72
     6
 73
     3
 74
     0
 42
0.0000000001
 43
0.0000000001
 40
0.0
 40
0.0
 40
0.0
 40
0.2991040827865845
 40
0.2991040827865845
 40
0.2991040827865845
 10
1619.746406870631
 20
230.0000000000001
 30
0.0
 10
1619.895958911832
 20
230.0000000000001
 30
0.0
 10
1620.045510953033
 20
230.0000000000001
 30
0.0
  0
SPLINE
  5
124
330
1F
100
AcDbEntity
  8
MAKE2D VISIBLE LINES
100
AcDbSpline
210
0.0
220
0.0
230
1.0
 70
    24
 71
     2
 72
     6
 73
     3
 74
     0
 42
0.0000000001
 43
0.0000000001
 40
0.0
 40
0.0
 40
0.0
 40
0.0178883081786125
 40
0.0178883081786125
 40
0.0178883081786125
 10
1620.045510953033
 20
230.0000000000001
 30
0.0
 10
1620.054455106958
 20
230.0000000000001
 30
0.0
 10
1620.063399260882
 20
230.0000000000001
 30
0.0
  0
SPLINE
  5
125
330
1F
100
AcDbEntity
  8
MAKE2D VISIBLE LINES
100
AcDbSpline
210
0.0
220
0.0
230
1.0
 70
    24
 71
     2
 72
     6
 73
     3
 74
     0
 42
0.0000000001
 43
0.0000000001
 40
0.0
 40
0.0
 40
0.0
 40
0.6010771468241956
 40
0.6010771468241956
 40
0.6010771468241956
 10
1620.063399260882
 20
230.0000000000001
 30
0.0
 10
1620.36393783424
 20
230.0000000000001
 30
0.0
 10
1620.664476407597
 20
230.0000000000001
 30
0.0
  0
SPLINE
  5
126
330
1F
100
AcDbEntity
  8
MAKE2D VISIBLE LINES
100
AcDbSpline
210
0.0
220
0.0
230
1.0
 70
    24
 71
     2
 72
     6
 73
     3
 74
     0
 42
0.0000000001
 43
0.0000000001
 40
0.0
 40
0.0
 40
0.0
 40
1.544298975028369
 40
1.544298975028369
 40
1.544298975028369
 10
1620.664476407597
 20
230.0000000000001
 30
0.0
 10
1621.436625895211
 20
230.0000000000001
 30
0.0
 10
1622.208775382824
 20
230.0000000000001
 30
0.0
  0
SPLINE
  5
127
330
1F
100
AcDbEntity
  8
MAKE2D VISIBLE LINES
100
AcDbSpline
210
0.0
220
0.0
230
1.0
 70
    24
 71
     2
 72
     6
 73
     3
 74
     0
 42
0.0000000001
 43
0.0000000001
 40
0.0
 40
0.0
 40
0.0
 40
0.395411156464661
 40
0.395411156464661
 40
0.395411156464661
 10
1622.208775382824
 20
230.0000000000001
 30
0.0
 10
1622.406480961056
 20
230.0000000000001
 30
0.0
 10
1622.604186539288
 20
230.0000000000001
 30
0.0
  0
SPLINE
  5
128
330
1F
100
AcDbEntity
  8
MAKE2D VISIBLE LINES
100
AcDbSpline
210
0.0
220
0.0
230
1.0
 70
    24
 71
     2
 72
     6
 73
     3
 74
     0
 42
0.0000000001
 43
0.0000000001
 40
0.0
 40
0.0
 40
0.0
 40
0.487508963441428
 40
0.487508963441428
 40
0.487508963441428
 10
1622.604186539288
 20
230.0000000000001
 30
0.0
 10
1622.847941022432
 20
230.0000000000001
 30
0.0
 10
1623.091695505576
 20
230.0000000000001
 30
0.0
  0
SPLINE
  5
129
330
1F
100
AcDbEntity
  8
MAKE2D VISIBLE LINES
100
AcDbSpline
210
0.0
220
0.0
230
1.0
 70
    24
 71
     2
 72
     6
 73
     3
 74
     0
 42
0.0000000001
 43
0.0000000001
 40
0.0
 40
0.0
 40
0.0
 40
0.1406811319915278
 40
0.1406811319915278
 40
0.1406811319915278
 10
1623.091695505576
 20
230.0000000000001
 30
0.0
 10
1623.162036072635
 20
230.0000000000001
 30
0.0
 10
1623.232376639693
 20
230.0000000000001
 30
0.0
  0
SPLINE
  5
12A
330
1F
100
AcDbEntity
  8
MAKE2D VISIBLE LINES
100
AcDbSpline
210
0.0
220
0.0
230
1.0
 70
    24
 71
     2
 72
     6
 73
     3
 74
     0
 42
0.0000000001
 43
0.0000000001
 40
0.0
 40
0.0
 40
0.0
 40
0.6897340244612451
 40
0.6897340244612451
 40
0.6897340244612451
 10
1623.232376639693
 20
230.0000000000001
 30
0.0
 10
1623.577243650686
 20
230.0000000000001
 30
0.0
 10
1623.922110661679
 20
230.0000000000001
 30
0.0
  0
SPLINE
  5
12B
330
1F
100
AcDbEntity
  8
MAKE2D VISIBLE LINES
100
AcDbSpline
210
0.0
220
0.0
230
1.0
 70
    24
 71
     2
 72
     6
 73
     3
 74
     0
 42
0.0000000001
 43
0.0000000001
 40
0.0
 40
0.0
 40
0.0
 40
0.0613693375215689
 40
0.0613693375215689
 40
0.0613693375215689
 10
1623.922110661679
 20
230.0000000000001
 30
0.0
 10
1623.95279532943
 20
230.0000000000001
 30
0.0
 10
1623.983479997181
 20
230.0000000000001
 30
0.0
  0
SPLINE
  5
12C
330
1F
100
AcDbEntity
  8
MAKE2D VISIBLE LINES
100
AcDbSpline
210
0.0
220
0.0
230
1.0
 70
    24
 71
     2
 72
     6
 73
     3
 74
     0
 42
0.0000000001
 43
0.0000000001
 40
0.0
 40
0.0
 40
0.0
 40
0.058005882423231
 40
0.058005882423231
 40
0.058005882423231
 10
1623.983479997181
 20
230.0000000000001
 30
0.0
 10
1624.012149362684
 20
230.0000000000001
 30
0.0
 10
1624.040818728187
 20
230.0000000000001
 30
0.0
  0
SPLINE
  5
12D
330
1F
100
AcDbEntity
  8
MAKE2D VISIBLE LINES
100
AcDbSpline
210
0.0
220
0.0
230
1.0
 70
    24
 71
     2
 72
     6
 73
     3
 74
     0
 42
0.0000000001
 43
0.0000000001
 40
0.0
 40
0.0
 40
0.0
 40
0.0093652734004763
 40
0.0093652734004763
 40
0.0093652734004763
 10
1624.040818728187
 20
230.0000000000001
 30
0.0
 10
1624.045169455849
 20
230.0000000000001
 30
0.0
 10
1624.049520183512
 20
230.0000000000001
 30
0.0
  0
SPLINE
  5
12E
330
1F
100
AcDbEntity
  8
MAKE2D VISIBLE LINES
100
AcDbSpline
210
0.0
220
0.0
230
1.0
 70
    12
 71
     2
 72
     6
 73
     3
 74
     0
 42
0.0000000001
 43
0.0000000001
 40
-1.57079531492645
 40
-1.57079531492645
 40
-1.57079531492645
 40
0.0
 40
0.0
 40
0.0
 10
1624.049520183512
 20
230.0000000000001
 30
0.0
 41
1.0
 10
1625.049521121935
 20
230.0000023946671
 30
0.0
 41
0.7071084843437985
 10
1625.049520197246
 20
231.0
 30
0.0
 41
0.9999999999966411
  0
SPLINE
  5
12F
330
1F
100
AcDbEntity
  8
MAKE2D VISIBLE LINES
100
AcDbSpline
210
0.0
220
0.0
230
1.0
 70
    24
 71
     2
 72
     6
 73
     3
 74
     0
 42
0.0000000001
 43
0.0000000001
 40
-10.38196601125011
 40
-10.38196601125011
 40
-10.38196601125011
 40
0.0
 40
0.0
 40
0.0
 10
1625.049520197246
 20
231.0
 30
0.0
 10
1625.0495185971
 20
236.1909830439869
 30
0.0
 10
1625.049516996954
 20
241.3819660879738
 30
0.0
  0
SPLINE
  5
130
330
1F
100
AcDbEntity
  8
MAKE2D VISIBLE LINES
100
AcDbSpline
210
0.0
220
0.0
230
1.0
 70
    12
 71
     2
 72
     6
 73
     3
 74
     0
 42
0.0000000001
 43
0.0000000001
 40
-0.9739994408051283
 40
-0.9739994408051283
 40
-0.9739994408051283
 40
0.0
 40
0.0
 40
0.0
 10
1625.049516996954
 20
241.3819660879738
 30
0.0
 41
1.0
 10
1625.049548758995
 20
241.9114946770625
 30
0.0
 41
0.8837697686714915
 10
1625.487524010834
 20
242.2091154511744
 30
0.0
 41
1.0
  0
SPLINE
  5
131
330
1F
100
AcDbEntity
  8
MAKE2D VISIBLE LINES
100
AcDbSpline
210
0.0
220
0.0
230
1.0
 70
    12
 71
     2
 72
     6
 73
     3
 74
     0
 42
0.0000000001
 43
0.0000000001
 40
0.0
 40
0.0
 40
0.0
 40
0.0912179742159615
 40
0.0912179742159615
 40
0.0912179742159615
 10
1625.3322077958
 20
37.8636987835594
 30
0.0
 41
1.0
 10
1625.370891004176
 20
37.83947300051404
 30
0.0
 41
0.998884120379815
 10
1625.412968862771
 20
37.81831917457416
 30
0.0
 41
1.0
  0
SPLINE
  5
132
330
1F
100
AcDbEntity
  8
MAKE2D VISIBLE LINES
100
AcDbSpline
210
0.0
220
0.0
230
1.0
 70
    24
 71
     2
 72
     6
 73
     3
 74
     0
 42
0.0000000001
 43
0.0000000001
 40
0.0
 40
0.0
 40
0.0
 40
3.446317519362176
 40
3.446317519362176
 40
3.446317519362176
 10
1625.412968862771
 20
37.81831917457416
 30
0.0
 10
1626.95485742721
 20
37.04735230186289
 30
0.0
 10
1628.496745991649
 20
36.27638542915163
 30
0.0
  0
SPLINE
  5
133
330
1F
100
AcDbEntity
  8
MAKE2D VISIBLE LINES
100
AcDbSpline
210
0.0
220
0.0
230
1.0
 70
    12
 71
     2
 72
     6
 73
     3
 74
     0
 42
0.0000000001
 43
0.0000000001
 40
0.0
 40
0.0
 40
0.0
 40
1.107127960445961
 40
1.107127960445961
 40
1.107127960445961
 10
1628.496745991649
 20
36.27638542915163
 30
0.0
 41
1.0
 10
1629.049518900253
 20
35.99997724754321
 30
0.0
 41
0.8506729168094495
 10
1629.04953414841
 20
35.38196601171633
 30
0.0
 41
0.9999999998736626
  0
SPLINE
  5
134
330
1F
100
AcDbEntity
  8
MAKE2D VISIBLE LINES
100
AcDbSpline
210
0.0
220
0.0
230
1.0
 70
    24
 71
     2
 72
     6
 73
     3
 74
     0
 42
0.0000000001
 43
0.0000000001
 40
0.0
 40
0.0
 40
0.0
 40
31.5068987345891
 40
31.5068987345891
 40
31.5068987345891
 10
1629.04953414841
 20
35.38196601171633
 30
0.0
 10
1629.04952597754
 20
19.6285166441894
 30
0.0
 10
1629.049517806669
 20
3.875067276662461
 30
0.0
  0
SPLINE
  5
135
330
1F
100
AcDbEntity
  8
MAKE2D VISIBLE LINES
100
AcDbSpline
210
0.0
220
0.0
230
1.0
 70
    12
 71
     2
 72
     6
 73
     3
 74
     0
 42
0.0000000001
 43
0.0000000001
 40
0.0
 40
0.0
 40
0.0
 40
1.35053197707654
 40
1.35053197707654
 40
1.35053197707654
 10
1629.049517806669
 20
3.875067276662461
 30
0.0
 41
0.9999999999990432
 10
1629.049517693353
 20
3.074206203074627
 30
0.0
 41
0.7805412080416179
 10
1628.268005087574
 20
2.899227107558344
 30
0.0
 41
1.0
  0
SPLINE
  5
136
330
1F
100
AcDbEntity
  8
MAKE2D VISIBLE LINES
100
AcDbSpline
210
0.0
220
0.0
230
1.0
 70
    12
 71
     2
 72
     6
 73
     3
 74
     0
 42
0.0000000001
 43
0.0000000001
 40
0.0
 40
0.0
 40
0.0
 40
18.21158112440074
 40
18.21158112440074
 40
18.21158112440074
 10
1628.268005087574
 20
2.899227107558344
 30
0.0
 41
1.0
 10
1619.365117815892
 20
0.9058979985376542
 30
0.0
 41
0.9971223702213436
 10
1610.263206387797
 20
0.2814321079435027
 30
0.0
 41
1.0
  0
SPLINE
  5
137
330
1F
100
AcDbEntity
  8
MAKE2D VISIBLE LINES
100
AcDbSpline
210
0.0
220
0.0
230
1.0
 70
    12
 71
     2
 72
     6
 73
     3
 74
     0
 42
0.0000000001
 43
0.0000000001
 40
0.0
 40
0.0
 40
0.0
 40
0.0135501600303159
 40
0.0135501600303159
 40
0.0135501600303159
 10
1610.263206387797
 20
0.2814321079435027
 30
0.0
 41
1.0
 10
1610.256443643666
 20
0.2809888669734326
 30
0.0
 41
0.9995194372468833
 10
1610.248807566957
 20
0.2809643132194324
 30
0.0
 41
1.0
  0
SPLINE
  5
138
330
1F
100
AcDbEntity
  8
MAKE2D VISIBLE LINES
100
AcDbSpline
210
0.0
220
0.0
230
1.0
 70
    24
 71
     2
 72
     6
 73
     3
 74
     0
 42
0.0000000001
 43
0.0000000001
 40
0.0
 40
0.0
 40
0.0
 40
7.638870163324214
 40
7.638870163324214
 40
7.638870163324214
 10
1610.248807566957
 20
0.2809643132194324
 30
0.0
 10
1606.428943051291
 20
0.280964086325725
 30
0.0
 10
1602.609078535626
 20
0.2809638594320177
 30
0.0
  0
SPLINE
  5
139
330
1F
100
AcDbEntity
  8
MAKE2D VISIBLE LINES
100
AcDbSpline
210
0.0
220
0.0
230
1.0
 70
    24
 71
     2
 72
     6
 73
     3
 74
     0
 42
0.0000000001
 43
0.0000000001
 40
0.0
 40
0.0
 40
0.0
 40
0.1597189823265808
 40
0.1597189823265808
 40
0.1597189823265808
 10
1602.609078535626
 20
0.2809638594320177
 30
0.0
 10
1602.529219044444
 20
0.2809638594247349
 30
0.0
 10
1602.449359553261
 20
0.2809638594174522
 30
0.0
  0
SPLINE
  5
13A
330
1F
100
AcDbEntity
  8
MAKE2D VISIBLE LINES
100
AcDbSpline
210
0.0
220
0.0
230
1.0
 70
    24
 71
     2
 72
     6
 73
     3
 74
     0
 42
0.0000000001
 43
0.0000000001
 40
0.0
 40
0.0
 40
0.0
 40
0.0815617657552821
 40
0.0815617657552821
 40
0.0815617657552821
 10
1602.449359553261
 20
0.2809638594174522
 30
0.0
 10
1602.408578670416
 20
0.2809638594112779
 30
0.0
 10
1602.36779778757
 20
0.2809638594051036
 30
0.0
  0
SPLINE
  5
13B
330
1F
100
AcDbEntity
  8
MAKE2D VISIBLE LINES
100
AcDbSpline
210
0.0
220
0.0
230
1.0
 70
    24
 71
     2
 72
     6
 73
     3
 74
     0
 42
0.0000000001
 43
0.0000000001
 40
0.0
 40
0.0
 40
0.0
 40
0.3182809376634168
 40
0.3182809376634168
 40
0.3182809376634168
 10
1602.36779778757
 20
0.2809638594051036
 30
0.0
 10
1602.20865731877
 20
0.280963859356116
 30
0.0
 10
1602.049516849971
 20
0.2809638593071284
 30
0.0
  0
SPLINE
  5
13C
330
1F
100
AcDbEntity
  8
MAKE2D VISIBLE LINES
100
AcDbSpline
210
0.0
220
0.0
230
1.0
 70
    24
 71
     2
 72
     6
 73
     3
 74
     0
 42
0.0000000001
 43
0.0000000001
 40
0.0
 40
0.0
 40
0.0
 40
0.1622144778363008
 40
0.1622144778363008
 40
0.1622144778363008
 10
1602.049516849971
 20
0.2809638593071284
 30
0.0
 10
1601.968409611055
 20
0.2809638593855367
 30
0.0
 10
1601.887302372139
 20
0.280963859463945
 30
0.0
  0
SPLINE
  5
13D
330
1F
100
AcDbEntity
  8
MAKE2D VISIBLE LINES
100
AcDbSpline
210
0.0
220
0.0
230
1.0
 70
    24
 71
     2
 72
     6
 73
     3
 74
     0
 42
0.0000000001
 43
0.0000000001
 40
0.0
 40
0.0
 40
0.0
 40
0.15604996150239
 40
0.15604996150239
 40
0.15604996150239
 10
1601.887302372139
 20
0.280963859463945
 30
0.0
 10
1601.809277391409
 20
0.2809638595152556
 30
0.0
 10
1601.731252410678
 20
0.2809638595665662
 30
0.0
  0
SPLINE
  5
13E
330
1F
100
AcDbEntity
  8
MAKE2D VISIBLE LINES
100
AcDbSpline
210
0.0
220
0.0
230
1.0
 70
    24
 71
     2
 72
     6
 73
     3
 74
     0
 42
0.0000000001
 43
0.0000000001
 40
0.0
 40
0.0
 40
0.0
 40
0.0815820767677451
 40
0.0815820767677451
 40
0.0815820767677451
 10
1601.731252410678
 20
0.2809638595665662
 30
0.0
 10
1601.690461372307
 20
0.2809638595885188
 30
0.0
 10
1601.649670333935
 20
0.2809638596104714
 30
0.0
  0
SPLINE
  5
13F
330
1F
100
AcDbEntity
  8
MAKE2D VISIBLE LINES
100
AcDbSpline
210
0.0
220
0.0
230
1.0
 70
    24
 71
     2
 72
     6
 73
     3
 74
     0
 42
0.0000000001
 43
0.0000000001
 40
0.0
 40
0.0
 40
0.0
 40
7.800474592523074
 40
7.800474592523074
 40
7.800474592523074
 10
1601.649670333935
 20
0.2809638596104714
 30
0.0
 10
1597.749434808326
 20
0.2809638589129965
 30
0.0
 10
1593.849199282716
 20
0.2809638582155216
 30
0.0
  0
SPLINE
  5
140
330
1F
100
AcDbEntity
  8
MAKE2D VISIBLE LINES
100
AcDbSpline
210
0.0
220
0.0
230
1.0
 70
    12
 71
     2
 72
     6
 73
     3
 74
     0
 42
0.0000000001
 43
0.0000000001
 40
0.0
 40
0.0
 40
0.0
 40
0.0137002021192163
 40
0.0137002021192163
 40
0.0137002021192163
 10
1593.849199282716
 20
0.2809638582155216
 30
0.0
 41
0.9999997476265434
 10
1593.842348770864
 20
0.2809845275534084
 30
0.0
 41
0.9995119025056706
 10
1593.835513627508
 20
0.2814437366636643
 30
0.0
 41
0.9999999976794665
  0
SPLINE
  5
141
330
1F
100
AcDbEntity
  8
MAKE2D VISIBLE LINES
100
AcDbSpline
210
0.0
220
0.0
230
1.0
 70
    12
 71
     2
 72
     6
 73
     3
 74
     0
 42
0.0000000001
 43
0.0000000001
 40
0.0
 40
0.0
 40
0.0
 40
14.09363537277782
 40
14.09363537277782
 40
14.09363537277782
 10
1593.835513627509
 20
0.2814437366636643
 30
0.0
 41
1.0
 10
1586.797134664554
 20
0.7643866769070898
 30
0.0
 41
0.9982764499855905
 10
1579.863808033208
 20
2.068609028891536
 30
0.0
 41
1.0
  0
SPLINE
  5
142
330
1F
100
AcDbEntity
  8
MAKE2D VISIBLE LINES
100
AcDbSpline
210
0.0
220
0.0
230
1.0
 70
    12
 71
     2
 72
     6
 73
     3
 74
     0
 42
0.0000000001
 43
0.0000000001
 40
0.0
 40
0.0
 40
0.0
 40
1.384874927637259
 40
1.384874927637259
 40
1.384874927637259
 10
1579.863808033208
 20
2.068609028891536
 30
0.0
 41
1.0
 10
1579.04865011601
 20
2.221855680272077
 30
0.0
 41
0.769698149572396
 10
1579.049076407513
 20
3.05129329488614
 30
0.0
 41
0.9999999972889393
  0
SPLINE
  5
143
330
1F
100
AcDbEntity
  8
MAKE2D VISIBLE LINES
100
AcDbSpline
210
0.0
220
0.0
230
1.0
 70
    24
 71
     2
 72
     6
 73
     3
 74
     0
 42
0.0000000001
 43
0.0000000001
 40
0.0
 40
0.0
 40
0.0
 40
45.94870670511481
 40
45.94870670511481
 40
45.94870670511481
 10
1579.049076407513
 20
3.05129329488614
 30
0.0
 10
1579.049051246097
 20
26.02564664744307
 30
0.0
 10
1579.04902608468
 20
49.0
 30
0.0
  0
SPLINE
  5
144
330
1F
100
AcDbEntity
  8
MAKE2D VISIBLE LINES
100
AcDbSpline
210
0.0
220
0.0
230
1.0
 70
    12
 71
     2
 72
     6
 73
     3
 74
     0
 42
0.0000000001
 43
0.0000000001
 40
0.0
 40
0.0
 40
0.0
 40
1.440813434016289
 40
1.440813434016289
 40
1.440813434016289
 10
1579.04902608468
 20
49.0
 30
0.0
 41
0.9999999921250953
 10
1579.048572719326
 20
49.87777064883142
 30
0.0
 41
0.7515579140467299
 10
1579.918936372064
 20
49.99156163543798
 30
0.0
 41
1.0
  0
SPLINE
  5
145
330
1F
100
AcDbEntity
  8
MAKE2D VISIBLE LINES
100
AcDbSpline
210
0.0
220
0.0
230
1.0
 70
    24
 71
     2
 72
     6
 73
     3
 74
     0
 42
0.0000000001
 43
0.0000000001
 40
0.0
 40
0.0
 40
0.0
 40
8.531625054015535
 40
8.531625054015535
 40
8.531625054015535
 10
1517.049516849971
 20
243.0006969307997
 30
0.0
 10
1521.31532937696
 20
243.0006603338462
 30
0.0
 10
1525.58114190395
 20
243.0006237368926
 30
0.0
  0
SPLINE
  5
146
330
1F
100
AcDbEntity
  8
MAKE2D VISIBLE LINES
100
AcDbSpline
210
0.0
220
0.0
230
1.0
 70
    12
 71
     2
 72
     6
 73
     3
 74
     0
 42
0.0000000001
 43
0.0000000001
 40
0.0
 40
0.0
 40
0.0
 40
0.8759830634958119
 40
0.8759830634958119
 40
0.8759830634958119
 10
1525.58114190395
 20
243.0006237368926
 30
0.0
 41
0.9999999113774767
 10
1526.04938308208
 20
243.0009477636563
 30
0.0
 41
0.9058544524920237
 10
1526.349363183327
 20
242.6408013359455
 30
0.0
 41
1.0
  0
SPLINE
  5
147
330
1F
100
AcDbEntity
  8
MAKE2D VISIBLE LINES
100
AcDbSpline
210
0.0
220
0.0
230
1.0
 70
    24
 71
     2
 72
     6
 73
     3
 74
     0
 42
0.0000000001
 43
0.0000000001
 40
0.0
 40
0.0
 40
0.0
 40
22.60032414724193
 40
22.60032414724193
 40
22.60032414724193
 10
1526.349363183327
 20
242.6408013359455
 30
0.0
 10
1533.583630007947
 20
233.9595339564171
 30
0.0
 10
1540.817896832567
 20
225.2782665768887
 30
0.0
  0
SPLINE
  5
148
330
1F
100
AcDbEntity
  8
MAKE2D VISIBLE LINES
100
AcDbSpline
210
0.0
220
0.0
230
1.0
 70
    12
 71
     2
 72
     6
 73
     3
 74
     0
 42
0.0000000001
 43
0.0000000001
 40
0.0
 40
0.0
 40
0.0
 40
0.6942584787333124
 40
0.6942584787333124
 40
0.6942584787333124
 10
1540.817896832567
 20
225.2782665768887
 30
0.0
 41
0.9999999970906746
 10
1541.049487575352
 20
225.0003402788155
 30
0.0
 41
0.9403876943631644
 10
1541.049516849969
 20
224.6385693914819
 30
0.0
 41
1.0
  0
SPLINE
  5
149
330
1F
100
AcDbEntity
  8
MAKE2D VISIBLE LINES
100
AcDbSpline
210
0.0
220
0.0
230
1.0
 70
    24
 71
     3
 72
     8
 73
     4
 74
     0
 42
0.0000000001
 43
0.0000000001
 40
-29.27707133651629
 40
-29.27707133651629
 40
-29.27707133651629
 40
-29.27707133651629
 40
0.0
 40
0.0
 40
0.0
 40
0.0
 10
1541.049516849969
 20
224.6385693914819
 30
0.0
 10
1541.049516849971
 20
214.8795443423409
 30
0.0
 10
1541.049516849971
 20
205.1205205635019
 30
0.0
 10
1541.04951684997
 20
195.3614962521337
 30
0.0
  0
SPLINE
  5
14A
330
1F
100
AcDbEntity
  8
MAKE2D VISIBLE LINES
100
AcDbSpline
210
0.0
220
0.0
230
1.0
 70
    12
 71
     2
 72
     6
 73
     3
 74
     0
 42
0.0000000001
 43
0.0000000001
 40
0.0
 40
0.0
 40
0.0
 40
0.6943258636667421
 40
0.6943258636667421
 40
0.6943258636667421
 10
1541.04951684997
 20
195.3614962521337
 30
0.0
 41
1.0
 10
1541.049561535748
 20
194.9996704776721
 30
0.0
 41
0.9403090460818877
 10
1540.817880163359
 20
194.7217472865759
 30
0.0
 41
1.0
  0
SPLINE
  5
14B
330
1F
100
AcDbEntity
  8
MAKE2D VISIBLE LINES
100
AcDbSpline
210
0.0
220
0.0
230
1.0
 70
    24
 71
     2
 72
     6
 73
     3
 74
     0
 42
0.0000000001
 43
0.0000000001
 40
0.0
 40
0.0
 40
0.0
 40
22.60032414724193
 40
22.60032414724193
 40
22.60032414724193
 10
1540.817880163359
 20
194.7217472865759
 30
0.0
 10
1533.583621673344
 20
186.0404367773965
 30
0.0
 10
1526.349363183329
 20
177.3591262682171
 30
0.0
  0
SPLINE
  5
14C
330
1F
100
AcDbEntity
  8
MAKE2D VISIBLE LINES
100
AcDbSpline
210
0.0
220
0.0
230
1.0
 70
    12
 71
     2
 72
     6
 73
     3
 74
     0
 42
0.0000000001
 43
0.0000000001
 40
0.0
 40
0.0
 40
0.0
 40
0.8760085448586712
 40
0.8760085448586712
 40
0.8760085448586712
 10
1526.349363183329
 20
177.3591262682171
 30
0.0
 41
1.0
 10
1526.049425413658
 20
176.9988169565554
 30
0.0
 41
0.9057733081790494
 10
1525.581141903952
 20
176.9993030691997
 30
0.0
 41
0.9999999302922076
  0
SPLINE
  5
14D
330
1F
100
AcDbEntity
  8
MAKE2D VISIBLE LINES
100
AcDbSpline
210
0.0
220
0.0
230
1.0
 70
    24
 71
     2
 72
     6
 73
     3
 74
     0
 42
0.0000000001
 43
0.0000000001
 40
0.0
 40
0.0
 40
0.0
 40
8.531625054015535
 40
8.531625054015535
 40
8.531625054015535
 10
1525.581141903952
 20
176.9993030691997
 30
0.0
 10
1521.315329376961
 20
176.9993396661538
 30
0.0
 10
1517.049516849971
 20
176.9993762631079
 30
0.0
  0
SPLINE
  5
14E
330
1F
100
AcDbEntity
  8
MAKE2D VISIBLE LINES
100
AcDbSpline
210
0.0
220
0.0
230
1.0
 70
    12
 71
     2
 72
     6
 73
     3
 74
     0
 42
0.0000000001
 43
0.0000000001
 40
0.0
 40
0.0
 40
0.0
 40
1.570823840986814
 40
1.570823840986814
 40
1.570823840986814
 10
1517.049516849971
 20
176.9993762631079
 30
0.0
 41
0.9999999945186958
 10
1516.049501438929
 20
176.9987737428181
 30
0.0
 41
0.7071088317896262
 10
1516.049516849971
 20
177.9987899506799
 30
0.0
 41
1.0
  0
SPLINE
  5
14F
330
1F
100
AcDbEntity
  8
MAKE2D VISIBLE LINES
100
AcDbSpline
210
0.0
220
0.0
230
1.0
 70
    24
 71
     3
 72
     8
 73
     4
 74
     0
 42
0.0000000001
 43
0.0000000001
 40
0.0
 40
0.0
 40
0.0
 40
0.0
 40
64.00256036931881
 40
64.00256036931881
 40
64.00256036931881
 40
64.00256036931881
 10
1516.049516849971
 20
177.9987899506799
 30
0.0
 10
1516.049516849971
 20
199.3329775504005
 30
0.0
 10
1516.04951684997
 20
220.6671643401736
 30
0.0
 10
1516.049516849971
 20
242.0013518674623
 30
0.0
  0
SPLINE
  5
150
330
1F
100
AcDbEntity
  8
MAKE2D VISIBLE LINES
100
AcDbSpline
210
0.0
220
0.0
230
1.0
 70
    12
 71
     2
 72
     6
 73
     3
 74
     0
 42
0.0000000001
 43
0.0000000001
 40
0.0
 40
0.0
 40
0.0
 40
1.570827904507764
 40
1.570827904507764
 40
1.570827904507764
 10
1516.049516849971
 20
242.0013518674623
 30
0.0
 41
1.0
 10
1516.049498145018
 20
243.0013712942821
 30
0.0
 41
0.7071081444085774
 10
1517.049516849971
 20
243.0006969307998
 30
0.0
 41
0.9999999934855942
  0
SPLINE
  5
151
330
1F
100
AcDbEntity
  8
MAKE2D VISIBLE LINES
100
AcDbSpline
210
0.0
220
0.0
230
1.0
 70
    12
 71
     2
 72
     6
 73
     3
 74
     0
 42
0.0000000001
 43
0.0000000001
 40
0.0
 40
0.0
 40
0.0
 40
1.570867281773083
 40
1.570867281773083
 40
1.570867281773083
 10
1624.051542301574
 20
230.0
 30
0.0
 41
1.0
 10
1625.051586105081
 20
230.0000438536402
 30
0.0
 41
0.7071080725165971
 10
1625.050575241063
 20
228.9999999999999
 30
0.0
 41
0.9999999791660547
  0
SPLINE
  5
152
330
1F
100
AcDbEntity
  8
MAKE2D VISIBLE LINES
100
AcDbSpline
210
0.0
220
0.0
230
1.0
 70
    24
 71
     2
 72
     6
 73
     3
 74
     0
 42
0.0000000001
 43
0.0000000001
 40
0.0
 40
0.0
 40
0.0
 40
178.0000000000001
 40
178.0000000000001
 40
178.0000000000001
 10
1625.050575241063
 20
229.0
 30
0.0
 10
1625.050575241063
 20
140.0
 30
0.0
 10
1625.050575241063
 20
50.99999999999999
 30
0.0
  0
SPLINE
  5
153
330
1F
100
AcDbEntity
  8
MAKE2D VISIBLE LINES
100
AcDbSpline
210
0.0
220
0.0
230
1.0
 70
    12
 71
     2
 72
     6
 73
     3
 74
     0
 42
0.0000000001
 43
0.0000000001
 40
0.0
 40
0.0
 40
0.0
 40
1.570866903478377
 40
1.570866903478377
 40
1.570866903478377
 10
1625.050575241063
 20
50.99999999999999
 30
0.0
 41
0.9999999787793671
 10
1625.051585222801
 20
49.99995702778648
 30
0.0
 41
0.7071086959173081
 10
1624.051541717182
 20
49.99999898790131
 30
0.0
 41
1.0
  0
SPLINE
  5
154
330
1F
100
AcDbEntity
  8
MAKE2D VISIBLE LINES
100
AcDbSpline
210
0.0
220
0.0
230
1.0
 70
    12
 71
     2
 72
     6
 73
     3
 74
     0
 42
0.0000000001
 43
0.0000000001
 40
0.0
 40
0.0
 40
0.0
 40
1.568777991024166
 40
1.568777991024166
 40
1.568777991024166
 10
1624.051541717182
 20
49.9999989879013
 30
0.0
 41
0.9999997591296403
 10
1625.049521790097
 20
49.99798211092892
 30
0.0
 41
0.7078211131072096
 10
1625.049520197246
 20
49.0
 30
0.0
 41
0.9999999999975662
  0
SPLINE
  5
155
330
1F
100
AcDbEntity
  8
MAKE2D VISIBLE LINES
100
AcDbSpline
210
0.0
220
0.0
230
1.0
 70
    24
 71
     2
 72
     6
 73
     3
 74
     0
 42
0.0000000001
 43
0.0000000001
 40
-10.3819660112501
 40
-10.3819660112501
 40
-10.3819660112501
 40
0.0
 40
0.0
 40
0.0
 10
1625.049520197246
 20
49.0
 30
0.0
 10
1625.0495185971
 20
43.80901695601309
 30
0.0
 10
1625.049516996954
 20
38.61803391202618
 30
0.0
  0
SPLINE
  5
156
330
1F
100
AcDbEntity
  8
MAKE2D VISIBLE LINES
100
AcDbSpline
210
0.0
220
0.0
230
1.0
 70
    12
 71
     2
 72
     6
 73
     3
 74
     0
 42
0.0000000001
 43
0.0000000001
 40
0.0
 40
0.0
 40
0.0
 40
0.9739794662167652
 40
0.9739794662167652
 40
0.9739794662167652
 10
1625.049516996954
 20
38.61803391202618
 30
0.0
 41
1.0
 10
1625.049618788956
 20
38.08854258702505
 30
0.0
 41
0.8838337617177608
 10
1625.487521173859
 20
37.79088087697375
 30
0.0
 41
1.0
  0
SPLINE
  5
157
330
1F
100
AcDbEntity
  8
MAKE2D VISIBLE LINES
100
AcDbSpline
210
0.0
220
0.0
230
1.0
 70
    12
 71
     2
 72
     6
 73
     3
 74
     0
 42
0.0000000001
 43
0.0000000001
 40
0.0
 40
0.0
 40
0.0
 40
0.1151665031834322
 40
0.1151665031834322
 40
0.1151665031834322
 10
1609.768773439154
 20
0.2809638585597011
 30
0.0
 41
1.0
 10
1609.72133569129
 20
0.2454681097580738
 30
0.0
 41
0.958388645120115
 10
1609.662205858322
 20
0.2417142384860934
 30
0.0
 41
1.0
  0
SPLINE
  5
158
330
1F
100
AcDbEntity
  8
MAKE2D VISIBLE LINES
100
AcDbSpline
210
0.0
220
0.0
230
1.0
 70
    12
 71
     2
 72
     6
 73
     3
 74
     0
 42
0.0000000001
 43
0.0000000001
 40
0.0
 40
0.0
 40
0.0
 40
7.61780346276045
 40
7.61780346276045
 40
7.61780346276045
 10
1609.662205858322
 20
0.2417142384860934
 30
0.0
 41
1.0
 10
1605.859698373802
 20
-0.0000069149188784
 30
0.0
 41
0.9994962448516179
 10
1602.049516849971
 20
-0.0000000000000037
 30
0.0
 41
1.0
  0
SPLINE
  5
159
330
1F
100
AcDbEntity
  8
MAKE2D VISIBLE LINES
100
AcDbSpline
210
0.0
220
0.0
230
1.0
 70
    12
 71
     2
 72
     6
 73
     3
 74
     0
 42
0.0000000001
 43
0.0000000001
 40
0.0
 40
0.0
 40
0.0
 40
7.618094008887878
 40
7.618094008887878
 40
7.618094008887878
 10
1602.049516849971
 20
-0.0000000000000037
 30
0.0
 41
1.0
 10
1598.239190236708
 20
0.0000088154435027
 30
0.0
 41
0.999496336297514
 10
1594.436538109146
 20
0.2417235982130918
 30
0.0
 41
1.0
  0
SPLINE
  5
15A
330
1F
100
AcDbEntity
  8
MAKE2D VISIBLE LINES
100
AcDbSpline
210
0.0
220
0.0
230
1.0
 70
    12
 71
     2
 72
     6
 73
     3
 74
     0
 42
0.0000000001
 43
0.0000000001
 40
0.0
 40
0.0
 40
0.0
 40
0.1151551516242728
 40
0.1151551516242728
 40
0.1151551516242728
 10
1594.436538109146
 20
0.2417235982130918
 30
0.0
 41
1.0
 10
1594.377489569569
 20
0.2457408944004114
 30
0.0
 41
0.9597536639938281
 10
1594.32992686032
 20
0.2809638568057736
 30
0.0
 41
1.0
  0
SPLINE
  5
15B
330
1F
100
AcDbEntity
  8
MAKE2D VISIBLE LINES
100
AcDbSpline
210
0.0
220
0.0
230
1.0
 70
    12
 71
     2
 72
     6
 73
     3
 74
     0
 42
0.0000000001
 43
0.0000000001
 40
0.0
 40
0.0
 40
0.0
 40
0.1151702230482023
 40
0.1151702230482023
 40
0.1151702230482023
 10
1594.32996707257
 20
279.7190361419094
 30
0.0
 41
1.0
 10
1594.377406997278
 20
279.7545320137183
 30
0.0
 41
0.9583909737016918
 10
1594.436538101586
 20
279.7582765206927
 30
0.0
 41
1.0
  0
SPLINE
  5
15C
330
1F
100
AcDbEntity
  8
MAKE2D VISIBLE LINES
100
AcDbSpline
210
0.0
220
0.0
230
1.0
 70
    12
 71
     2
 72
     6
 73
     3
 74
     0
 42
0.0000000001
 43
0.0000000001
 40
0.0
 40
0.0
 40
0.0
 40
7.618094011403285
 40
7.618094011403285
 40
7.618094011403285
 10
1594.436538101586
 20
279.7582765206927
 30
0.0
 41
1.0
 10
1598.239190240503
 20
279.9999910650163
 30
0.0
 41
0.9994963382854158
 10
1602.049516849971
 20
280.0
 30
0.0
 41
1.0
  0
SPLINE
  5
15D
330
1F
100
AcDbEntity
  8
MAKE2D VISIBLE LINES
100
AcDbSpline
210
0.0
220
0.0
230
1.0
 70
    12
 71
     2
 72
     6
 73
     3
 74
     0
 42
0.0000000001
 43
0.0000000001
 40
0.0
 40
0.0
 40
0.0
 40
7.617803462760451
 40
7.617803462760451
 40
7.617803462760451
 10
1602.049516849971
 20
280.0
 30
0.0
 41
1.0
 10
1605.859698373802
 20
280.0000069149189
 30
0.0
 41
0.9994962448516174
 10
1609.662205858322
 20
279.7582857615139
 30
0.0
 41
1.0
  0
SPLINE
  5
15E
330
1F
100
AcDbEntity
  8
MAKE2D VISIBLE LINES
100
AcDbSpline
210
0.0
220
0.0
230
1.0
 70
    12
 71
     2
 72
     6
 73
     3
 74
     0
 42
0.0000000001
 43
0.0000000001
 40
0.0
 40
0.0
 40
0.0
 40
0.115151354597366
 40
0.115151354597366
 40
0.115151354597366
 10
1609.662205858322
 20
279.7582857615139
 30
0.0
 41
1.0
 10
1609.721253067398
 20
279.7542589410165
 30
0.0
 41
0.9597515624768941
 10
1609.768813577588
 20
279.7190361415431
 30
0.0
 41
1.0
  0
SPLINE
  5
15F
330
1F
100
AcDbEntity
  8
MAKE2D VISIBLE LINES
100
AcDbSpline
210
0.0
220
0.0
230
1.0
 70
    12
 71
     2
 72
     6
 73
     3
 74
     0
 42
0.0000000001
 43
0.0000000001
 40
0.0
 40
0.0
 40
0.0
 40
1.440794422624236
 40
1.440794422624236
 40
1.440794422624236
 10
1579.918918902994
 20
230.0084406439619
 30
0.0
 41
1.0
 10
1579.048576139146
 20
230.1222479466668
 30
0.0
 41
0.7515662960295836
 10
1579.04902608468
 20
231.0
 30
0.0
 41
0.9999999914050314
  0
SPLINE
  5
160
330
1F
100
AcDbEntity
  8
MAKE2D VISIBLE LINES
100
AcDbSpline
210
0.0
220
0.0
230
1.0
 70
    24
 71
     2
 72
     6
 73
     3
 74
     0
 42
0.0000000001
 43
0.0000000001
 40
0.0
 40
0.0
 40
0.0
 40
45.94870670511477
 40
45.94870670511477
 40
45.94870670511477
 10
1579.04902608468
 20
231.0
 30
0.0
 10
1579.049051246097
 20
253.9743533525569
 30
0.0
 10
1579.049076407513
 20
276.9487067051139
 30
0.0
  0
SPLINE
  5
161
330
1F
100
AcDbEntity
  8
MAKE2D VISIBLE LINES
100
AcDbSpline
210
0.0
220
0.0
230
1.0
 70
    12
 71
     2
 72
     6
 73
     3
 74
     0
 42
0.0000000001
 43
0.0000000001
 40
0.0
 40
0.0
 40
0.0
 40
1.384873956652281
 40
1.384873956652281
 40
1.384873956652281
 10
1579.049076407513
 20
276.9487067051139
 30
0.0
 41
0.999999996821767
 10
1579.04865255499
 20
277.7781422977966
 30
0.0
 41
0.769700026260321
 10
1579.863808033208
 20
277.9313909711085
 30
0.0
 41
1.0
  0
SPLINE
  5
162
330
1F
100
AcDbEntity
  8
MAKE2D VISIBLE LINES
100
AcDbSpline
210
0.0
220
0.0
230
1.0
 70
    12
 71
     2
 72
     6
 73
     3
 74
     0
 42
0.0000000001
 43
0.0000000001
 40
0.0
 40
0.0
 40
0.0
 40
14.09363537277737
 40
14.09363537277737
 40
14.09363537277737
 10
1579.863808033208
 20
277.9313909711085
 30
0.0
 41
1.0
 10
1586.797134664554
 20
279.235613323093
 30
0.0
 41
0.9982764499855897
 10
1593.835513627509
 20
279.7185562633364
 30
0.0
 41
1.0
  0
SPLINE
  5
163
330
1F
100
AcDbEntity
  8
MAKE2D VISIBLE LINES
100
AcDbSpline
210
0.0
220
0.0
230
1.0
 70
    12
 71
     2
 72
     6
 73
     3
 74
     0
 42
0.0000000001
 43
0.0000000001
 40
0.0
 40
0.0
 40
0.0
 40
0.0137002021194448
 40
0.0137002021194448
 40
0.0137002021194448
 10
1593.835513627508
 20
279.7185562633364
 30
0.0
 41
0.9999999976794665
 10
1593.842349778576
 20
279.7190155373342
 30
0.0
 41
0.9995118305926259
 10
1593.849201300352
 20
279.7190361417522
 30
0.0
 41
0.9999998913983386
  0
SPLINE
  5
164
330
1F
100
AcDbEntity
  8
MAKE2D VISIBLE LINES
100
AcDbSpline
210
0.0
220
0.0
230
1.0
 70
    24
 71
     2
 72
     6
 73
     3
 74
     0
 42
0.0000000001
 43
0.0000000001
 40
-8.200317073295764
 40
-8.200317073295764
 40
-8.200317073295764
 40
0.0
 40
0.0
 40
0.0
 10
1593.849201300352
 20
279.7190361417522
 30
0.0
 10
1597.949359075162
 20
279.7190361412225
 30
0.0
 10
1602.049516849971
 20
279.7190361406929
 30
0.0
  0
SPLINE
  5
165
330
1F
100
AcDbEntity
  8
MAKE2D VISIBLE LINES
100
AcDbSpline
210
0.0
220
0.0
230
1.0
 70
    24
 71
     2
 72
     6
 73
     3
 74
     0
 42
0.0000000001
 43
0.0000000001
 40
0.0
 40
0.0
 40
0.0
 40
8.200001946632028
 40
8.200001946632028
 40
8.200001946632028
 10
1602.049516849971
 20
279.7190361406929
 30
0.0
 10
1606.149554732867
 20
279.7190359137653
 30
0.0
 10
1610.249592615764
 20
279.7190356868378
 30
0.0
  0
SPLINE
  5
166
330
1F
100
AcDbEntity
  8
MAKE2D VISIBLE LINES
100
AcDbSpline
210
0.0
220
0.0
230
1.0
 70
    12
 71
     2
 72
     6
 73
     3
 74
     0
 42
0.0000000001
 43
0.0000000001
 40
0.0
 40
0.0
 40
0.0
 40
0.0135501600303173
 40
0.0135501600303173
 40
0.0135501600303173
 10
1610.249592615764
 20
279.7190356868378
 30
0.0
 41
1.0
 10
1610.256443643667
 20
279.7190111330266
 30
0.0
 41
0.9995194372462713
 10
1610.263206387797
 20
279.7185678920565
 30
0.0
 41
1.0
  0
SPLINE
  5
167
330
1F
100
AcDbEntity
  8
MAKE2D VISIBLE LINES
100
AcDbSpline
210
0.0
220
0.0
230
1.0
 70
    12
 71
     2
 72
     6
 73
     3
 74
     0
 42
0.0000000001
 43
0.0000000001
 40
0.0
 40
0.0
 40
0.0
 40
18.21158112440075
 40
18.21158112440075
 40
18.21158112440075
 10
1610.263206387797
 20
279.7185678920565
 30
0.0
 41
1.0
 10
1619.365117815892
 20
279.0941020014625
 30
0.0
 41
0.997122370221342
 10
1628.268005087574
 20
277.1007728924417
 30
0.0
 41
1.0
  0
SPLINE
  5
168
330
1F
100
AcDbEntity
  8
MAKE2D VISIBLE LINES
100
AcDbSpline
210
0.0
220
0.0
230
1.0
 70
    12
 71
     2
 72
     6
 73
     3
 74
     0
 42
0.0000000001
 43
0.0000000001
 40
0.0
 40
0.0
 40
0.0
 40
1.350531638502756
 40
1.350531638502756
 40
1.350531638502756
 10
1628.268005087574
 20
277.1007728924417
 30
0.0
 41
1.0
 10
1629.049516828789
 20
276.9257931045167
 30
0.0
 41
0.7805418828719253
 10
1629.049517806669
 20
276.1249327233223
 30
0.0
 41
0.9999999999933615
  0
SPLINE
  5
169
330
1F
100
AcDbEntity
  8
MAKE2D VISIBLE LINES
100
AcDbSpline
210
0.0
220
0.0
230
1.0
 70
    24
 71
     2
 72
     6
 73
     3
 74
     0
 42
0.0000000001
 43
0.0000000001
 40
-31.5068987345891
 40
-31.5068987345891
 40
-31.5068987345891
 40
0.0
 40
0.0
 40
0.0
 10
1629.049517806669
 20
276.1249327233223
 30
0.0
 10
1629.049525977539
 20
260.3714833560028
 30
0.0
 10
1629.049534148409
 20
244.6180339886832
 30
0.0
  0
SPLINE
  5
16A
330
1F
100
AcDbEntity
  8
MAKE2D VISIBLE LINES
100
AcDbSpline
210
0.0
220
0.0
230
1.0
 70
    12
 71
     2
 72
     6
 73
     3
 74
     0
 42
0.0000000001
 43
0.0000000001
 40
0.0
 40
0.0
 40
0.0
 40
1.107076019365396
 40
1.107076019365396
 40
1.107076019365396
 10
1629.049534148409
 20
244.6180339886832
 30
0.0
 41
0.9999999985375234
 10
1629.049364982415
 20
244.0001178784739
 30
0.0
 41
0.8508038394789748
 10
1628.496745991652
 20
243.7236145708503
 30
0.0
 41
1.0
  0
SPLINE
  5
16B
330
1F
100
AcDbEntity
  8
MAKE2D VISIBLE LINES
100
AcDbSpline
210
0.0
220
0.0
230
1.0
 70
    24
 71
     2
 72
     6
 73
     3
 74
     0
 42
0.0000000001
 43
0.0000000001
 40
-3.446317519362164
 40
-3.446317519362164
 40
-3.446317519362164
 40
0.0
 40
0.0
 40
0.0
 10
1628.496745991652
 20
243.7236145708503
 30
0.0
 10
1626.954857427212
 20
242.9526476981381
 30
0.0
 10
1625.412968862771
 20
242.1816808254259
 30
0.0
  0
SPLINE
  5
16C
330
1F
100
AcDbEntity
  8
MAKE2D VISIBLE LINES
100
AcDbSpline
210
0.0
220
0.0
230
1.0
 70
    12
 71
     2
 72
     6
 73
     3
 74
     0
 42
0.0000000001
 43
0.0000000001
 40
0.0
 40
0.0
 40
0.0
 40
0.0912179742160713
 40
0.0912179742160713
 40
0.0912179742160713
 10
1625.412968862771
 20
242.1816808254259
 30
0.0
 41
1.0
 10
1625.370891004176
 20
242.1605269994859
 30
0.0
 41
0.9988841203799195
 10
1625.3322077958
 20
242.1363012164406
 30
0.0
 41
1.0
  0
ENDSEC
  0
SECTION
  2
OBJECTS
  0
DICTIONARY
  5
C
330
0
100
AcDbDictionary
281
     1
  3
ACAD_GROUP
350
D
  3
ACAD_LAYOUT
350
1A
  3
ACAD_MLEADERSTYLE
350
170
  3
ACAD_MLINESTYLE
350
17
  3
ACAD_PLOTSETTINGS
350
19
  3
ACAD_PLOTSTYLENAME
350
E
  3
ACAD_SCALELIST
350
3D
  3
ACAD_TABLESTYLE
350
16F
  3
ACAD_VISUALSTYLE
350
2A
  3
AcDbVariableDictionary
350
16D
  0
DICTIONARY
  5
D
102
{ACAD_REACTORS
330
C
102
}
330
C
100
AcDbDictionary
281
     1
  0
DICTIONARY
  5
1A
102
{ACAD_REACTORS
330
C
102
}
330
C
100
AcDbDictionary
281
     1
  3
Layout1
350
1E
  3
Layout2
350
26
  3
Model
350
22
  0
DICTIONARY
  5
170
102
{ACAD_REACTORS
330
C
102
}
330
C
100
AcDbDictionary
281
     1
  0
DICTIONARY
  5
17
102
{ACAD_REACTORS
330
C
102
}
330
C
100
AcDbDictionary
281
     1
  3
Standard
350
18
  0
DICTIONARY
  5
19
102
{ACAD_REACTORS
330
C
102
}
330
C
100
AcDbDictionary
281
     1
  0
ACDBDICTIONARYWDFLT
  5
E
102
{ACAD_REACTORS
330
C
102
}
330
C
100
AcDbDictionary
281
     1
  3
Normal
350
F
100
AcDbDictionaryWithDefault
340
F
  0
DICTIONARY
  5
3D
102
{ACAD_REACTORS
330
C
102
}
330
C
100
AcDbDictionary
281
     1
  3
A0
350
3E
  3
A1
350
3F
  3
A2
350
40
  3
A3
350
41
  3
A4
350
42
  3
A5
350
43
  3
A6
350
44
  3
A7
350
45
  3
A8
350
46
  3
A9
350
47
  3
B0
350
48
  3
B1
350
49
  3
B2
350
4A
  3
B3
350
4B
  3
B4
350
4C
  3
B5
350
4D
  3
B6
350
4E
  3
B7
350
4F
  3
B8
350
50
  3
B9
350
51
  3
C0
350
52
  3
C1
350
53
  3
C2
350
54
  3
C3
350
55
  3
C4
350
56
  3
C5
350
57
  3
C6
350
58
  3
C7
350
59
  3
C8
350
5A
  3
C9
350
5B
  3
D0
350
5C
  3
D1
350
5D
  3
D2
350
5E
  0
DICTIONARY
  5
16F
102
{ACAD_REACTORS
330
C
102
}
330
C
100
AcDbDictionary
281
     1
  0
DICTIONARY
  5
2A
102
{ACAD_REACTORS
330
C
102
}
330
C
100
AcDbDictionary
281
     1
  3
2dWireframe
350
2F
  3
3D Hidden
350
31
  3
3dWireframe
350
30
  3
Basic
350
32
  3
Brighten
350
36
  3
ColorChange
350
3A
  3
Conceptual
350
34
  3
Dim
350
35
  3
Facepattern
350
39
  3
Flat
350
2B
  3
FlatWithEdges
350
2C
  3
Gouraud
350
2D
  3
GouraudWithEdges
350
2E
  3
Linepattern
350
38
  3
Realistic
350
33
  3
Thicken
350
37
  0
DICTIONARY
  5
16D
102
{ACAD_REACTORS
330
C
102
}
330
C
100
AcDbDictionary
281
     1
  3
CANNOSCALE
350
16E
  0
LAYOUT
  5
1E
102
{ACAD_REACTORS
330
1A
102
}
330
1A
100
AcDbPlotSettings
  1

  2
none_device
  4

  6

 40
0.0
 41
0.0
 42
0.0
 43
0.0
 44
0.0
 45
0.0
 46
0.0
 47
0.0
 48
0.0
 49
0.0
140
0.0
141
0.0
142
1.0
143
1.0
 70
   688
 72
     0
 73
     0
 74
     5
  7

 75
    16
 76
     0
 77
     2
 78
   300
147
1.0
148
0.0
149
0.0
100
AcDbLayout
  1
Layout1
 70
     1
 71
     1
 10
0.0
 20
0.0
 11
12.0
 21
9.0
 12
0.0
 22
0.0
 32
0.0
 14
1.000000000000000E+20
 24
1.000000000000000E+20
 34
1.000000000000000E+20
 15
-1.000000000000000E+20
 25
-1.000000000000000E+20
 35
-1.000000000000000E+20
146
0.0
 13
0.0
 23
0.0
 33
0.0
 16
1.0
 26
0.0
 36
0.0
 17
0.0
 27
1.0
 37
0.0
 76
     0
330
1B
  0
LAYOUT
  5
26
102
{ACAD_REACTORS
330
1A
102
}
330
1A
100
AcDbPlotSettings
  1

  2
none_device
  4

  6

 40
0.0
 41
0.0
 42
0.0
 43
0.0
 44
0.0
 45
0.0
 46
0.0
 47
0.0
 48
0.0
 49
0.0
140
0.0
141
0.0
142
1.0
143
1.0
 70
   688
 72
     0
 73
     0
 74
     5
  7

 75
    16
 76
     0
 77
     2
 78
   300
147
1.0
148
0.0
149
0.0
100
AcDbLayout
  1
Layout2
 70
     1
 71
     2
 10
0.0
 20
0.0
 11
0.0
 21
0.0
 12
0.0
 22
0.0
 32
0.0
 14
0.0
 24
0.0
 34
0.0
 15
0.0
 25
0.0
 35
0.0
146
0.0
 13
0.0
 23
0.0
 33
0.0
 16
1.0
 26
0.0
 36
0.0
 17
0.0
 27
1.0
 37
0.0
 76
     0
330
23
  0
LAYOUT
  5
22
102
{ACAD_REACTORS
330
1A
102
}
330
1A
100
AcDbPlotSettings
  1

  2
none_device
  4

  6

 40
0.0
 41
0.0
 42
0.0
 43
0.0
 44
0.0
 45
0.0
 46
0.0
 47
0.0
 48
0.0
 49
0.0
140
0.0
141
0.0
142
1.0
143
1.0
 70
  1712
 72
     0
 73
     0
 74
     0
  7

 75
     0
 76
     0
 77
     2
 78
   300
147
1.0
148
0.0
149
0.0
100
AcDbLayout
  1
Model
 70
     1
 71
     0
 10
0.0
 20
0.0
 11
12.0
 21
9.0
 12
0.0
 22
0.0
 32
0.0
 14
1516.049516849971
 24
-0.0000000000000039
 34
0.0
 15
1663.549516849971
 25
362.320070909071
 35
0.0
146
0.0
 13
0.0
 23
0.0
 33
0.0
 16
1.0
 26
0.0
 36
0.0
 17
0.0
 27
1.0
 37
0.0
 76
     0
330
1F
331
29
  0
MLINESTYLE
  5
18
102
{ACAD_REACTORS
330
17
102
}
330
17
100
AcDbMlineStyle
  2
Standard
 70
     0
  3

 62
   256
 51
90.0
 52
90.0
 71
     2
 49
0.5
 62
   256
  6
BYLAYER
 49
-0.5
 62
   256
  6
BYLAYER
  0
ACDBPLACEHOLDER
  5
F
102
{ACAD_REACTORS
330
E
102
}
330
E
  0
SCALE
  5
3E
102
{ACAD_REACTORS
330
3D
102
}
330
3D
100
AcDbScale
 70
     0
300
1:1
140
1.0
141
1.0
290
     1
  0
SCALE
  5
3F
102
{ACAD_REACTORS
330
3D
102
}
330
3D
100
AcDbScale
 70
     0
300
1:2
140
1.0
141
2.0
290
     0
  0
SCALE
  5
40
102
{ACAD_REACTORS
330
3D
102
}
330
3D
100
AcDbScale
 70
     0
300
1:4
140
1.0
141
4.0
290
     0
  0
SCALE
  5
41
102
{ACAD_REACTORS
330
3D
102
}
330
3D
100
AcDbScale
 70
     0
300
1:5
140
1.0
141
5.0
290
     0
  0
SCALE
  5
42
102
{ACAD_REACTORS
330
3D
102
}
330
3D
100
AcDbScale
 70
     0
300
1:8
140
1.0
141
8.0
290
     0
  0
SCALE
  5
43
102
{ACAD_REACTORS
330
3D
102
}
330
3D
100
AcDbScale
 70
     0
300
1:10
140
1.0
141
10.0
290
     0
  0
SCALE
  5
44
102
{ACAD_REACTORS
330
3D
102
}
330
3D
100
AcDbScale
 70
     0
300
1:16
140
1.0
141
16.0
290
     0
  0
SCALE
  5
45
102
{ACAD_REACTORS
330
3D
102
}
330
3D
100
AcDbScale
 70
     0
300
1:20
140
1.0
141
20.0
290
     0
  0
SCALE
  5
46
102
{ACAD_REACTORS
330
3D
102
}
330
3D
100
AcDbScale
 70
     0
300
1:30
140
1.0
141
30.0
290
     0
  0
SCALE
  5
47
102
{ACAD_REACTORS
330
3D
102
}
330
3D
100
AcDbScale
 70
     0
300
1:40
140
1.0
141
40.0
290
     0
  0
SCALE
  5
48
102
{ACAD_REACTORS
330
3D
102
}
330
3D
100
AcDbScale
 70
     0
300
1:50
140
1.0
141
50.0
290
     0
  0
SCALE
  5
49
102
{ACAD_REACTORS
330
3D
102
}
330
3D
100
AcDbScale
 70
     0
300
1:100
140
1.0
141
100.0
290
     0
  0
SCALE
  5
4A
102
{ACAD_REACTORS
330
3D
102
}
330
3D
100
AcDbScale
 70
     0
300
2:1
140
2.0
141
1.0
290
     0
  0
SCALE
  5
4B
102
{ACAD_REACTORS
330
3D
102
}
330
3D
100
AcDbScale
 70
     0
300
4:1
140
4.0
141
1.0
290
     0
  0
SCALE
  5
4C
102
{ACAD_REACTORS
330
3D
102
}
330
3D
100
AcDbScale
 70
     0
300
8:1
140
8.0
141
1.0
290
     0
  0
SCALE
  5
4D
102
{ACAD_REACTORS
330
3D
102
}
330
3D
100
AcDbScale
 70
     0
300
10:1
140
10.0
141
1.0
290
     0
  0
SCALE
  5
4E
102
{ACAD_REACTORS
330
3D
102
}
330
3D
100
AcDbScale
 70
     0
300
100:1
140
100.0
141
1.0
290
     0
  0
SCALE
  5
4F
102
{ACAD_REACTORS
330
3D
102
}
330
3D
100
AcDbScale
 70
     0
300
1/128" = 1'-0"
140
0.0078125
141
12.0
290
     0
  0
SCALE
  5
50
102
{ACAD_REACTORS
330
3D
102
}
330
3D
100
AcDbScale
 70
     0
300
1/64" = 1'-0"
140
0.015625
141
12.0
290
     0
  0
SCALE
  5
51
102
{ACAD_REACTORS
330
3D
102
}
330
3D
100
AcDbScale
 70
     0
300
1/32" = 1'-0"
140
0.03125
141
12.0
290
     0
  0
SCALE
  5
52
102
{ACAD_REACTORS
330
3D
102
}
330
3D
100
AcDbScale
 70
     0
300
1/16" = 1'-0"
140
0.0625
141
12.0
290
     0
  0
SCALE
  5
53
102
{ACAD_REACTORS
330
3D
102
}
330
3D
100
AcDbScale
 70
     0
300
3/32" = 1'-0"
140
0.09375
141
12.0
290
     0
  0
SCALE
  5
54
102
{ACAD_REACTORS
330
3D
102
}
330
3D
100
AcDbScale
 70
     0
300
1/8" = 1'-0"
140
0.125
141
12.0
290
     0
  0
SCALE
  5
55
102
{ACAD_REACTORS
330
3D
102
}
330
3D
100
AcDbScale
 70
     0
300
3/16" = 1'-0"
140
0.1875
141
12.0
290
     0
  0
SCALE
  5
56
102
{ACAD_REACTORS
330
3D
102
}
330
3D
100
AcDbScale
 70
     0
300
1/4" = 1'-0"
140
0.25
141
12.0
290
     0
  0
SCALE
  5
57
102
{ACAD_REACTORS
330
3D
102
}
330
3D
100
AcDbScale
 70
     0
300
3/8" = 1'-0"
140
0.375
141
12.0
290
     0
  0
SCALE
  5
58
102
{ACAD_REACTORS
330
3D
102
}
330
3D
100
AcDbScale
 70
     0
300
1/2" = 1'-0"
140
0.5
141
12.0
290
     0
  0
SCALE
  5
59
102
{ACAD_REACTORS
330
3D
102
}
330
3D
100
AcDbScale
 70
     0
300
3/4" = 1'-0"
140
0.75
141
12.0
290
     0
  0
SCALE
  5
5A
102
{ACAD_REACTORS
330
3D
102
}
330
3D
100
AcDbScale
 70
     0
300
1" = 1'-0"
140
1.0
141
12.0
290
     0
  0
SCALE
  5
5B
102
{ACAD_REACTORS
330
3D
102
}
330
3D
100
AcDbScale
 70
     0
300
1-1/2" = 1'-0"
140
1.5
141
12.0
290
     0
  0
SCALE
  5
5C
102
{ACAD_REACTORS
330
3D
102
}
330
3D
100
AcDbScale
 70
     0
300
3" = 1'-0"
140
3.0
141
12.0
290
     0
  0
SCALE
  5
5D
102
{ACAD_REACTORS
330
3D
102
}
330
3D
100
AcDbScale
 70
     0
300
6" = 1'-0"
140
6.0
141
12.0
290
     0
  0
SCALE
  5
5E
102
{ACAD_REACTORS
330
3D
102
}
330
3D
100
AcDbScale
 70
     0
300
1'-0" = 1'-0"
140
12.0
141
12.0
290
     0
  0
VISUALSTYLE
  5
2F
102
{ACAD_REACTORS
330
2A
102
}
330
2A
100
AcDbVisualStyle
  2
2dWireframe
 70
     4
 71
     0
 72
     2
 73
     0
 90
        0
 40
-0.6
 41
-30.0
 62
     5
 63
     7
421
 16777215
 74
     1
 91
        4
 64
     7
 65
   257
 75
     1
175
     1
 42
1.0
 92
        0
 66
   257
 43
1.0
 76
     1
 77
     6
 78
     2
 67
     7
 79
     5
170
     0
171
     0
290
     0
174
     0
 93
        1
 44
0.0
173
     0
291
     0
 45
0.0
1001
ACAD
1000
AcDbSavedByObjectVersion
1070
     0
  0
VISUALSTYLE
  5
31
102
{ACAD_REACTORS
330
2A
102
}
330
2A
100
AcDbVisualStyle
  2
3D Hidden
 70
     6
 71
     1
 72
     2
 73
     2
 90
        0
 40
-0.6
 41
-30.0
 62
     5
 63
     7
421
 16777215
 74
     2
 91
        2
 64
     7
 65
   257
 75
     2
175
     1
 42
40.0
 92
        0
 66
   257
 43
1.0
 76
     1
 77
     6
 78
     2
 67
     7
 79
     3
170
     0
171
     0
290
     0
174
     0
 93
        1
 44
0.0
173
     0
291
     0
 45
0.0
1001
ACAD
1000
AcDbSavedByObjectVersion
1070
     0
  0
VISUALSTYLE
  5
30
102
{ACAD_REACTORS
330
2A
102
}
330
2A
100
AcDbVisualStyle
  2
3dWireframe
 70
     5
 71
     0
 72
     2
 73
     0
 90
        0
 40
-0.6
 41
-30.0
 62
     5
 63
     7
421
 16777215
 74
     1
 91
        4
 64
     7
 65
   257
 75
     1
175
     1
 42
1.0
 92
        0
 66
   257
 43
1.0
 76
     1
 77
     6
 78
     2
 67
     7
 79
     5
170
     0
171
     0
290
     0
174
     0
 93
        1
 44
0.0
173
     0
291
     0
 45
0.0
1001
ACAD
1000
AcDbSavedByObjectVersion
1070
     0
  0
VISUALSTYLE
  5
32
102
{ACAD_REACTORS
330
2A
102
}
330
2A
100
AcDbVisualStyle
  2
Basic
 70
     7
 71
     1
 72
     0
 73
     1
 90
        0
 40
-0.6
 41
-30.0
 62
     5
 63
     7
421
 16777215
 74
     0
 91
        4
 64
     7
 65
   257
 75
     1
175
     1
 42
1.0
 92
        8
 66
     7
 43
1.0
 76
     1
 77
     6
 78
     2
 67
     7
 79
     5
170
     0
171
     0
290
     0
174
     0
 93
        1
 44
0.0
173
     0
291
     1
 45
0.0
1001
ACAD
1000
AcDbSavedByObjectVersion
1070
     0
  0
VISUALSTYLE
  5
36
102
{ACAD_REACTORS
330
2A
102
}
330
2A
100
AcDbVisualStyle
  2
Brighten
 70
    12
 71
     2
 72
     2
 73
     0
 90
        0
 40
-0.6
 41
-30.0
 62
     5
 63
     7
421
 16777215
 74
     1
 91
        4
 64
     7
 65
   257
 75
     1
175
     1
 42
1.0
 92
        8
 66
     7
 43
1.0
 76
     1
 77
     6
 78
     2
 67
     7
 79
     5
170
     0
171
     0
290
     0
174
     0
 93
        1
 44
50.0
173
     0
291
     1
 45
0.0
1001
ACAD
1000
AcDbSavedByObjectVersion
1070
     0
  0
VISUALSTYLE
  5
3A
102
{ACAD_REACTORS
330
2A
102
}
330
2A
100
AcDbVisualStyle
  2
ColorChange
 70
    16
 71
     2
 72
     2
 73
     3
 90
        0
 40
-0.6
 41
-30.0
 62
     5
 63
     8
421
  8421504
 74
     1
 91
        4
 64
     7
 65
   257
 75
     1
175
     1
 42
1.0
 92
        8
 66
     8
424
  8421504
 43
1.0
 76
     1
 77
     6
 78
     2
 67
     7
 79
     5
170
     0
171
     0
290
     0
174
     0
 93
        1
 44
0.0
173
     0
291
     1
 45
0.0
1001
ACAD
1000
AcDbSavedByObjectVersion
1070
     0
  0
VISUALSTYLE
  5
34
102
{ACAD_REACTORS
330
2A
102
}
330
2A
100
AcDbVisualStyle
  2
Conceptual
 70
     9
 71
     3
 72
     2
 73
     0
 90
        0
 40
-0.6
 41
-30.0
 62
     5
 63
     7
421
 16777215
 74
     2
 91
        2
 64
     7
 65
   257
 75
     1
175
     1
 42
40.0
 92
        8
 66
     7
 43
1.0
 76
     1
 77
     6
 78
     2
 67
     7
 79
     3
170
     0
171
     0
290
     0
174
     0
 93
        1
 44
0.0
173
     0
291
     0
 45
0.0
1001
ACAD
1000
AcDbSavedByObjectVersion
1070
     0
  0
VISUALSTYLE
  5
35
102
{ACAD_REACTORS
330
2A
102
}
330
2A
100
AcDbVisualStyle
  2
Dim
 70
    11
 71
     2
 72
     2
 73
     0
 90
        0
 40
-0.6
 41
-30.0
 62
     5
 63
     7
421
 16777215
 74
     1
 91
        4
 64
     7
 65
   257
 75
     1
175
     1
 42
1.0
 92
        8
 66
     7
 43
1.0
 76
     1
 77
     6
 78
     2
 67
     7
 79
     5
170
     0
171
     0
290
     0
174
     0
 93
        1
 44
-50.0
173
     0
291
     1
 45
0.0
1001
ACAD
1000
AcDbSavedByObjectVersion
1070
     0
  0
VISUALSTYLE
  5
39
102
{ACAD_REACTORS
330
2A
102
}
330
2A
100
AcDbVisualStyle
  2
Facepattern
 70
    15
 71
     2
 72
     2
 73
     0
 90
        0
 40
-0.6
 41
-30.0
 62
     5
 63
     7
421
 16777215
 74
     1
 91
        4
 64
     7
 65
   257
 75
     1
175
     1
 42
1.0
 92
        8
 66
     7
 43
1.0
 76
     1
 77
     6
 78
     2
 67
     7
 79
     5
170
     0
171
     0
290
     0
174
     0
 93
        1
 44
0.0
173
     0
291
     1
 45
0.0
1001
ACAD
1000
AcDbSavedByObjectVersion
1070
     0
  0
VISUALSTYLE
  5
2B
102
{ACAD_REACTORS
330
2A
102
}
330
2A
100
AcDbVisualStyle
  2
Flat
 70
     0
 71
     2
 72
     1
 73
     1
 90
        2
 40
-0.6
 41
30.0
 62
     5
 63
     7
421
 16777215
 74
     0
 91
        4
 64
     7
 65
   257
 75
     1
175
     1
 42
1.0
 92
        8
 66
     7
 43
1.0
 76
     1
 77
     6
 78
     2
 67
     7
 79
     5
170
     0
171
     0
290
     0
174
     0
 93
       13
 44
0.0
173
     0
291
     1
 45
0.0
1001
ACAD
1000
AcDbSavedByObjectVersion
1070
     0
  0
VISUALSTYLE
  5
2C
102
{ACAD_REACTORS
330
2A
102
}
330
2A
100
AcDbVisualStyle
  2
FlatWithEdges
 70
     1
 71
     2
 72
     1
 73
     1
 90
        2
 40
-0.6
 41
30.0
 62
     5
 63
     7
421
 16777215
 74
     1
 91
        4
 64
     7
 65
   257
 75
     1
175
     1
 42
1.0
 92
        0
 66
   257
 43
1.0
 76
     1
 77
     6
 78
     2
 67
     7
 79
     5
170
     0
171
     0
290
     0
174
     0
 93
       13
 44
0.0
173
     0
291
     1
 45
0.0
1001
ACAD
1000
AcDbSavedByObjectVersion
1070
     0
  0
VISUALSTYLE
  5
2D
102
{ACAD_REACTORS
330
2A
102
}
330
2A
100
AcDbVisualStyle
  2
Gouraud
 70
     2
 71
     2
 72
     2
 73
     1
 90
        2
 40
-0.6
 41
30.0
 62
     5
 63
     7
421
 16777215
 74
     0
 91
        4
 64
     7
 65
   257
 75
     1
175
     1
 42
1.0
 92
        0
 66
     7
 43
1.0
 76
     1
 77
     6
 78
     2
 67
     7
 79
     5
170
     0
171
     0
290
     0
174
     0
 93
       13
 44
0.0
173
     0
291
     1
 45
0.0
1001
ACAD
1000
AcDbSavedByObjectVersion
1070
     0
  0
VISUALSTYLE
  5
2E
102
{ACAD_REACTORS
330
2A
102
}
330
2A
100
AcDbVisualStyle
  2
GouraudWithEdges
 70
     3
 71
     2
 72
     2
 73
     1
 90
        2
 40
-0.6
 41
30.0
 62
     5
 63
     7
421
 16777215
 74
     1
 91
        4
 64
     7
 65
   257
 75
     1
175
     1
 42
1.0
 92
        0
 66
   257
 43
1.0
 76
     1
 77
     6
 78
     2
 67
     7
 79
     5
170
     0
171
     0
290
     0
174
     0
 93
       13
 44
0.0
173
     0
291
     1
 45
0.0
1001
ACAD
1000
AcDbSavedByObjectVersion
1070
     0
  0
VISUALSTYLE
  5
38
102
{ACAD_REACTORS
330
2A
102
}
330
2A
100
AcDbVisualStyle
  2
Linepattern
 70
    14
 71
     2
 72
     2
 73
     0
 90
        0
 40
-0.6
 41
-30.0
 62
     5
 63
     7
421
 16777215
 74
     1
 91
        4
 64
     7
 65
   257
 75
     7
175
     7
 42
1.0
 92
        8
 66
     7
 43
1.0
 76
     1
 77
     6
 78
     2
 67
     7
 79
     5
170
     0
171
     0
290
     0
174
     0
 93
        1
 44
0.0
173
     0
291
     1
 45
0.0
1001
ACAD
1000
AcDbSavedByObjectVersion
1070
     0
  0
VISUALSTYLE
  5
33
102
{ACAD_REACTORS
330
2A
102
}
330
2A
100
AcDbVisualStyle
  2
Realistic
 70
     8
 71
     2
 72
     2
 73
     0
 90
        0
 40
-0.6
 41
-30.0
 62
     5
 63
     7
421
 16777215
 74
     1
 91
        0
 64
     7
 65
   257
 75
     1
175
     1
 42
1.0
 92
        8
 66
     8
424
  7895160
 43
1.0
 76
     1
 77
     6
 78
     2
 67
     7
 79
     5
170
     0
171
     0
290
     0
174
     0
 93
       13
 44
0.0
173
     0
291
     0
 45
0.0
1001
ACAD
1000
AcDbSavedByObjectVersion
1070
     0
  0
VISUALSTYLE
  5
37
102
{ACAD_REACTORS
330
2A
102
}
330
2A
100
AcDbVisualStyle
  2
Thicken
 70
    13
 71
     2
 72
     2
 73
     0
 90
        0
 40
-0.6
 41
-30.0
 62
     5
 63
     7
421
 16777215
 74
     1
 91
        4
 64
     7
 65
   257
 75
     1
175
     1
 42
1.0
 92
       12
 66
     7
 43
1.0
 76
     1
 77
     6
 78
     2
 67
     7
 79
     5
170
     0
171
     0
290
     0
174
     0
 93
        1
 44
0.0
173
     0
291
     1
 45
0.0
1001
ACAD
1000
AcDbSavedByObjectVersion
1070
     0
  0
DICTIONARYVAR
  5
16E
102
{ACAD_REACTORS
330
16D
102
}
330
16D
100
DictionaryVariables
280
     0
  1
1:1
  0
ENDSEC
  0
EOF
