  0
SECTION
  2
HEADER
  9
$ACADVER
  1
AC1018
  9
$ACADMAINTVER
 70
     0
  9
$DWGCODEPAGE
  3
ANSI_936
  9
$INSBASE
 10
0.0
 20
0.0
 30
0.0
  9
$EXTMIN
 10
1063.0
 20
453.0495168499705
 30
0.0
  9
$EXTMAX
 10
1423.474353352557
 20
585.3695163626898
 30
0.0
  9
$LIMMIN
 10
0.0
 20
0.0
  9
$LIMMAX
 10
12.0
 20
9.0
  9
$ORTHOMODE
 70
     0
  9
$REGENMODE
 70
     1
  9
$FILLMODE
 70
     1
  9
$QTEXTMODE
 70
     0
  9
$MIRRTEXT
 70
     1
  9
$LTSCALE
 40
1.0
  9
$ATTMODE
 70
     1
  9
$TEXTSIZE
 40
0.2
  9
$TRACEWID
 40
0.05
  9
$TEXTSTYLE
  7
Standard
  9
$CLAYER
  8
E8455
  9
$CELTYPE
  6
ByLayer
  9
$CECOLOR
 62
   256
  9
$CELTSCALE
 40
1.0
  9
$DISPSILH
 70
     0
  9
$DIMSCALE
 40
1.0
  9
$DIMASZ
 40
0.18
  9
$DIMEXO
 40
0.0625
  9
$DIMDLI
 40
0.38
  9
$DIMRND
 40
0.0
  9
$DIMDLE
 40
0.0
  9
$DIMEXE
 40
0.18
  9
$DIMTP
 40
0.0
  9
$DIMTM
 40
0.0
  9
$DIMTXT
 40
0.18
  9
$DIMCEN
 40
0.09
  9
$DIMTSZ
 40
0.0
  9
$DIMTOL
 70
     0
  9
$DIMLIM
 70
     0
  9
$DIMTIH
 70
     1
  9
$DIMTOH
 70
     1
  9
$DIMSE1
 70
     0
  9
$DIMSE2
 70
     0
  9
$DIMTAD
 70
     0
  9
$DIMZIN
 70
     0
  9
$DIMBLK
  1

  9
$DIMASO
 70
     1
  9
$DIMSHO
 70
     1
  9
$DIMPOST
  1

  9
$DIMAPOST
  1

  9
$DIMALT
 70
     0
  9
$DIMALTD
 70
     2
  9
$DIMALTF
 40
25.4
  9
$DIMLFAC
 40
1.0
  9
$DIMTOFL
 70
     0
  9
$DIMTVP
 40
0.0
  9
$DIMTIX
 70
     0
  9
$DIMSOXD
 70
     0
  9
$DIMSAH
 70
     0
  9
$DIMBLK1
  1

  9
$DIMBLK2
  1

  9
$DIMSTYLE
  2
Standard
  9
$DIMCLRD
 70
     0
  9
$DIMCLRE
 70
     0
  9
$DIMCLRT
 70
     0
  9
$DIMTFAC
 40
1.0
  9
$DIMGAP
 40
0.09
  9
$DIMJUST
 70
     0
  9
$DIMSD1
 70
     0
  9
$DIMSD2
 70
     0
  9
$DIMTOLJ
 70
     1
  9
$DIMTZIN
 70
     0
  9
$DIMALTZ
 70
     0
  9
$DIMALTTZ
 70
     0
  9
$DIMUPT
 70
     0
  9
$DIMDEC
 70
     4
  9
$DIMTDEC
 70
     4
  9
$DIMALTU
 70
     2
  9
$DIMALTTD
 70
     2
  9
$DIMTXSTY
  7
Standard
  9
$DIMAUNIT
 70
     0
  9
$DIMADEC
 70
     0
  9
$DIMALTRND
 40
0.0
  9
$DIMAZIN
 70
     0
  9
$DIMDSEP
 70
    46
  9
$DIMATFIT
 70
     3
  9
$DIMFRAC
 70
     0
  9
$DIMLDRBLK
  1

  9
$DIMLUNIT
 70
     2
  9
$DIMLWD
 70
    -2
  9
$DIMLWE
 70
    -2
  9
$DIMTMOVE
 70
     2
  9
$LUNITS
 70
     2
  9
$LUPREC
 70
     2
  9
$SKETCHINC
 40
0.1
  9
$FILLETRAD
 40
0.5
  9
$AUNITS
 70
     0
  9
$AUPREC
 70
     0
  9
$MENU
  1
.
  9
$ELEVATION
 40
0.0
  9
$PELEVATION
 40
0.0
  9
$THICKNESS
 40
0.0
  9
$LIMCHECK
 70
     0
  9
$CHAMFERA
 40
0.5
  9
$CHAMFERB
 40
0.5
  9
$CHAMFERC
 40
1.0
  9
$CHAMFERD
 40
0.0
  9
$SKPOLY
 70
     0
  9
$TDCREATE
 40
2456449.66918294
  9
$TDUCREATE
 40
2456449.585849606
  9
$TDUPDATE
 40
2456449.669182952
  9
$TDUUPDATE
 40
2456449.585849618
  9
$TDINDWG
 40
0.0000000116
  9
$TDUSRTIMER
 40
0.0000000116
  9
$USRTIMER
 70
     1
  9
$ANGBASE
 50
0.0
  9
$ANGDIR
 70
     0
  9
$PDMODE
 70
     0
  9
$PDSIZE
 40
0.0
  9
$PLINEWID
 40
0.0
  9
$SPLFRAME
 70
     0
  9
$SPLINETYPE
 70
     6
  9
$SPLINESEGS
 70
     8
  9
$HANDSEED
  5
1A2
  9
$SURFTAB1
 70
     6
  9
$SURFTAB2
 70
     6
  9
$SURFTYPE
 70
     6
  9
$SURFU
 70
     6
  9
$SURFV
 70
     6
  9
$UCSBASE
  2

  9
$UCSNAME
  2

  9
$UCSORG
 10
0.0
 20
0.0
 30
0.0
  9
$UCSXDIR
 10
1.0
 20
0.0
 30
0.0
  9
$UCSYDIR
 10
0.0
 20
1.0
 30
0.0
  9
$UCSORTHOREF
  2

  9
$UCSORTHOVIEW
 70
     0
  9
$UCSORGTOP
 10
0.0
 20
0.0
 30
0.0
  9
$UCSORGBOTTOM
 10
0.0
 20
0.0
 30
0.0
  9
$UCSORGLEFT
 10
0.0
 20
0.0
 30
0.0
  9
$UCSORGRIGHT
 10
0.0
 20
0.0
 30
0.0
  9
$UCSORGFRONT
 10
0.0
 20
0.0
 30
0.0
  9
$UCSORGBACK
 10
0.0
 20
0.0
 30
0.0
  9
$PUCSBASE
  2

  9
$PUCSNAME
  2

  9
$PUCSORG
 10
0.0
 20
0.0
 30
0.0
  9
$PUCSXDIR
 10
1.0
 20
0.0
 30
0.0
  9
$PUCSYDIR
 10
0.0
 20
1.0
 30
0.0
  9
$PUCSORTHOREF
  2

  9
$PUCSORTHOVIEW
 70
     0
  9
$PUCSORGTOP
 10
0.0
 20
0.0
 30
0.0
  9
$PUCSORGBOTTOM
 10
0.0
 20
0.0
 30
0.0
  9
$PUCSORGLEFT
 10
0.0
 20
0.0
 30
0.0
  9
$PUCSORGRIGHT
 10
0.0
 20
0.0
 30
0.0
  9
$PUCSORGFRONT
 10
0.0
 20
0.0
 30
0.0
  9
$PUCSORGBACK
 10
0.0
 20
0.0
 30
0.0
  9
$USERI1
 70
     0
  9
$USERI2
 70
     0
  9
$USERI3
 70
     0
  9
$USERI4
 70
     0
  9
$USERI5
 70
     0
  9
$USERR1
 40
0.0
  9
$USERR2
 40
0.0
  9
$USERR3
 40
0.0
  9
$USERR4
 40
0.0
  9
$USERR5
 40
0.0
  9
$WORLDVIEW
 70
     1
  9
$SHADEDGE
 70
     3
  9
$SHADEDIF
 70
    70
  9
$TILEMODE
 70
     1
  9
$MAXACTVP
 70
    64
  9
$PINSBASE
 10
0.0
 20
0.0
 30
0.0
  9
$PLIMCHECK
 70
     0
  9
$PEXTMIN
 10
1.000000000000000E+20
 20
1.000000000000000E+20
 30
1.000000000000000E+20
  9
$PEXTMAX
 10
-1.000000000000000E+20
 20
-1.000000000000000E+20
 30
-1.000000000000000E+20
  9
$PLIMMIN
 10
0.0
 20
0.0
  9
$PLIMMAX
 10
12.0
 20
9.0
  9
$UNITMODE
 70
     0
  9
$VISRETAIN
 70
     1
  9
$PLINEGEN
 70
     0
  9
$PSLTSCALE
 70
     1
  9
$TREEDEPTH
 70
  3020
  9
$CMLSTYLE
  2
Standard
  9
$CMLJUST
 70
     0
  9
$CMLSCALE
 40
1.0
  9
$PROXYGRAPHICS
 70
     1
  9
$MEASUREMENT
 70
     0
  9
$CELWEIGHT
370
    -1
  9
$ENDCAPS
280
     0
  9
$JOINSTYLE
280
     0
  9
$LWDISPLAY
290
     0
  9
$INSUNITS
 70
     4
  9
$HYPERLINKBASE
  1

  9
$STYLESHEET
  1

  9
$XEDIT
290
     1
  9
$CEPSNTYPE
380
     0
  9
$PSTYLEMODE
290
     1
  9
$FINGERPRINTGUID
  2
{D3E857F3-A442-452F-9E1D-7EF4B5462071}
  9
$VERSIONGUID
  2
{FAEB1C32-E019-11D5-929B-00C0DF256EC4}
  9
$EXTNAMES
290
     1
  9
$PSVPSCALE
 40
0.0
  9
$OLESTARTUP
290
     0
  9
$SORTENTS
280
   127
  9
$INDEXCTL
280
     0
  9
$HIDETEXT
280
     1
  9
$XCLIPFRAME
290
     0
  9
$HALOGAP
280
     0
  9
$OBSCOLOR
 70
   257
  9
$OBSLTYPE
280
     0
  9
$INTERSECTIONDISPLAY
280
     0
  9
$INTERSECTIONCOLOR
 70
   257
  9
$DIMASSOC
280
     2
  9
$PROJECTNAME
  1

  0
ENDSEC
  0
SECTION
  2
CLASSES
  0
CLASS
  1
ACDBDICTIONARYWDFLT
  2
AcDbDictionaryWithDefault
  3
ObjectDBX Classes
 90
        0
 91
        4
280
     0
281
     0
  0
CLASS
  1
VISUALSTYLE
  2
AcDbVisualStyle
  3
ObjectDBX Classes
 90
     4095
 91
        4
280
     0
281
     0
  0
CLASS
  1
SCALE
  2
AcDbScale
  3
ObjectDBX Classes
 90
     1153
 91
        4
280
     0
281
     0
  0
CLASS
  1
DICTIONARYVAR
  2
AcDbDictionaryVar
  3
ObjectDBX Classes
 90
        0
 91
        4
280
     0
281
     0
  0
ENDSEC
  0
SECTION
  2
TABLES
  0
TABLE
  2
VPORT
  5
8
330
0
100
AcDbSymbolTable
 70
     1
  0
VPORT
  5
29
330
8
100
AcDbSymbolTableRecord
100
AcDbViewportTableRecord
  2
*Active
 70
     0
 10
0.0
 20
0.0
 11
1.0
 21
1.0
 12
1243.237176676279
 22
519.2095166063301
 13
0.0
 23
0.0
 14
0.5
 24
0.5
 15
0.5
 25
0.5
 16
0.0
 26
0.0
 36
1.0
 17
0.0
 27
0.0
 37
0.0
 40
134.9663995029737
 41
2.724262051693148
 42
50.0
 43
0.0
 44
0.0
 50
0.0
 51
0.0
 71
     0
 72
   100
 73
     1
 74
     3
 75
     0
 76
     0
 77
     0
 78
     0
281
     0
 65
     1
110
0.0
120
0.0
130
0.0
111
1.0
121
0.0
131
0.0
112
0.0
122
1.0
132
0.0
 79
     0
146
0.0
  0
ENDTAB
  0
TABLE
  2
LTYPE
  5
5
330
0
100
AcDbSymbolTable
 70
     1
  0
LTYPE
  5
14
330
5
100
AcDbSymbolTableRecord
100
AcDbLinetypeTableRecord
  2
ByBlock
 70
     0
  3

 72
    65
 73
     0
 40
0.0
  0
LTYPE
  5
15
330
5
100
AcDbSymbolTableRecord
100
AcDbLinetypeTableRecord
  2
ByLayer
 70
     0
  3

 72
    65
 73
     0
 40
0.0
  0
LTYPE
  5
16
330
5
100
AcDbSymbolTableRecord
100
AcDbLinetypeTableRecord
  2
Continuous
 70
     0
  3
Solid line
 72
    65
 73
     0
 40
0.0
  0
ENDTAB
  0
TABLE
  2
LAYER
  5
2
330
0
100
AcDbSymbolTable
 70
     4
  0
LAYER
  5
10
330
2
100
AcDbSymbolTableRecord
100
AcDbLayerTableRecord
  2
0
 70
     0
 62
     7
  6
Continuous
370
    -3
390
F
  0
LAYER
  5
3B
330
2
100
AcDbSymbolTableRecord
100
AcDbLayerTableRecord
  2
E8455
 70
     0
 62
     7
  6
Continuous
370
    -3
390
F
  0
LAYER
  5
61
330
2
100
AcDbSymbolTableRecord
100
AcDbLayerTableRecord
  2
Defpoints
 70
     0
 62
     7
  6
Continuous
290
     0
370
    -3
390
F
  0
LAYER
  5
7B
330
2
100
AcDbSymbolTableRecord
100
AcDbLayerTableRecord
  2
MAKE2D VISIBLE LINES
 70
     0
 62
     7
  6
Continuous
370
    -3
390
F
  0
ENDTAB
  0
TABLE
  2
STYLE
  5
3
330
0
100
AcDbSymbolTable
 70
     2
  0
STYLE
  5
11
330
3
100
AcDbSymbolTableRecord
100
AcDbTextStyleTableRecord
  2
Standard
 70
     0
 40
0.0
 41
1.0
 50
0.0
 71
     0
 42
0.2
  3
txt
  4

  0
STYLE
  5
5F
330
3
100
AcDbSymbolTableRecord
100
AcDbTextStyleTableRecord
  2
ARIAL
 70
     0
 40
0.0
 41
1.0
 50
0.0
 71
     0
 42
0.0
  3
ARIAL.TTF
  4

1001
ACAD
1000
Arial
1071
      256
  0
ENDTAB
  0
TABLE
  2
VIEW
  5
6
330
0
100
AcDbSymbolTable
 70
     0
  0
ENDTAB
  0
TABLE
  2
UCS
  5
7
330
0
100
AcDbSymbolTable
 70
     0
  0
ENDTAB
  0
TABLE
  2
APPID
  5
9
330
0
100
AcDbSymbolTable
 70
     1
  0
APPID
  5
12
330
9
100
AcDbSymbolTableRecord
100
AcDbRegAppTableRecord
  2
ACAD
 70
     0
  0
ENDTAB
  0
TABLE
  2
DIMSTYLE
  5
A
330
0
100
AcDbSymbolTable
 70
     2
100
AcDbDimStyleTable
  0
DIMSTYLE
105
27
330
A
100
AcDbSymbolTableRecord
100
AcDbDimStyleTableRecord
  2
Standard
 70
     0
340
11
  0
DIMSTYLE
105
60
102
{ACAD_REACTORS
330
3C
330
6E
102
}
330
A
100
AcDbSymbolTableRecord
100
AcDbDimStyleTableRecord
  2
DEFAULT
 70
     0
 41
1.0
 42
0.5
 44
0.5
 73
     0
 77
     1
 78
     1
140
10.0
141
0.5
172
     1
174
     1
179
     2
271
     2
284
     1
340
5F
  0
ENDTAB
  0
TABLE
  2
BLOCK_RECORD
  5
1
330
0
100
AcDbSymbolTable
 70
     3
  0
BLOCK_RECORD
  5
1F
330
1
100
AcDbSymbolTableRecord
100
AcDbBlockTableRecord
  2
*Model_Space
340
22
  0
BLOCK_RECORD
  5
1B
330
1
100
AcDbSymbolTableRecord
100
AcDbBlockTableRecord
  2
*Paper_Space
340
1E
  0
BLOCK_RECORD
  5
23
330
1
100
AcDbSymbolTableRecord
100
AcDbBlockTableRecord
  2
*Paper_Space0
340
26
  0
BLOCK_RECORD
  5
62
330
1
100
AcDbSymbolTableRecord
100
AcDbBlockTableRecord
  2
*D1
340
0
  0
BLOCK_RECORD
  5
6F
330
1
100
AcDbSymbolTableRecord
100
AcDbBlockTableRecord
  2
*D2
340
0
  0
ENDTAB
  0
ENDSEC
  0
SECTION
  2
BLOCKS
  0
BLOCK
  5
20
330
1F
100
AcDbEntity
  8
0
100
AcDbBlockBegin
  2
*Model_Space
 70
     0
 10
0.0
 20
0.0
 30
0.0
  3
*Model_Space
  1

  0
ENDBLK
  5
21
330
1F
100
AcDbEntity
  8
0
100
AcDbBlockEnd
  0
BLOCK
  5
1C
330
1B
100
AcDbEntity
 67
     1
  8
0
100
AcDbBlockBegin
  2
*Paper_Space
 70
     0
 10
0.0
 20
0.0
 30
0.0
  3
*Paper_Space
  1

  0
ENDBLK
  5
1D
330
1B
100
AcDbEntity
 67
     1
  8
0
100
AcDbBlockEnd
  0
BLOCK
  5
24
330
23
100
AcDbEntity
  8
0
100
AcDbBlockBegin
  2
*Paper_Space0
 70
     0
 10
0.0
 20
0.0
 30
0.0
  3
*Paper_Space0
  1

  0
ENDBLK
  5
25
330
23
100
AcDbEntity
  8
0
100
AcDbBlockEnd
  0
BLOCK
  5
6C
330
62
100
AcDbEntity
  8
0
100
AcDbBlockBegin
  2
*D1
 70
     1
 10
0.0
 20
0.0
 30
0.0
  3
*D1
  1

  0
LINE
  5
63
330
62
100
AcDbEntity
  8
E8455
 62
     0
370
    -2
100
AcDbLine
 10
1343.0
 20
525.5495163626896
 30
0.0
 11
1343.0
 21
575.5495163626896
 31
0.0
  0
LINE
  5
64
330
62
100
AcDbEntity
  8
E8455
 62
     0
370
    -2
100
AcDbLine
 10
1063.0
 20
525.5495167885986
 30
0.0
 11
1063.0
 21
575.5495163626896
 31
0.0
  0
LINE
  5
65
330
62
100
AcDbEntity
  8
E8455
 62
     0
370
    -2
100
AcDbLine
 10
1342.0
 20
575.0495163626896
 30
0.0
 11
1064.0
 21
575.0495163626896
 31
0.0
  0
SOLID
  5
66
330
62
100
AcDbEntity
  8
E8455
 62
     0
100
AcDbTrace
 10
1342.0
 20
574.882849696023
 30
0.0
 11
1342.0
 21
575.2161830293562
 31
0.0
 12
1343.0
 22
575.0495163626896
 32
0.0
 13
1343.0
 23
575.0495163626896
 33
0.0
  0
SOLID
  5
67
330
62
100
AcDbEntity
  8
E8455
 62
     0
100
AcDbTrace
 10
1064.0
 20
575.2161830293562
 30
0.0
 11
1064.0
 21
574.882849696023
 31
0.0
 12
1063.0
 22
575.0495163626896
 32
0.0
 13
1063.0
 23
575.0495163626896
 33
0.0
  0
MTEXT
  5
68
330
62
100
AcDbEntity
  8
E8455
 62
     0
100
AcDbMText
 10
1203.0
 20
580.2445163626896
 30
0.0
 40
10.0
 41
0.0
 71
     5
 72
     1
  1
\A1;280.00
  7
ARIAL
 73
     1
 44
1.0
  0
POINT
  5
69
330
62
100
AcDbEntity
  8
Defpoints
 62
     0
100
AcDbPoint
 10
1343.0
 20
525.0495163626896
 30
0.0
  0
POINT
  5
6A
330
62
100
AcDbEntity
  8
Defpoints
 62
     0
100
AcDbPoint
 10
1063.0
 20
525.0495167885986
 30
0.0
  0
POINT
  5
6B
330
62
100
AcDbEntity
  8
Defpoints
 62
     0
100
AcDbPoint
 10
1063.0
 20
575.0495163626896
 30
0.0
  0
ENDBLK
  5
6D
330
62
100
AcDbEntity
  8
0
100
AcDbBlockEnd
  0
BLOCK
  5
79
330
6F
100
AcDbEntity
  8
0
100
AcDbBlockBegin
  2
*D2
 70
     1
 10
0.0
 20
0.0
 30
0.0
  3
*D2
  1

  0
LINE
  5
70
330
6F
100
AcDbEntity
  8
E8455
 62
     0
370
    -2
100
AcDbLine
 10
1360.474353352557
 20
514.0497609501416
 30
0.0
 11
1423.474353352557
 21
514.0497609501416
 31
0.0
  0
LINE
  5
71
330
6F
100
AcDbEntity
  8
E8455
 62
     0
370
    -2
100
AcDbLine
 10
1360.4747882058
 20
468.0492993103644
 30
0.0
 11
1423.474353352557
 21
468.0492993103643
 31
0.0
  0
LINE
  5
72
330
6F
100
AcDbEntity
  8
E8455
 62
     0
370
    -2
100
AcDbLine
 10
1422.974353352557
 20
513.0497609501416
 30
0.0
 11
1422.974353352557
 21
469.0492993103643
 31
0.0
  0
SOLID
  5
73
330
6F
100
AcDbEntity
  8
E8455
 62
     0
100
AcDbTrace
 10
1423.141020019224
 20
513.0497609501416
 30
0.0
 11
1422.80768668589
 21
513.0497609501416
 31
0.0
 12
1422.974353352557
 22
514.0497609501416
 32
0.0
 13
1422.974353352557
 23
514.0497609501416
 33
0.0
  0
SOLID
  5
74
330
6F
100
AcDbEntity
  8
E8455
 62
     0
100
AcDbTrace
 10
1422.80768668589
 20
469.0492993103643
 30
0.0
 11
1423.141020019224
 21
469.0492993103643
 31
0.0
 12
1422.974353352557
 22
468.0492993103643
 32
0.0
 13
1422.974353352557
 23
468.0492993103643
 33
0.0
  0
MTEXT
  5
75
330
6F
100
AcDbEntity
  8
E8455
 62
     0
100
AcDbMText
 10
1417.779353352557
 20
491.0495301302529
 30
0.0
 40
10.0
 41
0.0
 71
     5
 72
     1
  1
\A1;46.00
  7
ARIAL
 11
0.0
 21
1.0
 31
0.0
 73
     1
 44
1.0
  0
POINT
  5
76
330
6F
100
AcDbEntity
  8
Defpoints
 62
     0
100
AcDbPoint
 10
1359.974353352557
 20
514.0497609501416
 30
0.0
  0
POINT
  5
77
330
6F
100
AcDbEntity
  8
Defpoints
 62
     0
100
AcDbPoint
 10
1359.9747882058
 20
468.0492993103644
 30
0.0
  0
POINT
  5
78
330
6F
100
AcDbEntity
  8
Defpoints
 62
     0
100
AcDbPoint
 10
1422.974353352557
 20
468.0492993103643
 30
0.0
  0
ENDBLK
  5
7A
330
6F
100
AcDbEntity
  8
0
100
AcDbBlockEnd
  0
ENDSEC
  0
SECTION
  2
ENTITIES
  0
DIMENSION
  5
3C
330
1F
100
AcDbEntity
  8
E8455
100
AcDbDimension
  2
*D1
 10
1063.0
 20
575.0495163626896
 30
0.0
 11
1203.0
 21
580.2445163626896
 31
0.0
 70
    32
  1
<>
 71
     5
 42
280.0
  3
DEFAULT
100
AcDbAlignedDimension
 13
1343.0
 23
525.0495163626896
 33
0.0
 14
1063.0
 24
525.0495167885986
 34
0.0
100
AcDbRotatedDimension
1001
ACAD
1000
DSTYLE
1002
{
1070
   279
1070
     1
1002
}
  0
DIMENSION
  5
6E
330
1F
100
AcDbEntity
  8
E8455
100
AcDbDimension
  2
*D2
 10
1422.974353352557
 20
468.0492993103643
 30
0.0
 11
1417.779353352557
 21
491.0495301302529
 31
0.0
 70
    32
  1
<>
 71
     5
 42
46.0004616397772
  3
DEFAULT
100
AcDbAlignedDimension
 13
1359.974353352557
 23
514.0497609501416
 33
0.0
 14
1359.9747882058
 24
468.0492993103644
 34
0.0
 50
90.0
100
AcDbRotatedDimension
1001
ACAD
1000
DSTYLE
1002
{
1070
   279
1070
     1
1002
}
  0
SPLINE
  5
7C
330
1F
100
AcDbEntity
  8
MAKE2D VISIBLE LINES
100
AcDbSpline
210
0.0
220
0.0
230
1.0
 70
    24
 71
     2
 72
     6
 73
     3
 74
     0
 42
0.0000000001
 43
0.0000000001
 40
0.0
 40
0.0
 40
0.0
 40
0.0151221103901094
 40
0.0151221103901094
 40
0.0151221103901094
 10
1293.0
 20
469.269824573104
 30
0.0
 10
1293.0
 20
469.2622635179089
 30
0.0
 10
1293.0
 20
469.2547024627139
 30
0.0
  0
SPLINE
  5
7D
330
1F
100
AcDbEntity
  8
MAKE2D VISIBLE LINES
100
AcDbSpline
210
0.0
220
0.0
230
1.0
 70
    12
 71
     2
 72
     6
 73
     3
 74
     0
 42
0.0000000001
 43
0.0000000001
 40
0.0
 40
0.0
 40
0.0
 40
1.516645629448239
 40
1.516645629448239
 40
1.516645629448239
 10
1340.64137469596
 20
494.0612596510778
 30
0.0
 41
1.0
 10
1340.595820995609
 20
494.9979342976935
 30
0.0
 41
0.7361898333724027
 10
1339.658628638557
 20
495.03117612545
 30
0.0
 41
1.0
  0
SPLINE
  5
7E
330
1F
100
AcDbEntity
  8
MAKE2D VISIBLE LINES
100
AcDbSpline
210
0.0
220
0.0
230
1.0
 70
    12
 71
     2
 72
     6
 73
     3
 74
     0
 42
0.0000000001
 43
0.0000000001
 40
0.0
 40
0.0
 40
0.0
 40
1.513631054253507
 40
1.513631054253507
 40
1.513631054253507
 10
1339.659440405725
 20
487.0678575744911
 30
0.0
 41
1.0
 10
1340.591003897713
 20
487.1065970972764
 30
0.0
 41
0.7400873960064124
 10
1340.641367130053
 20
488.0376045274602
 30
0.0
 41
1.0
  0
SPLINE
  5
7F
330
1F
100
AcDbEntity
  8
MAKE2D VISIBLE LINES
100
AcDbSpline
210
0.0
220
0.0
230
1.0
 70
    12
 71
     2
 72
     6
 73
     3
 74
     0
 42
0.0000000001
 43
0.0000000001
 40
0.0
 40
0.0
 40
0.0
 40
1.516645629448251
 40
1.516645629448251
 40
1.516645629448251
 10
1065.35862530404
 20
494.0612596510778
 30
0.0
 41
1.0
 10
1065.404179004391
 20
494.9979342976935
 30
0.0
 41
0.73618983337241
 10
1066.341371361442
 20
495.03117612545
 30
0.0
 41
1.0
  0
SPLINE
  5
80
330
1F
100
AcDbEntity
  8
MAKE2D VISIBLE LINES
100
AcDbSpline
210
0.0
220
0.0
230
1.0
 70
    12
 71
     2
 72
     6
 73
     3
 74
     0
 42
0.0000000001
 43
0.0000000001
 40
0.0
 40
0.0
 40
0.0
 40
1.513631054253569
 40
1.513631054253569
 40
1.513631054253569
 10
1066.340559594275
 20
487.0678575744911
 30
0.0
 41
1.0
 10
1065.408996102287
 20
487.1065970972764
 30
0.0
 41
0.7400873960064189
 10
1065.358632869947
 20
488.0376045274602
 30
0.0
 41
1.0
  0
SPLINE
  5
81
330
1F
100
AcDbEntity
  8
MAKE2D VISIBLE LINES
100
AcDbSpline
210
0.0
220
0.0
230
1.0
 70
    12
 71
     2
 72
     6
 73
     3
 74
     0
 42
0.0000000001
 43
0.0000000001
 40
0.0
 40
0.0
 40
0.0
 40
13.25947708950794
 40
13.25947708950794
 40
13.25947708950794
 10
1138.342846518072
 20
523.6141065183369
 30
0.0
 41
1.0
 10
1144.975227807057
 20
522.5278850256145
 30
0.0
 41
0.9798124160456041
 10
1150.651902953807
 20
518.9301471291042
 30
0.0
 41
1.0
  0
SPLINE
  5
82
330
1F
100
AcDbEntity
  8
MAKE2D VISIBLE LINES
100
AcDbSpline
210
0.0
220
0.0
230
1.0
 70
    12
 71
     2
 72
     6
 73
     3
 74
     0
 42
0.0000000001
 43
0.0000000001
 40
0.0
 40
0.0
 40
0.0
 40
7.040208028290956
 40
7.040208028290956
 40
7.040208028290956
 10
1114.741772047842
 20
463.5620685118871
 30
0.0
 41
1.0
 10
1111.79722156712
 20
465.5154968695209
 30
0.0
 41
0.9942849577085275
 10
1109.33449896386
 20
468.0495168499705
 30
0.0
 41
1.0
  0
SPLINE
  5
83
330
1F
100
AcDbEntity
  8
MAKE2D VISIBLE LINES
100
AcDbSpline
210
0.0
220
0.0
230
1.0
 70
    12
 71
     2
 72
     6
 73
     3
 74
     0
 42
0.0000000001
 43
0.0000000001
 40
0.0
 40
0.0
 40
0.0
 40
13.25948289463634
 40
13.25948289463634
 40
13.25948289463634
 10
1255.348097033674
 20
518.9301471211805
 30
0.0
 41
1.0
 10
1261.024756355694
 20
522.5279266258071
 30
0.0
 41
0.9798111186520685
 10
1267.657153483629
 20
523.6141065186164
 30
0.0
 41
1.0
  0
SPLINE
  5
84
330
1F
100
AcDbEntity
  8
MAKE2D VISIBLE LINES
100
AcDbSpline
210
0.0
220
0.0
230
1.0
 70
    12
 71
     2
 72
     6
 73
     3
 74
     0
 42
0.0000000001
 43
0.0000000001
 40
0.0
 40
0.0
 40
0.0
 40
7.04017289405341
 40
7.04017289405341
 40
7.04017289405341
 10
1296.665456342694
 20
468.0495168499705
 30
0.0
 41
1.0
 10
1294.202750022243
 20
465.5155065794434
 30
0.0
 41
0.9942852430290261
 10
1291.258227956056
 20
463.5620685144754
 30
0.0
 41
1.0
  0
SPLINE
  5
85
330
1F
100
AcDbEntity
  8
MAKE2D VISIBLE LINES
100
AcDbSpline
210
0.0
220
0.0
230
1.0
 70
    24
 71
     2
 72
     6
 73
     3
 74
     0
 42
0.0000000001
 43
0.0000000001
 40
-0.110809842194783
 40
-0.110809842194783
 40
-0.110809842194783
 40
0.0
 40
0.0
 40
0.0
 10
1113.0
 20
469.1870895066889
 30
0.0
 10
1113.0
 20
469.1316845855914
 30
0.0
 10
1113.0
 20
469.0762796644939
 30
0.0
  0
SPLINE
  5
86
330
1F
100
AcDbEntity
  8
MAKE2D VISIBLE LINES
100
AcDbSpline
210
0.0
220
0.0
230
1.0
 70
    24
 71
     2
 72
     6
 73
     3
 74
     0
 42
0.0000000001
 43
0.0000000001
 40
0.0
 40
0.0
 40
0.0
 40
0.0272504481735041
 40
0.0272504481735041
 40
0.0272504481735041
 10
1113.0
 20
469.0762796644939
 30
0.0
 10
1113.0
 20
469.0625682878484
 30
0.0
 10
1113.0
 20
469.048856911203
 30
0.0
  0
SPLINE
  5
87
330
1F
100
AcDbEntity
  8
MAKE2D VISIBLE LINES
100
AcDbSpline
210
0.0
220
0.0
230
1.0
 70
    12
 71
     2
 72
     6
 73
     3
 74
     0
 42
0.0000000001
 43
0.0000000001
 40
0.0
 40
0.0
 40
0.0
 40
1.570824808345283
 40
1.570824808345283
 40
1.570824808345283
 10
1113.0
 20
469.048856911203
 30
0.0
 41
1.0
 10
1113.000016876225
 20
468.0486677386407
 30
0.0
 41
0.7071080045327138
 10
1112.0
 20
468.0490821242578
 30
0.0
 41
0.9999999963375188
  0
SPLINE
  5
88
330
1F
100
AcDbEntity
  8
MAKE2D VISIBLE LINES
100
AcDbSpline
210
0.0
220
0.0
230
1.0
 70
    24
 71
     2
 72
     6
 73
     3
 74
     0
 42
0.0000000001
 43
0.0000000001
 40
0.0
 40
0.0
 40
0.0
 40
45.94870670510644
 40
45.94870670510644
 40
45.94870670510644
 10
1112.0
 20
468.0490821242578
 30
0.0
 10
1089.025646647447
 20
468.0492993062536
 30
0.0
 10
1066.051293294894
 20
468.0495164882494
 30
0.0
  0
SPLINE
  5
89
330
1F
100
AcDbEntity
  8
MAKE2D VISIBLE LINES
100
AcDbSpline
210
0.0
220
0.0
230
1.0
 70
    12
 71
     2
 72
     6
 73
     3
 74
     0
 42
0.0000000001
 43
0.0000000001
 40
0.0
 40
0.0
 40
0.0
 40
1.384851196086902
 40
1.384851196086902
 40
1.384851196086902
 10
1066.051293294894
 20
468.0495164882494
 30
0.0
 41
0.9999999999993863
 10
1065.221873058113
 20
468.0495200281932
 30
0.0
 41
0.7697022688654371
 10
1065.068531053698
 20
468.8646425512964
 30
0.0
 41
1.0
  0
SPLINE
  5
8A
330
1F
100
AcDbEntity
  8
MAKE2D VISIBLE LINES
100
AcDbSpline
210
0.0
220
0.0
230
1.0
 70
    12
 71
     2
 72
     6
 73
     3
 74
     0
 42
0.0000000001
 43
0.0000000001
 40
0.0
 40
0.0
 40
0.0
 40
14.09311530059301
 40
14.09311530059301
 40
14.09311530059301
 10
1065.068531053698
 20
468.8646425512964
 30
0.0
 41
1.0
 10
1063.764306692913
 20
475.7977043659115
 30
0.0
 41
0.998276399016686
 10
1063.281432898387
 20
482.8358273663421
 30
0.0
 41
1.0
  0
SPLINE
  5
8B
330
1F
100
AcDbEntity
  8
MAKE2D VISIBLE LINES
100
AcDbSpline
210
0.0
220
0.0
230
1.0
 70
    12
 71
     2
 72
     6
 73
     3
 74
     0
 42
0.0000000001
 43
0.0000000001
 40
0.0
 40
0.0
 40
0.0
 40
0.0135502753296537
 40
0.0135502753296537
 40
0.0135502753296537
 10
1063.281432898387
 20
482.8358273663421
 30
0.0
 41
0.9999999999967093
 10
1063.280988863521
 20
482.8425901138523
 30
0.0
 41
0.9995194312910456
 10
1063.280964312856
 20
482.8502261905945
 30
0.0
 41
1.0
  0
SPLINE
  5
8C
330
1F
100
AcDbEntity
  8
MAKE2D VISIBLE LINES
100
AcDbSpline
210
0.0
220
0.0
230
1.0
 70
    24
 71
     2
 72
     6
 73
     3
 74
     0
 42
0.0000000001
 43
0.0000000001
 40
0.0
 40
0.0
 40
0.0
 40
7.638870163402089
 40
7.638870163402089
 40
7.638870163402089
 10
1063.280964312856
 20
482.8502261905945
 30
0.0
 10
1063.280964086145
 20
486.670090677474
 30
0.0
 10
1063.280963859434
 20
490.4899551643535
 30
0.0
  0
SPLINE
  5
8D
330
1F
100
AcDbEntity
  8
MAKE2D VISIBLE LINES
100
AcDbSpline
210
0.0
220
0.0
230
1.0
 70
    24
 71
     2
 72
     6
 73
     3
 74
     0
 42
0.0000000001
 43
0.0000000001
 40
0.0
 40
0.0
 40
0.0
 40
0.0376879081032371
 40
0.0376879081032371
 40
0.0376879081032371
 10
1063.280963859434
 20
490.4899551643535
 30
0.0
 10
1063.280963859432
 20
490.5087991184176
 30
0.0
 10
1063.280963859431
 20
490.5276430724817
 30
0.0
  0
SPLINE
  5
8E
330
1F
100
AcDbEntity
  8
MAKE2D VISIBLE LINES
100
AcDbSpline
210
0.0
220
0.0
230
1.0
 70
    24
 71
     2
 72
     6
 73
     3
 74
     0
 42
0.0000000001
 43
0.0000000001
 40
0.0
 40
0.0
 40
0.0
 40
0.2035928399640738
 40
0.2035928399640738
 40
0.2035928399640738
 10
1063.280963859431
 20
490.5276430724817
 30
0.0
 10
1063.280963859419
 20
490.6294394924571
 30
0.0
 10
1063.280963859407
 20
490.7312359124326
 30
0.0
  0
SPLINE
  5
8F
330
1F
100
AcDbEntity
  8
MAKE2D VISIBLE LINES
100
AcDbSpline
210
0.0
220
0.0
230
1.0
 70
    24
 71
     2
 72
     6
 73
     3
 74
     0
 42
0.0000000001
 43
0.0000000001
 40
0.0
 40
0.0
 40
0.0
 40
0.3170336036675963
 40
0.3170336036675963
 40
0.3170336036675963
 10
1063.280963859407
 20
490.7312359124326
 30
0.0
 10
1063.280963859359
 20
490.8900645477433
 30
0.0
 10
1063.28096385931
 20
491.0488931830541
 30
0.0
  0
SPLINE
  5
90
330
1F
100
AcDbEntity
  8
MAKE2D VISIBLE LINES
100
AcDbSpline
210
0.0
220
0.0
230
1.0
 70
    24
 71
     2
 72
     6
 73
     3
 74
     0
 42
0.0000000001
 43
0.0000000001
 40
0.0
 40
0.0
 40
0.0
 40
0.1621809084978736
 40
0.1621809084978736
 40
0.1621809084978736
 10
1063.28096385931
 20
491.0488931830541
 30
0.0
 10
1063.280963859372
 20
491.1302954707485
 30
0.0
 10
1063.280963859435
 20
491.2116977584428
 30
0.0
  0
SPLINE
  5
91
330
1F
100
AcDbEntity
  8
MAKE2D VISIBLE LINES
100
AcDbSpline
210
0.0
220
0.0
230
1.0
 70
    24
 71
     2
 72
     6
 73
     3
 74
     0
 42
0.0000000001
 43
0.0000000001
 40
0.0
 40
0.0
 40
0.0
 40
0.1860331383015819
 40
0.1860331383015819
 40
0.1860331383015819
 10
1063.280963859435
 20
491.2116977584428
 30
0.0
 10
1063.280963859483
 20
491.3047143285195
 30
0.0
 10
1063.280963859531
 20
491.3977308985961
 30
0.0
  0
SPLINE
  5
92
330
1F
100
AcDbEntity
  8
MAKE2D VISIBLE LINES
100
AcDbSpline
210
0.0
220
0.0
230
1.0
 70
    24
 71
     2
 72
     6
 73
     3
 74
     0
 42
0.0000000001
 43
0.0000000001
 40
0.0
 40
0.0
 40
0.0
 40
0.0516286527883381
 40
0.0516286527883381
 40
0.0516286527883381
 10
1063.280963859531
 20
491.3977308985961
 30
0.0
 10
1063.280963859542
 20
491.4235452259526
 30
0.0
 10
1063.280963859554
 20
491.449359553309
 30
0.0
  0
SPLINE
  5
93
330
1F
100
AcDbEntity
  8
MAKE2D VISIBLE LINES
100
AcDbSpline
210
0.0
220
0.0
230
1.0
 70
    24
 71
     2
 72
     6
 73
     3
 74
     0
 42
0.0000000001
 43
0.0000000001
 40
0.0
 40
0.0
 40
0.0
 40
7.79412335372092
 40
7.79412335372092
 40
7.79412335372092
 10
1063.280963859554
 20
491.449359553309
 30
0.0
 10
1063.280964079608
 20
495.3479665669969
 30
0.0
 10
1063.280964299663
 20
499.2465735806848
 30
0.0
  0
SPLINE
  5
94
330
1F
100
AcDbEntity
  8
MAKE2D VISIBLE LINES
100
AcDbSpline
210
0.0
220
0.0
230
1.0
 70
    12
 71
     2
 72
     6
 73
     3
 74
     0
 42
0.0000000001
 43
0.0000000001
 40
0.0
 40
0.0
 40
0.0
 40
0.0135523455903247
 40
0.0135523455903247
 40
0.0135523455903247
 10
1063.280964299663
 20
499.2465735806848
 30
0.0
 41
1.0
 10
1063.280988741155
 20
499.2564425565055
 30
0.0
 41
0.9995194074860548
 10
1063.281432826583
 20
499.2632063384489
 30
0.0
 41
0.9999999999817109
  0
SPLINE
  5
95
330
1F
100
AcDbEntity
  8
MAKE2D VISIBLE LINES
100
AcDbSpline
210
0.0
220
0.0
230
1.0
 70
    12
 71
     2
 72
     6
 73
     3
 74
     0
 42
0.0000000001
 43
0.0000000001
 40
0.0
 40
0.0
 40
0.0
 40
14.09311530047174
 40
14.09311530047174
 40
14.09311530047174
 10
1063.281432826583
 20
499.2632063384489
 30
0.0
 41
1.0
 10
1063.764306692899
 20
506.3013293338943
 30
0.0
 41
0.9982763990167164
 10
1065.068531053661
 20
513.2343931730369
 30
0.0
 41
1.0
  0
SPLINE
  5
96
330
1F
100
AcDbEntity
  8
MAKE2D VISIBLE LINES
100
AcDbSpline
210
0.0
220
0.0
230
1.0
 70
    12
 71
     2
 72
     6
 73
     3
 74
     0
 42
0.0000000001
 43
0.0000000001
 40
0.0
 40
0.0
 40
0.0
 40
1.384852280995907
 40
1.384852280995907
 40
1.384852280995907
 10
1065.068531053661
 20
513.2343931730369
 30
0.0
 41
1.0
 10
1065.221870951835
 20
514.0495202601563
 30
0.0
 41
0.7697003716029087
 10
1066.051293294886
 20
514.0495193106648
 30
0.0
 41
0.9999999999984648
  0
SPLINE
  5
97
330
1F
100
AcDbEntity
  8
MAKE2D VISIBLE LINES
100
AcDbSpline
210
0.0
220
0.0
230
1.0
 70
    24
 71
     2
 72
     6
 73
     3
 74
     0
 42
0.0000000001
 43
0.0000000001
 40
0.0
 40
0.0
 40
0.0
 40
45.94870670511416
 40
45.94870670511416
 40
45.94870670511416
 10
1066.051293294886
 20
514.0495193106648
 30
0.0
 10
1089.025646647443
 20
514.0497609501416
 30
0.0
 10
1112.0
 20
514.0500025896184
 30
0.0
  0
SPLINE
  5
98
330
1F
100
AcDbEntity
  8
MAKE2D VISIBLE LINES
100
AcDbSpline
210
0.0
220
0.0
230
1.0
 70
    12
 71
     2
 72
     6
 73
     3
 74
     0
 42
0.0000000001
 43
0.0000000001
 40
0.0
 40
0.0
 40
0.0
 40
1.570690220801755
 40
1.570690220801755
 40
1.570690220801755
 10
1112.0
 20
514.0500025896183
 30
0.0
 41
0.9999999952900662
 10
1112.999880547943
 20
514.0504649199307
 30
0.0
 41
0.7071572895002299
 10
1112.999999995219
 20
513.0501268957067
 30
0.0
 41
1.0
  0
SPLINE
  5
99
330
1F
100
AcDbEntity
  8
MAKE2D VISIBLE LINES
100
AcDbSpline
210
0.0
220
0.0
230
1.0
 70
    12
 71
     2
 72
     6
 73
     3
 74
     0
 42
0.0000000001
 43
0.0000000001
 40
0.0
 40
0.0
 40
0.0
 40
1.570800646457325
 40
1.570800646457325
 40
1.570800646457325
 10
1112.999999995219
 20
513.0501268957067
 30
0.0
 41
0.9998105801914116
 10
1113.000455848378
 20
514.0496709430056
 30
0.0
 41
0.7072026991025494
 10
1114.0
 20
514.0495963304865
 30
0.0
 41
0.9999999998396643
  0
SPLINE
  5
9A
330
1F
100
AcDbEntity
  8
MAKE2D VISIBLE LINES
100
AcDbSpline
210
0.0
220
0.0
230
1.0
 70
    24
 71
     2
 72
     6
 73
     3
 74
     0
 42
0.0000000001
 43
0.0000000001
 40
0.0
 40
0.0
 40
0.0
 40
178.0000000000001
 40
178.0000000000001
 40
178.0000000000001
 10
1114.0
 20
514.0495963304865
 30
0.0
 10
1203.0
 20
514.0499208259109
 30
0.0
 10
1292.0
 20
514.0502453213355
 30
0.0
  0
SPLINE
  5
9B
330
1F
100
AcDbEntity
  8
MAKE2D VISIBLE LINES
100
AcDbSpline
210
0.0
220
0.0
230
1.0
 70
    12
 71
     2
 72
     6
 73
     3
 74
     0
 42
0.0000000001
 43
0.0000000001
 40
0.0
 40
0.0
 40
0.0
 40
1.570844499052331
 40
1.570844499052331
 40
1.570844499052331
 10
1292.0
 20
514.0502453213355
 30
0.0
 41
0.999999989736131
 10
1293.000028768401
 20
514.0509397751399
 30
0.0
 41
0.7071086333597421
 10
1293.0
 20
513.0506790520022
 30
0.0
 41
1.0
  0
SPLINE
  5
9C
330
1F
100
AcDbEntity
  8
MAKE2D VISIBLE LINES
100
AcDbSpline
210
0.0
220
0.0
230
1.0
 70
    12
 71
     2
 72
     6
 73
     3
 74
     0
 42
0.0000000001
 43
0.0000000001
 40
0.0
 40
0.0
 40
0.0
 40
1.570827904507593
 40
1.570827904507593
 40
1.570827904507593
 10
1293.0
 20
513.0506790520022
 30
0.0
 41
0.9999039338111304
 10
1293.000213246593
 20
514.0504657719628
 30
0.0
 41
0.7071561843878332
 10
1294.0
 20
514.0500025896184
 30
0.0
 41
0.9999999954606185
  0
SPLINE
  5
9D
330
1F
100
AcDbEntity
  8
MAKE2D VISIBLE LINES
100
AcDbSpline
210
0.0
220
0.0
230
1.0
 70
    24
 71
     2
 72
     6
 73
     3
 74
     0
 42
0.0000000001
 43
0.0000000001
 40
0.0
 40
0.0
 40
0.0
 40
45.94870670511409
 40
45.94870670511409
 40
45.94870670511409
 10
1294.0
 20
514.0500025896184
 30
0.0
 10
1316.974353352557
 20
514.0497609501416
 30
0.0
 10
1339.948706705114
 20
514.0495193106648
 30
0.0
  0
SPLINE
  5
9E
330
1F
100
AcDbEntity
  8
MAKE2D VISIBLE LINES
100
AcDbSpline
210
0.0
220
0.0
230
1.0
 70
    12
 71
     2
 72
     6
 73
     3
 74
     0
 42
0.0000000001
 43
0.0000000001
 40
0.0
 40
0.0
 40
0.0
 40
1.384851306775067
 40
1.384851306775067
 40
1.384851306775067
 10
1339.948706705114
 20
514.0495193106648
 30
0.0
 41
0.9999999999957647
 10
1340.778127019338
 20
514.0495178140803
 30
0.0
 41
0.7697022543452403
 10
1340.931468946339
 20
513.2343931730369
 30
0.0
 41
1.0
  0
SPLINE
  5
9F
330
1F
100
AcDbEntity
  8
MAKE2D VISIBLE LINES
100
AcDbSpline
210
0.0
220
0.0
230
1.0
 70
    12
 71
     2
 72
     6
 73
     3
 74
     0
 42
0.0000000001
 43
0.0000000001
 40
-14.09311530047173
 40
-14.09311530047173
 40
-14.09311530047173
 40
0.0
 40
0.0
 40
0.0
 10
1340.931468946339
 20
513.2343931730369
 30
0.0
 41
1.0
 10
1342.235693307101
 20
506.3013293338943
 30
0.0
 41
0.998276399016716
 10
1342.718567173417
 20
499.2632063384489
 30
0.0
 41
1.0
  0
SPLINE
  5
A0
330
1F
100
AcDbEntity
  8
MAKE2D VISIBLE LINES
100
AcDbSpline
210
0.0
220
0.0
230
1.0
 70
    12
 71
     2
 72
     6
 73
     3
 74
     0
 42
0.0000000001
 43
0.0000000001
 40
0.0
 40
0.0
 40
0.0
 40
0.0135523455906098
 40
0.0135523455906098
 40
0.0135523455906098
 10
1342.718567173417
 20
499.2632063384489
 30
0.0
 41
0.9999999999817109
 10
1342.719011258845
 20
499.2564425565643
 30
0.0
 41
0.9995194074858077
 10
1342.719035681187
 20
499.2495918523158
 30
0.0
 41
1.0
  0
SPLINE
  5
A1
330
1F
100
AcDbEntity
  8
MAKE2D VISIBLE LINES
100
AcDbSpline
210
0.0
220
0.0
230
1.0
 70
    12
 71
     2
 72
     6
 73
     3
 74
     0
 42
0.0000000001
 43
0.0000000001
 40
0.0
 40
0.0
 40
0.0
 40
8.200002600293772
 40
8.200002600293772
 40
8.200002600293772
 10
1342.719035681187
 20
499.2495918523158
 30
0.0
 41
1.0
 10
1342.719036105557
 20
495.1495181501551
 30
0.0
 41
1.0
 10
1342.719036124754
 20
491.0487337816655
 30
0.0
 41
1.0
  0
SPLINE
  5
A2
330
1F
100
AcDbEntity
  8
MAKE2D VISIBLE LINES
100
AcDbSpline
210
0.0
220
0.0
230
1.0
 70
    24
 71
     2
 72
     6
 73
     3
 74
     0
 42
0.0000000001
 43
0.0000000001
 40
0.0
 40
0.0
 40
0.0
 40
8.198435805445797
 40
8.198435805445797
 40
8.198435805445797
 10
1342.719036124754
 20
491.0487337816655
 30
0.0
 10
1342.719035905977
 20
486.949087462871
 30
0.0
 10
1342.719035687201
 20
482.8494411440764
 30
0.0
  0
SPLINE
  5
A3
330
1F
100
AcDbEntity
  8
MAKE2D VISIBLE LINES
100
AcDbSpline
210
0.0
220
0.0
230
1.0
 70
    12
 71
     2
 72
     6
 73
     3
 74
     0
 42
0.0000000001
 43
0.0000000001
 40
0.0
 40
0.0
 40
0.0
 40
0.0135502753300006
 40
0.0135502753300006
 40
0.0135502753300006
 10
1342.719035687201
 20
482.8494411440764
 30
0.0
 41
1.0
 10
1342.71901113648
 20
482.8425901138526
 30
0.0
 41
0.9995194312903862
 10
1342.718567101613
 20
482.835827366342
 30
0.0
 41
0.9999999999967042
  0
SPLINE
  5
A4
330
1F
100
AcDbEntity
  8
MAKE2D VISIBLE LINES
100
AcDbSpline
210
0.0
220
0.0
230
1.0
 70
    12
 71
     2
 72
     6
 73
     3
 74
     0
 42
0.0000000001
 43
0.0000000001
 40
-14.09311530059302
 40
-14.09311530059302
 40
-14.09311530059302
 40
0.0
 40
0.0
 40
0.0
 10
1342.718567101613
 20
482.835827366342
 30
0.0
 41
1.0
 10
1342.235693307087
 20
475.7977043659113
 30
0.0
 41
0.9982763990166855
 10
1340.931468946302
 20
468.8646425512962
 30
0.0
 41
1.0
  0
SPLINE
  5
A5
330
1F
100
AcDbEntity
  8
MAKE2D VISIBLE LINES
100
AcDbSpline
210
0.0
220
0.0
230
1.0
 70
    12
 71
     2
 72
     6
 73
     3
 74
     0
 42
0.0000000001
 43
0.0000000001
 40
0.0
 40
0.0
 40
0.0
 40
1.38485217033878
 40
1.38485217033878
 40
1.38485217033878
 10
1340.931468946302
 20
468.8646425512962
 30
0.0
 41
1.0
 10
1340.77812897078
 20
468.0495175820437
 30
0.0
 41
0.769700386064021
 10
1339.948706705106
 20
468.0495164882494
 30
0.0
 41
1.0
  0
SPLINE
  5
A6
330
1F
100
AcDbEntity
  8
MAKE2D VISIBLE LINES
100
AcDbSpline
210
0.0
220
0.0
230
1.0
 70
    24
 71
     2
 72
     6
 73
     3
 74
     0
 42
0.0000000001
 43
0.0000000001
 40
0.0
 40
0.0
 40
0.0
 40
45.94870670510642
 40
45.94870670510642
 40
45.94870670510642
 10
1339.948706705106
 20
468.0495164882494
 30
0.0
 10
1316.974353352553
 20
468.0492993062536
 30
0.0
 10
1294.0
 20
468.0490821242578
 30
0.0
  0
SPLINE
  5
A7
330
1F
100
AcDbEntity
  8
MAKE2D VISIBLE LINES
100
AcDbSpline
210
0.0
220
0.0
230
1.0
 70
    12
 71
     2
 72
     6
 73
     3
 74
     0
 42
0.0000000001
 43
0.0000000001
 40
0.0
 40
0.0
 40
0.0
 40
1.570823840986834
 40
1.570823840986834
 40
1.570823840986834
 10
1294.0
 20
468.0490821242578
 30
0.0
 41
0.9999999961804196
 10
1292.999984588959
 20
468.0486686111357
 30
0.0
 41
0.707108830958694
 10
1293.0
 20
469.0490241559048
 30
0.0
 41
1.0
  0
SPLINE
  5
A8
330
1F
100
AcDbEntity
  8
MAKE2D VISIBLE LINES
100
AcDbSpline
210
0.0
220
0.0
230
1.0
 70
    12
 71
     2
 72
     6
 73
     3
 74
     0
 42
0.0000000001
 43
0.0000000001
 40
0.0
 40
0.0
 40
0.0
 40
1.570800646457909
 40
1.570800646457909
 40
1.570800646457909
 10
1293.0
 20
469.0490241559048
 30
0.0
 41
0.9998591530491843
 10
1292.999661456099
 20
468.0493627575066
 30
0.0
 41
0.7071783989688786
 10
1292.0
 20
468.0494373694546
 30
0.0
 41
0.9999999998396643
  0
SPLINE
  5
A9
330
1F
100
AcDbEntity
  8
MAKE2D VISIBLE LINES
100
AcDbSpline
210
0.0
220
0.0
230
1.0
 70
    24
 71
     2
 72
     6
 73
     3
 74
     0
 42
0.0000000001
 43
0.0000000001
 40
0.0
 40
0.0
 40
0.0
 40
76.00000000000006
 40
76.00000000000006
 40
76.00000000000006
 10
1292.0
 20
468.0494373694546
 30
0.0
 10
1254.0
 20
468.0494771097125
 30
0.0
 10
1216.0
 20
468.0495168499705
 30
0.0
  0
SPLINE
  5
AA
330
1F
100
AcDbEntity
  8
MAKE2D VISIBLE LINES
100
AcDbSpline
210
0.0
220
0.0
230
1.0
 70
    24
 71
     2
 72
     6
 73
     3
 74
     0
 42
0.0000000001
 43
0.0000000001
 40
0.0
 40
0.0
 40
0.0
 40
3.999999999999943
 40
3.999999999999943
 40
3.999999999999943
 10
1216.0
 20
468.0495168499705
 30
0.0
 10
1216.000137274248
 20
466.0495168499705
 30
0.0
 10
1216.000274548497
 20
464.0495168499705
 30
0.0
  0
SPLINE
  5
AB
330
1F
100
AcDbEntity
  8
MAKE2D VISIBLE LINES
100
AcDbSpline
210
0.0
220
0.0
230
1.0
 70
    12
 71
     2
 72
     6
 73
     3
 74
     0
 42
0.0000000001
 43
0.0000000001
 40
0.0
 40
0.0
 40
0.0
 40
1.570827529853884
 40
1.570827529853884
 40
1.570827529853884
 10
1216.000274548497
 20
464.0495168499705
 30
0.0
 41
0.9999999973355174
 10
1216.000525666085
 20
463.0494990179403
 30
0.0
 41
0.7071087597086267
 10
1215.000507257051
 20
463.0495168499707
 30
0.0
 41
1.0
  0
SPLINE
  5
AC
330
1F
100
AcDbEntity
  8
MAKE2D VISIBLE LINES
100
AcDbSpline
210
0.0
220
0.0
230
1.0
 70
    28
 71
     3
 72
    11
 73
     7
 74
     0
 42
0.0000000001
 43
0.0000000001
 40
56.54683470072043
 40
56.54683470072043
 40
56.54683470072043
 40
56.54683470072043
 40
60.92008223074537
 40
65.6596592095759
 40
70.42329262081513
 40
75.39577960096061
 40
75.39577960096061
 40
75.39577960096061
 40
75.39577960096061
 10
1215.000507257051
 20
463.0495168499707
 30
0.0
 41
1.0
 10
1215.000506880401
 20
463.0495168499705
 30
0.0
 41
1.0
 10
1214.439708827126
 20
463.0495168499705
 30
0.0
 41
1.0
 10
1211.927758267199
 20
463.0495168499705
 30
0.0
 41
1.0
 10
1207.901292565495
 20
463.0495168499705
 30
0.0
 41
1.0
 10
1204.657696428172
 20
463.0495168499705
 30
0.0
 41
1.0
 10
1203.0
 20
463.0495168499705
 30
0.0
 41
1.0
  0
SPLINE
  5
AD
330
1F
100
AcDbEntity
  8
MAKE2D VISIBLE LINES
100
AcDbSpline
210
0.0
220
0.0
230
1.0
 70
    24
 71
     2
 72
     6
 73
     3
 74
     0
 42
0.0000000001
 43
0.0000000001
 40
0.0
 40
0.0
 40
0.0
 40
9.380188736466778
 40
9.380188736466778
 40
9.380188736466778
 10
1203.0
 20
463.0495168499705
 30
0.0
 10
1198.310021307333
 20
463.0478461684602
 30
0.0
 10
1193.620042614665
 20
463.0461754869498
 30
0.0
  0
SPLINE
  5
AE
330
1F
100
AcDbEntity
  8
MAKE2D VISIBLE LINES
100
AcDbSpline
210
0.0
220
0.0
230
1.0
 70
    12
 71
     3
 72
    10
 73
     6
 74
     0
 42
0.0000000001
 43
0.0000000001
 40
-23.34124803507842
 40
-23.34124803507842
 40
-23.34124803507842
 40
-23.34124803507842
 40
-17.6430861746875
 40
-17.6430861746875
 40
-17.27561437368966
 40
-17.27561437368966
 40
-17.27561437368966
 40
-17.27561437368966
 10
1193.620042614665
 20
463.0461754869498
 30
0.0
 41
1.0
 10
1192.62384684422
 20
462.9738429497639
 30
0.0
 41
1.0
 10
1192.066895107185
 20
462.9059665354231
 30
0.0
 41
1.0
 10
1192.001708792588
 20
462.8324334469732
 30
0.0
 41
1.0
 10
1191.999830325207
 20
462.8279836278847
 30
0.0
 41
1.0
 10
1192.00000532094
 20
462.8235379764942
 30
0.0
 41
1.0
  0
SPLINE
  5
AF
330
1F
100
AcDbEntity
  8
MAKE2D VISIBLE LINES
100
AcDbSpline
210
0.0
220
0.0
230
1.0
 70
    24
 71
     2
 72
     6
 73
     3
 74
     0
 42
0.0000000001
 43
0.0000000001
 40
-1.252176176027547
 40
-1.252176176027547
 40
-1.252176176027547
 40
0.0
 40
0.0
 40
0.0
 10
1192.00000532094
 20
462.8235379764942
 30
0.0
 10
1192.00000266047
 20
462.1974498884804
 30
0.0
 10
1192.0
 20
461.5713618004667
 30
0.0
  0
SPLINE
  5
B0
330
1F
100
AcDbEntity
  8
MAKE2D VISIBLE LINES
100
AcDbSpline
210
0.0
220
0.0
230
1.0
 70
    12
 71
     2
 72
     6
 73
     3
 74
     0
 42
0.0000000001
 43
0.0000000001
 40
0.0
 40
0.0
 40
0.0
 40
0.5527609406135038
 40
0.5527609406135038
 40
0.5527609406135038
 10
1192.000000000002
 20
462.777650956213
 30
0.0
 41
1.0
 10
1191.717002550758
 20
462.8286900508373
 30
0.0
 41
0.9423727930562048
 10
1191.531193637371
 20
463.0481722177561
 30
0.0
 41
0.9999753475187221
  0
SPLINE
  5
B1
330
1F
100
AcDbEntity
  8
MAKE2D VISIBLE LINES
100
AcDbSpline
210
0.0
220
0.0
230
1.0
 70
    24
 71
     2
 72
     6
 73
     3
 74
     0
 42
0.0000000001
 43
0.0000000001
 40
0.0
 40
0.0
 40
0.0
 40
0.5333888839635108
 40
0.5333888839635108
 40
0.5333888839635108
 10
1191.531193637371
 20
463.048172217756
 30
0.0
 10
1191.26536806755
 20
463.0488445338711
 30
0.0
 10
1190.999542497729
 20
463.0495168499862
 30
0.0
  0
SPLINE
  5
B2
330
1F
100
AcDbEntity
  8
MAKE2D VISIBLE LINES
100
AcDbSpline
210
0.0
220
0.0
230
1.0
 70
    12
 71
     2
 72
     6
 73
     3
 74
     0
 42
0.0000000001
 43
0.0000000001
 40
0.0
 40
0.0
 40
0.0
 40
1.57081748981203
 40
1.57081748981203
 40
1.57081748981203
 10
1190.999542497729
 20
463.0495168499862
 30
0.0
 41
1.0
 10
1189.999528907519
 20
463.0495072924313
 30
0.0
 41
0.7071105913652338
 10
1189.999754285467
 20
464.0495168499705
 30
0.0
 41
0.9999999979302547
  0
SPLINE
  5
B3
330
1F
100
AcDbEntity
  8
MAKE2D VISIBLE LINES
100
AcDbSpline
210
0.0
220
0.0
230
1.0
 70
    24
 71
     2
 72
     6
 73
     3
 74
     0
 42
0.0000000001
 43
0.0000000001
 40
0.0
 40
0.0
 40
0.0
 40
3.999999999999943
 40
3.999999999999943
 40
3.999999999999943
 10
1189.999754285467
 20
464.0495168499705
 30
0.0
 10
1189.999877142733
 20
466.0495168499705
 30
0.0
 10
1190.0
 20
468.0495168499705
 30
0.0
  0
SPLINE
  5
B4
330
1F
100
AcDbEntity
  8
MAKE2D VISIBLE LINES
100
AcDbSpline
210
0.0
220
0.0
230
1.0
 70
    24
 71
     2
 72
     6
 73
     3
 74
     0
 42
0.0000000001
 43
0.0000000001
 40
0.0
 40
0.0
 40
0.0
 40
76.00000000000003
 40
76.00000000000003
 40
76.00000000000003
 10
1190.0
 20
468.0495168499705
 30
0.0
 10
1152.0
 20
468.0491526142881
 30
0.0
 10
1114.0
 20
468.0487883786056
 30
0.0
  0
SPLINE
  5
B5
330
1F
100
AcDbEntity
  8
MAKE2D VISIBLE LINES
100
AcDbSpline
210
0.0
220
0.0
230
1.0
 70
    12
 71
     2
 72
     6
 73
     3
 74
     0
 42
0.0000000001
 43
0.0000000001
 40
0.0
 40
0.0
 40
0.0
 40
1.570844499050754
 40
1.570844499050754
 40
1.570844499050754
 10
1114.0
 20
468.0487883786056
 30
0.0
 41
0.9999999897361309
 10
1112.999971231601
 20
468.0480939248014
 30
0.0
 41
0.7071086333603627
 10
1113.0
 20
469.0481226685853
 30
0.0
 41
1.0
  0
SPLINE
  5
B6
330
1F
100
AcDbEntity
  8
MAKE2D VISIBLE LINES
100
AcDbSpline
210
0.0
220
0.0
230
1.0
 70
    12
 71
     2
 72
     6
 73
     3
 74
     0
 42
0.0000000001
 43
0.0000000001
 40
0.0
 40
0.0
 40
0.0
 40
12.47671662330642
 40
12.47671662330642
 40
12.47671662330642
 10
1280.465473668496
 20
523.1922442498133
 30
0.0
 41
1.0
 10
1286.617223383259
 20
521.7685802535818
 30
0.0
 41
0.9820484038455918
 10
1291.803758092346
 20
518.1670894395188
 30
0.0
 41
1.0
  0
SPLINE
  5
B7
330
1F
100
AcDbEntity
  8
MAKE2D VISIBLE LINES
100
AcDbSpline
210
0.0
220
0.0
230
1.0
 70
    12
 71
     2
 72
     6
 73
     3
 74
     0
 42
0.0000000001
 43
0.0000000001
 40
-6.381452072907395
 40
-6.381452072907395
 40
-6.381452072907395
 40
0.0
 40
0.0
 40
0.0
 10
1291.803758092346
 20
518.1670894395188
 30
0.0
 41
1.0
 10
1294.4342899482
 20
516.3437300331535
 30
0.0
 41
0.9953439692505491
 10
1296.666084221492
 20
514.0495168499705
 30
0.0
 41
1.0
  0
SPLINE
  5
B8
330
1F
100
AcDbEntity
  8
MAKE2D VISIBLE LINES
100
AcDbSpline
210
0.0
220
0.0
230
1.0
 70
    12
 71
     2
 72
     6
 73
     3
 74
     0
 42
0.0000000001
 43
0.0000000001
 40
0.0
 40
0.0
 40
0.0
 40
6.381452083674872
 40
6.381452083674872
 40
6.381452083674872
 10
1109.333915778508
 20
514.0495168499705
 30
0.0
 41
1.0
 10
1111.565710055591
 20
516.3437300370463
 30
0.0
 41
0.9953439692349699
 10
1114.196241916502
 20
518.1670894456547
 30
0.0
 41
1.0
  0
SPLINE
  5
B9
330
1F
100
AcDbEntity
  8
MAKE2D VISIBLE LINES
100
AcDbSpline
210
0.0
220
0.0
230
1.0
 70
    12
 71
     2
 72
     6
 73
     3
 74
     0
 42
0.0000000001
 43
0.0000000001
 40
0.0
 40
0.0
 40
0.0
 40
12.47671408214786
 40
12.47671408214786
 40
12.47671408214786
 10
1114.196241916502
 20
518.1670894456547
 30
0.0
 41
1.0
 10
1119.382784711433
 20
521.7685619206583
 30
0.0
 41
0.9820489917644135
 10
1125.534526267662
 20
523.1922442349959
 30
0.0
 41
1.0
  0
SPLINE
  5
BA
330
1F
100
AcDbEntity
  8
MAKE2D VISIBLE LINES
100
AcDbSpline
210
0.0
220
0.0
230
1.0
 70
    24
 71
     2
 72
     6
 73
     3
 74
     0
 42
0.0000000001
 43
0.0000000001
 40
0.0
 40
0.0
 40
0.0
 40
0.268570022323388
 40
0.268570022323388
 40
0.268570022323388
 10
1214.0
 20
463.0495168499705
 30
0.0
 10
1213.999683518063
 20
462.9152318388088
 30
0.0
 10
1213.999367036126
 20
462.7809468276472
 30
0.0
  0
SPLINE
  5
BB
330
1F
100
AcDbEntity
  8
MAKE2D VISIBLE LINES
100
AcDbSpline
210
0.0
220
0.0
230
1.0
 70
    12
 71
     3
 72
    12
 73
     8
 74
     0
 42
0.0000000001
 43
0.0000000001
 40
-52.0372282472852
 40
-52.0372282472852
 40
-52.0372282472852
 40
-52.0372282472852
 40
-44.60523908827435
 40
-44.60523908827435
 40
-37.16828531937628
 40
-37.16828531937628
 40
-34.5737783830802
 40
-34.5737783830802
 40
-34.5737783830802
 40
-34.5737783830802
 10
1213.999367036126
 20
462.7809468276472
 30
0.0
 41
1.0
 10
1214.035353644804
 20
462.6903381008342
 30
0.0
 41
1.0
 10
1213.220288936329
 20
462.6025494944609
 30
0.0
 41
1.0
 10
1210.154030272912
 20
462.4217396744036
 30
0.0
 41
1.0
 10
1207.993398722184
 20
462.333864182301
 30
0.0
 41
1.0
 10
1204.713547052707
 20
462.2118841713047
 30
0.0
 41
1.0
 10
1203.849939730468
 20
462.180648576242
 30
0.0
 41
1.0
 10
1202.988910759092
 20
462.149507531821
 30
0.0
 41
1.0
  0
SPLINE
  5
BC
330
1F
100
AcDbEntity
  8
MAKE2D VISIBLE LINES
100
AcDbSpline
210
0.0
220
0.0
230
1.0
 70
    12
 71
     2
 72
     6
 73
     3
 74
     0
 42
0.0000000001
 43
0.0000000001
 40
-1.116223084156608
 40
-1.116223084156608
 40
-1.116223084156608
 40
0.0
 40
0.0
 40
0.0
 10
1202.988910759092
 20
462.149507531821
 30
0.0
 41
1.0
 10
1202.431163444122
 20
462.1293476374105
 30
0.0
 41
0.9999999959243397
 10
1201.873419702846
 20
462.1090891139827
 30
0.0
 41
1.0
  0
SPLINE
  5
BD
330
1F
100
AcDbEntity
  8
MAKE2D VISIBLE LINES
100
AcDbSpline
210
0.0
220
0.0
230
1.0
 70
    12
 71
     2
 72
     6
 73
     3
 74
     0
 42
0.0000000001
 43
0.0000000001
 40
0.0
 40
0.0
 40
0.0
 40
0.0955765407885305
 40
0.0955765407885305
 40
0.0955765407885305
 10
1201.873419702846
 20
462.1090891139827
 30
0.0
 41
1.0
 10
1201.825662885937
 20
462.1073555597312
 30
0.0
 41
0.9999999998541311
 10
1201.777906319708
 20
462.1056148737183
 30
0.0
 41
1.0
  0
SPLINE
  5
BE
330
1F
100
AcDbEntity
  8
MAKE2D VISIBLE LINES
100
AcDbSpline
210
0.0
220
0.0
230
1.0
 70
     8
 71
     3
 72
    18
 73
    14
 74
     0
 42
0.0000000001
 43
0.0000000001
 40
-11.71731491862024
 40
-11.71731491862024
 40
-11.71731491862024
 40
-11.71731491862024
 40
-7.566998007521006
 40
-4.820831707615027
 40
-3.00358768850269
 40
-2.425201155851929
 40
-2.024881164533799
 40
-1.725848659379096
 40
-1.48832818274864
 40
-1.010635330179031
 40
-0.524565105156662
 40
-0.2802229291732953
 40
0.0
 40
0.0
 40
0.0
 40
0.0
 10
1201.777906319708
 20
462.1056148737183
 30
0.0
 10
1200.395367761107
 20
462.0551610306629
 30
0.0
 10
1198.098143849292
 20
461.9706051026853
 30
0.0
 10
1195.196307853301
 20
461.8418874738081
 30
0.0
 10
1193.485367704772
 20
461.7416551316905
 30
0.0
 10
1192.556660643838
 20
461.6588850131178
 30
0.0
 10
1192.134737468803
 20
461.6035233416282
 30
0.0
 10
1191.828465901637
 20
461.534758008798
 30
0.0
 10
1191.531591479182
 20
461.3619175042332
 30
0.0
 10
1191.335229428454
 20
460.9773484580872
 30
0.0
 10
1191.4702133109
 20
460.5636146474632
 30
0.0
 10
1191.740456124496
 20
460.3517004836119
 30
0.0
 10
1191.909000282423
 20
460.2982251682936
 30
0.0
 10
1192.000000000001
 20
460.2776585942124
 30
0.0
  0
SPLINE
  5
BF
330
1F
100
AcDbEntity
  8
MAKE2D VISIBLE LINES
100
AcDbSpline
210
0.0
220
0.0
230
1.0
 70
    12
 71
     2
 72
     6
 73
     3
 74
     0
 42
0.0000000001
 43
0.0000000001
 40
0.0
 40
0.0
 40
0.0
 40
0.1151664777056865
 40
0.1151664777056865
 40
0.1151664777056865
 10
1342.71903614144
 20
498.7687714625193
 30
0.0
 41
1.0
 10
1342.754531889291
 20
498.7213337295112
 30
0.0
 41
0.9583886297073171
 10
1342.75828566016
 20
498.6622048772822
 30
0.0
 41
1.0
  0
SPLINE
  5
C0
330
1F
100
AcDbEntity
  8
MAKE2D VISIBLE LINES
100
AcDbSpline
210
0.0
220
0.0
230
1.0
 70
    12
 71
     2
 72
     6
 73
     3
 74
     0
 42
0.0000000001
 43
0.0000000001
 40
-15.23560662434594
 40
-15.23560662434594
 40
-15.23560662434594
 40
0.0
 40
0.0
 40
0.0
 10
1342.75828566016
 20
498.6622048772822
 30
0.0
 41
1.0
 10
1343.242202204388
 20
491.0495168500055
 30
0.0
 41
0.9979857138346834
 10
1342.758285660164
 20
483.4368278480968
 30
0.0
 41
1.0
  0
SPLINE
  5
C1
330
1F
100
AcDbEntity
  8
MAKE2D VISIBLE LINES
100
AcDbSpline
210
0.0
220
0.0
230
1.0
 70
    12
 71
     2
 72
     6
 73
     3
 74
     0
 42
0.0000000001
 43
0.0000000001
 40
0.0
 40
0.0
 40
0.0
 40
0.1151513544947252
 40
0.1151513544947252
 40
0.1151513544947252
 10
1342.758285660164
 20
483.4368278480968
 30
0.0
 41
1.0
 10
1342.754258941024
 20
483.3777806326337
 30
0.0
 41
0.9597515625710198
 10
1342.719036141617
 20
483.330220122465
 30
0.0
 41
1.0
  0
SPLINE
  5
C2
330
1F
100
AcDbEntity
  8
MAKE2D VISIBLE LINES
100
AcDbSpline
210
0.0
220
0.0
230
1.0
 70
    12
 71
     2
 72
     6
 73
     3
 74
     0
 42
0.0000000001
 43
0.0000000001
 40
0.0
 40
0.0
 40
0.0
 40
0.1151665032063494
 40
0.1151665032063494
 40
0.1151665032063494
 10
1063.280963858561
 20
483.3302602607983
 30
0.0
 41
1.0
 10
1063.245468109756
 20
483.3776980086747
 30
0.0
 41
0.958388645127738
 10
1063.241714339836
 20
483.4368278480967
 30
0.0
 41
1.0
  0
SPLINE
  5
C3
330
1F
100
AcDbEntity
  8
MAKE2D VISIBLE LINES
100
AcDbSpline
210
0.0
220
0.0
230
1.0
 70
    12
 71
     2
 72
     6
 73
     3
 74
     0
 42
0.0000000001
 43
0.0000000001
 40
0.0
 40
0.0
 40
0.0
 40
15.23560662434599
 40
15.23560662434599
 40
15.23560662434599
 10
1063.241714339836
 20
483.4368278480967
 30
0.0
 41
1.0
 10
1062.757797795613
 20
491.0495168500054
 30
0.0
 41
0.997985713834683
 10
1063.24171433984
 20
498.6622048772822
 30
0.0
 41
1.0
  0
SPLINE
  5
C4
330
1F
100
AcDbEntity
  8
MAKE2D VISIBLE LINES
100
AcDbSpline
210
0.0
220
0.0
230
1.0
 70
    12
 71
     2
 72
     6
 73
     3
 74
     0
 42
0.0000000001
 43
0.0000000001
 40
0.0
 40
0.0
 40
0.0
 40
0.1151513284119256
 40
0.1151513284119256
 40
0.1151513284119256
 10
1063.24171433984
 20
498.6622048772822
 30
0.0
 41
1.0
 10
1063.245741060454
 20
498.7212511051372
 30
0.0
 41
0.9597515491083652
 10
1063.280963858665
 20
498.7688116002057
 30
0.0
 41
1.0
  0
SPLINE
  5
C5
330
1F
100
AcDbEntity
  8
MAKE2D VISIBLE LINES
100
AcDbSpline
210
0.0
220
0.0
230
1.0
 70
    24
 71
     2
 72
     6
 73
     3
 74
     0
 42
0.0000000001
 43
0.0000000001
 40
0.0
 40
0.0
 40
0.0
 40
1.252719172642628
 40
1.252719172642628
 40
1.252719172642628
 10
1214.0
 20
459.0276311129334
 30
0.0
 10
1214.000000052545
 20
458.4012647344933
 30
0.0
 10
1214.00000010509
 20
457.7748983560532
 30
0.0
  0
SPLINE
  5
C6
330
1F
100
AcDbEntity
  8
MAKE2D VISIBLE LINES
100
AcDbSpline
210
0.0
220
0.0
230
1.0
 70
     8
 71
     3
 72
    13
 73
     9
 74
     0
 42
0.0000000001
 43
0.0000000001
 40
0.0
 40
0.0
 40
0.0
 40
0.0
 40
0.0482915783703251
 40
0.1548220880887987
 40
0.6320996445450043
 40
2.529127011108196
 40
5.667439932560611
 40
11.04836957498001
 40
11.04836957498001
 40
11.04836957498001
 40
11.04836957498001
 10
1214.00000010509
 20
457.7748983560532
 30
0.0
 10
1213.995728908162
 20
457.7580234643004
 30
0.0
 10
1213.948864805752
 20
457.73300873407
 30
0.0
 10
1213.74406119672
 20
457.6815391812749
 30
0.0
 10
1212.922082742115
 20
457.5863003406067
 30
0.0
 10
1211.087944045967
 20
457.4713428101334
 30
0.0
 10
1207.619357199362
 20
457.3153642479008
 30
0.0
 10
1204.781330172758
 20
457.214883894033
 30
0.0
 10
1202.988895053324
 20
457.1495073384024
 30
0.0
  0
SPLINE
  5
C7
330
1F
100
AcDbEntity
  8
MAKE2D VISIBLE LINES
100
AcDbSpline
210
0.0
220
0.0
230
1.0
 70
    12
 71
     2
 72
     6
 73
     3
 74
     0
 42
0.0000000001
 43
0.0000000001
 40
-0.2435483386737715
 40
-0.2435483386737715
 40
-0.2435483386737715
 40
0.0
 40
0.0
 40
0.0
 10
1202.988895053324
 20
457.1495073384024
 30
0.0
 41
1.0
 10
1202.867200500253
 20
457.145104638769
 30
0.0
 41
0.999999999992066
 10
1202.745505962319
 20
457.1407015207824
 30
0.0
 41
1.0
  0
SPLINE
  5
C8
330
1F
100
AcDbEntity
  8
MAKE2D VISIBLE LINES
100
AcDbSpline
210
0.0
220
0.0
230
1.0
 70
    12
 71
     2
 72
     6
 73
     3
 74
     0
 42
0.0000000001
 43
0.0000000001
 40
0.0
 40
0.0
 40
0.0
 40
0.2843780083117802
 40
0.2843780083117802
 40
0.2843780083117802
 10
1202.745505962319
 20
457.1407015207824
 30
0.0
 41
1.0
 10
1202.603409938914
 20
457.135560241958
 30
0.0
 41
0.9999999998707946
 10
1202.461314097914
 20
457.1304139227798
 30
0.0
 41
1.0
  0
SPLINE
  5
C9
330
1F
100
AcDbEntity
  8
MAKE2D VISIBLE LINES
100
AcDbSpline
210
0.0
220
0.0
230
1.0
 70
    12
 71
     2
 72
     6
 73
     3
 74
     0
 42
0.0000000001
 43
0.0000000001
 40
-0.539270301788229
 40
-0.539270301788229
 40
-0.539270301788229
 40
0.0
 40
0.0
 40
0.0
 10
1202.461314097914
 20
457.1304139227798
 30
0.0
 41
1.0
 10
1202.191855544893
 20
457.1206567284178
 30
0.0
 41
0.9999999980164046
 10
1201.922398228072
 20
457.110865455676
 30
0.0
 41
1.0
  0
SPLINE
  5
CA
330
1F
100
AcDbEntity
  8
MAKE2D VISIBLE LINES
100
AcDbSpline
210
0.0
220
0.0
230
1.0
 70
    12
 71
     2
 72
     6
 73
     3
 74
     0
 42
0.0000000001
 43
0.0000000001
 40
0.0
 40
0.0
 40
0.0
 40
0.0790702598767645
 40
0.0790702598767645
 40
0.0790702598767645
 10
1201.922398228072
 20
457.110865455676
 30
0.0
 41
1.0
 10
1201.882889198494
 20
457.1094291220824
 30
0.0
 41
0.9999999999129612
 10
1201.843380177833
 20
457.1079925432176
 30
0.0
 41
1.0
  0
SPLINE
  5
CB
330
1F
100
AcDbEntity
  8
MAKE2D VISIBLE LINES
100
AcDbSpline
210
0.0
220
0.0
230
1.0
 70
     8
 71
     3
 72
    16
 73
    12
 74
     0
 42
0.0000000001
 43
0.0000000001
 40
-11.78278088893967
 40
-11.78278088893967
 40
-11.78278088893967
 40
-11.78278088893967
 40
-7.621561186652722
 40
-4.850265198633966
 40
-3.007461070730757
 40
-2.027030330452209
 40
-1.490787443561873
 40
-1.009457225858099
 40
-0.5181880557216365
 40
-0.2798719594124467
 40
0.0
 40
0.0
 40
0.0
 40
0.0
 10
1201.843380177833
 20
457.1079925432176
 30
0.0
 10
1200.458295310315
 20
457.0600982942651
 30
0.0
 10
1198.145771007948
 20
456.9671733895377
 30
0.0
 10
1195.228086081032
 20
456.8494714556622
 30
0.0
 10
1193.360638210204
 20
456.7262177911683
 30
0.0
 10
1192.252294134786
 20
456.6412750106002
 30
0.0
 10
1191.588498104749
 20
456.4695092528666
 30
0.0
 10
1191.329761342479
 20
455.9691558758483
 30
0.0
 10
1191.473723127851
 20
455.5643542848385
 30
0.0
 10
1191.741512593694
 20
455.3490870073603
 30
0.0
 10
1191.909789047943
 20
455.2994087667831
 30
0.0
 10
1192.000000000001
 20
455.2776590996813
 30
0.0
  0
SPLINE
  5
CC
330
1F
100
AcDbEntity
  8
MAKE2D VISIBLE LINES
100
AcDbSpline
210
0.0
220
0.0
230
1.0
 70
    24
 71
     2
 72
     6
 73
     3
 74
     0
 42
0.0000000001
 43
0.0000000001
 40
0.0
 40
0.0
 40
0.0
 40
1.252750753261921
 40
1.252750753261921
 40
1.252750753261921
 10
1192.0
 20
456.5713709873008
 30
0.0
 10
1191.999999994242
 20
457.1977553332561
 30
0.0
 10
1191.999999988484
 20
457.8241396792113
 30
0.0
  0
SPLINE
  5
CD
330
1F
100
AcDbEntity
  8
MAKE2D VISIBLE LINES
100
AcDbSpline
210
0.0
220
0.0
230
1.0
 70
     8
 71
     3
 72
    13
 73
     9
 74
     0
 42
0.0000000001
 43
0.0000000001
 40
0.0
 40
0.0
 40
0.0
 40
0.0
 40
0.1556250505598781
 40
0.7049991318115045
 40
1.425446177524111
 40
2.658663173774832
 40
5.84463575374388
 40
11.04752465705656
 40
11.04752465705656
 40
11.04752465705656
 40
11.04752465705656
 10
1191.999999988484
 20
457.8241396792113
 30
0.0
 10
1192.03304933518
 20
457.8656015706933
 30
0.0
 10
1192.266386648667
 20
457.9179901511236
 30
0.0
 10
1192.736429241646
 20
457.9744618108432
 30
0.0
 10
1193.568815746658
 20
458.0430202953452
 30
0.0
 10
1195.278716501947
 20
458.1456177601837
 30
0.0
 10
1198.483229365409
 20
458.2863305319893
 30
0.0
 10
1201.277582731889
 20
458.386783754723
 30
0.0
 10
1203.010786871533
 20
458.4495146683055
 30
0.0
  0
SPLINE
  5
CE
330
1F
100
AcDbEntity
  8
MAKE2D VISIBLE LINES
100
AcDbSpline
210
0.0
220
0.0
230
1.0
 70
    12
 71
     2
 72
     6
 73
     3
 74
     0
 42
0.0000000001
 43
0.0000000001
 40
-0.5327773192850972
 40
-0.5327773192850972
 40
-0.5327773192850972
 40
0.0
 40
0.0
 40
0.0
 10
1203.010786871533
 20
458.4495146683055
 30
0.0
 41
1.0
 10
1203.277001434452
 20
458.4591440010033
 30
0.0
 41
0.9999999997906542
 10
1203.543215572107
 20
458.4687850834948
 30
0.0
 41
1.0
  0
SPLINE
  5
CF
330
1F
100
AcDbEntity
  8
MAKE2D VISIBLE LINES
100
AcDbSpline
210
0.0
220
0.0
230
1.0
 70
    12
 71
     2
 72
     6
 73
     3
 74
     0
 42
0.0000000001
 43
0.0000000001
 40
0.0
 40
0.0
 40
0.0
 40
0.1323549752174523
 40
0.1323549752174523
 40
0.1323549752174523
 10
1203.543215572107
 20
458.4687850834948
 30
0.0
 41
1.0
 10
1203.609349645137
 20
458.4711817988901
 30
0.0
 41
0.9999999999249946
 10
1203.67548374728
 20
458.4735777110868
 30
0.0
 41
1.0
  0
SPLINE
  5
D0
330
1F
100
AcDbEntity
  8
MAKE2D VISIBLE LINES
100
AcDbSpline
210
0.0
220
0.0
230
1.0
 70
    12
 71
     2
 72
     6
 73
     3
 74
     0
 42
0.0000000001
 43
0.0000000001
 40
-0.4096355258178579
 40
-0.4096355258178579
 40
-0.4096355258178579
 40
0.0
 40
0.0
 40
0.0
 10
1203.67548374728
 20
458.4735777110868
 30
0.0
 41
1.0
 10
1203.880167214057
 20
458.4809935311175
 30
0.0
 41
0.9999999986241448
 10
1204.084849716452
 20
458.4884359220346
 30
0.0
 41
1.0
  0
SPLINE
  5
D1
330
1F
100
AcDbEntity
  8
MAKE2D VISIBLE LINES
100
AcDbSpline
210
0.0
220
0.0
230
1.0
 70
    12
 71
     2
 72
     6
 73
     3
 74
     0
 42
0.0000000001
 43
0.0000000001
 40
0.0
 40
0.0
 40
0.0
 40
0.1200716953724541
 40
0.1200716953724541
 40
0.1200716953724541
 10
1204.084849716452
 20
458.4884359220346
 30
0.0
 41
1.0
 10
1204.144845789242
 20
458.4906209238329
 30
0.0
 41
0.9999999997887717
 10
1204.204842062101
 20
458.4928004265288
 30
0.0
 41
1.0
  0
SPLINE
  5
D2
330
1F
100
AcDbEntity
  8
MAKE2D VISIBLE LINES
100
AcDbSpline
210
0.0
220
0.0
230
1.0
 70
    12
 71
     2
 72
     6
 73
     3
 74
     0
 42
0.0000000001
 43
0.0000000001
 40
-0.4173242317116009
 40
-0.4173242317116009
 40
-0.4173242317116009
 40
0.0
 40
0.0
 40
0.0
 10
1204.204842062101
 20
458.4928004265288
 30
0.0
 41
1.0
 10
1204.413366366346
 20
458.5003828352467
 30
0.0
 41
0.9999999961441568
 10
1204.621888914806
 20
458.5080133790957
 30
0.0
 41
1.0
  0
SPLINE
  5
D3
330
1F
100
AcDbEntity
  8
MAKE2D VISIBLE LINES
100
AcDbSpline
210
0.0
220
0.0
230
1.0
 70
    12
 71
     2
 72
     6
 73
     3
 74
     0
 42
0.0000000001
 43
0.0000000001
 40
0.0
 40
0.0
 40
0.0
 40
0.1661541661700152
 40
0.1661541661700152
 40
0.1661541661700152
 10
1204.621888914806
 20
458.5080133790957
 30
0.0
 41
1.0
 10
1204.704910215804
 20
458.5110572403162
 30
0.0
 41
0.9999999990729089
 10
1204.787931824163
 20
458.5140927097772
 30
0.0
 41
1.0
  0
SPLINE
  5
D4
330
1F
100
AcDbEntity
  8
MAKE2D VISIBLE LINES
100
AcDbSpline
210
0.0
220
0.0
230
1.0
 70
     8
 71
     3
 72
    16
 73
    12
 74
     0
 42
0.0000000001
 43
0.0000000001
 40
-11.15103435610228
 40
-11.15103435610228
 40
-11.15103435610228
 40
-11.15103435610228
 40
-7.31135668125691
 40
-4.691156251310733
 40
-2.925021172761932
 40
-1.996295259443803
 40
-1.70636116629916
 40
-1.468240681110924
 40
-0.9929024509676286
 40
-0.510736072976143
 40
0.0
 40
0.0
 40
0.0
 40
0.0
 10
1204.787931824163
 20
458.5140927097772
 30
0.0
 10
1206.067043940104
 20
458.5603211469504
 30
0.0
 10
1208.218575892611
 20
458.6431569060665
 30
0.0
 10
1210.958217483029
 20
458.7632335164905
 30
0.0
 10
1212.726292737812
 20
458.8740214237076
 30
0.0
 10
1213.717782362044
 20
458.9624626840139
 30
0.0
 10
1214.193270214485
 20
459.0708835992959
 30
0.0
 10
1214.481234868362
 20
459.2539925039718
 30
0.0
 10
1214.665550826519
 20
459.6391745604608
 30
0.0
 10
1214.487790027349
 20
460.1412129284616
 30
0.0
 10
1214.164423317202
 20
460.2879626027914
 30
0.0
 10
1214.0
 20
460.3213506275827
 30
0.0
  0
SPLINE
  5
D5
330
1F
100
AcDbEntity
  8
MAKE2D VISIBLE LINES
100
AcDbSpline
210
0.0
220
0.0
230
1.0
 70
    24
 71
     2
 72
     6
 73
     3
 74
     0
 42
0.0000000001
 43
0.0000000001
 40
0.0
 40
0.0
 40
0.0
 40
0.978125109251323
 40
0.978125109251323
 40
0.978125109251323
 10
1214.0
 20
454.0276419592219
 30
0.0
 10
1214.0
 20
453.5385794045962
 30
0.0
 10
1214.0
 20
453.0495168499705
 30
0.0
  0
SPLINE
  5
D6
330
1F
100
AcDbEntity
  8
MAKE2D VISIBLE LINES
100
AcDbSpline
210
0.0
220
0.0
230
1.0
 70
    24
 71
     2
 72
     6
 73
     3
 74
     0
 42
0.0000000001
 43
0.0000000001
 40
-22.0
 40
-22.0
 40
-22.0
 40
0.0
 40
0.0
 40
0.0
 10
1214.0
 20
453.0495168499705
 30
0.0
 10
1203.0
 20
453.0495168499705
 30
0.0
 10
1192.0
 20
453.0495168499705
 30
0.0
  0
SPLINE
  5
D7
330
1F
100
AcDbEntity
  8
MAKE2D VISIBLE LINES
100
AcDbSpline
210
0.0
220
0.0
230
1.0
 70
    24
 71
     2
 72
     6
 73
     3
 74
     0
 42
0.0000000001
 43
0.0000000001
 40
0.0
 40
0.0
 40
0.0
 40
2.274604890592855
 40
2.274604890592855
 40
2.274604890592855
 10
1192.0
 20
453.0495168499705
 30
0.0
 10
1191.999999994244
 20
454.1868282644101
 30
0.0
 10
1191.999999988487
 20
455.3241396788497
 30
0.0
  0
SPLINE
  5
D8
330
1F
100
AcDbEntity
  8
MAKE2D VISIBLE LINES
100
AcDbSpline
210
0.0
220
0.0
230
1.0
 70
     8
 71
     3
 72
    13
 73
     9
 74
     0
 42
0.0000000001
 43
0.0000000001
 40
0.0
 40
0.0
 40
0.0
 40
0.0
 40
0.1556250479412823
 40
0.704999124304123
 40
1.425446165719409
 40
2.658663156721849
 40
5.844635725151838
 40
11.04752464547209
 40
11.04752464547209
 40
11.04752464547209
 40
11.04752464547209
 10
1191.999999988487
 20
455.3241396788497
 30
0.0
 10
1192.033049333658
 20
455.3656015700818
 30
0.0
 10
1192.266386644789
 20
455.4179901504834
 30
0.0
 10
1192.736429233723
 20
455.4744618100632
 30
0.0
 10
1193.568815733957
 20
455.5430202944804
 30
0.0
 10
1195.278716482198
 20
455.64561775919
 30
0.0
 10
1198.483229345731
 20
455.7863305312803
 30
0.0
 10
1201.277582714028
 20
455.886783754067
 30
0.0
 10
1203.010786859339
 20
455.9495146678473
 30
0.0
  0
SPLINE
  5
D9
330
1F
100
AcDbEntity
  8
MAKE2D VISIBLE LINES
100
AcDbSpline
210
0.0
220
0.0
230
1.0
 70
    12
 71
     2
 72
     6
 73
     3
 74
     0
 42
0.0000000001
 43
0.0000000001
 40
-0.5327772930427725
 40
-0.5327772930427725
 40
-0.5327772930427725
 40
0.0
 40
0.0
 40
0.0
 10
1203.010786859339
 20
455.9495146678473
 30
0.0
 41
1.0
 10
1203.277001409147
 20
455.9591440000132
 30
0.0
 41
0.9999999997906582
 10
1203.543215533691
 20
455.9687850819923
 30
0.0
 41
1.0
  0
SPLINE
  5
DA
330
1F
100
AcDbEntity
  8
MAKE2D VISIBLE LINES
100
AcDbSpline
210
0.0
220
0.0
230
1.0
 70
    12
 71
     2
 72
     6
 73
     3
 74
     0
 42
0.0000000001
 43
0.0000000001
 40
0.0
 40
0.0
 40
0.0
 40
0.1323121608610768
 40
0.1323121608610768
 40
0.1323121608610768
 10
1203.543215533691
 20
455.9687850819923
 30
0.0
 41
1.0
 10
1203.609328213571
 20
455.9711810225285
 30
0.0
 41
0.9999999999250481
 10
1203.675440922606
 20
455.9735761586917
 30
0.0
 41
1.0
  0
SPLINE
  5
DB
330
1F
100
AcDbEntity
  8
MAKE2D VISIBLE LINES
100
AcDbSpline
210
0.0
220
0.0
230
1.0
 70
    12
 71
     2
 72
     6
 73
     3
 74
     0
 42
0.0000000001
 43
0.0000000001
 40
-0.4096783397692008
 40
-0.4096783397692008
 40
-0.4096783397692008
 40
0.0
 40
0.0
 40
0.0
 10
1203.675440922606
 20
455.9735761586917
 30
0.0
 41
1.0
 10
1203.880145782389
 20
455.980992751981
 30
0.0
 41
0.9999999986239317
 10
1204.084849677639
 20
455.9884359203238
 30
0.0
 41
1.0
  0
SPLINE
  5
DC
330
1F
100
AcDbEntity
  8
MAKE2D VISIBLE LINES
100
AcDbSpline
210
0.0
220
0.0
230
1.0
 70
    12
 71
     2
 72
     6
 73
     3
 74
     0
 42
0.0000000001
 43
0.0000000001
 40
0.0
 40
0.0
 40
0.0
 40
0.1200275761999731
 40
0.1200275761999731
 40
0.1200275761999731
 10
1204.084849677639
 20
455.9884359203238
 30
0.0
 41
1.0
 10
1204.144823705398
 20
455.9906201209076
 30
0.0
 41
0.9999999997889352
 10
1204.204797933306
 20
455.9927988201563
 30
0.0
 41
1.0
  0
SPLINE
  5
DD
330
1F
100
AcDbEntity
  8
MAKE2D VISIBLE LINES
100
AcDbSpline
210
0.0
220
0.0
230
1.0
 70
    12
 71
     2
 72
     6
 73
     3
 74
     0
 42
0.0000000001
 43
0.0000000001
 40
-0.4173683506063221
 40
-0.4173683506063221
 40
-0.4173683506063221
 40
0.0
 40
0.0
 40
0.0
 10
1204.204797933306
 20
455.9927988201563
 30
0.0
 41
1.0
 10
1204.413344282548
 20
456.0003820272084
 30
0.0
 41
0.9999999961434722
 10
1204.621888875723
 20
456.0080133771262
 30
0.0
 41
1.0
  0
SPLINE
  5
DE
330
1F
100
AcDbEntity
  8
MAKE2D VISIBLE LINES
100
AcDbSpline
210
0.0
220
0.0
230
1.0
 70
    12
 71
     2
 72
     6
 73
     3
 74
     0
 42
0.0000000001
 43
0.0000000001
 40
0.0
 40
0.0
 40
0.0
 40
0.1660786059448408
 40
0.1660786059448408
 40
0.1660786059448408
 10
1204.621888875723
 20
456.0080133771262
 30
0.0
 41
1.0
 10
1204.704872421835
 20
456.0110558579719
 30
0.0
 41
0.9999999990737962
 10
1204.787856275575
 20
456.0140899397965
 30
0.0
 41
1.0
  0
SPLINE
  5
DF
330
1F
100
AcDbEntity
  8
MAKE2D VISIBLE LINES
100
AcDbSpline
210
0.0
220
0.0
230
1.0
 70
     8
 71
     3
 72
    16
 73
    12
 74
     0
 42
0.0000000001
 43
0.0000000001
 40
-11.15120706545419
 40
-11.15120706545419
 40
-11.15120706545419
 40
-11.15120706545419
 40
-4.691304514850439
 40
-2.925151442907244
 40
-2.271070765219373
 40
-1.996407899755971
 40
-1.475655639495652
 40
-0.9989356840691023
 40
-0.5158094854966254
 40
-0.2747471747665962
 40
0.0
 40
0.0
 40
0.0
 40
0.0
 10
1204.787856275575
 20
456.0140899397965
 30
0.0
 10
1206.939079481597
 20
456.0944442400901
 30
0.0
 10
1209.681183646534
 20
456.1921070463491
 30
0.0
 10
1212.634473370356
 20
456.3641704502124
 30
0.0
 10
1213.531230637636
 20
456.4509449824463
 30
0.0
 10
1214.004787373807
 20
456.5157688281301
 30
0.0
 10
1214.428875722104
 20
456.6502302714937
 30
0.0
 10
1214.667201422405
 20
457.1370129413046
 30
0.0
 10
1214.52322958176
 20
457.541114036906
 30
0.0
 10
1214.255491182787
 20
457.7497753390357
 30
0.0
 10
1214.088885943075
 20
457.8005821095523
 30
0.0
 10
1214.0
 20
457.8213550676838
 30
0.0
  0
SPLINE
  5
E0
330
1F
100
AcDbEntity
  8
MAKE2D VISIBLE LINES
100
AcDbSpline
210
0.0
220
0.0
230
1.0
 70
    24
 71
     2
 72
     6
 73
     3
 74
     0
 42
0.0000000001
 43
0.0000000001
 40
0.0
 40
0.0
 40
0.0
 40
1.252758147244776
 40
1.252758147244776
 40
1.252758147244776
 10
1192.0
 20
459.0713635933171
 30
0.0
 10
1191.999999994241
 20
459.6977516364249
 30
0.0
 10
1191.999999988481
 20
460.3241396795328
 30
0.0
  0
SPLINE
  5
E1
330
1F
100
AcDbEntity
  8
MAKE2D VISIBLE LINES
100
AcDbSpline
210
0.0
220
0.0
230
1.0
 70
     8
 71
     3
 72
    13
 73
     9
 74
     0
 42
0.0000000001
 43
0.0000000001
 40
0.0
 40
0.0
 40
0.0
 40
0.0
 40
0.1556250529282711
 40
0.7049991386959626
 40
1.425446188443731
 40
2.658663189687394
 40
5.844635779762859
 40
11.04755605883662
 40
11.04755605883662
 40
11.04755605883662
 40
11.04755605883662
 10
1191.999999988481
 20
460.3241396795328
 30
0.0
 10
1192.033049336559
 20
460.365601571249
 30
0.0
 10
1192.266386652098
 20
460.417990151753
 30
0.0
 10
1192.736429249046
 20
460.4744618115326
 30
0.0
 10
1193.568815758163
 20
460.5430202962195
 30
0.0
 10
1195.278716520517
 20
460.6456177609722
 30
0.0
 10
1198.483239836941
 20
460.7863309919243
 30
0.0
 10
1201.277603662283
 20
460.8867845069893
 30
0.0
 10
1203.01081825335
 20
460.9495158025751
 30
0.0
  0
SPLINE
  5
E2
330
1F
100
AcDbEntity
  8
MAKE2D VISIBLE LINES
100
AcDbSpline
210
0.0
220
0.0
230
1.0
 70
    12
 71
     2
 72
     6
 73
     3
 74
     0
 42
0.0000000001
 43
0.0000000001
 40
-0.2351029672770935
 40
-0.2351029672770935
 40
-0.2351029672770935
 40
0.0
 40
0.0
 40
0.0
 10
1203.01081825335
 20
460.9495158025751
 30
0.0
 41
1.0
 10
1203.128292885845
 20
460.9537657148122
 30
0.0
 41
0.9999999999925165
 10
1203.245767484349
 20
460.9580165665316
 30
0.0
 41
1.0
  0
SPLINE
  5
E3
330
1F
100
AcDbEntity
  8
MAKE2D VISIBLE LINES
100
AcDbSpline
210
0.0
220
0.0
230
1.0
 70
    12
 71
     2
 72
     6
 73
     3
 74
     0
 42
0.0000000001
 43
0.0000000001
 40
0.0
 40
0.0
 40
0.0
 40
0.4281376391981663
 40
0.4281376391981663
 40
0.4281376391981663
 10
1203.245767484349
 20
460.9580165665316
 30
0.0
 41
1.0
 10
1203.459696290605
 20
460.9657577065506
 30
0.0
 41
0.999999999533462
 10
1203.67362468247
 20
460.9735102900723
 30
0.0
 41
1.0
  0
SPLINE
  5
E4
330
1F
100
AcDbEntity
  8
MAKE2D VISIBLE LINES
100
AcDbSpline
210
0.0
220
0.0
230
1.0
 70
    12
 71
     2
 72
     6
 73
     3
 74
     0
 42
0.0000000001
 43
0.0000000001
 40
-0.4114958488704859
 40
-0.4114958488704859
 40
-0.4114958488704859
 40
0.0
 40
0.0
 40
0.0
 10
1203.67362468247
 20
460.9735102900723
 30
0.0
 41
1.0
 10
1203.879237705768
 20
460.9809596533266
 30
0.0
 41
0.9999999986156144
 10
1204.084849755101
 20
460.9884358518127
 30
0.0
 41
1.0
  0
SPLINE
  5
E5
330
1F
100
AcDbEntity
  8
MAKE2D VISIBLE LINES
100
AcDbSpline
210
0.0
220
0.0
230
1.0
 70
    12
 71
     2
 72
     6
 73
     3
 74
     0
 42
0.0000000001
 43
0.0000000001
 40
0.0
 40
0.0
 40
0.0
 40
0.1107257492024004
 40
0.1107257492024004
 40
0.1107257492024004
 10
1204.084849755101
 20
460.9884358518127
 30
0.0
 41
1.0
 10
1204.140175937764
 20
460.9904511370269
 30
0.0
 41
0.999999999821856
 10
1204.195502337684
 20
460.9924604503412
 30
0.0
 41
1.0
  0
SPLINE
  5
E6
330
1F
100
AcDbEntity
  8
MAKE2D VISIBLE LINES
100
AcDbSpline
210
0.0
220
0.0
230
1.0
 70
     8
 71
     3
 72
    18
 73
    14
 74
     0
 42
0.0000000001
 43
0.0000000001
 40
-11.74387725540258
 40
-11.74387725540258
 40
-11.74387725540258
 40
-11.74387725540258
 40
-7.510411386899202
 40
-4.859598105136494
 40
-3.035916697879503
 40
-2.436301478709905
 40
-2.028597587337634
 40
-1.72917953668423
 40
-1.491188161609322
 40
-1.009574040679927
 40
-0.5190292046543438
 40
-0.2779868555033551
 40
0.0
 40
0.0
 40
0.0
 40
0.0
 10
1204.195502337684
 20
460.9924604503412
 30
0.0
 10
1205.605733246949
 20
461.0440074092402
 30
0.0
 10
1207.898905588005
 20
461.1280353261748
 30
0.0
 10
1210.798795727535
 20
461.2573427518333
 30
0.0
 10
1212.487267916329
 20
461.35558135397
 30
0.0
 10
1213.427652053151
 20
461.4383456374248
 30
0.0
 10
1213.859288905296
 20
461.4944225066801
 30
0.0
 10
1214.16833530356
 20
461.5631586038447
 30
0.0
 10
1214.467366061992
 20
461.735326069003
 30
0.0
 10
1214.666104223714
 20
462.1230762479378
 30
0.0
 10
1214.528162770084
 20
462.5382038863099
 30
0.0
 10
1214.256949446725
 20
462.7482317181516
 30
0.0
 10
1214.090300407115
 20
462.8008597021967
 30
0.0
 10
1213.999999999998
 20
462.8213540359304
 30
0.0
  0
SPLINE
  5
E7
330
1F
100
AcDbEntity
  8
MAKE2D VISIBLE LINES
100
AcDbSpline
210
0.0
220
0.0
230
1.0
 70
    24
 71
     2
 72
     6
 73
     3
 74
     0
 42
0.0000000001
 43
0.0000000001
 40
0.0
 40
0.0
 40
0.0
 40
1.252729580819391
 40
1.252729580819391
 40
1.252729580819391
 10
1214.0
 20
461.5276415211088
 30
0.0
 10
1214.000000052544
 20
460.9012699380066
 30
0.0
 10
1214.000000105088
 20
460.2748983549045
 30
0.0
  0
SPLINE
  5
E8
330
1F
100
AcDbEntity
  8
MAKE2D VISIBLE LINES
100
AcDbSpline
210
0.0
220
0.0
230
1.0
 70
     8
 71
     3
 72
    13
 73
     9
 74
     0
 42
0.0000000001
 43
0.0000000001
 40
0.0
 40
0.0
 40
0.0
 40
0.0
 40
0.0482915815407741
 40
0.1548220958280477
 40
0.6320996623687981
 40
2.529127043347172
 40
5.667439973159182
 40
11.04838640268699
 40
11.04838640268699
 40
11.04838640268699
 40
11.04838640268699
 10
1214.000000105088
 20
460.2748983549045
 30
0.0
 10
1213.995728905397
 20
460.2580234618598
 30
0.0
 10
1213.948864800129
 20
460.2330087323887
 30
0.0
 10
1213.744061185015
 20
460.1815391790827
 30
0.0
 10
1212.92208272059
 20
460.0863003397718
 30
0.0
 10
1211.087944013655
 20
459.9713428067691
 30
0.0
 10
1207.619351569
 20
459.8153639993612
 30
0.0
 10
1204.781318945801
 20
459.7148834901044
 30
0.0
 10
1202.988878223935
 20
459.6495070177765
 30
0.0
  0
SPLINE
  5
E9
330
1F
100
AcDbEntity
  8
MAKE2D VISIBLE LINES
100
AcDbSpline
210
0.0
220
0.0
230
1.0
 70
    12
 71
     2
 72
     6
 73
     3
 74
     0
 42
0.0000000001
 43
0.0000000001
 40
-0.5279095552308519
 40
-0.5279095552308519
 40
-0.5279095552308519
 40
0.0
 40
0.0
 40
0.0
 10
1202.988878223935
 20
459.6495070177765
 30
0.0
 41
1.0
 10
1202.725095943538
 20
459.6399658928463
 30
0.0
 41
0.9999999998085597
 10
1202.461314042891
 20
459.6304142747858
 30
0.0
 41
1.0
  0
SPLINE
  5
EA
330
1F
100
AcDbEntity
  8
MAKE2D VISIBLE LINES
100
AcDbSpline
210
0.0
220
0.0
230
1.0
 70
    12
 71
     2
 72
     6
 73
     3
 74
     0
 42
0.0000000001
 43
0.0000000001
 40
0.0
 40
0.0
 40
0.0
 40
0.0910455109029809
 40
0.0910455109029809
 40
0.0910455109029809
 10
1202.461314042891
 20
459.6304142747858
 30
0.0
 41
1.0
 10
1202.415821120359
 20
459.6287664693782
 30
0.0
 41
0.999999999970255
 10
1202.370328209446
 20
459.6271183431995
 30
0.0
 41
1.0
  0
SPLINE
  5
EB
330
1F
100
AcDbEntity
  8
MAKE2D VISIBLE LINES
100
AcDbSpline
210
0.0
220
0.0
230
1.0
 70
     8
 71
     3
 72
    17
 73
    13
 74
     0
 42
0.0000000001
 43
0.0000000001
 40
-12.31015381336059
 40
-12.31015381336059
 40
-12.31015381336059
 40
-12.31015381336059
 40
-7.845835543778351
 40
-5.015637518012573
 40
-3.076860683446582
 40
-2.453356588014334
 40
-2.04545243041875
 40
-1.737564461604251
 40
-1.501292579669566
 40
-1.01947057668261
 40
-0.5245307843128281
 40
0.0
 40
0.0
 40
0.0
 40
0.0
 10
1202.370328209446
 20
459.6271183431995
 30
0.0
 10
1200.883181326848
 20
459.5730936228077
 30
0.0
 10
1198.453329443003
 20
459.4848763367238
 30
0.0
 10
1195.378355612925
 20
459.351047301364
 30
0.0
 10
1193.583856054073
 20
459.2486600383504
 30
0.0
 10
1192.597046432797
 20
459.1635277722053
 30
0.0
 10
1192.154646062848
 20
459.1064631608343
 30
0.0
 10
1191.842729620673
 20
459.040146671456
 30
0.0
 10
1191.539679061235
 20
458.8704711910481
 30
0.0
 10
1191.333491399578
 20
458.4867764580047
 30
0.0
 10
1191.499162616801
 20
457.9665583821091
 30
0.0
 10
1191.831132504955
 20
457.8112154507846
 30
0.0
 10
1192.000000000001
 20
457.7776397775414
 30
0.0
  0
SPLINE
  5
EC
330
1F
100
AcDbEntity
  8
MAKE2D VISIBLE LINES
100
AcDbSpline
210
0.0
220
0.0
230
1.0
 70
    28
 71
     3
 72
     9
 73
     5
 74
     0
 42
0.0000000001
 43
0.0000000001
 40
103.0994960898622
 40
103.0994960898622
 40
103.0994960898622
 40
103.0994960898622
 40
103.6691969510871
 40
104.6699904841974
 40
104.6699904841974
 40
104.6699904841974
 40
104.6699904841974
 10
1293.0
 20
513.0428827208956
 30
0.0
 41
1.0
 10
1293.0
 20
513.0478868133685
 30
0.0
 41
1.0
 10
1293.0
 20
513.0548484929182
 30
0.0
 41
1.0
 10
1293.0
 20
513.042874032281
 30
0.0
 41
1.0
 10
1293.0
 20
513.027619174438
 30
0.0
 41
1.0
  0
SPLINE
  5
ED
330
1F
100
AcDbEntity
  8
MAKE2D VISIBLE LINES
100
AcDbSpline
210
0.0
220
0.0
230
1.0
 70
    24
 71
     2
 72
     6
 73
     3
 74
     0
 42
0.0000000001
 43
0.0000000001
 40
0.0
 40
0.0
 40
0.0
 40
0.0688961831815504
 40
0.0688961831815504
 40
0.0688961831815504
 10
1293.0
 20
513.027619174438
 30
0.0
 10
1293.0
 20
512.9931710825197
 30
0.0
 10
1293.0
 20
512.9587229906015
 30
0.0
  0
SPLINE
  5
EE
330
1F
100
AcDbEntity
  8
MAKE2D VISIBLE LINES
100
AcDbSpline
210
0.0
220
0.0
230
1.0
 70
     8
 71
     3
 72
    17
 73
    13
 74
     0
 42
0.0000000001
 43
0.0000000001
 40
0.0
 40
0.0
 40
0.0
 40
0.0
 40
0.2808550890347256
 40
0.5303422203611521
 40
1.029457860370277
 40
1.512847569427137
 40
1.754413995809862
 40
2.072310057071723
 40
3.171685688098628
 40
5.185738915712703
 40
8.221900083625533
 40
12.91855408295519
 40
12.91855408295519
 40
12.91855408295519
 40
12.91855408295519
 10
1214.0
 20
455.321354519131
 30
0.0
 10
1214.091243281455
 20
455.300750563854
 30
0.0
 10
1214.261486701502
 20
455.2464757055656
 30
0.0
 10
1214.536249532963
 20
455.0295629081758
 30
0.0
 10
1214.66598664399
 20
454.6027620453312
 30
0.0
 10
1214.451556689588
 20
454.2183328498476
 30
0.0
 10
1214.139603523495
 20
454.0519559587405
 30
0.0
 10
1213.595008968268
 20
453.9479387696181
 30
0.0
 10
1212.454778438934
 20
453.8534238298787
 30
0.0
 10
1210.408346395256
 20
453.7358660563618
 30
0.0
 10
1207.162039470697
 20
453.6004122132039
 30
0.0
 10
1204.586272775438
 20
453.5059857947589
 30
0.0
 10
1203.021688762811
 20
453.4499089803265
 30
0.0
  0
SPLINE
  5
EF
330
1F
100
AcDbEntity
  8
MAKE2D VISIBLE LINES
100
AcDbSpline
210
0.0
220
0.0
230
1.0
 70
    12
 71
     2
 72
     6
 73
     3
 74
     0
 42
0.0000000001
 43
0.0000000001
 40
-0.0288607984792154
 40
-0.0288607984792154
 40
-0.0288607984792154
 40
0.0
 40
0.0
 40
0.0
 10
1203.021688762811
 20
453.4499089803265
 30
0.0
 41
1.0
 10
1203.007265907511
 20
453.4493663407084
 30
0.0
 41
0.9997235247314693
 10
1202.992804459336
 20
453.4495141112033
 30
0.0
 41
1.0
  0
SPLINE
  5
F0
330
1F
100
AcDbEntity
  8
MAKE2D VISIBLE LINES
100
AcDbSpline
210
0.0
220
0.0
230
1.0
 70
    12
 71
     2
 72
     6
 73
     3
 74
     0
 42
0.0000000001
 43
0.0000000001
 40
0.0
 40
0.0
 40
0.0
 40
0.914408561685107
 40
0.914408561685107
 40
0.914408561685107
 10
1202.992804459336
 20
453.4495141112033
 30
0.0
 41
1.0
 10
1202.420225863103
 20
453.4555882837942
 30
0.0
 41
0.7234269340583938
 10
1202.39954755272
 20
454.0277975374532
 30
0.0
 41
1.0
  0
SPLINE
  5
F1
330
1F
100
AcDbEntity
  8
MAKE2D VISIBLE LINES
100
AcDbSpline
210
0.0
220
0.0
230
1.0
 70
    12
 71
     2
 72
     8
 73
     5
 74
     0
 42
0.0000000001
 43
0.0000000001
 40
0.0
 40
0.0
 40
0.0
 40
0.4716782577098059
 40
0.4716782577098059
 40
0.9433565154196117
 40
0.9433565154196117
 40
0.9433565154196117
 10
1202.39954755272
 20
454.0277975374532
 30
0.0
 41
1.0
 10
1202.390521653056
 20
454.2764240501217
 30
0.0
 41
0.9237194912564705
 10
1202.560096368095
 20
454.4584693106569
 30
0.0
 41
1.0
 10
1202.729671083134
 20
454.6405145711922
 30
0.0
 41
0.9237194912564705
 10
1202.978311237188
 20
454.6491247196146
 30
0.0
 41
1.0
  0
SPLINE
  5
F2
330
1F
100
AcDbEntity
  8
MAKE2D VISIBLE LINES
100
AcDbSpline
210
0.0
220
0.0
230
1.0
 70
    12
 71
     3
 72
    12
 73
     8
 74
     0
 42
0.0000000001
 43
0.0000000001
 40
-34.60185836988183
 40
-34.60185836988183
 40
-34.60185836988183
 40
-34.60185836988183
 40
-30.2870587542929
 40
-30.2870587542929
 40
-25.97461437122
 40
-25.97461437122
 40
-17.26013154891352
 40
-17.26013154891352
 40
-17.26013154891352
 40
-17.26013154891352
 10
1202.978311237188
 20
454.6491247196146
 30
0.0
 41
1.0
 10
1204.423810323155
 20
454.7014148795911
 30
0.0
 41
1.0
 10
1205.855703076749
 20
454.7531803334974
 30
0.0
 41
1.0
 10
1208.527801495824
 20
454.8577603839233
 30
0.0
 41
1.0
 10
1209.74193048554
 20
454.9094901025366
 30
0.0
 41
1.0
 10
1212.832996397658
 20
455.0673435980676
 30
0.0
 41
1.0
 10
1213.996718133029
 20
455.1688462443499
 30
0.0
 41
1.0
 10
1213.999996569756
 20
455.2746877724465
 30
0.0
 41
1.0
  0
SPLINE
  5
F3
330
1F
100
AcDbEntity
  8
MAKE2D VISIBLE LINES
100
AcDbSpline
210
0.0
220
0.0
230
1.0
 70
    24
 71
     2
 72
     6
 73
     3
 74
     0
 42
0.0000000001
 43
0.0000000001
 40
-1.252717902938969
 40
-1.252717902938969
 40
-1.252717902938969
 40
0.0
 40
0.0
 40
0.0
 10
1213.999996569756
 20
455.2746877724465
 30
0.0
 10
1213.999998284878
 20
455.9011595611643
 30
0.0
 10
1214.0
 20
456.5276313498821
 30
0.0
  0
SPLINE
  5
F4
330
1F
100
AcDbEntity
  8
MAKE2D VISIBLE LINES
100
AcDbSpline
210
0.0
220
0.0
230
1.0
 70
    24
 71
     2
 72
     6
 73
     3
 74
     0
 42
0.0000000001
 43
0.0000000001
 40
0.0
 40
0.0
 40
0.0
 40
0.0223878935676112
 40
0.0223878935676112
 40
0.0223878935676112
 10
1293.0
 20
512.8443963842319
 30
0.0
 10
1293.0
 20
512.8332024369907
 30
0.0
 10
1293.0
 20
512.8220084897496
 30
0.0
  0
SPLINE
  5
F5
330
1F
100
AcDbEntity
  8
MAKE2D VISIBLE LINES
100
AcDbSpline
210
0.0
220
0.0
230
1.0
 70
    24
 71
     2
 72
     6
 73
     3
 74
     0
 42
0.0000000001
 43
0.0000000001
 40
0.0
 40
0.0
 40
0.0
 40
0.2335722195546168
 40
0.2335722195546168
 40
0.2335722195546168
 10
1293.0
 20
512.8220084897496
 30
0.0
 10
1293.0
 20
512.7052223795358
 30
0.0
 10
1293.0
 20
512.588436269322
 30
0.0
  0
SPLINE
  5
F6
330
1F
100
AcDbEntity
  8
MAKE2D VISIBLE LINES
100
AcDbSpline
210
0.0
220
0.0
230
1.0
 70
    24
 71
     2
 72
     6
 73
     3
 74
     0
 42
0.0000000001
 43
0.0000000001
 40
0.0
 40
0.0
 40
0.0
 40
0.0529106474975833
 40
0.0529106474975833
 40
0.0529106474975833
 10
1293.0
 20
512.588436269322
 30
0.0
 10
1293.0
 20
512.561980945685
 30
0.0
 10
1293.0
 20
512.535525622048
 30
0.0
  0
SPLINE
  5
F7
330
1F
100
AcDbEntity
  8
MAKE2D VISIBLE LINES
100
AcDbSpline
210
0.0
220
0.0
230
1.0
 70
    24
 71
     2
 72
     6
 73
     3
 74
     0
 42
0.0000000001
 43
0.0000000001
 40
0.0
 40
0.0
 40
0.0
 40
1.346854458733276
 40
1.346854458733276
 40
1.346854458733276
 10
1293.0
 20
512.535525622048
 30
0.0
 10
1293.0
 20
511.8620983928103
 30
0.0
 10
1293.0
 20
511.1886711635725
 30
0.0
  0
SPLINE
  5
F8
330
1F
100
AcDbEntity
  8
MAKE2D VISIBLE LINES
100
AcDbSpline
210
0.0
220
0.0
230
1.0
 70
    24
 71
     2
 72
     6
 73
     3
 74
     0
 42
0.0000000001
 43
0.0000000001
 40
0.0
 40
0.0
 40
0.0
 40
1.240622059892928
 40
1.240622059892928
 40
1.240622059892928
 10
1293.0
 20
511.1886711635725
 30
0.0
 10
1293.0
 20
510.5683601336675
 30
0.0
 10
1293.0
 20
509.9480491037626
 30
0.0
  0
SPLINE
  5
F9
330
1F
100
AcDbEntity
  8
MAKE2D VISIBLE LINES
100
AcDbSpline
210
0.0
220
0.0
230
1.0
 70
    24
 71
     2
 72
     6
 73
     3
 74
     0
 42
0.0000000001
 43
0.0000000001
 40
0.0
 40
0.0
 40
0.0
 40
0.0106559518542895
 40
0.0106559518542895
 40
0.0106559518542895
 10
1293.0
 20
509.9480491037626
 30
0.0
 10
1293.0
 20
509.942721127836
 30
0.0
 10
1293.0
 20
509.9373931519093
 30
0.0
  0
SPLINE
  5
FA
330
1F
100
AcDbEntity
  8
MAKE2D VISIBLE LINES
100
AcDbSpline
210
0.0
220
0.0
230
1.0
 70
    24
 71
     2
 72
     6
 73
     3
 74
     0
 42
0.0000000001
 43
0.0000000001
 40
0.0
 40
0.0
 40
0.0
 40
1.190959929986548
 40
1.190959929986548
 40
1.190959929986548
 10
1293.0
 20
509.9373931519093
 30
0.0
 10
1293.0
 20
509.341913186913
 30
0.0
 10
1293.0
 20
508.7464332219167
 30
0.0
  0
SPLINE
  5
FB
330
1F
100
AcDbEntity
  8
MAKE2D VISIBLE LINES
100
AcDbSpline
210
0.0
220
0.0
230
1.0
 70
    24
 71
     2
 72
     6
 73
     3
 74
     0
 42
0.0000000001
 43
0.0000000001
 40
0.0
 40
0.0
 40
0.0
 40
0.0199120780743556
 40
0.0199120780743556
 40
0.0199120780743556
 10
1293.0
 20
508.7464332219167
 30
0.0
 10
1293.0
 20
508.7364771828797
 30
0.0
 10
1293.0
 20
508.7265211438427
 30
0.0
  0
SPLINE
  5
FC
330
1F
100
AcDbEntity
  8
MAKE2D VISIBLE LINES
100
AcDbSpline
210
0.0
220
0.0
230
1.0
 70
    24
 71
     2
 72
     6
 73
     3
 74
     0
 42
0.0000000001
 43
0.0000000001
 40
0.0
 40
0.0
 40
0.0
 40
0.3077714402176071
 40
0.3077714402176071
 40
0.3077714402176071
 10
1293.0
 20
508.7265211438427
 30
0.0
 10
1293.0
 20
508.5726354237343
 30
0.0
 10
1293.0
 20
508.4187497036258
 30
0.0
  0
SPLINE
  5
FD
330
1F
100
AcDbEntity
  8
MAKE2D VISIBLE LINES
100
AcDbSpline
210
0.0
220
0.0
230
1.0
 70
    24
 71
     2
 72
     6
 73
     3
 74
     0
 42
0.0000000001
 43
0.0000000001
 40
0.0
 40
0.0
 40
0.0
 40
0.0224649103470256
 40
0.0224649103470256
 40
0.0224649103470256
 10
1293.0
 20
508.4187497036258
 30
0.0
 10
1293.0
 20
508.4075172484525
 30
0.0
 10
1293.0
 20
508.3962847932792
 30
0.0
  0
SPLINE
  5
FE
330
1F
100
AcDbEntity
  8
MAKE2D VISIBLE LINES
100
AcDbSpline
210
0.0
220
0.0
230
1.0
 70
    24
 71
     2
 72
     6
 73
     3
 74
     0
 42
0.0000000001
 43
0.0000000001
 40
0.0
 40
0.0
 40
0.0
 40
0.3157816571741137
 40
0.3157816571741137
 40
0.3157816571741137
 10
1293.0
 20
508.3962847932792
 30
0.0
 10
1293.0
 20
508.2383939646924
 30
0.0
 10
1293.0
 20
508.0805031361055
 30
0.0
  0
SPLINE
  5
FF
330
1F
100
AcDbEntity
  8
MAKE2D VISIBLE LINES
100
AcDbSpline
210
0.0
220
0.0
230
1.0
 70
    24
 71
     2
 72
     6
 73
     3
 74
     0
 42
0.0000000001
 43
0.0000000001
 40
0.0
 40
0.0
 40
0.0
 40
3.073887128165723
 40
3.073887128165723
 40
3.073887128165723
 10
1293.0
 20
508.0805031361055
 30
0.0
 10
1293.0
 20
506.5435595721362
 30
0.0
 10
1293.0
 20
505.0066160081669
 30
0.0
  0
SPLINE
  5
100
330
1F
100
AcDbEntity
  8
MAKE2D VISIBLE LINES
100
AcDbSpline
210
0.0
220
0.0
230
1.0
 70
    24
 71
     2
 72
     6
 73
     3
 74
     0
 42
0.0000000001
 43
0.0000000001
 40
0.0
 40
0.0
 40
0.0
 40
0.0299645520303216
 40
0.0299645520303216
 40
0.0299645520303216
 10
1293.0
 20
505.0066160081669
 30
0.0
 10
1293.0
 20
504.9916337319285
 30
0.0
 10
1293.0
 20
504.97665145569
 30
0.0
  0
SPLINE
  5
101
330
1F
100
AcDbEntity
  8
MAKE2D VISIBLE LINES
100
AcDbSpline
210
0.0
220
0.0
230
1.0
 70
    24
 71
     2
 72
     6
 73
     3
 74
     0
 42
0.0000000001
 43
0.0000000001
 40
0.0
 40
0.0
 40
0.0
 40
0.4247512743214656
 40
0.4247512743214656
 40
0.4247512743214656
 10
1293.0
 20
504.97665145569
 30
0.0
 10
1293.0
 20
504.7642758215677
 30
0.0
 10
1293.0
 20
504.5519001874454
 30
0.0
  0
SPLINE
  5
102
330
1F
100
AcDbEntity
  8
MAKE2D VISIBLE LINES
100
AcDbSpline
210
0.0
220
0.0
230
1.0
 70
    24
 71
     2
 72
     6
 73
     3
 74
     0
 42
0.0000000001
 43
0.0000000001
 40
0.0
 40
0.0
 40
0.0
 40
0.4062492170995711
 40
0.4062492170995711
 40
0.4062492170995711
 10
1293.0
 20
504.5519001874454
 30
0.0
 10
1293.0
 20
504.3487755841128
 30
0.0
 10
1293.0
 20
504.1456509807801
 30
0.0
  0
SPLINE
  5
103
330
1F
100
AcDbEntity
  8
MAKE2D VISIBLE LINES
100
AcDbSpline
210
0.0
220
0.0
230
1.0
 70
    24
 71
     2
 72
     6
 73
     3
 74
     0
 42
0.0000000001
 43
0.0000000001
 40
0.0
 40
0.0
 40
0.0
 40
0.0267251120046694
 40
0.0267251120046694
 40
0.0267251120046694
 10
1293.0
 20
504.1456509807801
 30
0.0
 10
1293.0
 20
504.1322884249311
 30
0.0
 10
1293.0
 20
504.118925869082
 30
0.0
  0
SPLINE
  5
104
330
1F
100
AcDbEntity
  8
MAKE2D VISIBLE LINES
100
AcDbSpline
210
0.0
220
0.0
230
1.0
 70
    24
 71
     2
 72
     6
 73
     3
 74
     0
 42
0.0000000001
 43
0.0000000001
 40
0.0
 40
0.0
 40
0.0
 40
3.20751872681177
 40
3.20751872681177
 40
3.20751872681177
 10
1293.0
 20
504.118925869082
 30
0.0
 10
1293.0
 20
502.5151664993761
 30
0.0
 10
1293.0
 20
500.9114071296701
 30
0.0
  0
SPLINE
  5
105
330
1F
100
AcDbEntity
  8
MAKE2D VISIBLE LINES
100
AcDbSpline
210
0.0
220
0.0
230
1.0
 70
    24
 71
     2
 72
     6
 73
     3
 74
     0
 42
0.0000000001
 43
0.0000000001
 40
0.0
 40
0.0
 40
0.0
 40
0.2927148227851148
 40
0.2927148227851148
 40
0.2927148227851148
 10
1293.0
 20
500.9114071296701
 30
0.0
 10
1293.0
 20
500.7650497119116
 30
0.0
 10
1293.0
 20
500.6186922941531
 30
0.0
  0
SPLINE
  5
106
330
1F
100
AcDbEntity
  8
MAKE2D VISIBLE LINES
100
AcDbSpline
210
0.0
220
0.0
230
1.0
 70
    24
 71
     2
 72
     6
 73
     3
 74
     0
 42
0.0000000001
 43
0.0000000001
 40
0.0
 40
0.0
 40
0.0
 40
0.2152322647872325
 40
0.2152322647872325
 40
0.2152322647872325
 10
1293.0
 20
500.6186922941531
 30
0.0
 10
1293.0
 20
500.511076166227
 30
0.0
 10
1293.0
 20
500.4034600383008
 30
0.0
  0
SPLINE
  5
107
330
1F
100
AcDbEntity
  8
MAKE2D VISIBLE LINES
100
AcDbSpline
210
0.0
220
0.0
230
1.0
 70
    24
 71
     2
 72
     6
 73
     3
 74
     0
 42
0.0000000001
 43
0.0000000001
 40
0.0
 40
0.0
 40
0.0
 40
0.0826410559483861
 40
0.0826410559483861
 40
0.0826410559483861
 10
1293.0
 20
500.4034600383008
 30
0.0
 10
1293.0
 20
500.3621395120591
 30
0.0
 10
1293.0
 20
500.3208189858174
 30
0.0
  0
SPLINE
  5
108
330
1F
100
AcDbEntity
  8
MAKE2D VISIBLE LINES
100
AcDbSpline
210
0.0
220
0.0
230
1.0
 70
    24
 71
     2
 72
     6
 73
     3
 74
     0
 42
0.0000000001
 43
0.0000000001
 40
0.0
 40
0.0
 40
0.0
 40
0.6046354918510133
 40
0.6046354918510133
 40
0.6046354918510133
 10
1293.0
 20
500.3208189858174
 30
0.0
 10
1293.0
 20
500.0185012433143
 30
0.0
 10
1293.0
 20
499.7161835008113
 30
0.0
  0
SPLINE
  5
109
330
1F
100
AcDbEntity
  8
MAKE2D VISIBLE LINES
100
AcDbSpline
210
0.0
220
0.0
230
1.0
 70
    24
 71
     2
 72
     6
 73
     3
 74
     0
 42
0.0000000001
 43
0.0000000001
 40
0.0
 40
0.0
 40
0.0
 40
6.578348566683019
 40
6.578348566683019
 40
6.578348566683019
 10
1293.0
 20
499.7161835008113
 30
0.0
 10
1293.0
 20
496.4270092253275
 30
0.0
 10
1293.0
 20
493.1378349498438
 30
0.0
  0
SPLINE
  5
10A
330
1F
100
AcDbEntity
  8
MAKE2D VISIBLE LINES
100
AcDbSpline
210
0.0
220
0.0
230
1.0
 70
    24
 71
     2
 72
     6
 73
     3
 74
     0
 42
0.0000000001
 43
0.0000000001
 40
0.0
 40
0.0
 40
0.0
 40
0.0862482895412313
 40
0.0862482895412313
 40
0.0862482895412313
 10
1293.0
 20
493.1378349498438
 30
0.0
 10
1293.0
 20
493.0947108049763
 30
0.0
 10
1293.0
 20
493.0515866601087
 30
0.0
  0
SPLINE
  5
10B
330
1F
100
AcDbEntity
  8
MAKE2D VISIBLE LINES
100
AcDbSpline
210
0.0
220
0.0
230
1.0
 70
    24
 71
     2
 72
     6
 73
     3
 74
     0
 42
0.0000000001
 43
0.0000000001
 40
0.0
 40
0.0
 40
0.0
 40
0.4996907509873836
 40
0.4996907509873836
 40
0.4996907509873836
 10
1293.0
 20
493.0515866601087
 30
0.0
 10
1293.0
 20
492.8017412913778
 30
0.0
 10
1293.0
 20
492.5518959226468
 30
0.0
  0
SPLINE
  5
10C
330
1F
100
AcDbEntity
  8
MAKE2D VISIBLE LINES
100
AcDbSpline
210
0.0
220
0.0
230
1.0
 70
    24
 71
     2
 72
     6
 73
     3
 74
     0
 42
0.0000000001
 43
0.0000000001
 40
0.0
 40
0.0
 40
0.0
 40
0.3633042037295127
 40
0.3633042037295127
 40
0.3633042037295127
 10
1293.0
 20
492.5518959226468
 30
0.0
 10
1293.0
 20
492.3702438275707
 30
0.0
 10
1293.0
 20
492.1885917324946
 30
0.0
  0
SPLINE
  5
10D
330
1F
100
AcDbEntity
  8
MAKE2D VISIBLE LINES
100
AcDbSpline
210
0.0
220
0.0
230
1.0
 70
    24
 71
     2
 72
     6
 73
     3
 74
     0
 42
0.0000000001
 43
0.0000000001
 40
0.0
 40
0.0
 40
0.0
 40
0.137151949884867
 40
0.137151949884867
 40
0.137151949884867
 10
1293.0
 20
492.1885917324946
 30
0.0
 10
1293.0
 20
492.120015758706
 30
0.0
 10
1293.0
 20
492.0514397849173
 30
0.0
  0
SPLINE
  5
10E
330
1F
100
AcDbEntity
  8
MAKE2D VISIBLE LINES
100
AcDbSpline
210
0.0
220
0.0
230
1.0
 70
    24
 71
     2
 72
     6
 73
     3
 74
     0
 42
0.0000000001
 43
0.0000000001
 40
0.0
 40
0.0
 40
0.0
 40
0.4321756598524189
 40
0.4321756598524189
 40
0.4321756598524189
 10
1293.0
 20
492.0514397849173
 30
0.0
 10
1293.0
 20
491.8353519650826
 30
0.0
 10
1293.0
 20
491.6192641452478
 30
0.0
  0
SPLINE
  5
10F
330
1F
100
AcDbEntity
  8
MAKE2D VISIBLE LINES
100
AcDbSpline
210
0.0
220
0.0
230
1.0
 70
    24
 71
     2
 72
     6
 73
     3
 74
     0
 42
0.0000000001
 43
0.0000000001
 40
0.0
 40
0.0
 40
0.0
 40
0.0687872067265403
 40
0.0687872067265403
 40
0.0687872067265403
 10
1293.0
 20
491.6192641452478
 30
0.0
 10
1293.0
 20
491.5848705422922
 30
0.0
 10
1293.0
 20
491.5504769393365
 30
0.0
  0
SPLINE
  5
110
330
1F
100
AcDbEntity
  8
MAKE2D VISIBLE LINES
100
AcDbSpline
210
0.0
220
0.0
230
1.0
 70
    24
 71
     2
 72
     6
 73
     3
 74
     0
 42
0.0000000001
 43
0.0000000001
 40
0.0
 40
0.0
 40
0.0
 40
2.003487093622141
 40
2.003487093622141
 40
2.003487093622141
 10
1293.0
 20
491.5504769393365
 30
0.0
 10
1293.0
 20
490.5487333798602
 30
0.0
 10
1293.0
 20
489.5469898203839
 30
0.0
  0
SPLINE
  5
111
330
1F
100
AcDbEntity
  8
MAKE2D VISIBLE LINES
100
AcDbSpline
210
0.0
220
0.0
230
1.0
 70
    24
 71
     2
 72
     6
 73
     3
 74
     0
 42
0.0000000001
 43
0.0000000001
 40
0.0
 40
0.0
 40
0.0
 40
0.2049549417911294
 40
0.2049549417911294
 40
0.2049549417911294
 10
1293.0
 20
489.5469898203839
 30
0.0
 10
1293.0
 20
489.4445123441801
 30
0.0
 10
1293.0
 20
489.3420348679762
 30
0.0
  0
SPLINE
  5
112
330
1F
100
AcDbEntity
  8
MAKE2D VISIBLE LINES
100
AcDbSpline
210
0.0
220
0.0
230
1.0
 70
    24
 71
     2
 72
     6
 73
     3
 74
     0
 42
0.0000000001
 43
0.0000000001
 40
0.0
 40
0.0
 40
0.0
 40
0.5673010747196372
 40
0.5673010747196372
 40
0.5673010747196372
 10
1293.0
 20
489.3420348679762
 30
0.0
 10
1293.0
 20
489.0583843294977
 30
0.0
 10
1293.0
 20
488.7747337910192
 30
0.0
  0
SPLINE
  5
113
330
1F
100
AcDbEntity
  8
MAKE2D VISIBLE LINES
100
AcDbSpline
210
0.0
220
0.0
230
1.0
 70
    24
 71
     2
 72
     6
 73
     3
 74
     0
 42
0.0000000001
 43
0.0000000001
 40
0.0
 40
0.0
 40
0.0
 40
0.2260675108573196
 40
0.2260675108573196
 40
0.2260675108573196
 10
1293.0
 20
488.7747337910192
 30
0.0
 10
1293.0
 20
488.6617000354918
 30
0.0
 10
1293.0
 20
488.5486662799644
 30
0.0
  0
SPLINE
  5
114
330
1F
100
AcDbEntity
  8
MAKE2D VISIBLE LINES
100
AcDbSpline
210
0.0
220
0.0
230
1.0
 70
    24
 71
     2
 72
     6
 73
     3
 74
     0
 42
0.0000000001
 43
0.0000000001
 40
0.0
 40
0.0
 40
0.0
 40
0.339720917884506
 40
0.339720917884506
 40
0.339720917884506
 10
1293.0
 20
488.5486662799644
 30
0.0
 10
1293.0
 20
488.3788058208743
 30
0.0
 10
1293.0
 20
488.2089453617841
 30
0.0
  0
SPLINE
  5
115
330
1F
100
AcDbEntity
  8
MAKE2D VISIBLE LINES
100
AcDbSpline
210
0.0
220
0.0
230
1.0
 70
    24
 71
     2
 72
     6
 73
     3
 74
     0
 42
0.0000000001
 43
0.0000000001
 40
0.0
 40
0.0
 40
0.0
 40
0.4172049546669427
 40
0.4172049546669427
 40
0.4172049546669427
 10
1293.0
 20
488.2089453617841
 30
0.0
 10
1293.0
 20
488.0003428845274
 30
0.0
 10
1293.0
 20
487.7917404072706
 30
0.0
  0
SPLINE
  5
116
330
1F
100
AcDbEntity
  8
MAKE2D VISIBLE LINES
100
AcDbSpline
210
0.0
220
0.0
230
1.0
 70
    24
 71
     2
 72
     6
 73
     3
 74
     0
 42
0.0000000001
 43
0.0000000001
 40
0.0
 40
0.0
 40
0.0
 40
0.1466960230893051
 40
0.1466960230893051
 40
0.1466960230893051
 10
1293.0
 20
487.7917404072706
 30
0.0
 10
1293.0
 20
487.7183923957139
 30
0.0
 10
1293.0
 20
487.6450443841572
 30
0.0
  0
SPLINE
  5
117
330
1F
100
AcDbEntity
  8
MAKE2D VISIBLE LINES
100
AcDbSpline
210
0.0
220
0.0
230
1.0
 70
    24
 71
     2
 72
     6
 73
     3
 74
     0
 42
0.0000000001
 43
0.0000000001
 40
0.0
 40
0.0
 40
0.0
 40
0.4987587417292048
 40
0.4987587417292048
 40
0.4987587417292048
 10
1293.0
 20
487.6450443841572
 30
0.0
 10
1293.0
 20
487.3956650134044
 30
0.0
 10
1293.0
 20
487.1462856426516
 30
0.0
  0
SPLINE
  5
118
330
1F
100
AcDbEntity
  8
MAKE2D VISIBLE LINES
100
AcDbSpline
210
0.0
220
0.0
230
1.0
 70
    24
 71
     2
 72
     6
 73
     3
 74
     0
 42
0.0000000001
 43
0.0000000001
 40
0.0
 40
0.0
 40
0.0
 40
0.062879963973046
 40
0.062879963973046
 40
0.062879963973046
 10
1293.0
 20
487.1462856426516
 30
0.0
 10
1293.0
 20
487.1148456571586
 30
0.0
 10
1293.0
 20
487.0834056716657
 30
0.0
  0
SPLINE
  5
119
330
1F
100
AcDbEntity
  8
MAKE2D VISIBLE LINES
100
AcDbSpline
210
0.0
220
0.0
230
1.0
 70
    24
 71
     2
 72
     6
 73
     3
 74
     0
 42
0.0000000001
 43
0.0000000001
 40
0.0
 40
0.0
 40
0.0
 40
4.328219210279428
 40
4.328219210279428
 40
4.328219210279428
 10
1293.0
 20
487.0834056716657
 30
0.0
 10
1293.0
 20
484.9192960655168
 30
0.0
 10
1293.0
 20
482.755186459368
 30
0.0
  0
SPLINE
  5
11A
330
1F
100
AcDbEntity
  8
MAKE2D VISIBLE LINES
100
AcDbSpline
210
0.0
220
0.0
230
1.0
 70
    24
 71
     2
 72
     6
 73
     3
 74
     0
 42
0.0000000001
 43
0.0000000001
 40
0.0
 40
0.0
 40
0.0
 40
0.0384725551628549
 40
0.0384725551628549
 40
0.0384725551628549
 10
1293.0
 20
482.755186459368
 30
0.0
 10
1293.0
 20
482.7359501834586
 30
0.0
 10
1293.0
 20
482.7167139075493
 30
0.0
  0
SPLINE
  5
11B
330
1F
100
AcDbEntity
  8
MAKE2D VISIBLE LINES
100
AcDbSpline
210
0.0
220
0.0
230
1.0
 70
    24
 71
     2
 72
     6
 73
     3
 74
     0
 42
0.0000000001
 43
0.0000000001
 40
0.0
 40
0.0
 40
0.0
 40
0.3338637374095015
 40
0.3338637374095015
 40
0.3338637374095015
 10
1293.0
 20
482.7167139075493
 30
0.0
 10
1293.0
 20
482.5497820338211
 30
0.0
 10
1293.0
 20
482.3828501600929
 30
0.0
  0
SPLINE
  5
11C
330
1F
100
AcDbEntity
  8
MAKE2D VISIBLE LINES
100
AcDbSpline
210
0.0
220
0.0
230
1.0
 70
    24
 71
     2
 72
     6
 73
     3
 74
     0
 42
0.0000000001
 43
0.0000000001
 40
0.0
 40
0.0
 40
0.0
 40
0.6767104591152133
 40
0.6767104591152133
 40
0.6767104591152133
 10
1293.0
 20
482.3828501600929
 30
0.0
 10
1293.0
 20
482.0444949207556
 30
0.0
 10
1293.0
 20
481.7061396814183
 30
0.0
  0
SPLINE
  5
11D
330
1F
100
AcDbEntity
  8
MAKE2D VISIBLE LINES
100
AcDbSpline
210
0.0
220
0.0
230
1.0
 70
    24
 71
     2
 72
     6
 73
     3
 74
     0
 42
0.0000000001
 43
0.0000000001
 40
0.0
 40
0.0
 40
0.0
 40
0.010600337927599
 40
0.010600337927599
 40
0.010600337927599
 10
1293.0
 20
481.7061396814183
 30
0.0
 10
1293.0
 20
481.7008395153264
 30
0.0
 10
1293.0
 20
481.6955393492345
 30
0.0
  0
SPLINE
  5
11E
330
1F
100
AcDbEntity
  8
MAKE2D VISIBLE LINES
100
AcDbSpline
210
0.0
220
0.0
230
1.0
 70
    24
 71
     2
 72
     6
 73
     3
 74
     0
 42
0.0000000001
 43
0.0000000001
 40
0.0
 40
0.0
 40
0.0
 40
0.477982581885442
 40
0.477982581885442
 40
0.477982581885442
 10
1293.0
 20
481.6955393492345
 30
0.0
 10
1293.0
 20
481.4565480608368
 30
0.0
 10
1293.0
 20
481.2175567724391
 30
0.0
  0
SPLINE
  5
11F
330
1F
100
AcDbEntity
  8
MAKE2D VISIBLE LINES
100
AcDbSpline
210
0.0
220
0.0
230
1.0
 70
    24
 71
     2
 72
     6
 73
     3
 74
     0
 42
0.0000000001
 43
0.0000000001
 40
0.0
 40
0.0
 40
0.0
 40
0.0129859909159791
 40
0.0129859909159791
 40
0.0129859909159791
 10
1293.0
 20
481.2175567724391
 30
0.0
 10
1293.0
 20
481.2110637811345
 30
0.0
 10
1293.0
 20
481.2045707898299
 30
0.0
  0
SPLINE
  5
120
330
1F
100
AcDbEntity
  8
MAKE2D VISIBLE LINES
100
AcDbSpline
210
0.0
220
0.0
230
1.0
 70
    24
 71
     2
 72
     6
 73
     3
 74
     0
 42
0.0000000001
 43
0.0000000001
 40
0.0
 40
0.0
 40
0.0
 40
0.4696250286149279
 40
0.4696250286149279
 40
0.4696250286149279
 10
1293.0
 20
481.2045707898299
 30
0.0
 10
1293.0
 20
480.9697582932905
 30
0.0
 10
1293.0
 20
480.7349457967512
 30
0.0
  0
SPLINE
  5
121
330
1F
100
AcDbEntity
  8
MAKE2D VISIBLE LINES
100
AcDbSpline
210
0.0
220
0.0
230
1.0
 70
    24
 71
     2
 72
     6
 73
     3
 74
     0
 42
0.0000000001
 43
0.0000000001
 40
0.0
 40
0.0
 40
0.0
 40
0.0152718153080968
 40
0.0152718153080968
 40
0.0152718153080968
 10
1293.0
 20
480.7349457967512
 30
0.0
 10
1293.0
 20
480.7273098812416
 30
0.0
 10
1293.0
 20
480.719673965732
 30
0.0
  0
SPLINE
  5
122
330
1F
100
AcDbEntity
  8
MAKE2D VISIBLE LINES
100
AcDbSpline
210
0.0
220
0.0
230
1.0
 70
    24
 71
     2
 72
     6
 73
     3
 74
     0
 42
0.0000000001
 43
0.0000000001
 40
0.0
 40
0.0
 40
0.0
 40
1.39392202954383
 40
1.39392202954383
 40
1.39392202954383
 10
1293.0
 20
480.719673965732
 30
0.0
 10
1293.0
 20
480.0227129356094
 30
0.0
 10
1293.0
 20
479.3257519054869
 30
0.0
  0
SPLINE
  5
123
330
1F
100
AcDbEntity
  8
MAKE2D VISIBLE LINES
100
AcDbSpline
210
0.0
220
0.0
230
1.0
 70
    24
 71
     2
 72
     6
 73
     3
 74
     0
 42
0.0000000001
 43
0.0000000001
 40
0.0
 40
0.0
 40
0.0
 40
0.0215594647443709
 40
0.0215594647443709
 40
0.0215594647443709
 10
1293.0
 20
479.3257519054869
 30
0.0
 10
1293.0
 20
479.3149721731265
 30
0.0
 10
1293.0
 20
479.3041924407662
 30
0.0
  0
SPLINE
  5
124
330
1F
100
AcDbEntity
  8
MAKE2D VISIBLE LINES
100
AcDbSpline
210
0.0
220
0.0
230
1.0
 70
    24
 71
     2
 72
     6
 73
     3
 74
     0
 42
0.0000000001
 43
0.0000000001
 40
0.0
 40
0.0
 40
0.0
 40
0.4343564669888451
 40
0.4343564669888451
 40
0.4343564669888451
 10
1293.0
 20
479.3041924407662
 30
0.0
 10
1293.0
 20
479.0870142072836
 30
0.0
 10
1293.0
 20
478.8698359738009
 30
0.0
  0
SPLINE
  5
125
330
1F
100
AcDbEntity
  8
MAKE2D VISIBLE LINES
100
AcDbSpline
210
0.0
220
0.0
230
1.0
 70
    24
 71
     2
 72
     6
 73
     3
 74
     0
 42
0.0000000001
 43
0.0000000001
 40
0.0
 40
0.0
 40
0.0
 40
4.825975200378878
 40
4.825975200378878
 40
4.825975200378878
 10
1293.0
 20
478.8698359738009
 30
0.0
 10
1293.0
 20
476.4568483736119
 30
0.0
 10
1293.0
 20
474.0438607734229
 30
0.0
  0
SPLINE
  5
126
330
1F
100
AcDbEntity
  8
MAKE2D VISIBLE LINES
100
AcDbSpline
210
0.0
220
0.0
230
1.0
 70
    24
 71
     2
 72
     6
 73
     3
 74
     0
 42
0.0000000001
 43
0.0000000001
 40
0.0
 40
0.0
 40
0.0
 40
0.3408927116429368
 40
0.3408927116429368
 40
0.3408927116429368
 10
1293.0
 20
474.0438607734229
 30
0.0
 10
1293.0
 20
473.8734144176009
 30
0.0
 10
1293.0
 20
473.7029680617788
 30
0.0
  0
SPLINE
  5
127
330
1F
100
AcDbEntity
  8
MAKE2D VISIBLE LINES
100
AcDbSpline
210
0.0
220
0.0
230
1.0
 70
    24
 71
     2
 72
     6
 73
     3
 74
     0
 42
0.0000000001
 43
0.0000000001
 40
0.0
 40
0.0
 40
0.0
 40
0.0226372469132343
 40
0.0226372469132343
 40
0.0226372469132343
 10
1293.0
 20
473.7029680617788
 30
0.0
 10
1293.0
 20
473.6916494385353
 30
0.0
 10
1293.0
 20
473.6803308152917
 30
0.0
  0
SPLINE
  5
128
330
1F
100
AcDbEntity
  8
MAKE2D VISIBLE LINES
100
AcDbSpline
210
0.0
220
0.0
230
1.0
 70
    24
 71
     2
 72
     6
 73
     3
 74
     0
 42
0.0000000001
 43
0.0000000001
 40
0.0
 40
0.0
 40
0.0
 40
0.307641525885515
 40
0.307641525885515
 40
0.307641525885515
 10
1293.0
 20
473.6803308152917
 30
0.0
 10
1293.0
 20
473.5265100525626
 30
0.0
 10
1293.0
 20
473.3726892898334
 30
0.0
  0
SPLINE
  5
129
330
1F
100
AcDbEntity
  8
MAKE2D VISIBLE LINES
100
AcDbSpline
210
0.0
220
0.0
230
1.0
 70
    24
 71
     2
 72
     6
 73
     3
 74
     0
 42
0.0000000001
 43
0.0000000001
 40
0.0
 40
0.0
 40
0.0
 40
0.0200520973547782
 40
0.0200520973547782
 40
0.0200520973547782
 10
1293.0
 20
473.3726892898334
 30
0.0
 10
1293.0
 20
473.362663241341
 30
0.0
 10
1293.0
 20
473.3526371928485
 30
0.0
  0
SPLINE
  5
12A
330
1F
100
AcDbEntity
  8
MAKE2D VISIBLE LINES
100
AcDbSpline
210
0.0
220
0.0
230
1.0
 70
    24
 71
     2
 72
     6
 73
     3
 74
     0
 42
0.0000000001
 43
0.0000000001
 40
0.0
 40
0.0
 40
0.0
 40
1.727730217965984
 40
1.727730217965984
 40
1.727730217965984
 10
1293.0
 20
473.3526371928485
 30
0.0
 10
1293.0
 20
472.4887720840503
 30
0.0
 10
1293.0
 20
471.6249069752521
 30
0.0
  0
SPLINE
  5
12B
330
1F
100
AcDbEntity
  8
MAKE2D VISIBLE LINES
100
AcDbSpline
210
0.0
220
0.0
230
1.0
 70
    24
 71
     2
 72
     6
 73
     3
 74
     0
 42
0.0000000001
 43
0.0000000001
 40
0.0
 40
0.0
 40
0.0
 40
0.2504824023548053
 40
0.2504824023548053
 40
0.2504824023548053
 10
1293.0
 20
471.6249069752521
 30
0.0
 10
1293.0
 20
471.4996657740741
 30
0.0
 10
1293.0
 20
471.374424572896
 30
0.0
  0
SPLINE
  5
12C
330
1F
100
AcDbEntity
  8
MAKE2D VISIBLE LINES
100
AcDbSpline
210
0.0
220
0.0
230
1.0
 70
    24
 71
     2
 72
     6
 73
     3
 74
     0
 42
0.0000000001
 43
0.0000000001
 40
0.0
 40
0.0
 40
0.0
 40
0.2382973794952363
 40
0.2382973794952363
 40
0.2382973794952363
 10
1293.0
 20
471.374424572896
 30
0.0
 10
1293.0
 20
471.2552758831933
 30
0.0
 10
1293.0
 20
471.1361271934906
 30
0.0
  0
SPLINE
  5
12D
330
1F
100
AcDbEntity
  8
MAKE2D VISIBLE LINES
100
AcDbSpline
210
0.0
220
0.0
230
1.0
 70
    24
 71
     2
 72
     6
 73
     3
 74
     0
 42
0.0000000001
 43
0.0000000001
 40
0.0
 40
0.0
 40
0.0
 40
0.9656254080118742
 40
0.9656254080118742
 40
0.9656254080118742
 10
1293.0
 20
471.1361271934906
 30
0.0
 10
1293.0
 20
470.6533144895112
 30
0.0
 10
1293.0
 20
470.1705017855318
 30
0.0
  0
SPLINE
  5
12E
330
1F
100
AcDbEntity
  8
MAKE2D VISIBLE LINES
100
AcDbSpline
210
0.0
220
0.0
230
1.0
 70
    24
 71
     2
 72
     6
 73
     3
 74
     0
 42
0.0000000001
 43
0.0000000001
 40
0.0
 40
0.0
 40
0.0
 40
0.0113918920905576
 40
0.0113918920905576
 40
0.0113918920905576
 10
1293.0
 20
470.1705017855318
 30
0.0
 10
1293.0
 20
470.16480584105
 30
0.0
 10
1293.0
 20
470.1591098965682
 30
0.0
  0
SPLINE
  5
12F
330
1F
100
AcDbEntity
  8
MAKE2D VISIBLE LINES
100
AcDbSpline
210
0.0
220
0.0
230
1.0
 70
    24
 71
     2
 72
     6
 73
     3
 74
     0
 42
0.0000000001
 43
0.0000000001
 40
0.0
 40
0.0
 40
0.0
 40
0.1516671189872341
 40
0.1516671189872341
 40
0.1516671189872341
 10
1293.0
 20
470.1591098965682
 30
0.0
 10
1293.0
 20
470.0832763386917
 30
0.0
 10
1293.0
 20
470.0074427808153
 30
0.0
  0
SPLINE
  5
130
330
1F
100
AcDbEntity
  8
MAKE2D VISIBLE LINES
100
AcDbSpline
210
0.0
220
0.0
230
1.0
 70
    24
 71
     2
 72
     6
 73
     3
 74
     0
 42
0.0000000001
 43
0.0000000001
 40
0.0
 40
0.0
 40
0.0
 40
0.0339162961200827
 40
0.0339162961200827
 40
0.0339162961200827
 10
1293.0
 20
470.0074427808153
 30
0.0
 10
1293.0
 20
469.990484632822
 30
0.0
 10
1293.0
 20
469.9735264848287
 30
0.0
  0
SPLINE
  5
131
330
1F
100
AcDbEntity
  8
MAKE2D VISIBLE LINES
100
AcDbSpline
210
0.0
220
0.0
230
1.0
 70
    24
 71
     2
 72
     6
 73
     3
 74
     0
 42
0.0000000001
 43
0.0000000001
 40
0.0
 40
0.0
 40
0.0
 40
0.3281491577894826
 40
0.3281491577894826
 40
0.3281491577894826
 10
1293.0
 20
469.9735264848287
 30
0.0
 10
1293.0
 20
469.8094519060165
 30
0.0
 10
1293.0
 20
469.6453773272044
 30
0.0
  0
SPLINE
  5
132
330
1F
100
AcDbEntity
  8
MAKE2D VISIBLE LINES
100
AcDbSpline
210
0.0
220
0.0
230
1.0
 70
    24
 71
     2
 72
     6
 73
     3
 74
     0
 42
0.0000000001
 43
0.0000000001
 40
0.0
 40
0.0
 40
0.0
 40
0.2343179113653377
 40
0.2343179113653377
 40
0.2343179113653377
 10
1293.0
 20
469.6453773272044
 30
0.0
 10
1293.0
 20
469.5282183706726
 30
0.0
 10
1293.0
 20
469.4110594141408
 30
0.0
  0
SPLINE
  5
133
330
1F
100
AcDbEntity
  8
MAKE2D VISIBLE LINES
100
AcDbSpline
210
0.0
220
0.0
230
1.0
 70
    24
 71
     2
 72
     6
 73
     3
 74
     0
 42
0.0000000001
 43
0.0000000001
 40
0.0
 40
0.0
 40
0.0
 40
0.0386386444446885
 40
0.0386386444446885
 40
0.0386386444446885
 10
1293.0
 20
469.4110594141408
 30
0.0
 10
1293.0
 20
469.3917400909087
 30
0.0
 10
1293.0
 20
469.3724207676765
 30
0.0
  0
SPLINE
  5
134
330
1F
100
AcDbEntity
  8
MAKE2D VISIBLE LINES
100
AcDbSpline
210
0.0
220
0.0
230
1.0
 70
    24
 71
     2
 72
     6
 73
     3
 74
     0
 42
0.0000000001
 43
0.0000000001
 40
0.0
 40
0.0
 40
0.0
 40
0.0436256527833621
 40
0.0436256527833621
 40
0.0436256527833621
 10
1293.0
 20
469.3724207676765
 30
0.0
 10
1293.0
 20
469.3506079411754
 30
0.0
 10
1293.0
 20
469.3287951146744
 30
0.0
  0
SPLINE
  5
135
330
1F
100
AcDbEntity
  8
MAKE2D VISIBLE LINES
100
AcDbSpline
210
0.0
220
0.0
230
1.0
 70
    24
 71
     2
 72
     6
 73
     3
 74
     0
 42
0.0000000001
 43
0.0000000001
 40
0.0
 40
0.0
 40
0.0
 40
0.0517916701530226
 40
0.0517916701530226
 40
0.0517916701530226
 10
1293.0
 20
469.1520769437696
 30
0.0
 10
1293.0
 20
469.1261811086987
 30
0.0
 10
1293.0
 20
469.1002852736278
 30
0.0
  0
SPLINE
  5
136
330
1F
100
AcDbEntity
  8
MAKE2D VISIBLE LINES
100
AcDbSpline
210
0.0
220
0.0
230
1.0
 70
    24
 71
     2
 72
     6
 73
     3
 74
     0
 42
0.0000000001
 43
0.0000000001
 40
0.0
 40
0.0
 40
0.0
 40
0.0440461292807868
 40
0.0440461292807868
 40
0.0440461292807868
 10
1293.0
 20
469.1002852736278
 30
0.0
 10
1293.0
 20
469.0782622089931
 30
0.0
 10
1293.0
 20
469.0562391443583
 30
0.0
  0
SPLINE
  5
137
330
1F
100
AcDbEntity
  8
MAKE2D VISIBLE LINES
100
AcDbSpline
210
0.0
220
0.0
230
1.0
 70
    24
 71
     2
 72
     6
 73
     3
 74
     0
 42
0.0000000001
 43
0.0000000001
 40
0.0
 40
0.0
 40
0.0
 40
0.1610311128426929
 40
0.1610311128426929
 40
0.1610311128426929
 10
1113.0
 20
469.2279449377094
 30
0.0
 10
1113.0
 20
469.3084604941635
 30
0.0
 10
1113.0
 20
469.3889760506175
 30
0.0
  0
SPLINE
  5
138
330
1F
100
AcDbEntity
  8
MAKE2D VISIBLE LINES
100
AcDbSpline
210
0.0
220
0.0
230
1.0
 70
    24
 71
     2
 72
     6
 73
     3
 74
     0
 42
0.0000000001
 43
0.0000000001
 40
-0.0220833616569962
 40
-0.0220833616569962
 40
-0.0220833616569962
 40
0.0
 40
0.0
 40
0.0
 10
1113.0
 20
469.3889760506175
 30
0.0
 10
1113.0
 20
469.4000177325006
 30
0.0
 10
1113.0
 20
469.4110594143837
 30
0.0
  0
SPLINE
  5
139
330
1F
100
AcDbEntity
  8
MAKE2D VISIBLE LINES
100
AcDbSpline
210
0.0
220
0.0
230
1.0
 70
    24
 71
     2
 72
     6
 73
     3
 74
     0
 42
0.0000000001
 43
0.0000000001
 40
0.0
 40
0.0
 40
0.0
 40
0.1524486634236837
 40
0.1524486634236837
 40
0.1524486634236837
 10
1113.0
 20
469.4110594143837
 30
0.0
 10
1113.0
 20
469.4872837469262
 30
0.0
 10
1113.0
 20
469.5635080794688
 30
0.0
  0
SPLINE
  5
13A
330
1F
100
AcDbEntity
  8
MAKE2D VISIBLE LINES
100
AcDbSpline
210
0.0
220
0.0
230
1.0
 70
    24
 71
     2
 72
     6
 73
     3
 74
     0
 42
0.0000000001
 43
0.0000000001
 40
-0.0818692480154937
 40
-0.0818692480154937
 40
-0.0818692480154937
 40
0.0
 40
0.0
 40
0.0
 10
1113.0
 20
469.5635080794688
 30
0.0
 10
1113.0
 20
469.6044427032914
 30
0.0
 10
1113.0
 20
469.645377327114
 30
0.0
  0
SPLINE
  5
13B
330
1F
100
AcDbEntity
  8
MAKE2D VISIBLE LINES
100
AcDbSpline
210
0.0
220
0.0
230
1.0
 70
    24
 71
     2
 72
     6
 73
     3
 74
     0
 42
0.0000000001
 43
0.0000000001
 40
0.0
 40
0.0
 40
0.0
 40
0.0678577580287083
 40
0.0678577580287083
 40
0.0678577580287083
 10
1113.0
 20
469.645377327114
 30
0.0
 10
1113.0
 20
469.6793062059157
 30
0.0
 10
1113.0
 20
469.7132350847173
 30
0.0
  0
SPLINE
  5
13C
330
1F
100
AcDbEntity
  8
MAKE2D VISIBLE LINES
100
AcDbSpline
210
0.0
220
0.0
230
1.0
 70
    24
 71
     2
 72
     6
 73
     3
 74
     0
 42
0.0000000001
 43
0.0000000001
 40
-0.0707108569378647
 40
-0.0707108569378647
 40
-0.0707108569378647
 40
0.0
 40
0.0
 40
0.0
 10
1113.0
 20
469.7132350847173
 30
0.0
 10
1113.0
 20
469.748590513021
 30
0.0
 10
1113.0
 20
469.7839459413247
 30
0.0
  0
SPLINE
  5
13D
330
1F
100
AcDbEntity
  8
MAKE2D VISIBLE LINES
100
AcDbSpline
210
0.0
220
0.0
230
1.0
 70
    24
 71
     2
 72
     6
 73
     3
 74
     0
 42
0.0000000001
 43
0.0000000001
 40
0.0
 40
0.0
 40
0.0
 40
0.0706619108672157
 40
0.0706619108672157
 40
0.0706619108672157
 10
1113.0
 20
469.7839459413247
 30
0.0
 10
1113.0
 20
469.8192768968415
 30
0.0
 10
1113.0
 20
469.8546078523584
 30
0.0
  0
SPLINE
  5
13E
330
1F
100
AcDbEntity
  8
MAKE2D VISIBLE LINES
100
AcDbSpline
210
0.0
220
0.0
230
1.0
 70
    24
 71
     2
 72
     6
 73
     3
 74
     0
 42
0.0000000001
 43
0.0000000001
 40
-1.77029912283291
 40
-1.77029912283291
 40
-1.77029912283291
 40
0.0
 40
0.0
 40
0.0
 10
1113.0
 20
469.8546078523584
 30
0.0
 10
1113.0
 20
470.7397574139658
 30
0.0
 10
1113.0
 20
471.6249069755733
 30
0.0
  0
SPLINE
  5
13F
330
1F
100
AcDbEntity
  8
MAKE2D VISIBLE LINES
100
AcDbSpline
210
0.0
220
0.0
230
1.0
 70
    24
 71
     2
 72
     6
 73
     3
 74
     0
 42
0.0000000001
 43
0.0000000001
 40
0.0
 40
0.0
 40
0.0
 40
0.0435559227297517
 40
0.0435559227297517
 40
0.0435559227297517
 10
1113.0
 20
471.6249069755733
 30
0.0
 10
1113.0
 20
471.6466849371004
 30
0.0
 10
1113.0
 20
471.6684628986275
 30
0.0
  0
SPLINE
  5
140
330
1F
100
AcDbEntity
  8
MAKE2D VISIBLE LINES
100
AcDbSpline
210
0.0
220
0.0
230
1.0
 70
    24
 71
     2
 72
     6
 73
     3
 74
     0
 42
0.0000000001
 43
0.0000000001
 40
-0.2189151165978274
 40
-0.2189151165978274
 40
-0.2189151165978274
 40
0.0
 40
0.0
 40
0.0
 10
1113.0
 20
471.6684628986275
 30
0.0
 10
1113.0
 20
471.7779204569283
 30
0.0
 10
1113.0
 20
471.8873780152292
 30
0.0
  0
SPLINE
  5
141
330
1F
100
AcDbEntity
  8
MAKE2D VISIBLE LINES
100
AcDbSpline
210
0.0
220
0.0
230
1.0
 70
    24
 71
     2
 72
     6
 73
     3
 74
     0
 42
0.0000000001
 43
0.0000000001
 40
0.0
 40
0.0
 40
0.0
 40
0.1199459924847019
 40
0.1199459924847019
 40
0.1199459924847019
 10
1113.0
 20
471.8873780152292
 30
0.0
 10
1113.0
 20
471.947351011473
 30
0.0
 10
1113.0
 20
472.0073240077169
 30
0.0
  0
SPLINE
  5
142
330
1F
100
AcDbEntity
  8
MAKE2D VISIBLE LINES
100
AcDbSpline
210
0.0
220
0.0
230
1.0
 70
    24
 71
     2
 72
     6
 73
     3
 74
     0
 42
0.0000000001
 43
0.0000000001
 40
-0.1543172996903195
 40
-0.1543172996903195
 40
-0.1543172996903195
 40
0.0
 40
0.0
 40
0.0
 10
1113.0
 20
472.0073240077169
 30
0.0
 10
1113.0
 20
472.084482657566
 30
0.0
 10
1113.0
 20
472.161641307415
 30
0.0
  0
SPLINE
  5
143
330
1F
100
AcDbEntity
  8
MAKE2D VISIBLE LINES
100
AcDbSpline
210
0.0
220
0.0
230
1.0
 70
    24
 71
     2
 72
     6
 73
     3
 74
     0
 42
0.0000000001
 43
0.0000000001
 40
0.0
 40
0.0
 40
0.0
 40
0.9517386011142435
 40
0.9517386011142435
 40
0.9517386011142435
 10
1113.0
 20
472.161641307415
 30
0.0
 10
1113.0
 20
472.6375106079757
 30
0.0
 10
1113.0
 20
473.1133799085363
 30
0.0
  0
SPLINE
  5
144
330
1F
100
AcDbEntity
  8
MAKE2D VISIBLE LINES
100
AcDbSpline
210
0.0
220
0.0
230
1.0
 70
    24
 71
     2
 72
     6
 73
     3
 74
     0
 42
0.0000000001
 43
0.0000000001
 40
-0.2593093812955658
 40
-0.2593093812955658
 40
-0.2593093812955658
 40
0.0
 40
0.0
 40
0.0
 10
1113.0
 20
473.1133799085363
 30
0.0
 10
1113.0
 20
473.2430345991845
 30
0.0
 10
1113.0
 20
473.3726892898327
 30
0.0
  0
SPLINE
  5
145
330
1F
100
AcDbEntity
  8
MAKE2D VISIBLE LINES
100
AcDbSpline
210
0.0
220
0.0
230
1.0
 70
    24
 71
     2
 72
     6
 73
     3
 74
     0
 42
0.0000000001
 43
0.0000000001
 40
0.0
 40
0.0
 40
0.0
 40
0.1276283360419939
 40
0.1276283360419939
 40
0.1276283360419939
 10
1113.0
 20
473.3726892898327
 30
0.0
 10
1113.0
 20
473.436503457854
 30
0.0
 10
1113.0
 20
473.5003176258753
 30
0.0
  0
SPLINE
  5
146
330
1F
100
AcDbEntity
  8
MAKE2D VISIBLE LINES
100
AcDbSpline
210
0.0
220
0.0
230
1.0
 70
    24
 71
     2
 72
     6
 73
     3
 74
     0
 42
0.0000000001
 43
0.0000000001
 40
-0.202650435901262
 40
-0.202650435901262
 40
-0.202650435901262
 40
0.0
 40
0.0
 40
0.0
 10
1113.0
 20
473.5003176258753
 30
0.0
 10
1113.0
 20
473.6016428438264
 30
0.0
 10
1113.0
 20
473.7029680617776
 30
0.0
  0
SPLINE
  5
147
330
1F
100
AcDbEntity
  8
MAKE2D VISIBLE LINES
100
AcDbSpline
210
0.0
220
0.0
230
1.0
 70
    24
 71
     2
 72
     6
 73
     3
 74
     0
 42
0.0000000001
 43
0.0000000001
 40
0.0
 40
0.0
 40
0.0
 40
0.1999514259867965
 40
0.1999514259867965
 40
0.1999514259867965
 10
1113.0
 20
473.7029680617776
 30
0.0
 10
1113.0
 20
473.8029437747714
 30
0.0
 10
1113.0
 20
473.9029194877651
 30
0.0
  0
SPLINE
  5
148
330
1F
100
AcDbEntity
  8
MAKE2D VISIBLE LINES
100
AcDbSpline
210
0.0
220
0.0
230
1.0
 70
    24
 71
     2
 72
     6
 73
     3
 74
     0
 42
0.0000000001
 43
0.0000000001
 40
-0.1409412856568792
 40
-0.1409412856568792
 40
-0.1409412856568792
 40
0.0
 40
0.0
 40
0.0
 10
1113.0
 20
473.9029194877651
 30
0.0
 10
1113.0
 20
473.9733901305941
 30
0.0
 10
1113.0
 20
474.0438607734231
 30
0.0
  0
SPLINE
  5
149
330
1F
100
AcDbEntity
  8
MAKE2D VISIBLE LINES
100
AcDbSpline
210
0.0
220
0.0
230
1.0
 70
    24
 71
     2
 72
     6
 73
     3
 74
     0
 42
0.0000000001
 43
0.0000000001
 40
0.0
 40
0.0
 40
0.0
 40
0.2768921651274923
 40
0.2768921651274923
 40
0.2768921651274923
 10
1113.0
 20
474.0438607734231
 30
0.0
 10
1113.0
 20
474.1823068516788
 30
0.0
 10
1113.0
 20
474.3207529299345
 30
0.0
  0
SPLINE
  5
14A
330
1F
100
AcDbEntity
  8
MAKE2D VISIBLE LINES
100
AcDbSpline
210
0.0
220
0.0
230
1.0
 70
    24
 71
     2
 72
     6
 73
     3
 74
     0
 42
0.0000000001
 43
0.0000000001
 40
-0.8075057710722149
 40
-0.8075057710722149
 40
-0.8075057710722149
 40
0.0
 40
0.0
 40
0.0
 10
1113.0
 20
474.3207529299345
 30
0.0
 10
1113.0
 20
474.7245058080044
 30
0.0
 10
1113.0
 20
475.1282586860744
 30
0.0
  0
SPLINE
  5
14B
330
1F
100
AcDbEntity
  8
MAKE2D VISIBLE LINES
100
AcDbSpline
210
0.0
220
0.0
230
1.0
 70
    24
 71
     2
 72
     6
 73
     3
 74
     0
 42
0.0000000001
 43
0.0000000001
 40
0.0
 40
0.0
 40
0.0
 40
0.0721257044347112
 40
0.0721257044347112
 40
0.0721257044347112
 10
1113.0
 20
475.1282586860744
 30
0.0
 10
1113.0
 20
475.1643215351343
 30
0.0
 10
1113.0
 20
475.2003843841941
 30
0.0
  0
SPLINE
  5
14C
330
1F
100
AcDbEntity
  8
MAKE2D VISIBLE LINES
100
AcDbSpline
210
0.0
220
0.0
230
1.0
 70
    24
 71
     2
 72
     6
 73
     3
 74
     0
 42
0.0000000001
 43
0.0000000001
 40
-0.3092589244708961
 40
-0.3092589244708961
 40
-0.3092589244708961
 40
0.0
 40
0.0
 40
0.0
 10
1113.0
 20
475.2003843841941
 30
0.0
 10
1113.0
 20
475.3550138464296
 30
0.0
 10
1113.0
 20
475.5096433086651
 30
0.0
  0
SPLINE
  5
14D
330
1F
100
AcDbEntity
  8
MAKE2D VISIBLE LINES
100
AcDbSpline
210
0.0
220
0.0
230
1.0
 70
    24
 71
     2
 72
     6
 73
     3
 74
     0
 42
0.0000000001
 43
0.0000000001
 40
0.0
 40
0.0
 40
0.0
 40
0.1516739590750262
 40
0.1516739590750262
 40
0.1516739590750262
 10
1113.0
 20
475.5096433086651
 30
0.0
 10
1113.0
 20
475.5854802882027
 30
0.0
 10
1113.0
 20
475.6613172677403
 30
0.0
  0
SPLINE
  5
14E
330
1F
100
AcDbEntity
  8
MAKE2D VISIBLE LINES
100
AcDbSpline
210
0.0
220
0.0
230
1.0
 70
    24
 71
     2
 72
     6
 73
     3
 74
     0
 42
0.0000000001
 43
0.0000000001
 40
-0.2393426698160397
 40
-0.2393426698160397
 40
-0.2393426698160397
 40
0.0
 40
0.0
 40
0.0
 10
1113.0
 20
475.6613172677403
 30
0.0
 10
1113.0
 20
475.7809886026481
 30
0.0
 10
1113.0
 20
475.9006599375558
 30
0.0
  0
SPLINE
  5
14F
330
1F
100
AcDbEntity
  8
MAKE2D VISIBLE LINES
100
AcDbSpline
210
0.0
220
0.0
230
1.0
 70
    24
 71
     2
 72
     6
 73
     3
 74
     0
 42
0.0000000001
 43
0.0000000001
 40
0.0
 40
0.0
 40
0.0
 40
0.2350915800080884
 40
0.2350915800080884
 40
0.2350915800080884
 10
1113.0
 20
475.9006599375558
 30
0.0
 10
1113.0
 20
476.0182057275596
 30
0.0
 10
1113.0
 20
476.1357515175633
 30
0.0
  0
SPLINE
  5
150
330
1F
100
AcDbEntity
  8
MAKE2D VISIBLE LINES
100
AcDbSpline
210
0.0
220
0.0
230
1.0
 70
    24
 71
     2
 72
     6
 73
     3
 74
     0
 42
0.0000000001
 43
0.0000000001
 40
-1.41171281328144
 40
-1.41171281328144
 40
-1.41171281328144
 40
0.0
 40
0.0
 40
0.0
 10
1113.0
 20
476.1357515175633
 30
0.0
 10
1113.0
 20
476.8416079224172
 30
0.0
 10
1113.0
 20
477.547464327271
 30
0.0
  0
SPLINE
  5
151
330
1F
100
AcDbEntity
  8
MAKE2D VISIBLE LINES
100
AcDbSpline
210
0.0
220
0.0
230
1.0
 70
    24
 71
     2
 72
     6
 73
     3
 74
     0
 42
0.0000000001
 43
0.0000000001
 40
0.0
 40
0.0
 40
0.0
 40
0.0882725844479637
 40
0.0882725844479637
 40
0.0882725844479637
 10
1113.0
 20
477.547464327271
 30
0.0
 10
1113.0
 20
477.5916006177081
 30
0.0
 10
1113.0
 20
477.6357369081451
 30
0.0
  0
SPLINE
  5
152
330
1F
100
AcDbEntity
  8
MAKE2D VISIBLE LINES
100
AcDbSpline
210
0.0
220
0.0
230
1.0
 70
    24
 71
     2
 72
     6
 73
     3
 74
     0
 42
0.0000000001
 43
0.0000000001
 40
-0.344674561127249
 40
-0.344674561127249
 40
-0.344674561127249
 40
0.0
 40
0.0
 40
0.0
 10
1113.0
 20
477.6357369081451
 30
0.0
 10
1113.0
 20
477.8080741946106
 30
0.0
 10
1113.0
 20
477.9804114810761
 30
0.0
  0
SPLINE
  5
153
330
1F
100
AcDbEntity
  8
MAKE2D VISIBLE LINES
100
AcDbSpline
210
0.0
220
0.0
230
1.0
 70
    24
 71
     2
 72
     6
 73
     3
 74
     0
 42
0.0000000001
 43
0.0000000001
 40
0.0
 40
0.0
 40
0.0
 40
2.643847055034996
 40
2.643847055034996
 40
2.643847055034996
 10
1113.0
 20
477.9804114810761
 30
0.0
 10
1113.0
 20
479.3023350129437
 30
0.0
 10
1113.0
 20
480.6242585448113
 30
0.0
  0
SPLINE
  5
154
330
1F
100
AcDbEntity
  8
MAKE2D VISIBLE LINES
100
AcDbSpline
210
0.0
220
0.0
230
1.0
 70
    24
 71
     2
 72
     6
 73
     3
 74
     0
 42
0.0000000001
 43
0.0000000001
 40
-0.1106872700336226
 40
-0.1106872700336226
 40
-0.1106872700336226
 40
0.0
 40
0.0
 40
0.0
 10
1113.0
 20
480.6242585448113
 30
0.0
 10
1113.0
 20
480.6796021703627
 30
0.0
 10
1113.0
 20
480.7349457959141
 30
0.0
  0
SPLINE
  5
155
330
1F
100
AcDbEntity
  8
MAKE2D VISIBLE LINES
100
AcDbSpline
210
0.0
220
0.0
230
1.0
 70
    24
 71
     2
 72
     6
 73
     3
 74
     0
 42
0.0000000001
 43
0.0000000001
 40
0.0
 40
0.0
 40
0.0
 40
0.2451844370143021
 40
0.2451844370143021
 40
0.2451844370143021
 10
1113.0
 20
480.7349457959141
 30
0.0
 10
1113.0
 20
480.8575380024661
 30
0.0
 10
1113.0
 20
480.9801302090182
 30
0.0
  0
SPLINE
  5
156
330
1F
100
AcDbEntity
  8
MAKE2D VISIBLE LINES
100
AcDbSpline
210
0.0
220
0.0
230
1.0
 70
    24
 71
     2
 72
     6
 73
     3
 74
     0
 42
0.0000000001
 43
0.0000000001
 40
-0.237426559264577
 40
-0.237426559264577
 40
-0.237426559264577
 40
0.0
 40
0.0
 40
0.0
 10
1113.0
 20
480.9801302090182
 30
0.0
 10
1113.0
 20
481.0988434877041
 30
0.0
 10
1113.0
 20
481.2175567663901
 30
0.0
  0
SPLINE
  5
157
330
1F
100
AcDbEntity
  8
MAKE2D VISIBLE LINES
100
AcDbSpline
210
0.0
220
0.0
230
1.0
 70
    24
 71
     2
 72
     6
 73
     3
 74
     0
 42
0.0000000001
 43
0.0000000001
 40
0.0
 40
0.0
 40
0.0
 40
0.3875717067615483
 40
0.3875717067615483
 40
0.3875717067615483
 10
1113.0
 20
481.2175567663901
 30
0.0
 10
1113.0
 20
481.4113426224829
 30
0.0
 10
1113.0
 20
481.6051284785757
 30
0.0
  0
SPLINE
  5
158
330
1F
100
AcDbEntity
  8
MAKE2D VISIBLE LINES
100
AcDbSpline
210
0.0
220
0.0
230
1.0
 70
    24
 71
     2
 72
     6
 73
     3
 74
     0
 42
0.0000000001
 43
0.0000000001
 40
-0.5952853456227558
 40
-0.5952853456227558
 40
-0.5952853456227558
 40
0.0
 40
0.0
 40
0.0
 10
1113.0
 20
481.6051284785757
 30
0.0
 10
1113.0
 20
481.9027711509769
 30
0.0
 10
1113.0
 20
482.2004138233781
 30
0.0
  0
SPLINE
  5
159
330
1F
100
AcDbEntity
  8
MAKE2D VISIBLE LINES
100
AcDbSpline
210
0.0
220
0.0
230
1.0
 70
    24
 71
     2
 72
     6
 73
     3
 74
     0
 42
0.0000000001
 43
0.0000000001
 40
0.0
 40
0.0
 40
0.0
 40
0.1824363916305742
 40
0.1824363916305742
 40
0.1824363916305742
 10
1113.0
 20
482.2004138233781
 30
0.0
 10
1113.0
 20
482.2916320074445
 30
0.0
 10
1113.0
 20
482.3828501915109
 30
0.0
  0
SPLINE
  5
15A
330
1F
100
AcDbEntity
  8
MAKE2D VISIBLE LINES
100
AcDbSpline
210
0.0
220
0.0
230
1.0
 70
    24
 71
     2
 72
     6
 73
     3
 74
     0
 42
0.0000000001
 43
0.0000000001
 40
-0.3172483357237752
 40
-0.3172483357237752
 40
-0.3172483357237752
 40
0.0
 40
0.0
 40
0.0
 10
1113.0
 20
482.3828501915109
 30
0.0
 10
1113.0
 20
482.5414743460447
 30
0.0
 10
1113.0
 20
482.7000985005785
 30
0.0
  0
SPLINE
  5
15B
330
1F
100
AcDbEntity
  8
MAKE2D VISIBLE LINES
100
AcDbSpline
210
0.0
220
0.0
230
1.0
 70
    24
 71
     2
 72
     6
 73
     3
 74
     0
 42
0.0000000001
 43
0.0000000001
 40
0.0
 40
0.0
 40
0.0
 40
0.18301455658127
 40
0.18301455658127
 40
0.18301455658127
 10
1113.0
 20
482.7000985005785
 30
0.0
 10
1113.0
 20
482.7916057740758
 30
0.0
 10
1113.0
 20
482.8831130475731
 30
0.0
  0
SPLINE
  5
15C
330
1F
100
AcDbEntity
  8
MAKE2D VISIBLE LINES
100
AcDbSpline
210
0.0
220
0.0
230
1.0
 70
    24
 71
     2
 72
     6
 73
     3
 74
     0
 42
0.0000000001
 43
0.0000000001
 40
-5.168178364809023
 40
-5.168178364809023
 40
-5.168178364809023
 40
0.0
 40
0.0
 40
0.0
 10
1113.0
 20
482.8831130475731
 30
0.0
 10
1113.0
 20
485.467202226709
 30
0.0
 10
1113.0
 20
488.0512914058449
 30
0.0
  0
SPLINE
  5
15D
330
1F
100
AcDbEntity
  8
MAKE2D VISIBLE LINES
100
AcDbSpline
210
0.0
220
0.0
230
1.0
 70
    24
 71
     2
 72
     6
 73
     3
 74
     0
 42
0.0000000001
 43
0.0000000001
 40
0.0
 40
0.0
 40
0.0
 40
0.2171948990724104
 40
0.2171948990724104
 40
0.2171948990724104
 10
1113.0
 20
488.0512914058449
 30
0.0
 10
1113.0
 20
488.1598888552392
 30
0.0
 10
1113.0
 20
488.2684863046334
 30
0.0
  0
SPLINE
  5
15E
330
1F
100
AcDbEntity
  8
MAKE2D VISIBLE LINES
100
AcDbSpline
210
0.0
220
0.0
230
1.0
 70
    24
 71
     2
 72
     6
 73
     3
 74
     0
 42
0.0000000001
 43
0.0000000001
 40
-0.2801799757260142
 40
-0.2801799757260142
 40
-0.2801799757260142
 40
0.0
 40
0.0
 40
0.0
 10
1113.0
 20
488.2684863046334
 30
0.0
 10
1113.0
 20
488.4085762922624
 30
0.0
 10
1113.0
 20
488.5486662798914
 30
0.0
  0
SPLINE
  5
15F
330
1F
100
AcDbEntity
  8
MAKE2D VISIBLE LINES
100
AcDbSpline
210
0.0
220
0.0
230
1.0
 70
    24
 71
     2
 72
     6
 73
     3
 74
     0
 42
0.0000000001
 43
0.0000000001
 40
0.0
 40
0.0
 40
0.0
 40
0.4986526405971858
 40
0.4986526405971858
 40
0.4986526405971858
 10
1113.0
 20
488.5486662798914
 30
0.0
 10
1113.0
 20
488.7979926000927
 30
0.0
 10
1113.0
 20
489.0473189202941
 30
0.0
  0
SPLINE
  5
160
330
1F
100
AcDbEntity
  8
MAKE2D VISIBLE LINES
100
AcDbSpline
210
0.0
220
0.0
230
1.0
 70
    24
 71
     2
 72
     6
 73
     3
 74
     0
 42
0.0000000001
 43
0.0000000001
 40
-0.4996708916348211
 40
-0.4996708916348211
 40
-0.4996708916348211
 40
0.0
 40
0.0
 40
0.0
 10
1113.0
 20
489.0473189202941
 30
0.0
 10
1113.0
 20
489.2971543593459
 30
0.0
 10
1113.0
 20
489.5469897983976
 30
0.0
  0
SPLINE
  5
161
330
1F
100
AcDbEntity
  8
MAKE2D VISIBLE LINES
100
AcDbSpline
210
0.0
220
0.0
230
1.0
 70
    24
 71
     2
 72
     6
 73
     3
 74
     0
 42
0.0000000001
 43
0.0000000001
 40
0.0
 40
0.0
 40
0.0
 40
0.1089970119484178
 40
0.1089970119484178
 40
0.1089970119484178
 10
1113.0
 20
489.5469897983976
 30
0.0
 10
1113.0
 20
489.6014883017259
 30
0.0
 10
1113.0
 20
489.6559868050541
 30
0.0
  0
SPLINE
  5
162
330
1F
100
AcDbEntity
  8
MAKE2D VISIBLE LINES
100
AcDbSpline
210
0.0
220
0.0
230
1.0
 70
    24
 71
     2
 72
     6
 73
     3
 74
     0
 42
0.0000000001
 43
0.0000000001
 40
-0.391432627145889
 40
-0.391432627145889
 40
-0.391432627145889
 40
0.0
 40
0.0
 40
0.0
 10
1113.0
 20
489.6559868050541
 30
0.0
 10
1113.0
 20
489.8517031292831
 30
0.0
 10
1113.0
 20
490.047419453512
 30
0.0
  0
SPLINE
  5
163
330
1F
100
AcDbEntity
  8
MAKE2D VISIBLE LINES
100
AcDbSpline
210
0.0
220
0.0
230
1.0
 70
    24
 71
     2
 72
     6
 73
     3
 74
     0
 42
0.0000000001
 43
0.0000000001
 40
0.0
 40
0.0
 40
0.0
 40
2.004020318049868
 40
2.004020318049868
 40
2.004020318049868
 10
1113.0
 20
490.047419453512
 30
0.0
 10
1113.0
 20
491.0494296185209
 30
0.0
 10
1113.0
 20
492.0514397835297
 30
0.0
  0
SPLINE
  5
164
330
1F
100
AcDbEntity
  8
MAKE2D VISIBLE LINES
100
AcDbSpline
210
0.0
220
0.0
230
1.0
 70
    24
 71
     2
 72
     6
 73
     3
 74
     0
 42
0.0000000001
 43
0.0000000001
 40
-0.3048243001838955
 40
-0.3048243001838955
 40
-0.3048243001838955
 40
0.0
 40
0.0
 40
0.0
 10
1113.0
 20
492.0514397835297
 30
0.0
 10
1113.0
 20
492.2038519247116
 30
0.0
 10
1113.0
 20
492.3562640658935
 30
0.0
  0
SPLINE
  5
165
330
1F
100
AcDbEntity
  8
MAKE2D VISIBLE LINES
100
AcDbSpline
210
0.0
220
0.0
230
1.0
 70
    24
 71
     2
 72
     6
 73
     3
 74
     0
 42
0.0000000001
 43
0.0000000001
 40
0.0
 40
0.0
 40
0.0
 40
0.4008633962279191
 40
0.4008633962279191
 40
0.4008633962279191
 10
1113.0
 20
492.3562640658935
 30
0.0
 10
1113.0
 20
492.5566957555334
 30
0.0
 10
1113.0
 20
492.7571274451734
 30
0.0
  0
SPLINE
  5
166
330
1F
100
AcDbEntity
  8
MAKE2D VISIBLE LINES
100
AcDbSpline
210
0.0
220
0.0
230
1.0
 70
    24
 71
     2
 72
     6
 73
     3
 74
     0
 42
0.0000000001
 43
0.0000000001
 40
-0.2513525993812209
 40
-0.2513525993812209
 40
-0.2513525993812209
 40
0.0
 40
0.0
 40
0.0
 10
1113.0
 20
492.7571274451734
 30
0.0
 10
1113.0
 20
492.8828037448003
 30
0.0
 10
1113.0
 20
493.0084800444272
 30
0.0
  0
SPLINE
  5
167
330
1F
100
AcDbEntity
  8
MAKE2D VISIBLE LINES
100
AcDbSpline
210
0.0
220
0.0
230
1.0
 70
    24
 71
     2
 72
     6
 73
     3
 74
     0
 42
0.0000000001
 43
0.0000000001
 40
0.0
 40
0.0
 40
0.0
 40
0.3160191438234392
 40
0.3160191438234392
 40
0.3160191438234392
 10
1113.0
 20
493.0084800444272
 30
0.0
 10
1113.0
 20
493.1664896162462
 30
0.0
 10
1113.0
 20
493.3244991880653
 30
0.0
  0
SPLINE
  5
168
330
1F
100
AcDbEntity
  8
MAKE2D VISIBLE LINES
100
AcDbSpline
210
0.0
220
0.0
230
1.0
 70
    24
 71
     2
 72
     6
 73
     3
 74
     0
 42
0.0000000001
 43
0.0000000001
 40
-0.225754299463631
 40
-0.225754299463631
 40
-0.225754299463631
 40
0.0
 40
0.0
 40
0.0
 10
1113.0
 20
493.3244991880653
 30
0.0
 10
1113.0
 20
493.4373763378262
 30
0.0
 10
1113.0
 20
493.5502534875872
 30
0.0
  0
SPLINE
  5
169
330
1F
100
AcDbEntity
  8
MAKE2D VISIBLE LINES
100
AcDbSpline
210
0.0
220
0.0
230
1.0
 70
    24
 71
     2
 72
     6
 73
     3
 74
     0
 42
0.0000000001
 43
0.0000000001
 40
0.0
 40
0.0
 40
0.0
 40
0.3400813604077939
 40
0.3400813604077939
 40
0.3400813604077939
 10
1113.0
 20
493.5502534875872
 30
0.0
 10
1113.0
 20
493.7202941678183
 30
0.0
 10
1113.0
 20
493.8903348480495
 30
0.0
  0
SPLINE
  5
16A
330
1F
100
AcDbEntity
  8
MAKE2D VISIBLE LINES
100
AcDbSpline
210
0.0
220
0.0
230
1.0
 70
    24
 71
     2
 72
     6
 73
     3
 74
     0
 42
0.0000000001
 43
0.0000000001
 40
-0.2888265460622392
 40
-0.2888265460622392
 40
-0.2888265460622392
 40
0.0
 40
0.0
 40
0.0
 10
1113.0
 20
493.8903348480495
 30
0.0
 10
1113.0
 20
494.0347481215355
 30
0.0
 10
1113.0
 20
494.1791613950215
 30
0.0
  0
SPLINE
  5
16B
330
1F
100
AcDbEntity
  8
MAKE2D VISIBLE LINES
100
AcDbSpline
210
0.0
220
0.0
230
1.0
 70
    24
 71
     2
 72
     6
 73
     3
 74
     0
 42
0.0000000001
 43
0.0000000001
 40
0.0
 40
0.0
 40
0.0
 40
0.2751009160642752
 40
0.2751009160642752
 40
0.2751009160642752
 10
1113.0
 20
494.1791613950215
 30
0.0
 10
1113.0
 20
494.3167118535396
 30
0.0
 10
1113.0
 20
494.4542623120576
 30
0.0
  0
SPLINE
  5
16C
330
1F
100
AcDbEntity
  8
MAKE2D VISIBLE LINES
100
AcDbSpline
210
0.0
220
0.0
230
1.0
 70
    24
 71
     2
 72
     6
 73
     3
 74
     0
 42
0.0000000001
 43
0.0000000001
 40
-0.0892187444558203
 40
-0.0892187444558203
 40
-0.0892187444558203
 40
0.0
 40
0.0
 40
0.0
 10
1113.0
 20
494.4542623120576
 30
0.0
 10
1113.0
 20
494.498871684379
 30
0.0
 10
1113.0
 20
494.5434810567003
 30
0.0
  0
SPLINE
  5
16D
330
1F
100
AcDbEntity
  8
MAKE2D VISIBLE LINES
100
AcDbSpline
210
0.0
220
0.0
230
1.0
 70
    24
 71
     2
 72
     6
 73
     3
 74
     0
 42
0.0000000001
 43
0.0000000001
 40
0.0
 40
0.0
 40
0.0
 40
0.4724283961235756
 40
0.4724283961235756
 40
0.4724283961235756
 10
1113.0
 20
494.5434810567003
 30
0.0
 10
1113.0
 20
494.7796952583931
 30
0.0
 10
1113.0
 20
495.0159094600858
 30
0.0
  0
SPLINE
  5
16E
330
1F
100
AcDbEntity
  8
MAKE2D VISIBLE LINES
100
AcDbSpline
210
0.0
220
0.0
230
1.0
 70
    24
 71
     2
 72
     6
 73
     3
 74
     0
 42
0.0000000001
 43
0.0000000001
 40
-2.455787949712601
 40
-2.455787949712601
 40
-2.455787949712601
 40
0.0
 40
0.0
 40
0.0
 10
1113.0
 20
495.0159094600858
 30
0.0
 10
1113.0
 20
496.2438034385489
 30
0.0
 10
1113.0
 20
497.471697417012
 30
0.0
  0
SPLINE
  5
16F
330
1F
100
AcDbEntity
  8
MAKE2D VISIBLE LINES
100
AcDbSpline
210
0.0
220
0.0
230
1.0
 70
    24
 71
     2
 72
     6
 73
     3
 74
     0
 42
0.0000000001
 43
0.0000000001
 40
0.0
 40
0.0
 40
0.0
 40
0.3052192413546777
 40
0.3052192413546777
 40
0.3052192413546777
 10
1113.0
 20
497.471697417012
 30
0.0
 10
1113.0
 20
497.6243070359303
 30
0.0
 10
1113.0
 20
497.7769166548485
 30
0.0
  0
SPLINE
  5
170
330
1F
100
AcDbEntity
  8
MAKE2D VISIBLE LINES
100
AcDbSpline
210
0.0
220
0.0
230
1.0
 70
    24
 71
     2
 72
     6
 73
     3
 74
     0
 42
0.0000000001
 43
0.0000000001
 40
-0.2547979072568296
 40
-0.2547979072568296
 40
-0.2547979072568296
 40
0.0
 40
0.0
 40
0.0
 10
1113.0
 20
497.7769166548485
 30
0.0
 10
1113.0
 20
497.904315606532
 30
0.0
 10
1113.0
 20
498.0317145582155
 30
0.0
  0
SPLINE
  5
171
330
1F
100
AcDbEntity
  8
MAKE2D VISIBLE LINES
100
AcDbSpline
210
0.0
220
0.0
230
1.0
 70
    24
 71
     2
 72
     6
 73
     3
 74
     0
 42
0.0000000001
 43
0.0000000001
 40
0.0
 40
0.0
 40
0.0
 40
0.2853530245727711
 40
0.2853530245727711
 40
0.2853530245727711
 10
1113.0
 20
498.0317145582155
 30
0.0
 10
1113.0
 20
498.1743910693227
 30
0.0
 10
1113.0
 20
498.3170675804298
 30
0.0
  0
SPLINE
  5
172
330
1F
100
AcDbEntity
  8
MAKE2D VISIBLE LINES
100
AcDbSpline
210
0.0
220
0.0
230
1.0
 70
    24
 71
     2
 72
     6
 73
     3
 74
     0
 42
0.0000000001
 43
0.0000000001
 40
-0.2601717557673737
 40
-0.2601717557673737
 40
-0.2601717557673737
 40
0.0
 40
0.0
 40
0.0
 10
1113.0
 20
498.3170675804298
 30
0.0
 10
1113.0
 20
498.4471534571903
 30
0.0
 10
1113.0
 20
498.5772393339507
 30
0.0
  0
SPLINE
  5
173
330
1F
100
AcDbEntity
  8
MAKE2D VISIBLE LINES
100
AcDbSpline
210
0.0
220
0.0
230
1.0
 70
    24
 71
     2
 72
     6
 73
     3
 74
     0
 42
0.0000000001
 43
0.0000000001
 40
0.0
 40
0.0
 40
0.0
 40
0.2750940725184137
 40
0.2750940725184137
 40
0.2750940725184137
 10
1113.0
 20
498.5772393339507
 30
0.0
 10
1113.0
 20
498.7147863698258
 30
0.0
 10
1113.0
 20
498.8523334057009
 30
0.0
  0
SPLINE
  5
174
330
1F
100
AcDbEntity
  8
MAKE2D VISIBLE LINES
100
AcDbSpline
210
0.0
220
0.0
230
1.0
 70
    24
 71
     2
 72
     6
 73
     3
 74
     0
 42
0.0000000001
 43
0.0000000001
 40
-0.2672764016131168
 40
-0.2672764016131168
 40
-0.2672764016131168
 40
0.0
 40
0.0
 40
0.0
 10
1113.0
 20
498.8523334057009
 30
0.0
 10
1113.0
 20
498.9859716000037
 30
0.0
 10
1113.0
 20
499.1196097943065
 30
0.0
  0
SPLINE
  5
175
330
1F
100
AcDbEntity
  8
MAKE2D VISIBLE LINES
100
AcDbSpline
210
0.0
220
0.0
230
1.0
 70
    24
 71
     2
 72
     6
 73
     3
 74
     0
 42
0.0000000001
 43
0.0000000001
 40
0.0
 40
0.0
 40
0.0
 40
0.2627322363543954
 40
0.2627322363543954
 40
0.2627322363543954
 10
1113.0
 20
499.1196097943065
 30
0.0
 10
1113.0
 20
499.2509759063241
 30
0.0
 10
1113.0
 20
499.3823420183418
 30
0.0
  0
SPLINE
  5
176
330
1F
100
AcDbEntity
  8
MAKE2D VISIBLE LINES
100
AcDbSpline
210
0.0
220
0.0
230
1.0
 70
    24
 71
     2
 72
     6
 73
     3
 74
     0
 42
0.0000000001
 43
0.0000000001
 40
-0.3338414983335269
 40
-0.3338414983335269
 40
-0.3338414983335269
 40
0.0
 40
0.0
 40
0.0
 10
1113.0
 20
499.3823420183418
 30
0.0
 10
1113.0
 20
499.5492627752856
 30
0.0
 10
1113.0
 20
499.7161835322294
 30
0.0
  0
SPLINE
  5
177
330
1F
100
AcDbEntity
  8
MAKE2D VISIBLE LINES
100
AcDbSpline
210
0.0
220
0.0
230
1.0
 70
    24
 71
     2
 72
     6
 73
     3
 74
     0
 42
0.0000000001
 43
0.0000000001
 40
0.0
 40
0.0
 40
0.0
 40
0.676723369671322
 40
0.676723369671322
 40
0.676723369671322
 10
1113.0
 20
499.7161835322294
 30
0.0
 10
1113.0
 20
500.0545452347124
 30
0.0
 10
1113.0
 20
500.3929069371954
 30
0.0
  0
SPLINE
  5
178
330
1F
100
AcDbEntity
  8
MAKE2D VISIBLE LINES
100
AcDbSpline
210
0.0
220
0.0
230
1.0
 70
    24
 71
     2
 72
     6
 73
     3
 74
     0
 42
0.0000000001
 43
0.0000000001
 40
-0.1475542372792233
 40
-0.1475542372792233
 40
-0.1475542372792233
 40
0.0
 40
0.0
 40
0.0
 10
1113.0
 20
500.3929069371954
 30
0.0
 10
1113.0
 20
500.466684064788
 30
0.0
 10
1113.0
 20
500.5404611923805
 30
0.0
  0
SPLINE
  5
179
330
1F
100
AcDbEntity
  8
MAKE2D VISIBLE LINES
100
AcDbSpline
210
0.0
220
0.0
230
1.0
 70
    24
 71
     2
 72
     6
 73
     3
 74
     0
 42
0.0000000001
 43
0.0000000001
 40
0.0
 40
0.0
 40
0.0
 40
0.2985053375570601
 40
0.2985053375570601
 40
0.2985053375570601
 10
1113.0
 20
500.5404611923805
 30
0.0
 10
1113.0
 20
500.6897138737852
 30
0.0
 10
1113.0
 20
500.8389665551899
 30
0.0
  0
SPLINE
  5
17A
330
1F
100
AcDbEntity
  8
MAKE2D VISIBLE LINES
100
AcDbSpline
210
0.0
220
0.0
230
1.0
 70
    24
 71
     2
 72
     6
 73
     3
 74
     0
 42
0.0000000001
 43
0.0000000001
 40
-0.2701011429437017
 40
-0.2701011429437017
 40
-0.2701011429437017
 40
0.0
 40
0.0
 40
0.0
 10
1113.0
 20
500.8389665551899
 30
0.0
 10
1113.0
 20
500.9740171441112
 30
0.0
 10
1113.0
 20
501.1090677330325
 30
0.0
  0
SPLINE
  5
17B
330
1F
100
AcDbEntity
  8
MAKE2D VISIBLE LINES
100
AcDbSpline
210
0.0
220
0.0
230
1.0
 70
    24
 71
     2
 72
     6
 73
     3
 74
     0
 42
0.0000000001
 43
0.0000000001
 40
0.0
 40
0.0
 40
0.0
 40
0.7487749809653224
 40
0.7487749809653224
 40
0.7487749809653224
 10
1113.0
 20
501.1090677330325
 30
0.0
 10
1113.0
 20
501.48345522599
 30
0.0
 10
1113.0
 20
501.8578427189476
 30
0.0
  0
SPLINE
  5
17C
330
1F
100
AcDbEntity
  8
MAKE2D VISIBLE LINES
100
AcDbSpline
210
0.0
220
0.0
230
1.0
 70
    24
 71
     2
 72
     6
 73
     3
 74
     0
 42
0.0000000001
 43
0.0000000001
 40
-0.2629876754996872
 40
-0.2629876754996872
 40
-0.2629876754996872
 40
0.0
 40
0.0
 40
0.0
 10
1113.0
 20
501.8578427189476
 30
0.0
 10
1113.0
 20
501.9893365620084
 30
0.0
 10
1113.0
 20
502.1208304050692
 30
0.0
  0
SPLINE
  5
17D
330
1F
100
AcDbEntity
  8
MAKE2D VISIBLE LINES
100
AcDbSpline
210
0.0
220
0.0
230
1.0
 70
    24
 71
     2
 72
     6
 73
     3
 74
     0
 42
0.0000000001
 43
0.0000000001
 40
0.0
 40
0.0
 40
0.0
 40
0.658977588479047
 40
0.658977588479047
 40
0.658977588479047
 10
1113.0
 20
502.1208304050692
 30
0.0
 10
1113.0
 20
502.4503192094558
 30
0.0
 10
1113.0
 20
502.7798080138423
 30
0.0
  0
SPLINE
  5
17E
330
1F
100
AcDbEntity
  8
MAKE2D VISIBLE LINES
100
AcDbSpline
210
0.0
220
0.0
230
1.0
 70
    24
 71
     2
 72
     6
 73
     3
 74
     0
 42
0.0000000001
 43
0.0000000001
 40
-0.156382583436482
 40
-0.156382583436482
 40
-0.156382583436482
 40
0.0
 40
0.0
 40
0.0
 10
1113.0
 20
502.7798080138423
 30
0.0
 10
1113.0
 20
502.8579993064152
 30
0.0
 10
1113.0
 20
502.9361905989881
 30
0.0
  0
SPLINE
  5
17F
330
1F
100
AcDbEntity
  8
MAKE2D VISIBLE LINES
100
AcDbSpline
210
0.0
220
0.0
230
1.0
 70
    24
 71
     2
 72
     6
 73
     3
 74
     0
 42
0.0000000001
 43
0.0000000001
 40
0.0
 40
0.0
 40
0.0
 40
0.1976465682016055
 40
0.1976465682016055
 40
0.1976465682016055
 10
1113.0
 20
502.9361905989881
 30
0.0
 10
1113.0
 20
503.0350138886656
 30
0.0
 10
1113.0
 20
503.1338371783431
 30
0.0
  0
SPLINE
  5
180
330
1F
100
AcDbEntity
  8
MAKE2D VISIBLE LINES
100
AcDbSpline
210
0.0
220
0.0
230
1.0
 70
    24
 71
     2
 72
     6
 73
     3
 74
     0
 42
0.0000000001
 43
0.0000000001
 40
-0.2746540300190077
 40
-0.2746540300190077
 40
-0.2746540300190077
 40
0.0
 40
0.0
 40
0.0
 10
1113.0
 20
503.1338371783431
 30
0.0
 10
1113.0
 20
503.2711641975526
 30
0.0
 10
1113.0
 20
503.4084912167622
 30
0.0
  0
SPLINE
  5
181
330
1F
100
AcDbEntity
  8
MAKE2D VISIBLE LINES
100
AcDbSpline
210
0.0
220
0.0
230
1.0
 70
    24
 71
     2
 72
     6
 73
     3
 74
     0
 42
0.0000000001
 43
0.0000000001
 40
0.0
 40
0.0
 40
0.0
 40
0.2695190808788652
 40
0.2695190808788652
 40
0.2695190808788652
 10
1113.0
 20
503.4084912167622
 30
0.0
 10
1113.0
 20
503.5432507403293
 30
0.0
 10
1113.0
 20
503.6780102638965
 30
0.0
  0
SPLINE
  5
182
330
1F
100
AcDbEntity
  8
MAKE2D VISIBLE LINES
100
AcDbSpline
210
0.0
220
0.0
230
1.0
 70
    24
 71
     2
 72
     6
 73
     3
 74
     0
 42
0.0000000001
 43
0.0000000001
 40
-0.4060497378777086
 40
-0.4060497378777086
 40
-0.4060497378777086
 40
0.0
 40
0.0
 40
0.0
 10
1113.0
 20
503.6780102638965
 30
0.0
 10
1113.0
 20
503.8810351198712
 30
0.0
 10
1113.0
 20
504.084059975846
 30
0.0
  0
SPLINE
  5
183
330
1F
100
AcDbEntity
  8
MAKE2D VISIBLE LINES
100
AcDbSpline
210
0.0
220
0.0
230
1.0
 70
    24
 71
     2
 72
     6
 73
     3
 74
     0
 42
0.0000000001
 43
0.0000000001
 40
0.0
 40
0.0
 40
0.0
 40
0.0348659137402478
 40
0.0348659137402478
 40
0.0348659137402478
 10
1113.0
 20
504.084059975846
 30
0.0
 10
1113.0
 20
504.1014929284347
 30
0.0
 10
1113.0
 20
504.1189258810233
 30
0.0
  0
SPLINE
  5
184
330
1F
100
AcDbEntity
  8
MAKE2D VISIBLE LINES
100
AcDbSpline
210
0.0
220
0.0
230
1.0
 70
    24
 71
     2
 72
     6
 73
     3
 74
     0
 42
0.0000000001
 43
0.0000000001
 40
-3.546180930188939
 40
-3.546180930188939
 40
-3.546180930188939
 40
0.0
 40
0.0
 40
0.0
 10
1113.0
 20
504.1189258810233
 30
0.0
 10
1113.0
 20
505.8920163418363
 30
0.0
 10
1113.0
 20
507.6651068026494
 30
0.0
  0
SPLINE
  5
185
330
1F
100
AcDbEntity
  8
MAKE2D VISIBLE LINES
100
AcDbSpline
210
0.0
220
0.0
230
1.0
 70
    24
 71
     2
 72
     6
 73
     3
 74
     0
 42
0.0000000001
 43
0.0000000001
 40
0.0
 40
0.0
 40
0.0
 40
0.0390503151976418
 40
0.0390503151976418
 40
0.0390503151976418
 10
1113.0
 20
507.6651068026494
 30
0.0
 10
1113.0
 20
507.6846319593614
 30
0.0
 10
1113.0
 20
507.7041571160733
 30
0.0
  0
SPLINE
  5
186
330
1F
100
AcDbEntity
  8
MAKE2D VISIBLE LINES
100
AcDbSpline
210
0.0
220
0.0
230
1.0
 70
    24
 71
     2
 72
     6
 73
     3
 74
     0
 42
0.0000000001
 43
0.0000000001
 40
-0.4100825235271373
 40
-0.4100825235271373
 40
-0.4100825235271373
 40
0.0
 40
0.0
 40
0.0
 10
1113.0
 20
507.7041571160733
 30
0.0
 10
1113.0
 20
507.909198376379
 30
0.0
 10
1113.0
 20
508.1142396366846
 30
0.0
  0
SPLINE
  5
187
330
1F
100
AcDbEntity
  8
MAKE2D VISIBLE LINES
100
AcDbSpline
210
0.0
220
0.0
230
1.0
 70
    24
 71
     2
 72
     6
 73
     3
 74
     0
 42
0.0000000001
 43
0.0000000001
 40
0.0
 40
0.0
 40
0.0
 40
0.2820451577333074
 40
0.2820451577333074
 40
0.2820451577333074
 10
1113.0
 20
508.1142396366846
 30
0.0
 10
1113.0
 20
508.2552622149813
 30
0.0
 10
1113.0
 20
508.3962847932779
 30
0.0
  0
SPLINE
  5
188
330
1F
100
AcDbEntity
  8
MAKE2D VISIBLE LINES
100
AcDbSpline
210
0.0
220
0.0
230
1.0
 70
    24
 71
     2
 72
     6
 73
     3
 74
     0
 42
0.0000000001
 43
0.0000000001
 40
-0.1498974792444301
 40
-0.1498974792444301
 40
-0.1498974792444301
 40
0.0
 40
0.0
 40
0.0
 10
1113.0
 20
508.3962847932779
 30
0.0
 10
1113.0
 20
508.4712335329011
 30
0.0
 10
1113.0
 20
508.5461822725243
 30
0.0
  0
SPLINE
  5
189
330
1F
100
AcDbEntity
  8
MAKE2D VISIBLE LINES
100
AcDbSpline
210
0.0
220
0.0
230
1.0
 70
    24
 71
     2
 72
     6
 73
     3
 74
     0
 42
0.0000000001
 43
0.0000000001
 40
0.0
 40
0.0
 40
0.0
 40
0.1803388713165646
 40
0.1803388713165646
 40
0.1803388713165646
 10
1113.0
 20
508.5461822725243
 30
0.0
 10
1113.0
 20
508.6363517081831
 30
0.0
 10
1113.0
 20
508.7265211438419
 30
0.0
  0
SPLINE
  5
18A
330
1F
100
AcDbEntity
  8
MAKE2D VISIBLE LINES
100
AcDbSpline
210
0.0
220
0.0
230
1.0
 70
    24
 71
     2
 72
     6
 73
     3
 74
     0
 42
0.0000000001
 43
0.0000000001
 40
-0.2338872782159456
 40
-0.2338872782159456
 40
-0.2338872782159456
 40
0.0
 40
0.0
 40
0.0
 10
1113.0
 20
508.7265211438419
 30
0.0
 10
1113.0
 20
508.8434647829505
 30
0.0
 10
1113.0
 20
508.9604084220592
 30
0.0
  0
SPLINE
  5
18B
330
1F
100
AcDbEntity
  8
MAKE2D VISIBLE LINES
100
AcDbSpline
210
0.0
220
0.0
230
1.0
 70
    24
 71
     2
 72
     6
 73
     3
 74
     0
 42
0.0000000001
 43
0.0000000001
 40
0.0
 40
0.0
 40
0.0
 40
2.268260662258911
 40
2.268260662258911
 40
2.268260662258911
 10
1113.0
 20
508.9604084220592
 30
0.0
 10
1113.0
 20
510.0945387531888
 30
0.0
 10
1113.0
 20
511.2286690843184
 30
0.0
  0
SPLINE
  5
18C
330
1F
100
AcDbEntity
  8
MAKE2D VISIBLE LINES
100
AcDbSpline
210
0.0
220
0.0
230
1.0
 70
    24
 71
     2
 72
     6
 73
     3
 74
     0
 42
0.0000000001
 43
0.0000000001
 40
-1.075330155673328
 40
-1.075330155673328
 40
-1.075330155673328
 40
0.0
 40
0.0
 40
0.0
 10
1113.0
 20
511.2286690843184
 30
0.0
 10
1113.0
 20
511.7663341621716
 30
0.0
 10
1113.0
 20
512.3039992400247
 30
0.0
  0
SPLINE
  5
18D
330
1F
100
AcDbEntity
  8
MAKE2D VISIBLE LINES
100
AcDbSpline
210
0.0
220
0.0
230
1.0
 70
    24
 71
     2
 72
     6
 73
     3
 74
     0
 42
0.0000000001
 43
0.0000000001
 40
0.0
 40
0.0
 40
0.0
 40
0.0109709535450975
 40
0.0109709535450975
 40
0.0109709535450975
 10
1113.0
 20
512.3039992400247
 30
0.0
 10
1113.0
 20
512.3094847178768
 30
0.0
 10
1113.0
 20
512.3149701957288
 30
0.0
  0
SPLINE
  5
18E
330
1F
100
AcDbEntity
  8
MAKE2D VISIBLE LINES
100
AcDbSpline
210
0.0
220
0.0
230
1.0
 70
    24
 71
     2
 72
     6
 73
     3
 74
     0
 42
0.0000000001
 43
0.0000000001
 40
-0.1231417557829673
 40
-0.1231417557829673
 40
-0.1231417557829673
 40
0.0
 40
0.0
 40
0.0
 10
1113.0
 20
512.3149701957288
 30
0.0
 10
1113.0
 20
512.3765410745449
 30
0.0
 10
1113.0
 20
512.4381119533609
 30
0.0
  0
SPLINE
  5
18F
330
1F
100
AcDbEntity
  8
MAKE2D VISIBLE LINES
100
AcDbSpline
210
0.0
220
0.0
230
1.0
 70
    24
 71
     2
 72
     6
 73
     3
 74
     0
 42
0.0000000001
 43
0.0000000001
 40
0.0
 40
0.0
 40
0.0
 40
0.0426764566004749
 40
0.0426764566004749
 40
0.0426764566004749
 10
1113.0
 20
512.4381119533609
 30
0.0
 10
1113.0
 20
512.459450181523
 30
0.0
 10
1113.0
 20
512.4807884096851
 30
0.0
  0
SPLINE
  5
190
330
1F
100
AcDbEntity
  8
MAKE2D VISIBLE LINES
100
AcDbSpline
210
0.0
220
0.0
230
1.0
 70
    24
 71
     2
 72
     6
 73
     3
 74
     0
 42
0.0000000001
 43
0.0000000001
 40
-0.2458245269281178
 40
-0.2458245269281178
 40
-0.2458245269281178
 40
0.0
 40
0.0
 40
0.0
 10
1113.0
 20
512.4807884096851
 30
0.0
 10
1113.0
 20
512.6037006721169
 30
0.0
 10
1113.0
 20
512.7266129345487
 30
0.0
  0
SPLINE
  5
191
330
1F
100
AcDbEntity
  8
MAKE2D VISIBLE LINES
100
AcDbSpline
210
0.0
220
0.0
230
1.0
 70
    24
 71
     2
 72
     6
 73
     3
 74
     0
 42
0.0000000001
 43
0.0000000001
 40
0.0
 40
0.0
 40
0.0
 40
0.0436767148755735
 40
0.0436767148755735
 40
0.0436767148755735
 10
1113.0
 20
512.7266129345487
 30
0.0
 10
1113.0
 20
512.7484512914455
 30
0.0
 10
1113.0
 20
512.7702896483423
 30
0.0
  0
SPLINE
  5
192
330
1F
100
AcDbEntity
  8
MAKE2D VISIBLE LINES
100
AcDbSpline
210
0.0
220
0.0
230
1.0
 70
    24
 71
     2
 72
     6
 73
     3
 74
     0
 42
0.0000000001
 43
0.0000000001
 40
-0.035861153580754
 40
-0.035861153580754
 40
-0.035861153580754
 40
0.0
 40
0.0
 40
0.0
 10
1113.0
 20
512.7702896483423
 30
0.0
 10
1113.0
 20
512.7882202256872
 30
0.0
 10
1113.0
 20
512.8061508030321
 30
0.0
  0
SPLINE
  5
193
330
1F
100
AcDbEntity
  8
MAKE2D VISIBLE LINES
100
AcDbSpline
210
0.0
220
0.0
230
1.0
 70
    24
 71
     2
 72
     6
 73
     3
 74
     0
 42
0.0000000001
 43
0.0000000001
 40
0.0
 40
0.0
 40
0.0
 40
0.0382455823842065
 40
0.0382455823842065
 40
0.0382455823842065
 10
1113.0
 20
512.8061508030321
 30
0.0
 10
1113.0
 20
512.825273594314
 30
0.0
 10
1113.0
 20
512.8443963855959
 30
0.0
  0
SPLINE
  5
194
330
1F
100
AcDbEntity
  8
MAKE2D VISIBLE LINES
100
AcDbSpline
210
0.0
220
0.0
230
1.0
 70
    24
 71
     2
 72
     6
 73
     3
 74
     0
 42
0.0000000001
 43
0.0000000001
 40
-0.1349540862357799
 40
-0.1349540862357799
 40
-0.1349540862357799
 40
0.0
 40
0.0
 40
0.0
 10
1113.0
 20
512.8443963855959
 30
0.0
 10
1113.0
 20
512.9118734287405
 30
0.0
 10
1113.0
 20
512.979350471885
 30
0.0
  0
SPLINE
  5
195
330
1F
100
AcDbEntity
  8
MAKE2D VISIBLE LINES
100
AcDbSpline
210
0.0
220
0.0
230
1.0
 70
    24
 71
     2
 72
     6
 73
     3
 74
     0
 42
0.0000000001
 43
0.0000000001
 40
0.0
 40
0.0
 40
0.0
 40
0.0194936032439728
 40
0.0194936032439728
 40
0.0194936032439728
 10
1113.0
 20
512.979350471885
 30
0.0
 10
1113.0
 20
512.9890972734918
 30
0.0
 10
1113.0
 20
512.9988440750985
 30
0.0
  0
SPLINE
  5
196
330
1F
100
AcDbEntity
  8
MAKE2D VISIBLE LINES
100
AcDbSpline
210
0.0
220
0.0
230
1.0
 70
    24
 71
     2
 72
     6
 73
     3
 74
     0
 42
0.0000000001
 43
0.0000000001
 40
-0.0126287367903615
 40
-0.0126287367903615
 40
-0.0126287367903615
 40
0.0
 40
0.0
 40
0.0
 10
1113.0
 20
512.9988440750985
 30
0.0
 10
1113.0
 20
513.0051584430571
 30
0.0
 10
1113.0
 20
513.0114728110157
 30
0.0
  0
SPLINE
  5
197
330
1F
100
AcDbEntity
  8
MAKE2D VISIBLE LINES
100
AcDbSpline
210
0.0
220
0.0
230
1.0
 70
    24
 71
     2
 72
     6
 73
     3
 74
     0
 42
0.0000000001
 43
0.0000000001
 40
0.0
 40
0.0
 40
0.0
 40
0.0351992400273957
 40
0.0351992400273957
 40
0.0351992400273957
 10
1113.0
 20
513.0114728110157
 30
0.0
 10
1113.0
 20
513.0290724306076
 30
0.0
 10
1113.0
 20
513.0466720501994
 30
0.0
  0
SPLINE
  5
198
330
1F
100
AcDbEntity
  8
MAKE2D VISIBLE LINES
100
AcDbSpline
210
0.0
220
0.0
230
1.0
 70
    12
 71
     2
 72
     6
 73
     3
 74
     0
 42
0.0000000001
 43
0.0000000001
 40
0.0
 40
0.0
 40
0.0
 40
6.576825108382198
 40
6.576825108382198
 40
6.576825108382198
 10
1279.533336298054
 20
458.7031121484087
 30
0.0
 41
1.0
 10
1276.299338688477
 20
458.0497399022138
 30
0.0
 41
0.9950399710037777
 10
1273.000000000028
 20
458.0495168499705
 30
0.0
 41
1.0
  0
SPLINE
  5
199
330
1F
100
AcDbEntity
  8
MAKE2D VISIBLE LINES
100
AcDbSpline
210
0.0
220
0.0
230
1.0
 70
    12
 71
     2
 72
     6
 73
     3
 74
     0
 42
0.0000000001
 43
0.0000000001
 40
0.0
 40
0.0
 40
0.0
 40
9.10487190824492
 40
9.10487190824492
 40
9.10487190824492
 10
1273.000000000028
 20
458.0495168499705
 30
0.0
 41
1.0
 10
1268.418452839879
 20
458.0495556191403
 30
0.0
 41
0.9904961771069034
 10
1264.010257436045
 20
459.2979096892452
 30
0.0
 41
1.0
  0
SPLINE
  5
19A
330
1F
100
AcDbEntity
  8
MAKE2D VISIBLE LINES
100
AcDbSpline
210
0.0
220
0.0
230
1.0
 70
    12
 71
     2
 72
     6
 73
     3
 74
     0
 42
0.0000000001
 43
0.0000000001
 40
-17.28425358919466
 40
-17.28425358919466
 40
-17.28425358919466
 40
0.0
 40
0.0
 40
0.0
 10
1264.010257436045
 20
459.2979096892452
 30
0.0
 41
1.0
 10
1255.500424397514
 20
461.7090175732874
 30
0.0
 41
0.965978236047383
 10
1249.333677437505
 20
468.0495168499706
 30
0.0
 41
1.0
  0
SPLINE
  5
19B
330
1F
100
AcDbEntity
  8
MAKE2D VISIBLE LINES
100
AcDbSpline
210
0.0
220
0.0
230
1.0
 70
    12
 71
     2
 72
     6
 73
     3
 74
     0
 42
0.0000000001
 43
0.0000000001
 40
0.0
 40
0.0
 40
0.0
 40
17.2842535622483
 40
17.2842535622483
 40
17.2842535622483
 10
1156.666322562495
 20
468.0495168499706
 30
0.0
 41
1.0
 10
1150.499575612541
 20
461.7090175836558
 30
0.0
 41
0.9659782361536396
 10
1141.989742589883
 20
459.2979096965784
 30
0.0
 41
1.0
  0
SPLINE
  5
19C
330
1F
100
AcDbEntity
  8
MAKE2D VISIBLE LINES
100
AcDbSpline
210
0.0
220
0.0
230
1.0
 70
    12
 71
     2
 72
     6
 73
     3
 74
     0
 42
0.0000000001
 43
0.0000000001
 40
0.0
 40
0.0
 40
0.0
 40
9.104871935190467
 40
9.104871935190467
 40
9.104871935190467
 10
1141.989742589883
 20
459.2979096965784
 30
0.0
 41
1.0
 10
1137.581547173852
 20
458.0495556191527
 30
0.0
 41
0.9904961770512474
 10
1132.999999999972
 20
458.0495168499705
 30
0.0
 41
1.0
  0
SPLINE
  5
19D
330
1F
100
AcDbEntity
  8
MAKE2D VISIBLE LINES
100
AcDbSpline
210
0.0
220
0.0
230
1.0
 70
    12
 71
     2
 72
     6
 73
     3
 74
     0
 42
0.0000000001
 43
0.0000000001
 40
0.0
 40
0.0
 40
0.0
 40
6.576825117320838
 40
6.576825117320838
 40
6.576825117320838
 10
1132.999999999972
 20
458.0495168499705
 30
0.0
 41
1.0
 10
1129.700661307009
 20
458.0497399022162
 30
0.0
 41
0.9950399709904
 10
1126.466663693184
 20
458.703112150177
 30
0.0
 41
1.0
  0
ENDSEC
  0
SECTION
  2
OBJECTS
  0
DICTIONARY
  5
C
330
0
100
AcDbDictionary
281
     1
  3
ACAD_GROUP
350
D
  3
ACAD_LAYOUT
350
1A
  3
ACAD_MLEADERSTYLE
350
1A1
  3
ACAD_MLINESTYLE
350
17
  3
ACAD_PLOTSETTINGS
350
19
  3
ACAD_PLOTSTYLENAME
350
E
  3
ACAD_SCALELIST
350
3D
  3
ACAD_TABLESTYLE
350
1A0
  3
ACAD_VISUALSTYLE
350
2A
  3
AcDbVariableDictionary
350
19E
  0
DICTIONARY
  5
D
102
{ACAD_REACTORS
330
C
102
}
330
C
100
AcDbDictionary
281
     1
  0
DICTIONARY
  5
1A
102
{ACAD_REACTORS
330
C
102
}
330
C
100
AcDbDictionary
281
     1
  3
Layout1
350
1E
  3
Layout2
350
26
  3
Model
350
22
  0
DICTIONARY
  5
1A1
102
{ACAD_REACTORS
330
C
102
}
330
C
100
AcDbDictionary
281
     1
  0
DICTIONARY
  5
17
102
{ACAD_REACTORS
330
C
102
}
330
C
100
AcDbDictionary
281
     1
  3
Standard
350
18
  0
DICTIONARY
  5
19
102
{ACAD_REACTORS
330
C
102
}
330
C
100
AcDbDictionary
281
     1
  0
ACDBDICTIONARYWDFLT
  5
E
102
{ACAD_REACTORS
330
C
102
}
330
C
100
AcDbDictionary
281
     1
  3
Normal
350
F
100
AcDbDictionaryWithDefault
340
F
  0
DICTIONARY
  5
3D
102
{ACAD_REACTORS
330
C
102
}
330
C
100
AcDbDictionary
281
     1
  3
A0
350
3E
  3
A1
350
3F
  3
A2
350
40
  3
A3
350
41
  3
A4
350
42
  3
A5
350
43
  3
A6
350
44
  3
A7
350
45
  3
A8
350
46
  3
A9
350
47
  3
B0
350
48
  3
B1
350
49
  3
B2
350
4A
  3
B3
350
4B
  3
B4
350
4C
  3
B5
350
4D
  3
B6
350
4E
  3
B7
350
4F
  3
B8
350
50
  3
B9
350
51
  3
C0
350
52
  3
C1
350
53
  3
C2
350
54
  3
C3
350
55
  3
C4
350
56
  3
C5
350
57
  3
C6
350
58
  3
C7
350
59
  3
C8
350
5A
  3
C9
350
5B
  3
D0
350
5C
  3
D1
350
5D
  3
D2
350
5E
  0
DICTIONARY
  5
1A0
102
{ACAD_REACTORS
330
C
102
}
330
C
100
AcDbDictionary
281
     1
  0
DICTIONARY
  5
2A
102
{ACAD_REACTORS
330
C
102
}
330
C
100
AcDbDictionary
281
     1
  3
2dWireframe
350
2F
  3
3D Hidden
350
31
  3
3dWireframe
350
30
  3
Basic
350
32
  3
Brighten
350
36
  3
ColorChange
350
3A
  3
Conceptual
350
34
  3
Dim
350
35
  3
Facepattern
350
39
  3
Flat
350
2B
  3
FlatWithEdges
350
2C
  3
Gouraud
350
2D
  3
GouraudWithEdges
350
2E
  3
Linepattern
350
38
  3
Realistic
350
33
  3
Thicken
350
37
  0
DICTIONARY
  5
19E
102
{ACAD_REACTORS
330
C
102
}
330
C
100
AcDbDictionary
281
     1
  3
CANNOSCALE
350
19F
  0
LAYOUT
  5
1E
102
{ACAD_REACTORS
330
1A
102
}
330
1A
100
AcDbPlotSettings
  1

  2
none_device
  4

  6

 40
0.0
 41
0.0
 42
0.0
 43
0.0
 44
0.0
 45
0.0
 46
0.0
 47
0.0
 48
0.0
 49
0.0
140
0.0
141
0.0
142
1.0
143
1.0
 70
   688
 72
     0
 73
     0
 74
     5
  7

 75
    16
 76
     0
 77
     2
 78
   300
147
1.0
148
0.0
149
0.0
100
AcDbLayout
  1
Layout1
 70
     1
 71
     1
 10
0.0
 20
0.0
 11
12.0
 21
9.0
 12
0.0
 22
0.0
 32
0.0
 14
1.000000000000000E+20
 24
1.000000000000000E+20
 34
1.000000000000000E+20
 15
-1.000000000000000E+20
 25
-1.000000000000000E+20
 35
-1.000000000000000E+20
146
0.0
 13
0.0
 23
0.0
 33
0.0
 16
1.0
 26
0.0
 36
0.0
 17
0.0
 27
1.0
 37
0.0
 76
     0
330
1B
  0
LAYOUT
  5
26
102
{ACAD_REACTORS
330
1A
102
}
330
1A
100
AcDbPlotSettings
  1

  2
none_device
  4

  6

 40
0.0
 41
0.0
 42
0.0
 43
0.0
 44
0.0
 45
0.0
 46
0.0
 47
0.0
 48
0.0
 49
0.0
140
0.0
141
0.0
142
1.0
143
1.0
 70
   688
 72
     0
 73
     0
 74
     5
  7

 75
    16
 76
     0
 77
     2
 78
   300
147
1.0
148
0.0
149
0.0
100
AcDbLayout
  1
Layout2
 70
     1
 71
     2
 10
0.0
 20
0.0
 11
0.0
 21
0.0
 12
0.0
 22
0.0
 32
0.0
 14
0.0
 24
0.0
 34
0.0
 15
0.0
 25
0.0
 35
0.0
146
0.0
 13
0.0
 23
0.0
 33
0.0
 16
1.0
 26
0.0
 36
0.0
 17
0.0
 27
1.0
 37
0.0
 76
     0
330
23
  0
LAYOUT
  5
22
102
{ACAD_REACTORS
330
1A
102
}
330
1A
100
AcDbPlotSettings
  1

  2
none_device
  4

  6

 40
0.0
 41
0.0
 42
0.0
 43
0.0
 44
0.0
 45
0.0
 46
0.0
 47
0.0
 48
0.0
 49
0.0
140
0.0
141
0.0
142
1.0
143
1.0
 70
  1712
 72
     0
 73
     0
 74
     0
  7

 75
     0
 76
     0
 77
     2
 78
   300
147
1.0
148
0.0
149
0.0
100
AcDbLayout
  1
Model
 70
     1
 71
     0
 10
0.0
 20
0.0
 11
12.0
 21
9.0
 12
0.0
 22
0.0
 32
0.0
 14
1063.0
 24
453.0495168499705
 34
0.0
 15
1423.474353352557
 25
585.3695163626898
 35
0.0
146
0.0
 13
0.0
 23
0.0
 33
0.0
 16
1.0
 26
0.0
 36
0.0
 17
0.0
 27
1.0
 37
0.0
 76
     0
330
1F
331
29
  0
MLINESTYLE
  5
18
102
{ACAD_REACTORS
330
17
102
}
330
17
100
AcDbMlineStyle
  2
Standard
 70
     0
  3

 62
   256
 51
90.0
 52
90.0
 71
     2
 49
0.5
 62
   256
  6
BYLAYER
 49
-0.5
 62
   256
  6
BYLAYER
  0
ACDBPLACEHOLDER
  5
F
102
{ACAD_REACTORS
330
E
102
}
330
E
  0
SCALE
  5
3E
102
{ACAD_REACTORS
330
3D
102
}
330
3D
100
AcDbScale
 70
     0
300
1:1
140
1.0
141
1.0
290
     1
  0
SCALE
  5
3F
102
{ACAD_REACTORS
330
3D
102
}
330
3D
100
AcDbScale
 70
     0
300
1:2
140
1.0
141
2.0
290
     0
  0
SCALE
  5
40
102
{ACAD_REACTORS
330
3D
102
}
330
3D
100
AcDbScale
 70
     0
300
1:4
140
1.0
141
4.0
290
     0
  0
SCALE
  5
41
102
{ACAD_REACTORS
330
3D
102
}
330
3D
100
AcDbScale
 70
     0
300
1:5
140
1.0
141
5.0
290
     0
  0
SCALE
  5
42
102
{ACAD_REACTORS
330
3D
102
}
330
3D
100
AcDbScale
 70
     0
300
1:8
140
1.0
141
8.0
290
     0
  0
SCALE
  5
43
102
{ACAD_REACTORS
330
3D
102
}
330
3D
100
AcDbScale
 70
     0
300
1:10
140
1.0
141
10.0
290
     0
  0
SCALE
  5
44
102
{ACAD_REACTORS
330
3D
102
}
330
3D
100
AcDbScale
 70
     0
300
1:16
140
1.0
141
16.0
290
     0
  0
SCALE
  5
45
102
{ACAD_REACTORS
330
3D
102
}
330
3D
100
AcDbScale
 70
     0
300
1:20
140
1.0
141
20.0
290
     0
  0
SCALE
  5
46
102
{ACAD_REACTORS
330
3D
102
}
330
3D
100
AcDbScale
 70
     0
300
1:30
140
1.0
141
30.0
290
     0
  0
SCALE
  5
47
102
{ACAD_REACTORS
330
3D
102
}
330
3D
100
AcDbScale
 70
     0
300
1:40
140
1.0
141
40.0
290
     0
  0
SCALE
  5
48
102
{ACAD_REACTORS
330
3D
102
}
330
3D
100
AcDbScale
 70
     0
300
1:50
140
1.0
141
50.0
290
     0
  0
SCALE
  5
49
102
{ACAD_REACTORS
330
3D
102
}
330
3D
100
AcDbScale
 70
     0
300
1:100
140
1.0
141
100.0
290
     0
  0
SCALE
  5
4A
102
{ACAD_REACTORS
330
3D
102
}
330
3D
100
AcDbScale
 70
     0
300
2:1
140
2.0
141
1.0
290
     0
  0
SCALE
  5
4B
102
{ACAD_REACTORS
330
3D
102
}
330
3D
100
AcDbScale
 70
     0
300
4:1
140
4.0
141
1.0
290
     0
  0
SCALE
  5
4C
102
{ACAD_REACTORS
330
3D
102
}
330
3D
100
AcDbScale
 70
     0
300
8:1
140
8.0
141
1.0
290
     0
  0
SCALE
  5
4D
102
{ACAD_REACTORS
330
3D
102
}
330
3D
100
AcDbScale
 70
     0
300
10:1
140
10.0
141
1.0
290
     0
  0
SCALE
  5
4E
102
{ACAD_REACTORS
330
3D
102
}
330
3D
100
AcDbScale
 70
     0
300
100:1
140
100.0
141
1.0
290
     0
  0
SCALE
  5
4F
102
{ACAD_REACTORS
330
3D
102
}
330
3D
100
AcDbScale
 70
     0
300
1/128" = 1'-0"
140
0.0078125
141
12.0
290
     0
  0
SCALE
  5
50
102
{ACAD_REACTORS
330
3D
102
}
330
3D
100
AcDbScale
 70
     0
300
1/64" = 1'-0"
140
0.015625
141
12.0
290
     0
  0
SCALE
  5
51
102
{ACAD_REACTORS
330
3D
102
}
330
3D
100
AcDbScale
 70
     0
300
1/32" = 1'-0"
140
0.03125
141
12.0
290
     0
  0
SCALE
  5
52
102
{ACAD_REACTORS
330
3D
102
}
330
3D
100
AcDbScale
 70
     0
300
1/16" = 1'-0"
140
0.0625
141
12.0
290
     0
  0
SCALE
  5
53
102
{ACAD_REACTORS
330
3D
102
}
330
3D
100
AcDbScale
 70
     0
300
3/32" = 1'-0"
140
0.09375
141
12.0
290
     0
  0
SCALE
  5
54
102
{ACAD_REACTORS
330
3D
102
}
330
3D
100
AcDbScale
 70
     0
300
1/8" = 1'-0"
140
0.125
141
12.0
290
     0
  0
SCALE
  5
55
102
{ACAD_REACTORS
330
3D
102
}
330
3D
100
AcDbScale
 70
     0
300
3/16" = 1'-0"
140
0.1875
141
12.0
290
     0
  0
SCALE
  5
56
102
{ACAD_REACTORS
330
3D
102
}
330
3D
100
AcDbScale
 70
     0
300
1/4" = 1'-0"
140
0.25
141
12.0
290
     0
  0
SCALE
  5
57
102
{ACAD_REACTORS
330
3D
102
}
330
3D
100
AcDbScale
 70
     0
300
3/8" = 1'-0"
140
0.375
141
12.0
290
     0
  0
SCALE
  5
58
102
{ACAD_REACTORS
330
3D
102
}
330
3D
100
AcDbScale
 70
     0
300
1/2" = 1'-0"
140
0.5
141
12.0
290
     0
  0
SCALE
  5
59
102
{ACAD_REACTORS
330
3D
102
}
330
3D
100
AcDbScale
 70
     0
300
3/4" = 1'-0"
140
0.75
141
12.0
290
     0
  0
SCALE
  5
5A
102
{ACAD_REACTORS
330
3D
102
}
330
3D
100
AcDbScale
 70
     0
300
1" = 1'-0"
140
1.0
141
12.0
290
     0
  0
SCALE
  5
5B
102
{ACAD_REACTORS
330
3D
102
}
330
3D
100
AcDbScale
 70
     0
300
1-1/2" = 1'-0"
140
1.5
141
12.0
290
     0
  0
SCALE
  5
5C
102
{ACAD_REACTORS
330
3D
102
}
330
3D
100
AcDbScale
 70
     0
300
3" = 1'-0"
140
3.0
141
12.0
290
     0
  0
SCALE
  5
5D
102
{ACAD_REACTORS
330
3D
102
}
330
3D
100
AcDbScale
 70
     0
300
6" = 1'-0"
140
6.0
141
12.0
290
     0
  0
SCALE
  5
5E
102
{ACAD_REACTORS
330
3D
102
}
330
3D
100
AcDbScale
 70
     0
300
1'-0" = 1'-0"
140
12.0
141
12.0
290
     0
  0
VISUALSTYLE
  5
2F
102
{ACAD_REACTORS
330
2A
102
}
330
2A
100
AcDbVisualStyle
  2
2dWireframe
 70
     4
 71
     0
 72
     2
 73
     0
 90
        0
 40
-0.6
 41
-30.0
 62
     5
 63
     7
421
 16777215
 74
     1
 91
        4
 64
     7
 65
   257
 75
     1
175
     1
 42
1.0
 92
        0
 66
   257
 43
1.0
 76
     1
 77
     6
 78
     2
 67
     7
 79
     5
170
     0
171
     0
290
     0
174
     0
 93
        1
 44
0.0
173
     0
291
     0
 45
0.0
1001
ACAD
1000
AcDbSavedByObjectVersion
1070
     0
  0
VISUALSTYLE
  5
31
102
{ACAD_REACTORS
330
2A
102
}
330
2A
100
AcDbVisualStyle
  2
3D Hidden
 70
     6
 71
     1
 72
     2
 73
     2
 90
        0
 40
-0.6
 41
-30.0
 62
     5
 63
     7
421
 16777215
 74
     2
 91
        2
 64
     7
 65
   257
 75
     2
175
     1
 42
40.0
 92
        0
 66
   257
 43
1.0
 76
     1
 77
     6
 78
     2
 67
     7
 79
     3
170
     0
171
     0
290
     0
174
     0
 93
        1
 44
0.0
173
     0
291
     0
 45
0.0
1001
ACAD
1000
AcDbSavedByObjectVersion
1070
     0
  0
VISUALSTYLE
  5
30
102
{ACAD_REACTORS
330
2A
102
}
330
2A
100
AcDbVisualStyle
  2
3dWireframe
 70
     5
 71
     0
 72
     2
 73
     0
 90
        0
 40
-0.6
 41
-30.0
 62
     5
 63
     7
421
 16777215
 74
     1
 91
        4
 64
     7
 65
   257
 75
     1
175
     1
 42
1.0
 92
        0
 66
   257
 43
1.0
 76
     1
 77
     6
 78
     2
 67
     7
 79
     5
170
     0
171
     0
290
     0
174
     0
 93
        1
 44
0.0
173
     0
291
     0
 45
0.0
1001
ACAD
1000
AcDbSavedByObjectVersion
1070
     0
  0
VISUALSTYLE
  5
32
102
{ACAD_REACTORS
330
2A
102
}
330
2A
100
AcDbVisualStyle
  2
Basic
 70
     7
 71
     1
 72
     0
 73
     1
 90
        0
 40
-0.6
 41
-30.0
 62
     5
 63
     7
421
 16777215
 74
     0
 91
        4
 64
     7
 65
   257
 75
     1
175
     1
 42
1.0
 92
        8
 66
     7
 43
1.0
 76
     1
 77
     6
 78
     2
 67
     7
 79
     5
170
     0
171
     0
290
     0
174
     0
 93
        1
 44
0.0
173
     0
291
     1
 45
0.0
1001
ACAD
1000
AcDbSavedByObjectVersion
1070
     0
  0
VISUALSTYLE
  5
36
102
{ACAD_REACTORS
330
2A
102
}
330
2A
100
AcDbVisualStyle
  2
Brighten
 70
    12
 71
     2
 72
     2
 73
     0
 90
        0
 40
-0.6
 41
-30.0
 62
     5
 63
     7
421
 16777215
 74
     1
 91
        4
 64
     7
 65
   257
 75
     1
175
     1
 42
1.0
 92
        8
 66
     7
 43
1.0
 76
     1
 77
     6
 78
     2
 67
     7
 79
     5
170
     0
171
     0
290
     0
174
     0
 93
        1
 44
50.0
173
     0
291
     1
 45
0.0
1001
ACAD
1000
AcDbSavedByObjectVersion
1070
     0
  0
VISUALSTYLE
  5
3A
102
{ACAD_REACTORS
330
2A
102
}
330
2A
100
AcDbVisualStyle
  2
ColorChange
 70
    16
 71
     2
 72
     2
 73
     3
 90
        0
 40
-0.6
 41
-30.0
 62
     5
 63
     8
421
  8421504
 74
     1
 91
        4
 64
     7
 65
   257
 75
     1
175
     1
 42
1.0
 92
        8
 66
     8
424
  8421504
 43
1.0
 76
     1
 77
     6
 78
     2
 67
     7
 79
     5
170
     0
171
     0
290
     0
174
     0
 93
        1
 44
0.0
173
     0
291
     1
 45
0.0
1001
ACAD
1000
AcDbSavedByObjectVersion
1070
     0
  0
VISUALSTYLE
  5
34
102
{ACAD_REACTORS
330
2A
102
}
330
2A
100
AcDbVisualStyle
  2
Conceptual
 70
     9
 71
     3
 72
     2
 73
     0
 90
        0
 40
-0.6
 41
-30.0
 62
     5
 63
     7
421
 16777215
 74
     2
 91
        2
 64
     7
 65
   257
 75
     1
175
     1
 42
40.0
 92
        8
 66
     7
 43
1.0
 76
     1
 77
     6
 78
     2
 67
     7
 79
     3
170
     0
171
     0
290
     0
174
     0
 93
        1
 44
0.0
173
     0
291
     0
 45
0.0
1001
ACAD
1000
AcDbSavedByObjectVersion
1070
     0
  0
VISUALSTYLE
  5
35
102
{ACAD_REACTORS
330
2A
102
}
330
2A
100
AcDbVisualStyle
  2
Dim
 70
    11
 71
     2
 72
     2
 73
     0
 90
        0
 40
-0.6
 41
-30.0
 62
     5
 63
     7
421
 16777215
 74
     1
 91
        4
 64
     7
 65
   257
 75
     1
175
     1
 42
1.0
 92
        8
 66
     7
 43
1.0
 76
     1
 77
     6
 78
     2
 67
     7
 79
     5
170
     0
171
     0
290
     0
174
     0
 93
        1
 44
-50.0
173
     0
291
     1
 45
0.0
1001
ACAD
1000
AcDbSavedByObjectVersion
1070
     0
  0
VISUALSTYLE
  5
39
102
{ACAD_REACTORS
330
2A
102
}
330
2A
100
AcDbVisualStyle
  2
Facepattern
 70
    15
 71
     2
 72
     2
 73
     0
 90
        0
 40
-0.6
 41
-30.0
 62
     5
 63
     7
421
 16777215
 74
     1
 91
        4
 64
     7
 65
   257
 75
     1
175
     1
 42
1.0
 92
        8
 66
     7
 43
1.0
 76
     1
 77
     6
 78
     2
 67
     7
 79
     5
170
     0
171
     0
290
     0
174
     0
 93
        1
 44
0.0
173
     0
291
     1
 45
0.0
1001
ACAD
1000
AcDbSavedByObjectVersion
1070
     0
  0
VISUALSTYLE
  5
2B
102
{ACAD_REACTORS
330
2A
102
}
330
2A
100
AcDbVisualStyle
  2
Flat
 70
     0
 71
     2
 72
     1
 73
     1
 90
        2
 40
-0.6
 41
30.0
 62
     5
 63
     7
421
 16777215
 74
     0
 91
        4
 64
     7
 65
   257
 75
     1
175
     1
 42
1.0
 92
        8
 66
     7
 43
1.0
 76
     1
 77
     6
 78
     2
 67
     7
 79
     5
170
     0
171
     0
290
     0
174
     0
 93
       13
 44
0.0
173
     0
291
     1
 45
0.0
1001
ACAD
1000
AcDbSavedByObjectVersion
1070
     0
  0
VISUALSTYLE
  5
2C
102
{ACAD_REACTORS
330
2A
102
}
330
2A
100
AcDbVisualStyle
  2
FlatWithEdges
 70
     1
 71
     2
 72
     1
 73
     1
 90
        2
 40
-0.6
 41
30.0
 62
     5
 63
     7
421
 16777215
 74
     1
 91
        4
 64
     7
 65
   257
 75
     1
175
     1
 42
1.0
 92
        0
 66
   257
 43
1.0
 76
     1
 77
     6
 78
     2
 67
     7
 79
     5
170
     0
171
     0
290
     0
174
     0
 93
       13
 44
0.0
173
     0
291
     1
 45
0.0
1001
ACAD
1000
AcDbSavedByObjectVersion
1070
     0
  0
VISUALSTYLE
  5
2D
102
{ACAD_REACTORS
330
2A
102
}
330
2A
100
AcDbVisualStyle
  2
Gouraud
 70
     2
 71
     2
 72
     2
 73
     1
 90
        2
 40
-0.6
 41
30.0
 62
     5
 63
     7
421
 16777215
 74
     0
 91
        4
 64
     7
 65
   257
 75
     1
175
     1
 42
1.0
 92
        0
 66
     7
 43
1.0
 76
     1
 77
     6
 78
     2
 67
     7
 79
     5
170
     0
171
     0
290
     0
174
     0
 93
       13
 44
0.0
173
     0
291
     1
 45
0.0
1001
ACAD
1000
AcDbSavedByObjectVersion
1070
     0
  0
VISUALSTYLE
  5
2E
102
{ACAD_REACTORS
330
2A
102
}
330
2A
100
AcDbVisualStyle
  2
GouraudWithEdges
 70
     3
 71
     2
 72
     2
 73
     1
 90
        2
 40
-0.6
 41
30.0
 62
     5
 63
     7
421
 16777215
 74
     1
 91
        4
 64
     7
 65
   257
 75
     1
175
     1
 42
1.0
 92
        0
 66
   257
 43
1.0
 76
     1
 77
     6
 78
     2
 67
     7
 79
     5
170
     0
171
     0
290
     0
174
     0
 93
       13
 44
0.0
173
     0
291
     1
 45
0.0
1001
ACAD
1000
AcDbSavedByObjectVersion
1070
     0
  0
VISUALSTYLE
  5
38
102
{ACAD_REACTORS
330
2A
102
}
330
2A
100
AcDbVisualStyle
  2
Linepattern
 70
    14
 71
     2
 72
     2
 73
     0
 90
        0
 40
-0.6
 41
-30.0
 62
     5
 63
     7
421
 16777215
 74
     1
 91
        4
 64
     7
 65
   257
 75
     7
175
     7
 42
1.0
 92
        8
 66
     7
 43
1.0
 76
     1
 77
     6
 78
     2
 67
     7
 79
     5
170
     0
171
     0
290
     0
174
     0
 93
        1
 44
0.0
173
     0
291
     1
 45
0.0
1001
ACAD
1000
AcDbSavedByObjectVersion
1070
     0
  0
VISUALSTYLE
  5
33
102
{ACAD_REACTORS
330
2A
102
}
330
2A
100
AcDbVisualStyle
  2
Realistic
 70
     8
 71
     2
 72
     2
 73
     0
 90
        0
 40
-0.6
 41
-30.0
 62
     5
 63
     7
421
 16777215
 74
     1
 91
        0
 64
     7
 65
   257
 75
     1
175
     1
 42
1.0
 92
        8
 66
     8
424
  7895160
 43
1.0
 76
     1
 77
     6
 78
     2
 67
     7
 79
     5
170
     0
171
     0
290
     0
174
     0
 93
       13
 44
0.0
173
     0
291
     0
 45
0.0
1001
ACAD
1000
AcDbSavedByObjectVersion
1070
     0
  0
VISUALSTYLE
  5
37
102
{ACAD_REACTORS
330
2A
102
}
330
2A
100
AcDbVisualStyle
  2
Thicken
 70
    13
 71
     2
 72
     2
 73
     0
 90
        0
 40
-0.6
 41
-30.0
 62
     5
 63
     7
421
 16777215
 74
     1
 91
        4
 64
     7
 65
   257
 75
     1
175
     1
 42
1.0
 92
       12
 66
     7
 43
1.0
 76
     1
 77
     6
 78
     2
 67
     7
 79
     5
170
     0
171
     0
290
     0
174
     0
 93
        1
 44
0.0
173
     0
291
     1
 45
0.0
1001
ACAD
1000
AcDbSavedByObjectVersion
1070
     0
  0
DICTIONARYVAR
  5
19F
102
{ACAD_REACTORS
330
19E
102
}
330
19E
100
DictionaryVariables
280
     0
  1
1:1
  0
ENDSEC
  0
EOF
