  0
SECTION
  2
HEADER
  9
$ACADVER
  1
AC1009
  9
$INSBASE
 10
0.0
 20
0.0
 30
0.0
  9
$EXTMIN
 10
-17.65059415052259
 20
-19.85259999999997
 30
0.0
  9
$EXTMAX
 10
61.70029999999997
 20
33.751017716204238
 30
0.0
  9
$LIMMIN
 10
0.0
 20
0.0
  9
$LIMMAX
 10
12.0
 20
9.0
  9
$ORTHOMODE
 70
     1
  9
$REGENMODE
 70
     1
  9
$FILLMODE
 70
     1
  9
$QTEXTMODE
 70
     0
  9
$MIRRTEXT
 70
     1
  9
$DRAGMODE
 70
     2
  9
$LTSCALE
 40
1.0
  9
$OSMODE
 70
     1
  9
$ATTMODE
 70
     1
  9
$TEXTSIZE
 40
0.2
  9
$TRACEWID
 40
0.05
  9
$TEXTSTYLE
  7
STANDARD
  9
$CLAYER
  8
0
  9
$CELTYPE
  6
CONTINUOUS
  9
$CECOLOR
 62
   256
  9
$DIMSCALE
 40
96.0
  9
$DIMASZ
 40
1.8
  9
$DIMEXO
 40
0.625
  9
$DIMDLI
 40
3.7999999999999989
  9
$DIMRND
 40
0.0
  9
$DIMDLE
 40
0.0
  9
$DIMEXE
 40
1.8
  9
$DIMTP
 40
0.0
  9
$DIMTM
 40
0.0
  9
$DIMTXT
 40
3.0
  9
$DIMCEN
 40
0.9
  9
$DIMTSZ
 40
0.0
  9
$DIMTOL
 70
     0
  9
$DIMLIM
 70
     0
  9
$DIMTIH
 70
     0
  9
$DIMTOH
 70
     0
  9
$DIMSE1
 70
     0
  9
$DIMSE2
 70
     0
  9
$DIMTAD
 70
     1
  9
$DIMZIN
 70
    12
  9
$DIMBLK
  1
OBLIQUE
  9
$DIMASO
 70
     1
  9
$DIMSHO
 70
     1
  9
$DIMPOST
  1

  9
$DIMAPOST
  1

  9
$DIMALT
 70
     0
  9
$DIMALTD
 70
     2
  9
$DIMALTF
 40
25.399999999999999
  9
$DIMLFAC
 40
1.0
  9
$DIMTOFL
 70
     0
  9
$DIMTVP
 40
0.0
  9
$DIMTIX
 70
     0
  9
$DIMSOXD
 70
     0
  9
$DIMSAH
 70
     0
  9
$DIMBLK1
  1

  9
$DIMBLK2
  1

  9
$DIMSTYLE
  2
COTATION-JACOB-DELAFON
  9
$DIMCLRD
 70
     0
  9
$DIMCLRE
 70
     0
  9
$DIMCLRT
 70
     0
  9
$DIMTFAC
 40
1.0
  9
$DIMGAP
 40
0.9
  9
$LUNITS
 70
     2
  9
$LUPREC
 70
     4
  9
$SKETCHINC
 40
0.1
  9
$FILLETRAD
 40
0.0
  9
$AUNITS
 70
     0
  9
$AUPREC
 70
     2
  9
$MENU
  1
.
  9
$ELEVATION
 40
0.0
  9
$PELEVATION
 40
0.0
  9
$THICKNESS
 40
0.0
  9
$LIMCHECK
 70
     0
  9
$BLIPMODE
 70
     0
  9
$CHAMFERA
 40
0.0
  9
$CHAMFERB
 40
0.0
  9
$SKPOLY
 70
     0
  9
$TDCREATE
 40
2453041.4882632061
  9
$TDUPDATE
 40
2453076.7393596182
  9
$TDINDWG
 40
0.0615827199
  9
$TDUSRTIMER
 40
0.0615827199
  9
$USRTIMER
 70
     1
  9
$ANGBASE
 50
0.0
  9
$ANGDIR
 70
     0
  9
$PDMODE
 70
     0
  9
$PDSIZE
 40
0.0
  9
$PLINEWID
 40
0.0
  9
$COORDS
 70
     1
  9
$SPLFRAME
 70
     0
  9
$SPLINETYPE
 70
     6
  9
$SPLINESEGS
 70
     8
  9
$ATTDIA
 70
     1
  9
$ATTREQ
 70
     1
  9
$HANDLING
 70
 22529
  9
$HANDSEED
  5
223
  9
$SURFTAB1
 70
     6
  9
$SURFTAB2
 70
     6
  9
$SURFTYPE
 70
     6
  9
$SURFU
 70
     6
  9
$SURFV
 70
     6
  9
$UCSNAME
  2

  9
$UCSORG
 10
0.0
 20
0.0
 30
0.0
  9
$UCSXDIR
 10
1.0
 20
0.0
 30
0.0
  9
$UCSYDIR
 10
0.0
 20
1.0
 30
0.0
  9
$PUCSNAME
  2

  9
$PUCSORG
 10
0.0
 20
0.0
 30
0.0
  9
$PUCSXDIR
 10
1.0
 20
0.0
 30
0.0
  9
$PUCSYDIR
 10
0.0
 20
1.0
 30
0.0
  9
$USERI1
 70
     0
  9
$USERI2
 70
     0
  9
$USERI3
 70
     0
  9
$USERI4
 70
     0
  9
$USERI5
 70
     0
  9
$USERR1
 40
0.0
  9
$USERR2
 40
0.0
  9
$USERR3
 40
0.0
  9
$USERR4
 40
0.0
  9
$USERR5
 40
0.0
  9
$WORLDVIEW
 70
     1
  9
$SHADEDGE
 70
     3
  9
$SHADEDIF
 70
    70
  9
$TILEMODE
 70
     1
  9
$MAXACTVP
 70
    64
  9
$PLIMCHECK
 70
     0
  9
$PEXTMIN
 10
-20.175488283089521
 20
0.7730833076116604
 30
0.0
  9
$PEXTMAX
 10
772.93715706799219
 20
117.6603719554827
 30
0.0
  9
$PLIMMIN
 10
-0.1979161059762549
 20
-0.2679166643638311
  9
$PLIMMAX
 10
11.493750144177531
 20
7.9987497780266699
  9
$UNITMODE
 70
     0
  9
$VISRETAIN
 70
     1
  9
$PLINEGEN
 70
     0
  9
$PSLTSCALE
 70
     1
  0
ENDSEC
  0
SECTION
  2
TABLES
  0
TABLE
  2
VPORT
 70
     2
  0
VPORT
  2
*ACTIVE
 70
     0
 10
0.0
 20
0.0
 11
1.0
 21
1.0
 12
24.745105630773612
 22
6.9492088581021392
 13
0.0
 23
0.0
 14
1.0
 24
1.0
 15
0.0
 25
0.0
 16
0.0
 26
0.0
 36
1.0
 17
0.0
 27
0.0
 37
0.0
 40
54.222120997545026
 41
1.928853754940711
 42
50.0
 43
0.0
 44
0.0
 50
0.0
 51
0.0
 71
     0
 72
   100
 73
     1
 74
     1
 75
     0
 76
     0
 77
     0
 78
     0
  0
ENDTAB
  0
TABLE
  2
LTYPE
 70
     1
  0
LTYPE
  2
CONTINUOUS
 70
     0
  3
Solid line
 72
    65
 73
     0
 40
0.0
  0
ENDTAB
  0
TABLE
  2
LAYER
 70
     3
  0
LAYER
  2
0
 70
     0
 62
     7
  6
CONTINUOUS
  0
LAYER
  2
DEFPOINTS
 70
     0
 62
     7
  6
CONTINUOUS
  0
LAYER
  2
COTATION-JACOBDELAFON
 70
     0
 62
     8
  6
CONTINUOUS
  0
ENDTAB
  0
TABLE
  2
STYLE
 70
     2
  0
STYLE
  2
STANDARD
 70
     0
 40
0.0
 41
1.0
 50
0.0
 71
     0
 42
0.2
  3
txt
  4

  0
STYLE
  2
JACOB-DELAFON
 70
     0
 40
0.0
 41
1.0
 50
0.0
 71
     0
 42
2.5
  3
txt
  4

  0
ENDTAB
  0
TABLE
  2
VIEW
 70
     0
  0
ENDTAB
  0
TABLE
  2
UCS
 70
     0
  0
ENDTAB
  0
TABLE
  2
APPID
 70
     5
  0
APPID
  2
ACAD
 70
     0
  0
APPID
  2
ADCADD_ZZ
 70
     0
  0
APPID
  2
SDSK_PMN
 70
     0
  0
APPID
  2
AEC_DWGVARSSETUP_DATA
 70
     0
  0
APPID
  2
AEC_DISPREPSET_DATA
 70
     0
  0
ENDTAB
  0
TABLE
  2
DIMSTYLE
 70
     2
  0
DIMSTYLE
  2
STANDARD
 70
     0
  3

  4

  5

  6

  7

 40
1.0
 41
0.18
 42
0.0625
 43
0.38
 44
0.18
 45
0.0
 46
0.0
 47
0.0
 48
0.0
140
0.18
141
0.09
142
0.0
143
25.399999999999999
144
1.0
145
0.0
146
1.0
147
0.09
 71
     0
 72
     0
 73
     1
 74
     1
 75
     0
 76
     0
 77
     0
 78
     0
170
     0
171
     2
172
     0
173
     0
174
     0
175
     0
176
     0
177
     0
178
     0
  0
DIMSTYLE
  2
COTATION-JACOB-DELAFON
 70
     0
  3

  4

  5
OBLIQUE
  6

  7

 40
1.0
 41
1.8
 42
0.625
 43
3.7999999999999989
 44
1.8
 45
0.0
 46
0.0
 47
0.0
 48
0.0
140
3.0
141
0.9
142
0.0
143
25.399999999999999
144
1.0
145
0.0
146
1.0
147
0.9
 71
     0
 72
     0
 73
     0
 74
     0
 75
     0
 76
     0
 77
     1
 78
    12
170
     0
171
     2
172
     0
173
     0
174
     0
175
     0
176
     0
177
     0
178
     0
  0
ENDTAB
  0
ENDSEC
  0
SECTION
  2
BLOCKS
  0
BLOCK
  8
0
  2
$MODEL_SPACE
 70
     0
 10
0.0
 20
0.0
 30
0.0
  3
$MODEL_SPACE
  1

  0
ENDBLK
  5
32
  8
0
  0
BLOCK
 67
     1
  8
0
  2
$PAPER_SPACE
 70
     0
 10
0.0
 20
0.0
 30
0.0
  3
$PAPER_SPACE
  1

  0
ENDBLK
  5
37
 67
     1
  8
0
  0
BLOCK
  8
0
  2
_OBLIQUE
 70
     0
 10
0.0
 20
0.0
 30
0.0
  3
_OBLIQUE
  1

  0
LINE
  5
16
  8
0
  6
BYBLOCK
 62
     0
 10
-0.5
 20
-0.5
 30
0.0
 11
0.5
 21
0.5
 31
0.0
  0
ENDBLK
  5
17
  8
0
  0
BLOCK
  8
0
  2
*D1
 70
     1
 10
0.0
 20
0.0
 30
0.0
  3
*D1
  1

  0
LINE
  5
1A
  8
COTATION-JACOBDELAFON
 62
     0
 10
0.0000000000000018
 20
19.067399999999999
 30
0.0
 11
0.0000000000000025
 21
30.799721672548038
 31
0.0
  0
LINE
  5
1B
  8
COTATION-JACOBDELAFON
 62
     0
 10
60.800299999999979
 20
0.6261000000000117
 30
0.0
 11
60.800299999999979
 21
30.799721672548038
 31
0.0
  0
LINE
  5
1C
  8
COTATION-JACOBDELAFON
 62
     0
 10
0.0000000000000024
 20
28.999721672548041
 30
0.0
 11
60.800299999999979
 21
28.999721672548041
 31
0.0
  0
INSERT
  5
1D
  8
COTATION-JACOBDELAFON
 62
     0
  2
_OBLIQUE
 10
0.0000000000000024
 20
28.999721672548041
 30
0.0
 41
1.8
 42
1.8
 43
1.8
 50
180.0
  0
INSERT
  5
1E
  8
COTATION-JACOBDELAFON
 62
     0
  2
_OBLIQUE
 10
60.800299999999979
 20
28.999721672548041
 30
0.0
 41
1.8
 42
1.8
 43
1.8
  0
TEXT
  5
1F
  8
0
  6
CONTINUOUS
 62
     0
 10
26.33500675306956
 20
29.957020444717209
 30
0.0
 40
3.0
  1
60.8
  7
JACOB-DELAFON
  0
POINT
  5
20
  8
DEFPOINTS
 62
     0
 10
0.0000000000000018
 20
18.442399999999999
 30
0.0
  0
POINT
  5
22
  8
DEFPOINTS
 62
     0
 10
60.800299999999979
 20
0.0011000000000116
 30
0.0
  0
POINT
  5
23
  8
DEFPOINTS
 62
     0
 10
60.800299999999979
 20
28.999721672548041
 30
0.0
  0
ENDBLK
  5
24
  8
0
  0
BLOCK
  8
0
  2
*D2
 70
     1
 10
0.0
 20
0.0
 30
0.0
  3
*D2
  1

  0
LINE
  5
28
  8
COTATION-JACOBDELAFON
 62
     0
 10
-0.4253000000000227
 20
-18.952599999999968
 30
0.0
 11
-14.69725172214606
 21
-18.952599999999968
 31
0.0
  0
LINE
  5
29
  8
COTATION-JACOBDELAFON
 62
     0
 10
-0.4253000000000195
 20
18.642599999999991
 30
0.0
 11
-14.697251722146049
 21
18.642599999999991
 31
0.0
  0
LINE
  5
2A
  8
COTATION-JACOBDELAFON
 62
     0
 10
-12.89725172214605
 20
-18.952599999999968
 30
0.0
 11
-12.89725172214605
 21
18.642599999999991
 31
0.0
  0
INSERT
  5
2B
  8
COTATION-JACOBDELAFON
 62
     0
  2
_OBLIQUE
 10
-12.89725172214605
 20
-18.952599999999968
 30
0.0
 41
1.8
 42
1.8
 43
1.8
 50
270.0
  0
INSERT
  5
2C
  8
COTATION-JACOBDELAFON
 62
     0
  2
_OBLIQUE
 10
-12.89725172214605
 20
18.642599999999991
 30
0.0
 41
1.8
 42
1.8
 43
1.8
 50
90.0
  0
TEXT
  5
2D
  8
0
  6
CONTINUOUS
 62
     0
 10
-13.856596879035539
 20
-4.22525920873123
 30
0.0
 40
3.0
  1
37.6
 50
90.0
  7
JACOB-DELAFON
  0
POINT
  5
2E
  8
DEFPOINTS
 62
     0
 10
0.1996999999999773
 20
-18.952599999999968
 30
0.0
  0
POINT
  5
2F
  8
DEFPOINTS
 62
     0
 10
0.1996999999999804
 20
18.642599999999991
 30
0.0
  0
POINT
  5
30
  8
DEFPOINTS
 62
     0
 10
-12.89725172214605
 20
18.642599999999991
 30
0.0
  0
ENDBLK
  5
31
  8
0
  0
BLOCK
  8
0
  2
ADCADD_ZZ
 70
     0
 10
0.0
 20
0.0
 30
0.0
  3
ADCADD_ZZ
  1

  0
ENDBLK
  5
73
  8
0
  0
ENDSEC
  0
SECTION
  2
ENTITIES
  0
POLYLINE
  5
9
  8
0
  6
CONTINUOUS
 66
     1
 10
0.0
 20
0.0
 30
0.0
  0
VERTEX
  5
1CA
  8
0
  6
CONTINUOUS
 10
9.3879999999999821
 20
6.774300000000002
 30
0.0
  0
VERTEX
  5
1CB
  8
0
  6
CONTINUOUS
 10
10.134399999999991
 20
6.702900000000005
 30
0.0
  0
VERTEX
  5
1CC
  8
0
  6
CONTINUOUS
 10
10.86969999999998
 20
6.5111999999999943
 30
0.0
  0
VERTEX
  5
1CD
  8
0
  6
CONTINUOUS
 10
11.58009999999997
 20
6.218099999999998
 30
0.0
  0
VERTEX
  5
1CE
  8
0
  6
CONTINUOUS
 10
12.25239999999998
 20
5.8425000000000074
 30
0.0
  0
VERTEX
  5
1CF
  8
0
  6
CONTINUOUS
 10
13.375599999999981
 20
5.3493999999999939
 30
0.0
  0
VERTEX
  5
1D0
  8
0
  6
CONTINUOUS
 10
14.275199999999989
 20
4.8267999999999969
 30
0.0
  0
VERTEX
  5
1D1
  8
0
  6
CONTINUOUS
 10
15.1287
 20
4.274300000000002
 30
0.0
  0
VERTEX
  5
1D2
  8
0
  6
CONTINUOUS
 10
16.11389999999998
 20
3.6916999999999889
 30
0.0
  0
VERTEX
  5
1D3
  8
0
  6
CONTINUOUS
 10
17.277100000000011
 20
3.0819999999999852
 30
0.0
  0
VERTEX
  5
1D4
  8
0
  6
CONTINUOUS
 10
18.489599999999999
 20
2.484599999999991
 30
0.0
  0
VERTEX
  5
1D5
  8
0
  6
CONTINUOUS
 10
19.779699999999981
 20
1.9154000000000111
 30
0.0
  0
VERTEX
  5
1D6
  8
0
  6
CONTINUOUS
 10
21.175299999999989
 20
1.390099999999995
 30
0.0
  0
VERTEX
  5
1D7
  8
0
  6
CONTINUOUS
 10
22.439099999999989
 20
0.9430000000000035
 30
0.0
  0
VERTEX
  5
1D8
  8
0
  6
CONTINUOUS
 10
23.739199999999979
 20
0.5800999999999931
 30
0.0
  0
VERTEX
  5
1D9
  8
0
  6
CONTINUOUS
 10
25.06179999999998
 20
0.3199000000000096
 30
0.0
  0
SEQEND
  5
1DA
  8
0
  6
CONTINUOUS
  0
POLYLINE
  5
A
  8
0
  6
CONTINUOUS
 66
     1
 10
0.0
 20
0.0
 30
0.0
  0
VERTEX
  5
1DB
  8
0
  6
CONTINUOUS
 10
9.3879999999999821
 20
-6.7721000000000018
 30
0.0
  0
VERTEX
  5
1DC
  8
0
  6
CONTINUOUS
 10
10.134399999999991
 20
-6.7005999999999881
 30
0.0
  0
VERTEX
  5
1DD
  8
0
  6
CONTINUOUS
 10
10.86969999999998
 20
-6.508900000000005
 30
0.0
  0
VERTEX
  5
1DE
  8
0
  6
CONTINUOUS
 10
11.58009999999997
 20
-6.2157999999999953
 30
0.0
  0
VERTEX
  5
1DF
  8
0
  6
CONTINUOUS
 10
12.25239999999998
 20
-5.8402000000000029
 30
0.0
  0
VERTEX
  5
1E0
  8
0
  6
CONTINUOUS
 10
13.375599999999981
 20
-5.3471999999999937
 30
0.0
  0
VERTEX
  5
1E1
  8
0
  6
CONTINUOUS
 10
14.275199999999989
 20
-4.82449999999998
 30
0.0
  0
VERTEX
  5
1E2
  8
0
  6
CONTINUOUS
 10
15.1287
 20
-4.2721000000000018
 30
0.0
  0
VERTEX
  5
1E3
  8
0
  6
CONTINUOUS
 10
16.11389999999998
 20
-3.6894000000000138
 30
0.0
  0
VERTEX
  5
1E4
  8
0
  6
CONTINUOUS
 10
17.277100000000011
 20
-3.0796999999999821
 30
0.0
  0
VERTEX
  5
1E5
  8
0
  6
CONTINUOUS
 10
18.489599999999999
 20
-2.4824000000000059
 30
0.0
  0
VERTEX
  5
1E6
  8
0
  6
CONTINUOUS
 10
19.779699999999981
 20
-1.9130999999999789
 30
0.0
  0
VERTEX
  5
1E7
  8
0
  6
CONTINUOUS
 10
21.175299999999989
 20
-1.3878999999999959
 30
0.0
  0
VERTEX
  5
1E8
  8
0
  6
CONTINUOUS
 10
22.439099999999989
 20
-0.9408000000000043
 30
0.0
  0
VERTEX
  5
1E9
  8
0
  6
CONTINUOUS
 10
23.739199999999979
 20
-0.5778000000000049
 30
0.0
  0
VERTEX
  5
1EA
  8
0
  6
CONTINUOUS
 10
25.06179999999998
 20
-0.3175999999999932
 30
0.0
  0
SEQEND
  5
1EB
  8
0
  6
CONTINUOUS
  0
POLYLINE
  5
B
  8
0
  6
CONTINUOUS
 66
     1
 10
0.0
 20
0.0
 30
0.0
 70
     1
  0
VERTEX
  5
1EC
  8
0
  6
CONTINUOUS
 10
27.509199999999979
 20
-17.434799999999989
 30
0.0
  0
VERTEX
  5
1ED
  8
0
  6
CONTINUOUS
 10
50.27229999999998
 20
-17.433599999999998
 30
0.0
  0
VERTEX
  5
1EE
  8
0
  6
CONTINUOUS
 10
52.92179999999999
 20
-17.06379999999999
 30
0.0
  0
VERTEX
  5
1EF
  8
0
  6
CONTINUOUS
 10
55.293599999999977
 20
-16.020299999999992
 30
0.0
  0
VERTEX
  5
1F0
  8
0
  6
CONTINUOUS
 10
57.303099999999993
 20
-14.39169999999999
 30
0.0
  0
VERTEX
  5
1F1
  8
0
  6
CONTINUOUS
 10
58.855599999999988
 20
-12.296699999999991
 30
0.0
  0
VERTEX
  5
1F2
  8
0
  6
CONTINUOUS
 10
59.860099999999989
 20
-9.0075999999999912
 30
0.0
  0
VERTEX
  5
1F3
  8
0
  6
CONTINUOUS
 10
60.120099999999979
 20
-4.5843000000000087
 30
0.0
  0
VERTEX
  5
1F4
  8
0
  6
CONTINUOUS
 10
60.301799999999979
 20
0.0011000000000115
 30
0.0
  0
VERTEX
  5
1F5
  8
0
  6
CONTINUOUS
 10
60.120099999999979
 20
4.5865000000000036
 30
0.0
  0
VERTEX
  5
1F6
  8
0
  6
CONTINUOUS
 10
59.860099999999989
 20
9.0097999999999878
 30
0.0
  0
VERTEX
  5
1F7
  8
0
  6
CONTINUOUS
 10
58.855599999999988
 20
11.99889999999999
 30
0.0
  0
VERTEX
  5
1F8
  8
0
  6
CONTINUOUS
 10
57.303099999999993
 20
14.093899999999991
 30
0.0
  0
VERTEX
  5
1F9
  8
0
  6
CONTINUOUS
 10
55.293599999999977
 20
15.71249999999999
 30
0.0
  0
VERTEX
  5
1FA
  8
0
  6
CONTINUOUS
 10
52.92179999999999
 20
16.75599999999999
 30
0.0
  0
VERTEX
  5
1FB
  8
0
  6
CONTINUOUS
 10
50.27229999999998
 20
17.12579999999998
 30
0.0
  0
VERTEX
  5
1FC
  8
0
  6
CONTINUOUS
 10
27.509199999999979
 20
17.127099999999992
 30
0.0
  0
VERTEX
  5
1FD
  8
0
  6
CONTINUOUS
 10
19.31689999999999
 20
17.125799999999991
 30
0.0
  0
VERTEX
  5
1FE
  8
0
  6
CONTINUOUS
 10
16.67789999999998
 20
16.7577
 30
0.0
  0
VERTEX
  5
1FF
  8
0
  6
CONTINUOUS
 10
14.305599999999989
 20
15.7125
 30
0.0
  0
VERTEX
  5
200
  8
0
  6
CONTINUOUS
 10
12.29489999999999
 20
14.0962
 30
0.0
  0
VERTEX
  5
201
  8
0
  6
CONTINUOUS
 10
10.74359999999999
 20
11.99889999999999
 30
0.0
  0
VERTEX
  5
202
  8
0
  6
CONTINUOUS
 10
9.7427000000000064
 20
9.5270999999999972
 30
0.0
  0
VERTEX
  5
203
  8
0
  6
CONTINUOUS
 10
9.3879999999999821
 20
6.774300000000002
 30
0.0
  0
VERTEX
  5
204
  8
0
  6
CONTINUOUS
 10
9.3827999999999818
 20
0.0011000000000146
 30
0.0
  0
VERTEX
  5
205
  8
0
  6
CONTINUOUS
 10
9.3879999999999821
 20
-6.7721000000000018
 30
0.0
  0
VERTEX
  5
206
  8
0
  6
CONTINUOUS
 10
9.7427000000000064
 20
-9.5248000000000062
 30
0.0
  0
VERTEX
  5
207
  8
0
  6
CONTINUOUS
 10
10.74359999999999
 20
-12.296699999999991
 30
0.0
  0
VERTEX
  5
208
  8
0
  6
CONTINUOUS
 10
12.29489999999999
 20
-14.394
 30
0.0
  0
VERTEX
  5
209
  8
0
  6
CONTINUOUS
 10
14.305599999999981
 20
-16.020299999999992
 30
0.0
  0
VERTEX
  5
20A
  8
0
  6
CONTINUOUS
 10
16.67789999999998
 20
-17.065499999999979
 30
0.0
  0
VERTEX
  5
20B
  8
0
  6
CONTINUOUS
 10
19.31689999999999
 20
-17.433599999999998
 30
0.0
  0
SEQEND
  5
20C
  8
0
  6
CONTINUOUS
  0
POLYLINE
  5
C
  8
0
  6
CONTINUOUS
 66
     1
 10
0.0
 20
0.0
 30
0.0
 70
     1
  0
VERTEX
  5
20D
  8
0
  6
CONTINUOUS
 10
0.1996999999999775
 20
-18.952599999999968
 30
0.0
  0
VERTEX
  5
20E
  8
0
  6
CONTINUOUS
 10
0.0584999999999798
 20
-18.89389999999997
 30
0.0
  0
VERTEX
  5
20F
  8
0
  6
CONTINUOUS
 10
-0.0000000000000011
 20
-18.752399999999991
 30
0.0
  0
VERTEX
  5
210
  8
0
  6
CONTINUOUS
 10
0.0000000000000011
 20
18.442399999999999
 30
0.0
  0
VERTEX
  5
211
  8
0
  6
CONTINUOUS
 10
0.0584000000000072
 20
18.5839
 30
0.0
  0
VERTEX
  5
212
  8
0
  6
CONTINUOUS
 10
0.1996999999999798
 20
18.642599999999991
 30
0.0
  0
VERTEX
  5
213
  8
0
  6
CONTINUOUS
 10
58.623599999999982
 20
18.7011
 30
0.0
  0
VERTEX
  5
214
  8
0
  6
CONTINUOUS
 10
59.163599999999967
 20
18.448599999999981
 30
0.0
  0
VERTEX
  5
215
  8
0
  6
CONTINUOUS
 10
59.405499999999989
 20
17.904799999999991
 30
0.0
  0
VERTEX
  5
216
  8
0
  6
CONTINUOUS
 10
60.013899999999992
 20
13.49209999999999
 30
0.0
  0
VERTEX
  5
217
  8
0
  6
CONTINUOUS
 10
60.44909999999998
 20
9.0607000000000006
 30
0.0
  0
VERTEX
  5
218
  8
0
  6
CONTINUOUS
 10
60.710399999999979
 20
4.615599999999989
 30
0.0
  0
VERTEX
  5
219
  8
0
  6
CONTINUOUS
 10
60.800299999999979
 20
0.0011000000000115
 30
0.0
  0
VERTEX
  5
21A
  8
0
  6
CONTINUOUS
 10
60.710399999999979
 20
-4.6133999999999951
 30
0.0
  0
VERTEX
  5
21B
  8
0
  6
CONTINUOUS
 10
60.44909999999998
 20
-9.0584000000000024
 30
0.0
  0
VERTEX
  5
21C
  8
0
  6
CONTINUOUS
 10
60.013899999999992
 20
-13.78979999999998
 30
0.0
  0
VERTEX
  5
21D
  8
0
  6
CONTINUOUS
 10
59.405499999999989
 20
-18.212499999999999
 30
0.0
  0
VERTEX
  5
21E
  8
0
  6
CONTINUOUS
 10
59.163599999999967
 20
-18.7563
 30
0.0
  0
VERTEX
  5
21F
  8
0
  6
CONTINUOUS
 10
58.623599999999982
 20
-19.008900000000001
 30
0.0
  0
SEQEND
  5
220
  8
0
  6
CONTINUOUS
  0
CIRCLE
  5
D
  8
0
  6
CONTINUOUS
 10
27.491231939639562
 20
-0.0091064938280371
 30
0.0
 40
2.5030703607131439
  0
CIRCLE
  5
E
  8
0
  6
CONTINUOUS
 10
27.490535104982431
 20
0.0036874097911036
 30
0.0
 40
0.6224126804186168
  0
DIMENSION
  5
F
  8
COTATION-JACOBDELAFON
  2
*D1
 10
60.800299999999979
 20
28.999721672548041
 30
0.0
 11
30.400149999999989
 21
31.431440635713109
 31
0.0
 13
0.0000000000000018
 23
18.442399999999999
 33
0.0
 14
60.800299999999979
 24
0.0011000000000116
 34
0.0
  0
DIMENSION
  5
25
  8
COTATION-JACOBDELAFON
  2
*D2
 10
-12.89725172214605
 20
18.642599999999991
 30
0.0
 11
-15.32999387767129
 21
-0.1549999999999894
 31
0.0
 13
0.1996999999999773
 23
-18.952599999999968
 33
0.0
 14
0.1996999999999804
 24
18.642599999999991
 34
0.0
 50
90.0
  0
INSERT
  5
74
 67
     1
  8
0
  6
CONTINUOUS
  2
ADCADD_ZZ
 10
0.0
 20
0.0
 30
0.0
1001
ADCADD_ZZ
1070
   205
1070
    14
1070
   209
1070
     1
1070
   231
1070
     0
1070
   235
1070
     0
1070
   236
1070
     4
1070
   237
1070
     2
1070
   238
1070
     4
1070
   239
1070
     2
1070
   240
1070
     0
1070
   241
1070
  4096
1070
   242
1070
     2
1070
   244
1070
     0
1070
   245
1070
     1
1070
   303
1040
0.1
1070
   304
1040
4.0
1070
   305
1040
96.0
1070
   306
1040
0.125
1070
   337
1040
0.0
1070
   338
1040
0.3048
1070
   339
1040
0.0625
1070
   340
1040
96.0
1070
   341
1040
4.0
1070
   342
1040
96.0
1070
   530
1010
0.0
1020
0.0
1030
0.0
1070
   531
1010
0.0
1020
0.0
1030
0.0
1070
   107
1000

1070
   108
1000
AIA (256 Color)
1070
   135
1000
L120
1070
   136
1000
'
1070
   137
1000
m
1001
SDSK_PMN
1070
   100
1000
ACADARCH
1070
   300
1040
2453076.7393903579
  0
ENDSEC
  0
EOF
