  0
SECTION
  2
HEADER
  9
$ACADVER
  1
AC1014
  9
$ACADMAINTVER
 70
     9
  9
$DWGCODEPAGE
  3
ANSI_1252
  9
$INSBASE
 10
0.0
 20
0.0
 30
0.0
  9
$EXTMIN
 10
-16.13937972847048
 20
-19.65253562937357
 30
0.0
  9
$EXTMAX
 10
60.9
 20
33.5299199609207
 30
0.0
  9
$LIMMIN
 10
0.0
 20
0.0
  9
$LIMMAX
 10
420.0
 20
297.0
  9
$ORTHOMODE
 70
     1
  9
$REGENMODE
 70
     1
  9
$FILLMODE
 70
     1
  9
$QTEXTMODE
 70
     0
  9
$MIRRTEXT
 70
     1
  9
$DRAGMODE
 70
     2
  9
$LTSCALE
 40
1.0
  9
$OSMODE
 70
    35
  9
$ATTMODE
 70
     1
  9
$TEXTSIZE
 40
2.5
  9
$TRACEWID
 40
1.0
  9
$TEXTSTYLE
  7
STANDARD
  9
$CLAYER
  8
0
  9
$CELTYPE
  6
BYLAYER
  9
$CECOLOR
 62
   256
  9
$CELTSCALE
 40
1.0
  9
$DELOBJ
 70
     1
  9
$DISPSILH
 70
     0
  9
$DIMSCALE
 40
1.0
  9
$DIMASZ
 40
2.5
  9
$DIMEXO
 40
0.625
  9
$DIMDLI
 40
3.75
  9
$DIMRND
 40
0.0
  9
$DIMDLE
 40
0.0
  9
$DIMEXE
 40
1.25
  9
$DIMTP
 40
0.0
  9
$DIMTM
 40
0.0
  9
$DIMTXT
 40
2.5
  9
$DIMCEN
 40
2.5
  9
$DIMTSZ
 40
0.0
  9
$DIMTOL
 70
     0
  9
$DIMLIM
 70
     0
  9
$DIMTIH
 70
     0
  9
$DIMTOH
 70
     0
  9
$DIMSE1
 70
     0
  9
$DIMSE2
 70
     0
  9
$DIMTAD
 70
     1
  9
$DIMZIN
 70
     8
  9
$DIMBLK
  1

  9
$DIMASO
 70
     1
  9
$DIMSHO
 70
     1
  9
$DIMPOST
  1

  9
$DIMAPOST
  1

  9
$DIMALT
 70
     0
  9
$DIMALTD
 70
     3
  9
$DIMALTF
 40
0.03937007874016
  9
$DIMLFAC
 40
1.0
  9
$DIMTOFL
 70
     1
  9
$DIMTVP
 40
0.0
  9
$DIMTIX
 70
     0
  9
$DIMSOXD
 70
     0
  9
$DIMSAH
 70
     0
  9
$DIMBLK1
  1

  9
$DIMBLK2
  1

  9
$DIMSTYLE
  2
ISO-25
  9
$DIMCLRD
 70
     0
  9
$DIMCLRE
 70
     0
  9
$DIMCLRT
 70
     0
  9
$DIMTFAC
 40
1.0
  9
$DIMGAP
 40
0.625
  9
$DIMJUST
 70
     0
  9
$DIMSD1
 70
     0
  9
$DIMSD2
 70
     0
  9
$DIMTOLJ
 70
     0
  9
$DIMTZIN
 70
     8
  9
$DIMALTZ
 70
     0
  9
$DIMALTTZ
 70
     0
  9
$DIMFIT
 70
     3
  9
$DIMUPT
 70
     0
  9
$DIMUNIT
 70
     2
  9
$DIMDEC
 70
     2
  9
$DIMTDEC
 70
     2
  9
$DIMALTU
 70
     2
  9
$DIMALTTD
 70
     3
  9
$DIMTXSTY
  7
STANDARD
  9
$DIMAUNIT
 70
     0
  9
$LUNITS
 70
     2
  9
$LUPREC
 70
     4
  9
$SKETCHINC
 40
1.0
  9
$FILLETRAD
 40
10.0
  9
$AUNITS
 70
     0
  9
$AUPREC
 70
     0
  9
$MENU
  1
.
  9
$ELEVATION
 40
0.0
  9
$PELEVATION
 40
0.0
  9
$THICKNESS
 40
0.0
  9
$LIMCHECK
 70
     0
  9
$BLIPMODE
 70
     0
  9
$CHAMFERA
 40
10.0
  9
$CHAMFERB
 40
10.0
  9
$CHAMFERC
 40
20.0
  9
$CHAMFERD
 40
0.0
  9
$SKPOLY
 70
     0
  9
$TDCREATE
 40
2452716.522325370
  9
$TDUPDATE
 40
2452733.643750034
  9
$TDINDWG
 40
0.2062806366
  9
$TDUSRTIMER
 40
0.2062805208
  9
$USRTIMER
 70
     1
  9
$ANGBASE
 50
0.0
  9
$ANGDIR
 70
     0
  9
$PDMODE
 70
     0
  9
$PDSIZE
 40
0.0
  9
$PLINEWID
 40
0.0
  9
$COORDS
 70
     0
  9
$SPLFRAME
 70
     0
  9
$SPLINETYPE
 70
     6
  9
$SPLINESEGS
 70
     8
  9
$ATTDIA
 70
     1
  9
$ATTREQ
 70
     1
  9
$HANDLING
 70
 22529
  9
$HANDSEED
  5
1161
  9
$SURFTAB1
 70
     6
  9
$SURFTAB2
 70
     6
  9
$SURFTYPE
 70
     6
  9
$SURFU
 70
     6
  9
$SURFV
 70
     6
  9
$UCSNAME
  2

  9
$UCSORG
 10
0.0
 20
0.0
 30
0.0
  9
$UCSXDIR
 10
1.0
 20
0.0
 30
0.0
  9
$UCSYDIR
 10
0.0
 20
1.0
 30
0.0
  9
$PUCSNAME
  2

  9
$PUCSORG
 10
0.0
 20
0.0
 30
0.0
  9
$PUCSXDIR
 10
1.0
 20
0.0
 30
0.0
  9
$PUCSYDIR
 10
0.0
 20
1.0
 30
0.0
  9
$USERI1
 70
     0
  9
$USERI2
 70
     0
  9
$USERI3
 70
     0
  9
$USERI4
 70
     0
  9
$USERI5
 70
     0
  9
$USERR1
 40
0.0
  9
$USERR2
 40
0.0
  9
$USERR3
 40
0.0
  9
$USERR4
 40
0.0
  9
$USERR5
 40
0.0
  9
$WORLDVIEW
 70
     1
  9
$SHADEDGE
 70
     3
  9
$SHADEDIF
 70
    70
  9
$TILEMODE
 70
     1
  9
$MAXACTVP
 70
    48
  9
$PINSBASE
 10
0.0
 20
0.0
 30
0.0
  9
$PLIMCHECK
 70
     0
  9
$PEXTMIN
 10
1.000000000000000E+20
 20
1.000000000000000E+20
 30
1.000000000000000E+20
  9
$PEXTMAX
 10
-1.000000000000000E+20
 20
-1.000000000000000E+20
 30
-1.000000000000000E+20
  9
$PLIMMIN
 10
0.0
 20
0.0
  9
$PLIMMAX
 10
420.0
 20
297.0
  9
$UNITMODE
 70
     0
  9
$VISRETAIN
 70
     1
  9
$PLINEGEN
 70
     0
  9
$PSLTSCALE
 70
     1
  9
$TREEDEPTH
 70
  3020
  9
$PICKSTYLE
 70
     1
  9
$CMLSTYLE
  2
STANDARD
  9
$CMLJUST
 70
     0
  9
$CMLSCALE
 40
20.0
  9
$PROXYGRAPHICS
 70
     1
  9
$MEASUREMENT
 70
     1
  0
ENDSEC
  0
SECTION
  2
CLASSES
  0
CLASS
  1
ACDBDICTIONARYWDFLT
  2
AcDbDictionaryWithDefault
  3
AutoCAD 2000
 90
        0
280
     0
281
     0
  0
CLASS
  1
ACDBPLACEHOLDER
  2
AcDbPlaceHolder
  3
AutoCAD 2000
 90
        0
280
     0
281
     0
  0
CLASS
  1
LAYOUT
  2
AcDbLayout
  3
AutoCAD 2000
 90
        0
280
     0
281
     0
  0
CLASS
  1
DICTIONARYVAR
  2
AcDbDictionaryVar
  3
AutoCAD 2000
 90
        0
280
     0
281
     0
  0
CLASS
  1
LONG_TRANSACTION
  2
AcDbLongTransaction
  3
AutoCAD 2000
 90
        0
280
     0
281
     0
  0
CLASS
  1
LWPOLYLINE
  2
AcDbPolyline
  3
AutoCAD 2000
 90
        0
280
     0
281
     1
  0
CLASS
  1
HATCH
  2
AcDbHatch
  3
AutoCAD 2000
 90
        0
280
     0
281
     1
  0
CLASS
  1
XRECORD
  2
AcDbXrecord
  3
AutoCAD 2000
 90
        0
280
     0
281
     0
  0
CLASS
  1
LONG_TRANSACTION
  2
AcDbLongTransaction
  3
AutoCAD 2000
 90
        0
280
     0
281
     0
  0
CLASS
  1
LWPOLYLINE
  2
AcDbPolyline
  3
AutoCAD 2000
 90
        0
280
     0
281
     1
  0
CLASS
  1
HATCH
  2
AcDbHatch
  3
AutoCAD 2000
 90
        0
280
     0
281
     1
  0
CLASS
  1
XRECORD
  2
AcDbXrecord
  3
AutoCAD 2000
 90
        0
280
     0
281
     0
  0
CLASS
  1
LONG_TRANSACTION
  2
AcDbLongTransaction
  3
AutoCAD 2000
 90
        0
280
     0
281
     0
  0
CLASS
  1
LWPOLYLINE
  2
AcDbPolyline
  3
AutoCAD 2000
 90
        0
280
     0
281
     1
  0
CLASS
  1
HATCH
  2
AcDbHatch
  3
AutoCAD 2000
 90
        0
280
     0
281
     1
  0
CLASS
  1
XRECORD
  2
AcDbXrecord
  3
AutoCAD 2000
 90
        0
280
     0
281
     0
  0
ENDSEC
  0
SECTION
  2
TABLES
  0
TABLE
  2
VPORT
  5
8
330
0
100
AcDbSymbolTable
 70
     2
  0
VPORT
  5
113C
330
8
100
AcDbSymbolTableRecord
100
AcDbViewportTableRecord
  2
*ACTIVE
 70
     0
 10
0.0
 20
0.0
 11
1.0
 21
1.0
 12
3.39637453117637
 22
1.803102232474316
 13
0.0
 23
0.0
 14
10.0
 24
10.0
 15
10.0
 25
10.0
 16
0.0
 26
0.0
 36
1.0
 17
22.35782250756094
 27
5.924122641325019
 37
-1.005967430344769
 40
55.46327113721428
 41
1.797270955165692
 42
50.0
 43
0.0
 44
0.0
 50
0.0
 51
0.0
 71
     0
 72
   100
 73
     1
 74
     3
 75
     0
 76
     0
 77
     0
 78
     0
  0
ENDTAB
  0
TABLE
  2
LTYPE
  5
5
330
0
100
AcDbSymbolTable
 70
     1
  0
LTYPE
  5
14
330
5
100
AcDbSymbolTableRecord
100
AcDbLinetypeTableRecord
  2
BYBLOCK
 70
     0
  3

 72
    65
 73
     0
 40
0.0
  0
LTYPE
  5
15
330
5
100
AcDbSymbolTableRecord
100
AcDbLinetypeTableRecord
  2
BYLAYER
 70
     0
  3

 72
    65
 73
     0
 40
0.0
  0
LTYPE
  5
16
330
5
100
AcDbSymbolTableRecord
100
AcDbLinetypeTableRecord
  2
CONTINUOUS
 70
     0
  3
Solid line
 72
    65
 73
     0
 40
0.0
  0
ENDTAB
  0
TABLE
  2
LAYER
  5
2
330
0
100
AcDbSymbolTable
 70
     4
  0
LAYER
  5
10
330
2
100
AcDbSymbolTableRecord
100
AcDbLayerTableRecord
  2
0
 70
     0
 62
     7
  6
CONTINUOUS
  0
LAYER
  5
2E
330
2
100
AcDbSymbolTableRecord
100
AcDbLayerTableRecord
  2
ASHADE
 70
     4
 62
     7
  6
CONTINUOUS
  0
LAYER
  5
F48
330
2
100
AcDbSymbolTableRecord
100
AcDbLayerTableRecord
  2
DEFPOINTS
 70
     0
 62
     7
  6
CONTINUOUS
1001
ACAECLAYERSTANDARD
1000

  0
LAYER
  5
F49
330
2
100
AcDbSymbolTableRecord
100
AcDbLayerTableRecord
  2
COTATION-JACOBDELAFON
 70
     0
 62
     8
  6
CONTINUOUS
  0
ENDTAB
  0
TABLE
  2
STYLE
  5
3
330
0
100
AcDbSymbolTable
 70
     2
  0
STYLE
  5
11
330
3
100
AcDbSymbolTableRecord
100
AcDbTextStyleTableRecord
  2
STANDARD
 70
     0
 40
0.0
 41
1.0
 50
0.0
 71
     0
 42
2.5
  3
txt
  4

  0
STYLE
  5
F4A
330
3
100
AcDbSymbolTableRecord
100
AcDbTextStyleTableRecord
  2
JACOB-DELAFON
 70
     0
 40
0.0
 41
1.0
 50
0.0
 71
     0
 42
2.5
  3
ARIAL.TTF
  4

1001
ACAD
1000
Arial
1071
       34
  0
ENDTAB
  0
TABLE
  2
VIEW
  5
6
330
0
100
AcDbSymbolTable
 70
     0
  0
ENDTAB
  0
TABLE
  2
UCS
  5
7
330
0
100
AcDbSymbolTable
 70
     0
  0
ENDTAB
  0
TABLE
  2
APPID
  5
9
330
0
100
AcDbSymbolTable
 70
     7
  0
APPID
  5
12
330
9
100
AcDbSymbolTableRecord
100
AcDbRegAppTableRecord
  2
ACAD
 70
     0
  0
APPID
  5
2C
330
9
100
AcDbSymbolTableRecord
100
AcDbRegAppTableRecord
  2
AVE_RENDER
 70
     0
  0
APPID
  5
2D
330
9
100
AcDbSymbolTableRecord
100
AcDbRegAppTableRecord
  2
AVE_ENTITY_MATERIAL
 70
     0
  0
APPID
  5
3A
330
9
100
AcDbSymbolTableRecord
100
AcDbRegAppTableRecord
  2
AVE_FINISH
 70
     0
  0
APPID
  5
3B
330
9
100
AcDbSymbolTableRecord
100
AcDbRegAppTableRecord
  2
AVE_MATERIAL
 70
     0
  0
APPID
  5
3C
330
9
100
AcDbSymbolTableRecord
100
AcDbRegAppTableRecord
  2
AVE_GLOBAL
 70
     0
  0
APPID
  5
F4C
330
9
100
AcDbSymbolTableRecord
100
AcDbRegAppTableRecord
  2
ACAECLAYERSTANDARD
 70
     0
  0
ENDTAB
  0
TABLE
  2
DIMSTYLE
  5
A
330
0
100
AcDbSymbolTable
 70
     2
  0
DIMSTYLE
105
27
330
A
100
AcDbSymbolTableRecord
100
AcDbDimStyleTableRecord
  2
ISO-25
 70
     0
  3

  4

  5

  6

  7

 40
1.0
 41
2.5
 42
0.625
 43
3.75
 44
1.25
 45
0.0
 46
0.0
 47
0.0
 48
0.0
140
2.5
141
2.5
142
0.0
143
0.03937007874016
144
1.0
145
0.0
146
1.0
147
0.625
 71
     0
 72
     0
 73
     0
 74
     0
 75
     0
 76
     0
 77
     1
 78
     8
170
     0
171
     3
172
     1
173
     0
174
     0
175
     0
176
     0
177
     0
178
     0
270
     2
271
     2
272
     2
273
     2
274
     3
340
11
275
     0
280
     0
281
     0
282
     0
283
     0
284
     8
285
     0
286
     0
287
     3
288
     0
  0
DIMSTYLE
105
F4B
102
{ACAD_REACTORS
330
F55
330
F56
102
}
330
A
100
AcDbSymbolTableRecord
100
AcDbDimStyleTableRecord
  2
COTATION-JACOB-DELAFON
 70
     0
  3

  4

  5
OBLIQUE
  6

  7

 40
1.0
 41
1.8
 42
0.625
 43
3.799999999999999
 44
1.8
 45
0.0
 46
0.0
 47
0.0
 48
0.0
140
3.0
141
0.9
142
0.0
143
25.4
144
1.0
145
0.0
146
1.0
147
0.9
 71
     0
 72
     0
 73
     0
 74
     0
 75
     0
 76
     0
 77
     1
 78
    12
170
     0
171
     2
172
     0
173
     0
174
     0
175
     0
176
     0
177
     0
178
     0
270
     2
271
     2
272
     2
273
     2
274
     2
340
F4A
275
     0
280
     0
281
     0
282
     0
283
     1
284
     0
285
     0
286
     0
287
     5
288
     0
  0
ENDTAB
  0
TABLE
  2
BLOCK_RECORD
  5
1
330
0
100
AcDbSymbolTable
 70
     6
  0
BLOCK_RECORD
  5
1F
102
{ACAD_XDICTIONARY
360
10A6
102
}
330
1
100
AcDbSymbolTableRecord
100
AcDbBlockTableRecord
  2
*MODEL_SPACE
  0
BLOCK_RECORD
  5
1B
102
{ACAD_XDICTIONARY
360
10A8
102
}
330
1
100
AcDbSymbolTableRecord
100
AcDbBlockTableRecord
  2
*PAPER_SPACE
  0
BLOCK_RECORD
  5
2F
330
1
100
AcDbSymbolTableRecord
100
AcDbBlockTableRecord
  2
AVE_RENDER
  0
BLOCK_RECORD
  5
3D
330
1
100
AcDbSymbolTableRecord
100
AcDbBlockTableRecord
  2
AVE_GLOBAL
  0
BLOCK_RECORD
  5
F2C
330
1
100
AcDbSymbolTableRecord
100
AcDbBlockTableRecord
  2
_OBLIQUE
  0
BLOCK_RECORD
  5
F57
330
1
100
AcDbSymbolTableRecord
100
AcDbBlockTableRecord
  2
*D4
  0
BLOCK_RECORD
  5
F63
330
1
100
AcDbSymbolTableRecord
100
AcDbBlockTableRecord
  2
*D5
  0
ENDTAB
  0
ENDSEC
  0
SECTION
  2
BLOCKS
  0
BLOCK
  5
20
330
1F
100
AcDbEntity
  8
0
100
AcDbBlockBegin
  2
*MODEL_SPACE
 70
     0
 10
0.0
 20
0.0
 30
0.0
  3
*MODEL_SPACE
  1

  0
ENDBLK
  5
21
330
1F
100
AcDbEntity
  8
0
100
AcDbBlockEnd
  0
BLOCK
  5
1C
330
1B
100
AcDbEntity
 67
     1
  8
0
100
AcDbBlockBegin
  2
*PAPER_SPACE
 70
     0
 10
0.0
 20
0.0
 30
0.0
  3
*PAPER_SPACE
  1

  0
ENDBLK
  5
1D
330
1B
100
AcDbEntity
 67
     1
  8
0
100
AcDbBlockEnd
  0
BLOCK
  5
30
330
2F
100
AcDbEntity
  8
ASHADE
100
AcDbBlockBegin
  2
AVE_RENDER
 70
     0
 10
0.0
 20
0.0
 30
0.0
  3
AVE_RENDER
  1
AVE_RENDER
  0
ENDBLK
  5
31
330
2F
100
AcDbEntity
  8
0
100
AcDbBlockEnd
  0
BLOCK
  5
3E
330
3D
100
AcDbEntity
  8
ASHADE
100
AcDbBlockBegin
  2
AVE_GLOBAL
 70
     0
 10
0.0
 20
0.0
 30
0.0
  3
AVE_GLOBAL
  1
AVE_GLOBAL
  0
ENDBLK
  5
3F
330
3D
100
AcDbEntity
  8
0
100
AcDbBlockEnd
  0
BLOCK
  5
F2E
330
F2C
100
AcDbEntity
  8
0
100
AcDbBlockBegin
  2
_OBLIQUE
 70
     0
 10
0.0
 20
0.0
 30
0.0
  3
_OBLIQUE
  1

  0
LINE
  5
F2D
330
F2C
100
AcDbEntity
  8
0
  6
BYBLOCK
 62
     0
100
AcDbLine
 10
-0.5
 20
-0.5
 30
0.0
 11
0.5
 21
0.5
 31
0.0
  0
ENDBLK
  5
F2F
330
F2C
100
AcDbEntity
  8
0
100
AcDbBlockEnd
  0
BLOCK
  5
F61
330
F57
100
AcDbEntity
  8
0
 62
     1
100
AcDbBlockBegin
  2
*D4
 70
     1
 10
0.0
 20
0.0
 30
0.0
  3
*D4
  1

  0
LINE
  5
108A
330
F57
100
AcDbEntity
  8
COTATION-JACOBDELAFON
 62
     0
100
AcDbLine
 10
-0.4252700805663974
 20
-18.75253562937357
 30
0.0
 11
-12.11616349757045
 21
-18.75253562937357
 31
0.0
  0
LINE
  5
108B
330
F57
100
AcDbEntity
  8
COTATION-JACOBDELAFON
 62
     0
100
AcDbLine
 10
-0.4252586364746005
 20
18.74895000457763
 30
0.0
 11
-12.11616349757045
 21
18.74895000457764
 31
0.0
  0
LINE
  5
108C
330
F57
100
AcDbEntity
  8
COTATION-JACOBDELAFON
 62
     0
100
AcDbLine
 10
-10.31616349757045
 20
-18.75253562937357
 30
0.0
 11
-10.31616349757044
 21
18.74895000457764
 31
0.0
  0
MTEXT
  5
108D
330
F57
100
AcDbEntity
  8
COTATION-JACOBDELAFON
 62
     0
100
AcDbMText
 10
-13.81877945561919
 20
0.5133823940093692
 30
0.0
 40
3.0
 41
0.0
 71
     5
 72
     1
  1
\A1;37.5
  7
JACOB-DELAFON
 11
0.0000000000000001
 21
1.0
 31
0.0
1001
ACAD
1000
MTEXTBEGIN
1070
    73
1070
     1
1070
    44
1040
1.0
1070
    74
1070
     0
1000
MTEXTEND
  0
INSERT
  5
108E
330
F57
100
AcDbEntity
  8
COTATION-JACOBDELAFON
 62
     0
100
AcDbBlockReference
  2
_OBLIQUE
 10
-10.31616349757045
 20
-18.75253562937357
 30
0.0
 41
1.8
 42
1.8
 43
1.8
 50
270.0
  0
INSERT
  5
108F
330
F57
100
AcDbEntity
  8
COTATION-JACOBDELAFON
 62
     0
100
AcDbBlockReference
  2
_OBLIQUE
 10
-10.31616349757044
 20
18.74895000457764
 30
0.0
 41
1.8
 42
1.8
 43
1.8
 50
90.0
  0
POINT
  5
1090
330
F57
100
AcDbEntity
  8
DEFPOINTS
 62
     0
100
AcDbPoint
 10
0.1997299194336026
 20
-18.75253562937357
 30
0.0
  0
POINT
  5
1091
330
F57
100
AcDbEntity
  8
DEFPOINTS
 62
     0
100
AcDbPoint
 10
0.1997413635253995
 20
18.74895000457763
 30
0.0
  0
POINT
  5
1092
330
F57
100
AcDbEntity
  8
DEFPOINTS
 62
     0
100
AcDbPoint
 10
-10.31616349757044
 20
18.74895000457764
 30
0.0
  0
ENDBLK
  5
F62
330
F57
100
AcDbEntity
  8
0
 62
     1
100
AcDbBlockEnd
  0
BLOCK
  5
F6D
330
F63
100
AcDbEntity
  8
0
 62
     1
100
AcDbBlockBegin
  2
*D5
 70
     1
 10
0.0
 20
0.0
 30
0.0
  3
*D5
  1

  0
LINE
  5
106E
330
F63
100
AcDbEntity
  8
COTATION-JACOBDELAFON
 62
     0
100
AcDbLine
 10
60.0
 20
-0.5326762199401856
 30
0.0
 11
60.0
 21
30.5786239172645
 31
0.0
  0
LINE
  5
106F
330
F63
100
AcDbEntity
  8
COTATION-JACOBDELAFON
 62
     0
100
AcDbLine
 10
0.0000000000000089
 20
17.23060703277587
 30
0.0
 11
0.0000000000000097
 21
30.5786239172645
 31
0.0
  0
LINE
  5
1070
330
F63
100
AcDbEntity
  8
COTATION-JACOBDELAFON
 62
     0
100
AcDbLine
 10
60.0
 20
28.77862391726449
 30
0.0
 11
0.0000000000000096
 21
28.77862391726449
 31
0.0
  0
INSERT
  5
1071
330
F63
100
AcDbEntity
  8
COTATION-JACOBDELAFON
 62
     0
100
AcDbBlockReference
  2
_OBLIQUE
 10
60.0
 20
28.77862391726449
 30
0.0
 41
1.8
 42
1.8
 43
1.8
  0
INSERT
  5
1072
330
F63
100
AcDbEntity
  8
COTATION-JACOBDELAFON
 62
     0
100
AcDbBlockReference
  2
_OBLIQUE
 10
0.0000000000000096
 20
28.77862391726449
 30
0.0
 41
1.8
 42
1.8
 43
1.8
 50
180.0
  0
MTEXT
  5
1073
330
F63
100
AcDbEntity
  8
COTATION-JACOBDELAFON
 62
     0
100
AcDbMText
 10
30.0
 20
31.21034288042957
 30
0.0
 40
3.0
 41
0.0
 71
     5
 72
     1
  1
\A1;60
  7
JACOB-DELAFON
1001
ACAD
1000
MTEXTBEGIN
1070
    73
1070
     1
1070
    44
1040
1.0
1070
    74
1070
     0
1000
MTEXTEND
  0
POINT
  5
1074
330
F63
100
AcDbEntity
  8
DEFPOINTS
 62
     0
100
AcDbPoint
 10
60.0
 20
-1.157676219940185
 30
0.0
  0
POINT
  5
1075
330
F63
100
AcDbEntity
  8
DEFPOINTS
 62
     0
100
AcDbPoint
 10
0.0000000000000089
 20
16.60560703277587
 30
0.0
  0
POINT
  5
1076
330
F63
100
AcDbEntity
  8
DEFPOINTS
 62
     0
100
AcDbPoint
 10
0.0000000000000096
 20
28.77862391726449
 30
0.0
  0
ENDBLK
  5
F6E
330
F63
100
AcDbEntity
  8
0
 62
     1
100
AcDbBlockEnd
  0
ENDSEC
  0
SECTION
  2
ENTITIES
  0
INSERT
  5
32
330
1F
100
AcDbEntity
  8
ASHADE
 62
     1
100
AcDbBlockReference
  2
AVE_RENDER
 10
0.0
 20
0.0
 30
0.0
1001
AVE_RENDER
1002
{
1070
     7
1000
Pref
1070
    30
1070
    20
1070
     1
1070
     0
1000

1070
    10
1070
     1
1070
    10
1040
1.0
1070
     1
1040
0.7
1040
1.0
1040
0.0
1040
10.0
1010
-1.0
1020
-1.0
1030
-1.0
1040
0.3000000119209289
1070
    49
1070
     0
1070
     0
1010
1.0
1020
1.0
1030
1.0
1040
45.0
1070
     1
1070
     0
1000
WCS
1040
0.0
1070
     0
1040
10.0
1002
}
  0
INSERT
  5
33
330
1F
100
AcDbEntity
  8
ASHADE
 62
     3
100
AcDbBlockReference
  2
AVE_RENDER
 10
0.0
 20
0.0
 30
0.0
1001
AVE_RENDER
1002
{
1070
     0
1000
Full Opt
1070
     0
1070
     1
1070
     1
1070
     1
1070
     0
1070
     0
1070
     0
1070
     1
1070
     1
1040
0.0001
1040
0.0001
1002
}
  0
INSERT
  5
34
330
1F
100
AcDbEntity
  8
ASHADE
 62
     4
100
AcDbBlockReference
  2
AVE_RENDER
 10
0.0
 20
0.0
 30
0.0
1001
AVE_RENDER
1002
{
1070
     0
1000
Quick Opt
1070
     0
1070
     1
1070
     1
1070
     1
1070
     0
1070
     0
1070
     1
1002
}
  0
INSERT
  5
35
330
1F
100
AcDbEntity
  8
ASHADE
 62
     5
100
AcDbBlockReference
  2
AVE_RENDER
 10
0.0
 20
0.0
 30
0.0
1001
AVE_RENDER
1002
{
1070
     1
1000
Scanl Opt
1070
     2
1070
     0
1070
     2
1040
2.0
1040
4.0
1070
     0
1070
     1
1070
     0
1040
0.03
1002
}
  0
INSERT
  5
36
330
1F
100
AcDbEntity
  8
ASHADE
 62
     6
100
AcDbBlockReference
  2
AVE_RENDER
 10
0.0
 20
0.0
 30
0.0
1001
AVE_RENDER
1002
{
1070
     2
1000
Raytr Opt
1070
     2
1070
     0
1070
     2
1040
2.0
1040
4.0
1070
     0
1070
     1
1070
     1
1040
0.03
1070
     3
1040
0.03
1002
}
  0
INSERT
  5
37
330
1F
100
AcDbEntity
  8
ASHADE
 62
     7
100
AcDbBlockReference
  2
AVE_RENDER
 10
0.0
 20
0.0
 30
0.0
1001
AVE_RENDER
1002
{
1070
     0
1000
RFile Opt
1070
     1
1070
   640
1070
   480
1070
 10000
1070
     1
1070
     8
1070
     8
1070
     0
1070
     0
1070
     0
1070
     0
1070
     0
1070
     0
1070
     0
1002
}
  0
INSERT
  5
38
330
1F
100
AcDbEntity
  8
ASHADE
 62
     8
100
AcDbBlockReference
  2
AVE_RENDER
 10
0.0
 20
0.0
 30
0.0
1001
AVE_RENDER
1002
{
1070
     0
1000
Fog Opt
1070
     0
1070
     0
1040
0.0
1040
1.0
1040
0.0
1040
1.0
1010
0.5
1020
0.5
1030
0.5
1002
}
  0
INSERT
  5
39
330
1F
100
AcDbEntity
  8
ASHADE
 62
     9
100
AcDbBlockReference
  2
AVE_RENDER
 10
0.0
 20
0.0
 30
0.0
1001
AVE_RENDER
1002
{
1070
     0
1000
BG Opt
1070
     0
1070
     1
1010
0.0
1020
0.0
1030
0.0
1010
0.0
1020
0.0
1030
1.0
1010
0.0
1020
1.0
1030
0.0
1010
1.0
1020
0.0
1030
0.0
1040
0.5
1040
0.5
1040
0.0
1000

1070
     1
1000

1070
     1
1070
     1
1040
1.0
1040
1.0
1040
0.0
1040
0.0
1070
     0
1002
}
  0
INSERT
  5
40
330
1F
100
AcDbEntity
  8
ASHADE
 62
     1
100
AcDbBlockReference
  2
AVE_GLOBAL
 10
0.0
 20
0.0
 30
0.0
1001
AVE_MATERIAL
1002
{
1000
*GLOBAL*
1000
2
1000
Finition globale.
1002
{
1002
}
1002
{
1070
    63
1002
{
1002
{
1010
-1.0
1020
-1.0
1030
-1.0
1002
}
1040
0.6999999880790711
1000

1040
0.0
1002
{
1002
}
1040
0.0
1002
{
1002
}
1040
0.0
1002
}
1002
{
1002
{
1010
-1.0
1020
-1.0
1030
-1.0
1002
}
1040
1.0
1000

1040
0.0
1002
{
1002
}
1040
0.0
1002
{
1002
}
1040
0.0
1002
}
1002
{
1002
{
1010
-1.0
1020
-1.0
1030
-1.0
1002
}
1040
0.2000000029802322
1000

1040
0.0
1002
{
1002
}
1040
0.0
1002
{
1002
}
1040
0.0
1002
}
1002
{
1070
     0
1002
{
1070
     1
1002
{
1040
1.0
1040
1.0
1000

1040
0.0
1002
{
1002
}
1040
0.0
1002
{
1002
}
1040
0.0
1002
}
1002
}
1040
1.0
1040
0.0
1040
0.0
1002
}
1002
{
1040
1.0
1040
1.0
1000

1040
0.0
1002
{
1002
}
1040
0.0
1002
{
1002
}
1040
0.0
1002
}
1002
{
1040
0.5
1040
1.0
1000

1040
0.0
1002
{
1002
}
1040
0.0
1002
{
1002
}
1040
0.0
1002
}
1002
{
1070
     0
1040
0.0
1002
{
1002
}
1040
1.0
1002
{
1002
}
1040
0.0
1002
}
1002
{
1040
0.0
1002
{
1002
{
1010
0.0
1020
0.0
1030
0.0
1002
}
1040
1.0
1000

1040
0.0
1002
{
1002
}
1040
0.0
1002
{
1002
}
1040
0.0
1002
}
1002
}
1002
{
1002
{
1070
     1
1002
{
1040
0.0
1040
1.0
1000

1040
0.0
1002
{
1002
}
1040
0.0
1002
{
1002
}
1040
0.0
1002
}
1002
}
1040
0.0
1002
{
1002
}
1010
1.0
1020
0.0
1030
0.0
1010
0.0
1020
1.0
1030
0.0
1010
0.0
1020
0.0
1030
1.0
1070
     0
1002
}
1002
{
1002
{
1040
1.0
1040
1.0
1002
{
1070
     1
1002
{
1040
1.0
1040
1.0
1000

1040
0.0
1002
{
1002
}
1040
0.0
1002
{
1002
}
1040
0.0
1002
}
1002
}
1002
}
1070
     0
1040
0.0
1002
{
1002
}
1002
}
1002
{
1002
}
1002
}
1002
{
1071
        3
1070
     3
1070
     0
1002
{
1070
     2
1070
     0
1070
     0
1040
0.0
1002
}
1070
     0
1070
     2
1002
{
1002
}
1002
}
1002
{
1040
8030.0
1040
190.3000030517578
1040
0.3050000071525574
1040
228.0
1040
545.0
1040
14.0
1040
17.39999961853027
1040
0.4560000002384186
1002
}
1002
}
  0
LWPOLYLINE
  5
E4E
330
1F
100
AcDbEntity
  8
0
100
AcDbPolyline
 90
        8
 70
     0
 43
0.0
 10
8.929993386815546
 20
-0.0035800933837891
 10
8.935250039647577
 20
6.873530387878417
 10
9.290011163304804
 20
9.627444267272949
 10
10.29108976895666
 20
12.1002721786499
 10
11.84271978909826
 20
14.19847583770752
 10
13.85376333768224
 20
15.81541156768798
 10
16.22652983243322
 20
16.86102390289306
 10
18.86600660855626
 20
17.22927379608154
  0
LWPOLYLINE
  5
E52
330
1F
100
AcDbEntity
  8
0
100
AcDbPolyline
 90
       38
 70
     1
 43
0.0
 10
0.0000000000000089
 20
-18.55225138674357
 10
0.058481216430673
 20
-18.69377880106547
 10
0.1997299194336026
 20
-18.75253562937357
 10
57.74549346814802
 20
-18.75253562937357
 10
58.28550582776716
 20
-18.49988989840128
 10
58.52748351941755
 20
-17.95584754953959
 10
58.83177047620466
 20
-15.74859915981867
 10
59.13605743299177
 20
-13.54135077009776
 10
59.45356369018555
 20
-11.28344923257827
 10
59.6711597442627
 20
-9.066832065582275
 10
59.80186271667481
 20
-6.843398332595825
 10
59.93256568908692
 20
-4.619964599609375
 10
59.97752189636231
 20
-2.311772346496582
 10
60.0224781036377
 20
-0.0035800933837891
 10
59.97752189636231
 20
2.304612636566162
 10
59.93256568908692
 20
4.612805366516113
 10
59.80186271667481
 20
6.937389373779296
 10
59.6711597442627
 20
9.160822868347167
 10
59.45356369018555
 20
11.37743949890136
 10
59.23596763610841
 20
13.59405612945556
 10
58.9316806793213
 20
15.80130577087402
 10
58.62739372253418
 20
18.00855541229248
 10
58.3854160308838
 20
18.55259609222412
 10
57.84540367126465
 20
18.80524349212646
 10
53.45744705200196
 20
18.80524349212646
 10
50.89080333709717
 20
18.80524349212646
 10
48.32415962219239
 20
18.80524349212646
 10
43.19599533081055
 20
18.80524349212646
 10
21.48295664365148
 20
18.77709674835205
 10
0.1997413635253995
 20
18.74895000457763
 10
0.0584869384765714
 20
18.69019603729248
 10
0.0000000000000089
 20
18.54866695404052
 10
0.0000000000000089
 20
18.50311946868896
 10
-0.0000095367431552
 20
18.36796855926513
 10
0.0000000000000089
 20
18.25041103363037
 10
0.0000000000000089
 20
16.60560703277587
 10
-0.0000000000000053
 20
-18.50670223246195
 10
0.0000000000000089
 20
-18.55225138674357
  0
LWPOLYLINE
  5
E5F
330
1F
100
AcDbEntity
  8
0
100
AcDbPolyline
 90
        7
 70
     0
 43
0.0
 10
52.14246940612794
 20
16.79401707649231
 10
54.51472473144532
 20
15.75007301568985
 10
56.52458190917969
 20
14.13080847263336
 10
58.07739830017091
 20
12.03493309020996
 10
59.08213233947755
 20
9.044607162475585
 10
59.3421802520752
 20
4.518388748168945
 10
59.43102435343599
 20
-0.0362491607665732
  0
LWPOLYLINE
  5
E60
330
1F
100
AcDbEntity
  8
0
100
AcDbPolyline
 90
        6
 70
     0
 43
0.0
 10
52.14246940612794
 20
16.85935521125793
 10
49.5024814605713
 20
17.22927248477935
 10
27.05988633210514
 20
17.23056650161743
 10
18.86600660855626
 20
17.22927248477935
 10
16.22652983243322
 20
16.86102318763732
 10
13.85376333768224
 20
15.81541115045547
  0
LWPOLYLINE
  5
E72
330
1F
100
AcDbEntity
  8
0
100
AcDbPolyline
 90
        8
 70
     0
 43
0.0
 10
58.06031296857614
 20
-0.0035800933837891
 10
58.0896609386968
 20
6.781022071838378
 10
57.83174162717337
 20
9.311209678649902
 10
56.89246588559622
 20
11.5481309890747
 10
55.2621577343511
 20
13.57920551300048
 10
53.03710776181691
 20
15.30480003356933
 10
51.43428641171926
 20
16.44672870635986
 10
50.72793825537349
 20
16.72182966105066
  0
LWPOLYLINE
  5
E74
330
1F
100
AcDbEntity
  8
0
100
AcDbPolyline
 90
        8
 70
     0
 43
0.0
 10
56.70655792367984
 20
-0.0035800933837891
 10
56.75123053403371
 20
6.599188804626464
 10
56.5510981640386
 20
8.969609260559082
 10
55.66374998898977
 20
11.04486751556396
 10
54.0187380871343
 20
13.00588512420654
 10
52.18888884397024
 20
14.77635669708251
 10
50.50474196286672
 20
16.03829669952392
 10
50.30402673807556
 20
16.10822852181525
  0
LWPOLYLINE
  5
E76
330
1F
100
AcDbEntity
  8
0
100
AcDbPolyline
 90
        8
 70
     0
 43
0.0
 10
53.64667725127777
 20
-0.0035800933837891
 10
53.69134986163167
 20
6.599188804626464
 10
53.49121749163655
 20
8.969609260559082
 10
52.6038693165877
 20
11.04486751556396
 10
50.95885741473225
 20
13.00588512420654
 10
49.1290081715682
 20
14.77635669708251
 10
47.44486129046467
 20
16.03829669952392
 10
47.2204882720734
 20
16.10363489389419
  0
LINE
  5
E7C
330
1F
100
AcDbEntity
  8
0
100
AcDbLine
 10
50.72793825537349
 20
16.72182966105066
 30
0.0
 11
16.67541235496545
 21
16.72182966105066
 31
0.0
  0
LINE
  5
E7D
330
1F
100
AcDbEntity
  8
0
100
AcDbLine
 10
47.2204882720734
 20
16.10363489389419
 30
0.0
 11
16.72136477758849
 21
16.10363489389419
 31
0.0
  0
LWPOLYLINE
  5
E89
330
1F
100
AcDbEntity
  8
0
100
AcDbPolyline
 90
        7
 70
     0
 43
0.0
 10
9.694743867467401
 20
-0.0035800933837891
 10
9.700000520299433
 20
6.873530387878417
 10
10.05476164395666
 20
9.627444267272949
 10
11.05584024960851
 20
12.1002721786499
 10
12.60747026975011
 20
14.19847583770752
 10
14.6185138183341
 20
15.81541156768798
 10
16.67541235496545
 20
16.72182966105066
  0
LWPOLYLINE
  5
E8A
330
1F
100
AcDbEntity
  8
0
100
AcDbPolyline
 90
        7
 70
     0
 43
0.0
 10
10.43682646329259
 20
-0.0035800933837891
 10
10.44208311612462
 20
6.873530387878417
 10
10.79684423978185
 20
9.627444267272949
 10
11.79792284543371
 20
12.1002721786499
 10
13.34955286557531
 20
14.19847583770752
 10
15.36059641415929
 20
15.81541156768798
 10
16.74337324649037
 20
16.45610088065001
  0
LWPOLYLINE
  5
E8B
330
1F
100
AcDbEntity
  8
0
100
AcDbPolyline
 90
        7
 70
     0
 43
0.0
 10
11.14354109341955
 20
-0.0035800933837891
 10
11.14879774625158
 20
6.873530387878417
 10
11.5035588699088
 20
9.627444267272949
 10
12.50463747556066
 20
12.1002721786499
 10
14.05626749570226
 20
14.19847583770752
 10
16.06731104428624
 20
15.81541156768798
 10
16.72136477758849
 20
16.10363489389419
  0
LWPOLYLINE
  5
E8E
330
1F
100
AcDbEntity
  8
0
100
AcDbPolyline
 90
        3
 70
     0
 43
0.0
 10
50.30402673807556
 20
16.10822852181525
 10
47.24249674097527
 20
16.45610088065001
 10
16.74337324649037
 20
16.45610088065001
  0
LWPOLYLINE
  5
E92
330
1F
100
AcDbEntity
  8
0
100
AcDbPolyline
 90
        7
 70
     0
 43
0.0
 10
11.14350253837523
 20
0.0094845678545994
 10
11.18875174190746
 20
-6.766326353179124
 10
11.5597606626986
 20
-9.518098416899832
 10
12.47550659714635
 20
-12.0262591248603
 10
14.03949347626549
 20
-14.11526830536445
 10
16.06004537274753
 20
-15.72030641793734
 10
16.71578884738044
 20
-16.00466440937128
  0
LWPOLYLINE
  5
E93
330
1F
100
AcDbEntity
  8
0
100
AcDbPolyline
 90
        8
 70
     0
 43
0.0
 10
8.929993386815532
 20
-0.0035800933837891
 10
8.975242590347768
 20
-6.779391014417498
 10
9.346251511138895
 20
-9.531163078138206
 10
10.26199744558665
 20
-12.03932378609867
 10
11.82598432470579
 20
-14.12833296660282
 10
13.84653622118782
 20
-15.73337107917572
 10
16.22543273463609
 20
-16.76496080985821
 10
18.86703699820723
 20
-17.1176257361112
  0
LWPOLYLINE
  5
E94
330
1F
100
AcDbEntity
  8
0
100
AcDbPolyline
 90
        7
 70
     0
 43
0.0
 10
9.694730547226505
 20
0.0009335685227541
 10
9.739979750758728
 20
-6.774877352510955
 10
10.11098867154986
 20
-9.526649416231677
 10
11.02673460599762
 20
-12.03481012419214
 10
12.59072148511676
 20
-14.12381930469629
 10
14.61127338159879
 20
-15.72885741726919
 10
16.67348589519158
 20
-16.62311962644094
  0
LWPOLYLINE
  5
E95
330
1F
100
AcDbEntity
  8
0
100
AcDbPolyline
 90
        7
 70
     0
 43
0.0
 10
10.43680021763462
 20
0.0053134414735041
 10
10.48204942116684
 20
-6.770497479560205
 10
10.85305834195796
 20
-9.522269543280927
 10
11.76880427640573
 20
-12.03043025124139
 10
13.33279115552488
 20
-14.11943943174554
 10
15.35334305200691
 20
-15.72447754431844
 10
16.73987723539307
 20
-16.35699435996606
  0
LINE
  5
E96
330
1F
100
AcDbEntity
  8
0
100
AcDbLine
 10
50.72541824601963
 20
-16.42199097175406
 30
0.0
 11
16.67348589519158
 21
-16.62311962644094
 31
0.0
  0
LWPOLYLINE
  5
E97
330
1F
100
AcDbEntity
  8
0
100
AcDbPolyline
 90
        3
 70
     0
 43
0.0
 10
50.29789255448528
 20
-15.81090250381599
 10
47.23846907261082
 20
-16.17683837216074
 10
16.73987723539307
 20
-16.35699435996606
  0
LINE
  5
E98
330
1F
100
AcDbEntity
  8
0
100
AcDbLine
 10
47.2143806845982
 20
-15.82450842156596
 30
0.0
 11
16.71578884738044
 21
-16.00466440937128
 31
0.0
  0
LWPOLYLINE
  5
E99
330
1F
100
AcDbEntity
  8
0
100
AcDbPolyline
 90
        8
 70
     0
 43
0.0
 10
53.64589795594606
 20
0.2604898797925159
 10
53.72894322892541
 20
-6.240751598034378
 10
53.54280489044326
 20
-8.612311975163905
 10
52.66772062899836
 20
-10.69277133407959
 10
50.93440137051993
 20
-12.704748241889
 10
49.11503356454434
 20
-14.48598899755611
 10
47.43836415995658
 20
-15.75784708500607
 10
47.2143806845982
 20
-15.82450842156596
  0
LWPOLYLINE
  5
E9A
330
1F
100
AcDbEntity
  8
0
100
AcDbPolyline
 90
        8
 70
     0
 43
0.0
 10
58.05945679759362
 20
0.2865397613035725
 10
58.12825090206708
 20
-6.396622264728989
 10
57.88526959614629
 20
-8.928288076381932
 10
56.95921283009344
 20
-11.17071415850719
 10
55.24101055161232
 20
-13.25265997781859
 10
53.02618402927927
 20
-14.99135699157966
 10
51.43013041591114
 20
-16.14272584530314
 10
50.72541824601963
 20
-16.42199097175406
  0
LWPOLYLINE
  5
E9B
330
1F
100
AcDbEntity
  8
0
100
AcDbPolyline
 90
        8
 70
     0
 43
0.0
 10
56.70572533207875
 20
0.2785497139201141
 10
56.78877060505807
 20
-6.22269176390678
 10
56.60263226657594
 20
-8.594252141036307
 10
55.72754800513105
 20
-10.67471149995199
 10
53.99422874665262
 20
-12.6866884077614
 10
52.174860940677
 20
-14.46792916342851
 10
50.49819153608927
 20
-15.73978725087847
 10
50.29789255448528
 20
-15.81090250381599
  0
LWPOLYLINE
  5
E9C
330
1F
100
AcDbEntity
  8
0
100
AcDbPolyline
 90
        7
 70
     0
 43
0.0
 10
52.14035081880558
 20
-16.485828373582
 10
54.50640332415465
 20
-15.42790112064215
 10
56.50666837393103
 20
-13.79680232966309
 10
58.14699777836365
 20
-11.65051414750493
 10
59.13406500493932
 20
-8.654310226867693
 10
59.36799103225861
 20
-4.227784561691905
 10
59.42995149042776
 20
0.3272983856848555
  0
LINE
  5
E9D
330
1F
100
AcDbEntity
  8
0
100
AcDbLine
 10
50.62802805225686
 20
-16.66912370564641
 30
0.0
 11
16.5755021518488
 21
-16.66912370564641
 31
0.0
  0
LWPOLYLINE
  5
E9E
330
1F
100
AcDbEntity
  8
0
100
AcDbPolyline
 90
        6
 70
     0
 43
0.0
 10
52.0425592030113
 20
-16.80664925585368
 10
49.40257125745466
 20
-17.1765665293751
 10
26.9599761289885
 20
-17.17786054621317
 10
18.76609640543963
 20
-17.1765665293751
 10
16.12661962931658
 20
-16.80831723223307
 10
13.75385313456561
 20
-15.76270519505122
  0
DIMENSION
  5
F55
330
1F
100
AcDbEntity
  8
COTATION-JACOBDELAFON
100
AcDbDimension
  2
*D4
 10
-10.31616349757044
 20
18.74895000457764
 30
0.0
 11
-13.81877945561919
 21
0.5133823940093692
 31
0.0
 70
   160
  3
COTATION-JACOB-DELAFON
100
AcDbAlignedDimension
 13
0.1997299194336026
 23
-18.75253562937357
 33
0.0
 14
0.1997413635253995
 24
18.74895000457763
 34
0.0
 50
270.0
100
AcDbRotatedDimension
  0
DIMENSION
  5
F56
330
1F
100
AcDbEntity
  8
COTATION-JACOBDELAFON
100
AcDbDimension
  2
*D5
 10
0.0000000000000096
 20
28.77862391726449
 30
0.0
 11
30.0
 21
31.21034288042957
 31
0.0
 70
    32
  3
COTATION-JACOB-DELAFON
100
AcDbAlignedDimension
 13
60.0
 23
-1.157676219940185
 33
0.0
 14
0.0000000000000089
 24
16.60560703277587
 34
0.0
 50
180.0
100
AcDbRotatedDimension
  0
CIRCLE
  5
FE8
330
1F
100
AcDbEntity
  8
0
100
AcDbCircle
 10
27.04452728803014
 20
0.0
 30
0.0
 40
1.84388256072998
  0
CIRCLE
  5
FE9
330
1F
100
AcDbEntity
  8
0
100
AcDbCircle
 10
27.04452579791402
 20
0.0130233764648438
 30
0.0
 40
2.505251884460892
  0
ENDSEC
  0
SECTION
  2
OBJECTS
  0
DICTIONARY
  5
C
330
0
100
AcDbDictionary
  3
ACAD_GROUP
350
D
  3
ACAD_LAYOUT
350
1A
  3
ACAD_MLINESTYLE
350
17
  3
ACAD_PLOTSETTINGS
350
19
  3
ACAD_PLOTSTYLENAME
350
E
  3
ACDBHEADERROUNDTRIPXREC
350
113D
  3
ACDBVARIABLEDICTIONARY
350
E38
  3
AEC_PROPERTY_SET_DEFS
350
F52
  3
DWGPROPS
350
E67
  0
DICTIONARY
  5
10A6
330
1F
100
AcDbDictionary
280
     1
  3
ACAD_LAYOUTSELFREF
360
115F
  0
DICTIONARY
  5
10A8
330
1B
100
AcDbDictionary
280
     1
  3
ACAD_LAYOUTSELFREF
360
115E
  0
DICTIONARY
  5
D
102
{ACAD_REACTORS
330
C
102
}
330
C
100
AcDbDictionary
  0
DICTIONARY
  5
1A
102
{ACAD_REACTORS
330
C
102
}
330
C
100
AcDbDictionary
  0
DICTIONARY
  5
17
102
{ACAD_REACTORS
330
C
102
}
330
C
100
AcDbDictionary
  3
STANDARD
350
18
  0
DICTIONARY
  5
19
102
{ACAD_REACTORS
330
C
102
}
330
C
100
AcDbDictionary
  0
ACDBDICTIONARYWDFLT
  5
E
102
{ACAD_REACTORS
330
C
102
}
330
C
100
AcDbDictionary
281
     1
  3
Normal
350
F
100
AcDbDictionaryWithDefault
340
F
  0
DICTIONARY
  5
113D
102
{ACAD_REACTORS
330
C
102
}
330
C
100
AcDbDictionary
  3
CEPSNTYPE
350
1147
  3
DIMSTYLEDATA
350
114B
  3
FINGERPRINTGUID
350
1148
  3
HYPERLINKBASE
350
1140
  3
INSUNITS
350
1146
  3
LAYOUTDICT
350
1142
  3
LWETCUNION
350
1145
  3
PLOTSETDICT
350
1143
  3
PLOTSTYLNAMDICT
350
1144
  3
PSVPSCALE
350
114A
  3
PUCSBASE
350
114E
  3
PUCSORGBACK
350
1154
  3
PUCSORGBOTTOM
350
1150
  3
PUCSORGFRONT
350
1153
  3
PUCSORGLEFT
350
1151
  3
PUCSORGRIGHT
350
1152
  3
PUCSORGTOP
350
114F
  3
PUCSORTHOREF
350
114C
  3
PUCSORTHOVIEW
350
114D
  3
STYLESHEET
350
1141
  3
TSTACKALIGN
350
113E
  3
TSTACKSIZE
350
113F
  3
UCSBASE
350
1157
  3
UCSORGBACK
350
115D
  3
UCSORGBOTTOM
350
1159
  3
UCSORGFRONT
350
115C
  3
UCSORGLEFT
350
115A
  3
UCSORGRIGHT
350
115B
  3
UCSORGTOP
350
1158
  3
UCSORTHOREF
350
1155
  3
UCSORTHOVIEW
350
1156
  3
VERSIONGUID
350
1149
  0
DICTIONARY
  5
E38
102
{ACAD_REACTORS
330
C
102
}
330
C
100
AcDbDictionary
  3
DIMASSOC
350
E3A
  3
HIDETEXT
350
E39
  0
DICTIONARY
  5
F52
102
{ACAD_REACTORS
330
C
102
}
330
C
100
AcDbDictionary
  0
XRECORD
  5
E67
102
{ACAD_REACTORS
330
C
102
}
330
C
100
AcDbXrecord
  1
DWGPROPS COOKIE
  2

  3

  4

  6

  7

  8
Mahafaly
  9

300
=
301
=
302
=
303
=
304
=
305
=
306
=
307
=
308
=
309
=
 40
0.0171449189814815
 41
2452716.480658703
 42
2452716.753568784
  1

 90
        0
  0
XRECORD
  5
115F
102
{ACAD_REACTORS
330
10A6
102
}
330
10A6
100
AcDbXrecord
340
1F
  0
XRECORD
  5
115E
102
{ACAD_REACTORS
330
10A8
102
}
330
10A8
100
AcDbXrecord
340
1B
  0
MLINESTYLE
  5
18
102
{ACAD_REACTORS
330
17
102
}
330
17
100
AcDbMlineStyle
  2
STANDARD
 70
     0
  3

 62
   256
 51
90.0
 52
90.0
 71
     2
 49
0.5
 62
   256
  6
BYLAYER
 49
-0.5
 62
   256
  6
BYLAYER
  0
ACDBPLACEHOLDER
  5
F
102
{ACAD_REACTORS
330
E
102
}
330
E
100
AcDbPlaceHolder
280
     0
  0
XRECORD
  5
1147
102
{ACAD_REACTORS
330
113D
102
}
330
113D
100
AcDbXrecord
 90
        0
  0
XRECORD
  5
114B
102
{ACAD_REACTORS
330
113D
102
}
330
113D
100
AcDbXrecord
1000
DSTYLE
1002
{
1070
   278
 70
    44
1002
}
  0
XRECORD
  5
1148
102
{ACAD_REACTORS
330
113D
102
}
330
113D
100
AcDbXrecord
  1
{4BAB9801-A2EA-4FDE-A636-9A919582AA87}
  0
XRECORD
  5
1140
102
{ACAD_REACTORS
330
113D
102
}
330
113D
100
AcDbXrecord
  1

  0
XRECORD
  5
1146
102
{ACAD_REACTORS
330
113D
102
}
330
113D
100
AcDbXrecord
 90
        4
  0
XRECORD
  5
1142
102
{ACAD_REACTORS
330
113D
102
}
330
113D
100
AcDbXrecord
340
1A
  0
XRECORD
  5
1145
102
{ACAD_REACTORS
330
113D
102
}
330
113D
100
AcDbXrecord
 90
    10781
  0
XRECORD
  5
1143
102
{ACAD_REACTORS
330
113D
102
}
330
113D
100
AcDbXrecord
340
19
  0
XRECORD
  5
1144
102
{ACAD_REACTORS
330
113D
102
}
330
113D
100
AcDbXrecord
340
E
  0
XRECORD
  5
114A
102
{ACAD_REACTORS
330
113D
102
}
330
113D
100
AcDbXrecord
 40
0.0
  0
XRECORD
  5
114E
102
{ACAD_REACTORS
330
113D
102
}
330
113D
100
AcDbXrecord
340
0
  0
XRECORD
  5
1154
102
{ACAD_REACTORS
330
113D
102
}
330
113D
100
AcDbXrecord
 10
0.0
 20
0.0
 30
0.0
  0
XRECORD
  5
1150
102
{ACAD_REACTORS
330
113D
102
}
330
113D
100
AcDbXrecord
 10
0.0
 20
0.0
 30
0.0
  0
XRECORD
  5
1153
102
{ACAD_REACTORS
330
113D
102
}
330
113D
100
AcDbXrecord
 10
0.0
 20
0.0
 30
0.0
  0
XRECORD
  5
1151
102
{ACAD_REACTORS
330
113D
102
}
330
113D
100
AcDbXrecord
 10
0.0
 20
0.0
 30
0.0
  0
XRECORD
  5
1152
102
{ACAD_REACTORS
330
113D
102
}
330
113D
100
AcDbXrecord
 10
0.0
 20
0.0
 30
0.0
  0
XRECORD
  5
114F
102
{ACAD_REACTORS
330
113D
102
}
330
113D
100
AcDbXrecord
 10
0.0
 20
0.0
 30
0.0
  0
XRECORD
  5
114C
102
{ACAD_REACTORS
330
113D
102
}
330
113D
100
AcDbXrecord
340
0
  0
XRECORD
  5
114D
102
{ACAD_REACTORS
330
113D
102
}
330
113D
100
AcDbXrecord
 70
     0
  0
XRECORD
  5
1141
102
{ACAD_REACTORS
330
113D
102
}
330
113D
100
AcDbXrecord
  1

  0
XRECORD
  5
113E
102
{ACAD_REACTORS
330
113D
102
}
330
113D
100
AcDbXrecord
 90
        1
  0
XRECORD
  5
113F
102
{ACAD_REACTORS
330
113D
102
}
330
113D
100
AcDbXrecord
 90
       70
  0
XRECORD
  5
1157
102
{ACAD_REACTORS
330
113D
102
}
330
113D
100
AcDbXrecord
340
0
  0
XRECORD
  5
115D
102
{ACAD_REACTORS
330
113D
102
}
330
113D
100
AcDbXrecord
 10
0.0
 20
0.0
 30
0.0
  0
XRECORD
  5
1159
102
{ACAD_REACTORS
330
113D
102
}
330
113D
100
AcDbXrecord
 10
0.0
 20
0.0
 30
0.0
  0
XRECORD
  5
115C
102
{ACAD_REACTORS
330
113D
102
}
330
113D
100
AcDbXrecord
 10
0.0
 20
0.0
 30
0.0
  0
XRECORD
  5
115A
102
{ACAD_REACTORS
330
113D
102
}
330
113D
100
AcDbXrecord
 10
0.0
 20
0.0
 30
0.0
  0
XRECORD
  5
115B
102
{ACAD_REACTORS
330
113D
102
}
330
113D
100
AcDbXrecord
 10
0.0
 20
0.0
 30
0.0
  0
XRECORD
  5
1158
102
{ACAD_REACTORS
330
113D
102
}
330
113D
100
AcDbXrecord
 10
0.0
 20
0.0
 30
0.0
  0
XRECORD
  5
1155
102
{ACAD_REACTORS
330
113D
102
}
330
113D
100
AcDbXrecord
340
0
  0
XRECORD
  5
1156
102
{ACAD_REACTORS
330
113D
102
}
330
113D
100
AcDbXrecord
 70
     1
  0
XRECORD
  5
1149
102
{ACAD_REACTORS
330
113D
102
}
330
113D
100
AcDbXrecord
  1
{4338A06D-C9FB-4EE9-8E1B-44800235D259}
  0
DICTIONARYVAR
  5
E3A
102
{ACAD_REACTORS
330
E38
102
}
330
E38
100
DictionaryVariables
280
     0
  1
2
  0
DICTIONARYVAR
  5
E39
102
{ACAD_REACTORS
330
E38
102
}
330
E38
100
DictionaryVariables
280
     0
  1
1
  0
ENDSEC
  0
EOF
